osu file format v14

[General]
AudioFilename: audio.ogg
AudioLeadIn: 0
PreviewTime: 83979
Countdown: 0
SampleSet: Soft
StackLeniency: 0.3
Mode: 0
LetterboxInBreaks: 0
EpilepsyWarning: 1
WidescreenStoryboard: 1

[Editor]
DistanceSpacing: 1.1
BeatDivisor: 4
GridSize: 16
TimelineZoom: 1.3

[Metadata]
Title:MURDER PLOT
TitleUnicode:MURDER PLOT
Artist:KORDHELL
ArtistUnicode:KORDHELL
Creator:Sayuka
Version:STOMPY'S EASY
Source:
Tags:tiktok electronic instrumental hip hop hip-hop phonk english julie daycore ryxliee dabbe_01 stompy_ amats kord hell
BeatmapID:4206169
BeatmapSetID:1972480

[Difficulty]
HPDrainRate:2
CircleSize:3
OverallDifficulty:2
ApproachRate:3
SliderMultiplier:0.8
SliderTickRate:1

[Events]
//Background and Video events
0,0,"kordhell.jpg",0,0
//Break Periods
//Storyboard Layer 0 (Background)
//Storyboard Layer 1 (Fail)
//Storyboard Layer 2 (Pass)
//Storyboard Layer 3 (Foreground)
Sprite,Foreground,Centre,"sb/highlight.png",0,0 S,2,3407,4075,0.5,0.1 F,2,3407,4075,1,0 P,0,3407,4075,A C,0,3407,,167,167,167 M,0,3407,3460,94,139,94.99504,148.9504 M,0,3460,3514,94.99504,148.9504,95.99007,158.9007 M,0,3514,3567,95.99007,158.9007,96.98511,168.8511 M,0,3567,3621,96.98511,168.8511,97.98015,178.8015 M,0,3621,3674,97.98015,178.8015,98.97519,188.7519 M,0,3674,3728,98.97519,188.7519,99.97022,198.7022 M,0,3728,3781,99.97022,198.7022,100.9653,208.6526 M,0,3781,3835,100.9653,208.6526,101.9603,218.603
Sprite,Foreground,Centre,"sb/highlight.png",0,0 S,2,4264,4932,0.5,0.1 F,2,4264,4932,1,0 P,0,4264,4932,A C,0,4264,,167,167,167 M,0,4264,4317,183,251,181.6489,260.9083 M,0,4317,4371,181.6489,260.9083,180.2977,270.8166 M,0,4371,4424,180.2977,270.8166,178.9466,280.7249 M,0,4424,4478,178.9466,280.7249,177.5955,290.6332 M,0,4478,4531,177.5955,290.6332,176.2443,300.5415 M,0,4531,4585,176.2443,300.5415,174.8932,310.4498 M,0,4585,4638,174.8932,310.4498,173.5421,320.3581 M,0,4638,4692,173.5421,320.3581,172.1909,330.2664
Sprite,Foreground,Centre,"sb/highlight.png",0,0 S,2,5121,6218,0.5,0.1 F,2,5121,6218,1,0 P,0,5121,6218,A C,0,5121,,167,167,167 M,0,5121,5174,224,401,233.9626,401.8455 M,0,5174,5228,233.9626,401.8455,243.9582,402.0071 M,0,5228,5281,243.9582,402.0071,253.9216,401.2234 M,0,5281,5335,253.9216,401.2234,263.688,399.1255 M,0,5335,5388,263.688,399.1255,272.932,395.355 M,0,5388,5442,272.932,395.355,281.2824,389.8794 M,0,5442,5495,281.2824,389.8794,288.7814,383.27 M,0,5495,5549,288.7814,383.27,296.0526,376.4054 M,0,5549,5603,296.0526,376.4054,303.8329,370.134 M,0,5603,5656,303.8329,370.134,312.468,365.1146 M,0,5656,5710,312.468,365.1146,321.8156,361.593 M,0,5710,5763,321.8156,361.593,331.5692,359.4205 M,0,5763,5817,331.5692,359.4205,341.5038,358.3167 M,0,5817,5870,341.5038,358.3167,351.497,358.0232 M,0,5870,5924,351.497,358.0232,361.4903,358.3461 M,0,5924,5978,361.4903,358.3461,371.4578,359.1406
Sprite,Foreground,Centre,"sb/highlight.png",0,0 S,2,6835,7503,0.5,0.1 F,2,6835,7503,1,0 P,0,6835,7503,A C,0,6835,,167,167,167 M,0,6835,6888,549,357,550.0578,347.0561 M,0,6888,6942,550.0578,347.0561,551.0833,337.1089 M,0,6942,6995,551.0833,337.1089,552.0762,327.1583 M,0,6995,7049,552.0762,327.1583,553.037,317.2046 M,0,7049,7102,553.037,317.2046,553.9655,307.2479 M,0,7102,7156,553.9655,307.2479,554.873,297.2891 M,0,7156,7209,554.873,297.2891,555.7327,287.3262 M,0,7209,7263,555.7327,287.3262,556.5643,277.3608
Sprite,Foreground,Centre,"sb/highlight.png",0,0 S,2,7693,8361,0.5,0.1 F,2,7693,8361,1,0 P,0,7693,8361,A C,0,7693,,167,167,167 M,0,7693,7746,496,212,497.0578,202.0561 M,0,7746,7800,497.0578,202.0561,498.0832,192.1088 M,0,7800,7853,498.0832,192.1088,499.0762,182.1583 M,0,7853,7907,499.0762,182.1583,500.037,172.2046 M,0,7907,7960,500.037,172.2046,500.9655,162.2478 M,0,7960,8014,500.9655,162.2478,501.873,152.2891 M,0,8014,8067,501.873,152.2891,502.7326,142.3261 M,0,8067,8121,502.7326,142.3261,503.5643,132.3608
Sprite,Foreground,Centre,"sb/highlight.png",0,0 S,2,8550,9647,0.5,0.1 F,2,8550,9647,1,0 P,0,8550,9647,A C,0,8550,,167,167,167 M,0,8550,8603,426,89,418.051,83.00953 M,0,8603,8657,418.051,83.00953,409.2353,78.43851 M,0,8657,8710,409.2353,78.43851,399.7964,75.4069 M,0,8710,8764,399.7964,75.4069,389.9938,73.99409 M,0,8764,8817,389.9938,73.99409,380.0641,73.79702 M,0,8817,8871,380.0641,73.79702,370.3583,75.94372 M,0,8871,8925,370.3583,75.94372,361.1645,79.67133 M,0,8925,8978,361.1645,79.67133,352.7325,84.87363 M,0,8978,9032,352.7325,84.87363,344.8886,91.01494 M,0,9032,9085,344.8886,91.01494,338.8099,98.89462 M,0,9085,9139,338.8099,98.89462,334.1405,107.6572 M,0,9139,9192,334.1405,107.6572,331.0031,117.0606 M,0,9192,9246,331.0031,117.0606,329.4801,126.8463 M,0,9246,9300,329.4801,126.8463,329.1872,136.77 M,0,9300,9353,329.1872,136.77,331.2241,146.498 M,0,9353,9407,331.2241,146.498,334.5544,155.8949
Sprite,Foreground,Centre,"sb/highlight.png",0,0 S,2,10264,11361,0.5,0.1 F,2,10264,11361,1,0 P,0,10264,11361,A C,0,10264,,111,111,111 M,0,10264,10317,219,288,209.1602,289.781 M,0,10317,10371,209.1602,289.781,199.377,291.8497 M,0,10371,10424,199.377,291.8497,189.6657,294.2333 M,0,10424,10478,189.6657,294.2333,180.0453,296.9604 M,0,10478,10531,180.0453,296.9604,170.5391,300.0615 M,0,10531,10585,170.5391,300.0615,161.1757,303.5699 M,0,10585,10639,161.1757,303.5699,151.9911,307.5223 M,0,10639,10692,151.9911,307.5223,143.0284,311.9547 M,0,10692,10746,143.0284,311.9547,134.339,316.9006 M,0,10746,10799,134.339,316.9006,125.7728,315.9511 M,0,10799,10853,125.7728,315.9511,118.1635,309.4946 M,0,10853,10906,118.1635,309.4946,112.0975,301.5662 M,0,10906,10960,112.0975,301.5662,107.6036,292.6462 M,0,10960,11014,107.6036,292.6462,104.4863,283.1522 M,0,11014,11067,104.4863,283.1522,102.4929,273.3573 M,0,11067,11121,102.4929,273.3573,101.3942,263.4206
Sprite,Foreground,Centre,"sb/highlight.png",86,177 S,2,11550,11790,0.5,0.1 F,2,11550,11790,1,0 P,0,11550,11790,A C,0,11550,,111,111,111
Sprite,Foreground,Centre,"sb/highlight.png",0,0 S,2,11978,12646,0.5,0.1 F,2,11978,12646,1,0 P,0,11978,12646,A C,0,11978,,111,111,111 M,0,11978,12031,136,105,145.9052,106.3731 M,0,12031,12085,145.9052,106.3731,155.8175,107.6946 M,0,12085,12138,155.8175,107.6946,165.7364,108.9645 M,0,12138,12192,165.7364,108.9645,175.6618,110.1828 M,0,12192,12245,175.6618,110.1828,185.5935,111.3493 M,0,12245,12299,185.5935,111.3493,195.5293,112.4796 M,0,12299,12353,195.5293,112.4796,205.4733,113.5359 M,0,12353,12406,205.4733,113.5359,215.4219,114.549
Sprite,Foreground,Centre,"sb/highlight.png",297,81 S,2,12835,13075,0.5,0.1 F,2,12835,13075,1,0 P,0,12835,13075,A C,0,12835,,111,111,111
Sprite,Foreground,Centre,"sb/highlight.png",367,134 S,2,13264,13504,0.5,0.1 F,2,13264,13504,1,0 P,0,13264,13504,A C,0,13264,,111,111,111
Sprite,Foreground,Centre,"sb/highlight.png",0,0 S,2,13693,14361,0.5,0.1 F,2,13693,14361,1,0 P,0,13693,14361,A C,0,13693,,111,111,111 M,0,13693,13746,315,205,308.4941,212.5356 M,0,13746,13800,308.4941,212.5356,303.3396,221.0264 M,0,13800,13853,303.3396,221.0264,299.6715,230.239 M,0,13853,13907,299.6715,230.239,297.5858,239.9214 M,0,13907,13960,297.5858,239.9214,296.5438,249.8327 M,0,13960,14014,296.5438,249.8327,297.9819,259.6837 M,0,14014,14068,297.9819,259.6837,301.0266,269.1384 M,0,14068,14121,301.0266,269.1384,305.2973,278.1461
Sprite,Foreground,Centre,"sb/highlight.png",0,0 S,2,14550,15218,0.5,0.1 F,2,14550,15218,1,0 P,0,14550,15218,A C,0,14550,,111,111,111 M,0,14550,14603,385,315,391.5059,322.5356 M,0,14603,14657,391.5059,322.5356,396.6604,331.0264 M,0,14657,14710,396.6604,331.0264,400.3285,340.239 M,0,14710,14764,400.3285,340.239,402.4142,349.9214 M,0,14764,14817,402.4142,349.9214,403.4562,359.8327 M,0,14817,14871,403.4562,359.8327,402.0182,369.6837 M,0,14871,14925,402.0182,369.6837,398.9734,379.1384 M,0,14925,14978,398.9734,379.1384,394.7027,388.1461
Sprite,Foreground,Centre,"sb/highlight.png",316,428 S,2,15407,15647,0.5,0.1 F,2,15407,15647,1,0 P,0,15407,15647,A C,0,15407,,111,111,111
Sprite,Foreground,Centre,"sb/highlight.png",0,0 S,2,17121,18218,0.5,0.1 F,2,17121,18218,1,0 P,0,17121,18218,A C,0,17121,,225,91,236 M,0,17121,17174,316,428,306.0402,427.1249 M,0,17174,17228,306.0402,427.1249,296.1723,425.5223 M,0,17228,17281,296.1723,425.5223,286.4905,423.0374 M,0,17281,17335,286.4905,423.0374,277.1479,419.4897 M,0,17335,17388,277.1479,419.4897,268.3786,414.7033 M,0,17388,17442,268.3786,414.7033,260.4973,408.5689 M,0,17442,17495,260.4973,408.5689,253.8391,401.127 M,0,17495,17549,253.8391,401.127,248.6404,392.6003 M,0,17549,17603,248.6404,392.6003,241.6685,386.1579 M,0,17603,17656,241.6685,386.1579,232.4668,382.257 M,0,17656,17710,232.4668,382.257,222.8694,379.4708 M,0,17710,17763,222.8694,379.4708,213.002,377.8884 M,0,17763,17817,213.002,377.8884,203.0148,377.5237 M,0,17817,17870,203.0148,377.5237,193.0525,378.3279 M,0,17870,17924,193.0525,378.3279,183.233,380.1958 M,0,17924,17978,183.233,380.1958,173.6358,382.9933
Sprite,Foreground,Centre,"sb/highlight.png",96,338 S,2,18407,18647,0.5,0.1 F,2,18407,18647,1,0 P,0,18407,18647,A C,0,18407,,225,91,236
Sprite,Foreground,Centre,"sb/highlight.png",0,0 S,2,18835,19503,0.5,0.1 F,2,18835,19503,1,0 P,0,18835,19503,A C,0,18835,,225,91,236 M,0,18835,18888,135,259,144.9791,258.3539 M,0,18888,18942,144.9791,258.3539,154.958,257.705 M,0,18942,18995,154.958,257.705,164.9368,257.0534 M,0,18995,19049,164.9368,257.0534,174.9153,256.3991 M,0,19049,19102,174.9153,256.3991,184.8937,255.7428 M,0,19102,19156,184.8937,255.7428,194.8719,255.0804 M,0,19156,19209,194.8719,255.0804,204.8499,254.4167 M,0,19209,19263,204.8499,254.4167,214.8275,253.7492
Sprite,Foreground,Centre,"sb/highlight.png",302,246 S,2,19693,19933,0.5,0.1 F,2,19693,19933,1,0 P,0,19693,19933,A C,0,19693,,225,91,236
Sprite,Foreground,Centre,"sb/highlight.png",349,171 S,2,20121,20361,0.5,0.1 F,2,20121,20361,1,0 P,0,20121,20361,A C,0,20121,,225,91,236
Sprite,Foreground,Centre,"sb/highlight.png",0,0 S,2,20550,21218,0.5,0.1 F,2,20550,21218,1,0 P,0,20550,21218,A C,0,20550,,188,46,185 M,0,20550,20603,301,96,291.0417,95.08701 M,0,20603,20657,291.0417,95.08701,281.0811,94.20103 M,0,20657,20710,281.0811,94.20103,271.1181,93.34185 M,0,20710,20764,271.1181,93.34185,261.1528,92.50978 M,0,20764,20817,261.1528,92.50978,251.1853,91.70451 M,0,20817,20871,251.1853,91.70451,241.2157,90.9261 M,0,20871,20924,241.2157,90.9261,231.2446,90.16678 M,0,20924,20978,231.2446,90.16678,221.2708,89.4429
Sprite,Foreground,Centre,"sb/highlight.png",133,80 S,2,21407,21647,0.5,0.1 F,2,21407,21647,1,0 P,0,21407,21647,A C,0,21407,,188,46,185
Sprite,Foreground,Centre,"sb/highlight.png",0,0 S,2,22264,22932,0.5,0.1 F,2,22264,22932,1,0 P,0,22264,22932,A C,0,22264,,188,46,185 M,0,22264,22317,87,250,82.89635,259.1192 M,0,22317,22371,82.89635,259.1192,78.79271,268.2384 M,0,22371,22424,78.79271,268.2384,74.68906,277.3577 M,0,22424,22478,74.68906,277.3577,70.58542,286.4769 M,0,22478,22531,70.58542,286.4769,72.60936,294.9629 M,0,22531,22585,72.60936,294.9629,78.49107,303.0502 M,0,22585,22638,78.49107,303.0502,84.3728,311.1376 M,0,22638,22692,84.3728,311.1376,90.25451,319.2249
Sprite,Foreground,Centre,"sb/highlight.png",156,377 S,2,23121,23361,0.5,0.1 F,2,23121,23361,1,0 P,0,23121,23361,A C,0,23121,,188,46,185
Sprite,Foreground,Centre,"sb/highlight.png",231,423 S,2,23550,23790,0.5,0.1 F,2,23550,23790,1,0 P,0,23550,23790,A C,0,23550,,188,46,185
Sprite,Foreground,Centre,"sb/highlight.png",0,0 S,2,23978,24646,0.5,0.1 F,2,23978,24646,1,0 P,0,23978,24646,A C,0,23978,,167,167,167 M,0,23978,24031,302,371,311.9319,369.835 M,0,24031,24085,311.9319,369.835,321.8646,368.6767 M,0,24085,24138,321.8646,368.6767,331.7979,367.5243 M,0,24138,24192,331.7979,367.5243,341.7321,366.3776 M,0,24192,24245,341.7321,366.3776,351.6667,365.2357 M,0,24245,24299,351.6667,365.2357,361.6022,364.1027 M,0,24299,24352,361.6022,364.1027,371.5384,362.9748 M,0,24352,24406,371.5384,362.9748,381.4753,361.8535
Sprite,Foreground,Centre,"sb/highlight.png",468,351 S,2,24835,25075,0.5,0.1 F,2,24835,25075,1,0 P,0,24835,25075,A C,0,24835,,167,167,167
Sprite,Foreground,Centre,"sb/highlight.png",0,0 S,2,25693,26361,0.5,0.1 F,2,25693,26361,1,0 P,0,25693,26361,A C,0,25693,,167,167,167 M,0,25693,25746,563,202,567.6575,193.1508 M,0,25746,25800,567.6575,193.1508,572.3149,184.3016 M,0,25800,25853,572.3149,184.3016,576.9724,175.4525 M,0,25853,25907,576.9724,175.4525,581.6299,166.6033 M,0,25907,25960,581.6299,166.6033,579.8435,157.687 M,0,25960,26014,579.8435,157.687,575.3713,148.7427 M,0,26014,26067,575.3713,148.7427,570.8992,139.7984 M,0,26067,26121,570.8992,139.7984,566.4271,130.8542
Sprite,Foreground,Centre,"sb/highlight.png",500,72 S,2,26550,26790,0.5,0.1 F,2,26550,26790,1,0 P,0,26550,26790,A C,0,26550,,167,167,167
Sprite,Foreground,Centre,"sb/highlight.png",425,118 S,2,26978,27218,0.5,0.1 F,2,26978,27218,1,0 P,0,26978,27218,A C,0,26978,,167,167,167
Sprite,Foreground,Centre,"sb/highlight.png",0,0 S,2,27407,28075,0.5,0.1 F,2,27407,28075,1,0 P,0,27407,28075,A C,0,27407,,111,111,111 M,0,27407,27460,342,87,333.7276,81.45036 M,0,27460,27514,333.7276,81.45036,324.6931,77.30155 M,0,27514,27567,324.6931,77.30155,315.1273,74.65396 M,0,27567,27621,315.1273,74.65396,305.2734,73.57082 M,0,27621,27674,305.2734,73.57082,295.3813,74.0767 M,0,27674,27728,295.3813,74.0767,285.7016,76.15703 M,0,27728,27781,285.7016,76.15703,276.3112,79.3663 M,0,27781,27835,276.3112,79.3663,267.7229,84.44131
Sprite,Foreground,Centre,"sb/highlight.png",0,0 S,2,28264,28932,0.5,0.1 F,2,28264,28932,1,0 P,0,28264,28932,A C,0,28264,,111,111,111 M,0,28264,28317,197,138,198.4039,147.9009 M,0,28317,28371,198.4039,147.9009,199.7756,157.8064 M,0,28371,28424,199.7756,157.8064,201.1152,167.7162 M,0,28424,28478,201.1152,167.7162,202.4228,177.6303 M,0,28478,28531,202.4228,177.6303,203.6981,187.5486 M,0,28531,28585,203.6981,187.5486,204.9533,197.4695 M,0,28585,28638,204.9533,197.4695,206.1604,207.3964 M,0,28638,28692,206.1604,207.3964,207.3393,217.3267
Sprite,Foreground,Centre,"sb/highlight.png",221,304 S,2,29121,29361,0.5,0.1 F,2,29121,29361,1,0 P,0,29121,29361,A C,0,29121,,111,111,111
Sprite,Foreground,Centre,"sb/highlight.png",0,0 S,2,30835,31932,0.5,0.1 F,2,30835,31932,1,0 P,0,30835,31932,A C,0,30835,,225,91,236 M,0,30835,30888,221,304,230.6,306.8 M,0,30888,30942,230.6,306.8,240.2,309.6 M,0,30942,30995,240.2,309.6,249.8,312.4 M,0,30995,31049,249.8,312.4,259.4,315.2 M,0,31049,31102,259.4,315.2,269,318 M,0,31102,31156,269,318,277.7336,313.1293 M,0,31156,31209,277.7336,313.1293,286.4673,308.2586 M,0,31209,31263,286.4673,308.2586,295.2009,303.3879 M,0,31263,31317,295.2009,303.3879,303.9346,298.5173 M,0,31317,31370,303.9346,298.5173,312.6682,293.6466 M,0,31370,31424,312.6682,293.6466,321.4464,289.1116 M,0,31424,31477,321.4464,289.1116,331.1478,291.5369 M,0,31477,31531,331.1478,291.5369,340.8492,293.9623 M,0,31531,31584,340.8492,293.9623,350.5506,296.3877 M,0,31584,31638,350.5506,296.3877,360.2521,298.813 M,0,31638,31692,360.2521,298.813,369.9535,301.2384
Sprite,Foreground,Centre,"sb/highlight.png",456,287 S,2,32121,32361,0.5,0.1 F,2,32121,32361,1,0 P,0,32121,32361,A C,0,32121,,225,91,236
Sprite,Foreground,Centre,"sb/highlight.png",0,0 S,2,32550,33647,0.5,0.1 F,2,32550,33647,1,0 P,0,32550,33647,A C,0,32550,,225,91,236 M,0,32550,32603,531,332,529.5457,341.8936 M,0,32603,32657,529.5457,341.8936,528.1366,351.7938 M,0,32657,32710,528.1366,351.7938,526.7734,361.7004 M,0,32710,32764,526.7734,361.7004,525.4557,371.6131 M,0,32764,32817,525.4557,371.6131,524.1836,381.5318 M,0,32817,32871,524.1836,381.5318,522.9574,391.4563 M,0,32871,32924,522.9574,391.4563,521.7653,401.3849 M,0,32924,32978,521.7653,401.3849,520.6306,411.3203 M,0,32978,33032,520.6306,411.3203,521.7653,401.3849 M,0,33032,33085,521.7653,401.3849,522.9574,391.4563 M,0,33085,33139,522.9574,391.4563,524.1836,381.5318 M,0,33139,33192,524.1836,381.5318,525.4557,371.6131 M,0,33192,33246,525.4557,371.6131,526.7734,361.7004 M,0,33246,33299,526.7734,361.7004,528.1366,351.7938 M,0,33299,33353,528.1366,351.7938,529.5457,341.8936 M,0,33353,33407,529.5457,341.8936,531,332
Sprite,Foreground,Centre,"sb/highlight.png",0,0 S,2,34264,35361,0.5,0.1 F,2,34264,35361,1,0 P,0,34264,35361,A C,0,34264,,225,91,236 M,0,34264,34317,435,183,425.0533,184.0311 M,0,34317,34371,425.0533,184.0311,415.1066,185.0621 M,0,34371,34424,415.1066,185.0621,405.1599,186.0932 M,0,34424,34478,405.1599,186.0932,395.2132,187.1242 M,0,34478,34531,395.2132,187.1242,385.2665,188.1553 M,0,34531,34585,385.2665,188.1553,375.3198,189.1864 M,0,34585,34638,375.3198,189.1864,365.3731,190.2174 M,0,34638,34692,365.3731,190.2174,355.4264,191.2485 M,0,34692,34746,355.4264,191.2485,345.4797,192.2795 M,0,34746,34799,345.4797,192.2795,335.533,193.3106 M,0,34799,34853,335.533,193.3106,325.5862,194.3417 M,0,34853,34906,325.5862,194.3417,315.6396,195.3727 M,0,34906,34960,315.6396,195.3727,305.6929,196.4038 M,0,34960,35013,305.6929,196.4038,295.7462,197.4348 M,0,35013,35067,295.7462,197.4348,285.7994,198.4659 M,0,35067,35121,285.7994,198.4659,275.8527,199.497
Sprite,Foreground,Centre,"sb/highlight.png",188,209 S,2,35550,35790,0.5,0.1 F,2,35550,35790,1,0 P,0,35550,35790,A C,0,35550,,225,91,236
Sprite,Foreground,Centre,"sb/highlight.png",0,0 S,2,35978,36646,0.5,0.1 F,2,35978,36646,1,0 P,0,35978,36646,A C,0,35978,,225,91,236 M,0,35978,36031,100,217,95.34254,208.1508 M,0,36031,36085,95.34254,208.1508,90.68507,199.3016 M,0,36085,36138,90.68507,199.3016,86.0276,190.4525 M,0,36138,36192,86.0276,190.4525,81.37014,181.6033 M,0,36192,36245,81.37014,181.6033,83.15651,172.687 M,0,36245,36299,83.15651,172.687,87.62865,163.7427 M,0,36299,36352,87.62865,163.7427,92.10078,154.7984 M,0,36352,36406,92.10078,154.7984,96.57292,145.8542
Sprite,Foreground,Centre,"sb/highlight.png",140,69 S,2,36835,37075,0.5,0.1 F,2,36835,37075,1,0 P,0,36835,37075,A C,0,36835,,225,91,236
Sprite,Foreground,Centre,"sb/highlight.png",220,109 S,2,37264,37504,0.5,0.1 F,2,37264,37504,1,0 P,0,37264,37504,A C,0,37264,,225,91,236
Sprite,Foreground,Centre,"sb/highlight.png",0,0 S,2,37693,38361,0.5,0.1 F,2,37693,38361,1,0 P,0,37693,38361,A C,0,37693,,188,46,185 M,0,37693,37746,300,73,309.8724,74.59232 M,0,37746,37800,309.8724,74.59232,319.7448,76.18465 M,0,37800,37853,319.7448,76.18465,329.6172,77.77698 M,0,37853,37907,329.6172,77.77698,339.4897,79.36929 M,0,37907,37960,339.4897,79.36929,349.3621,80.96162 M,0,37960,38014,349.3621,80.96162,359.2345,82.55395 M,0,38014,38067,359.2345,82.55395,369.1069,84.14627 M,0,38067,38121,369.1069,84.14627,378.9793,85.73859
Sprite,Foreground,Centre,"sb/highlight.png",0,0 S,2,38550,39218,0.5,0.1 F,2,38550,39218,1,0 P,0,38550,39218,A C,0,38550,,188,46,185 M,0,38550,38603,463,109,461.6784,118.9123 M,0,38603,38657,461.6784,118.9123,460.3567,128.8246 M,0,38657,38710,460.3567,128.8246,459.0351,138.7368 M,0,38710,38764,459.0351,138.7368,457.7134,148.6491 M,0,38764,38817,457.7134,148.6491,456.3918,158.5614 M,0,38817,38871,456.3918,158.5614,455.0702,168.4737 M,0,38871,38924,455.0702,168.4737,453.7485,178.386 M,0,38924,38978,453.7485,178.386,452.4269,188.2982
Sprite,Foreground,Centre,"sb/highlight.png",0,0 S,2,39407,40504,0.5,0.1 F,2,39407,40504,1,0 P,0,39407,40504,A C,0,39407,,188,46,185 M,0,39407,39460,374,229,364.2561,226.7514 M,0,39460,39514,364.2561,226.7514,354.5122,224.5028 M,0,39514,39567,354.5122,224.5028,344.7682,222.2542 M,0,39567,39621,344.7682,222.2542,335.0244,220.0056 M,0,39621,39674,335.0244,220.0056,325.2805,217.757 M,0,39674,39728,325.2805,217.757,315.5365,215.5084 M,0,39728,39781,315.5365,215.5084,305.7926,213.2598 M,0,39781,39835,305.7926,213.2598,296.0487,211.0112 M,0,39835,39889,296.0487,211.0112,291.2273,219.7306 M,0,39889,39942,291.2273,219.7306,286.4305,228.5051 M,0,39942,39996,286.4305,228.5051,281.6339,237.2796 M,0,39996,40049,281.6339,237.2796,276.8371,246.0541 M,0,40049,40103,276.8371,246.0541,272.0404,254.8285 M,0,40103,40156,272.0404,254.8285,267.2437,263.603 M,0,40156,40210,267.2437,263.603,262.447,272.3775 M,0,40210,40264,262.447,272.3775,257.6503,281.152
Sprite,Foreground,Centre,"sb/highlight.png",0,0 S,2,41121,41789,0.5,0.1 F,2,41121,41789,1,0 P,0,41121,41789,A C,0,41121,,188,46,185 M,0,41121,41174,376,413,385.9792,412.3562 M,0,41174,41228,385.9792,412.3562,395.9585,411.7123 M,0,41228,41281,395.9585,411.7123,405.9377,411.0685 M,0,41281,41335,405.9377,411.0685,415.917,410.4247 M,0,41335,41388,415.917,410.4247,425.8963,409.7809 M,0,41388,41442,425.8963,409.7809,435.8755,409.1371 M,0,41442,41495,435.8755,409.1371,445.8548,408.4932 M,0,41495,41549,445.8548,408.4932,455.834,407.8494
Sprite,Foreground,Centre,"sb/highlight.png",0,0 S,2,41978,42646,0.5,0.1 F,2,41978,42646,1,0 P,0,41978,42646,A C,0,41978,,188,46,185 M,0,41978,42031,543,397,542.4689,387.0141 M,0,42031,42085,542.4689,387.0141,541.9377,377.0282 M,0,42085,42138,541.9377,377.0282,541.4065,367.0424 M,0,42138,42192,541.4065,367.0424,540.8754,357.0565 M,0,42192,42245,540.8754,357.0565,540.3442,347.0706 M,0,42245,42299,540.3442,347.0706,539.813,337.0847 M,0,42299,42352,539.813,337.0847,539.2819,327.0988 M,0,42352,42406,539.2819,327.0988,538.7507,317.1129
Sprite,Foreground,Centre,"sb/highlight.png",533,229 S,2,42835,43075,0.5,0.1 F,2,42835,43075,1,0 P,0,42835,43075,A C,0,42835,,188,46,185
Sprite,Foreground,Centre,"sb/highlight.png",0,0 S,2,44550,45218,0.5,0.1 F,2,44550,45218,1,0 P,0,44550,45218,A C,0,44550,,167,167,167 M,0,44550,44603,204,102,195.7406,96.4557 M,0,44603,44657,195.7406,96.4557,186.6569,92.46512 M,0,44657,44710,186.6569,92.46512,177.0294,90.14429 M,0,44710,44764,177.0294,90.14429,167.1542,89.56009 M,0,44764,44817,167.1542,89.56009,157.2632,90.29437 M,0,44817,44871,157.2632,90.29437,147.8464,93.44786 M,0,44871,44924,147.8464,93.44786,139.1522,98.20285 M,0,44924,44978,139.1522,98.20285,131.0898,104.0565
Sprite,Foreground,Centre,"sb/highlight.png",74,171 S,2,45407,45647,0.5,0.1 F,2,45407,45647,1,0 P,0,45407,45647,A C,0,45407,,167,167,167
Sprite,Foreground,Centre,"sb/highlight.png",93,256 S,2,45835,46075,0.5,0.1 F,2,45835,46075,1,0 P,0,45835,46075,A C,0,45835,,167,167,167
Sprite,Foreground,Centre,"sb/highlight.png",0,0 S,2,46264,46932,0.5,0.1 F,2,46264,46932,1,0 P,0,46264,46932,A C,0,46264,,167,167,167 M,0,46264,46317,179,270,177.5093,279.8882 M,0,46317,46371,177.5093,279.8882,176.0474,289.7808 M,0,46371,46424,176.0474,289.7808,174.6139,299.6775 M,0,46424,46478,174.6139,299.6775,173.2089,309.5783 M,0,46478,46531,173.2089,309.5783,171.8326,319.4831 M,0,46531,46585,171.8326,319.4831,170.485,329.3918 M,0,46585,46638,170.485,329.3918,169.1563,339.3031 M,0,46638,46692,169.1563,339.3031,167.8667,349.2196
Sprite,Foreground,Centre,"sb/highlight.png",0,0 S,2,47121,47789,0.5,0.1 F,2,47121,47789,1,0 P,0,47121,47789,A C,0,47121,,167,167,167 M,0,47121,47174,227,413,236.9554,413.9431 M,0,47174,47228,236.9554,413.9431,246.9108,414.8863 M,0,47228,47281,246.9108,414.8863,256.8663,415.8294 M,0,47281,47335,256.8663,415.8294,266.8217,416.7726 M,0,47335,47388,266.8217,416.7726,276.7771,417.7157 M,0,47388,47442,276.7771,417.7157,286.7325,418.6589 M,0,47442,47495,286.7325,418.6589,296.688,419.602 M,0,47495,47549,296.688,419.602,306.6434,420.5452
Sprite,Foreground,Centre,"sb/highlight.png",0,0 S,2,47978,49075,0.5,0.1 F,2,47978,49075,1,0 P,0,47978,49075,A C,0,47978,,111,111,111 M,0,47978,48031,394,419,399.4325,410.6043 M,0,48031,48085,399.4325,410.6043,404.865,402.2086 M,0,48085,48138,404.865,402.2086,410.2975,393.8129 M,0,48138,48192,410.2975,393.8129,415.73,385.4172 M,0,48192,48245,415.73,385.4172,421.1626,377.0215 M,0,48245,48299,421.1626,377.0215,426.5951,368.6258 M,0,48299,48352,426.5951,368.6258,432.0276,360.2301 M,0,48352,48406,432.0276,360.2301,437.4601,351.8344 M,0,48406,48460,437.4601,351.8344,432.5139,343.8576 M,0,48460,48513,432.5139,343.8576,426.4223,335.9271 M,0,48513,48567,426.4223,335.9271,420.3307,327.9966 M,0,48567,48620,420.3307,327.9966,414.2392,320.0661 M,0,48620,48674,414.2392,320.0661,408.1476,312.1356 M,0,48674,48727,408.1476,312.1356,402.0561,304.2051 M,0,48727,48781,402.0561,304.2051,395.9645,296.2746 M,0,48781,48835,395.9645,296.2746,389.873,288.3441
Sprite,Foreground,Centre,"sb/highlight.png",332,221 S,2,49264,49504,0.5,0.1 F,2,49264,49504,1,0 P,0,49264,49504,A C,0,49264,,111,111,111
Sprite,Foreground,Centre,"sb/highlight.png",0,0 S,2,49693,50790,0.5,0.1 F,2,49693,50790,1,0 P,0,49693,50790,A C,0,49693,,111,111,111 M,0,49693,49746,269,159,259.0177,158.4058 M,0,49746,49800,259.0177,158.4058,249.0353,157.8116 M,0,49800,49853,249.0353,157.8116,239.053,157.2174 M,0,49853,49907,239.053,157.2174,229.0707,156.6233 M,0,49907,49960,229.0707,156.6233,219.0883,156.0291 M,0,49960,50014,219.0883,156.0291,209.106,155.4349 M,0,50014,50067,209.106,155.4349,199.1237,154.8407 M,0,50067,50121,199.1237,154.8407,189.1414,154.2465 M,0,50121,50175,189.1414,154.2465,199.1237,154.8407 M,0,50175,50228,199.1237,154.8407,209.106,155.4349 M,0,50228,50282,209.106,155.4349,219.0883,156.0291 M,0,50282,50335,219.0883,156.0291,229.0707,156.6233 M,0,50335,50389,229.0707,156.6233,239.053,157.2174 M,0,50389,50442,239.053,157.2174,249.0353,157.8116 M,0,50442,50496,249.0353,157.8116,259.0177,158.4058 M,0,50496,50550,259.0177,158.4058,269,159
Sprite,Foreground,Centre,"sb/highlight.png",0,0 S,2,51407,52504,0.5,0.1 F,2,51407,52504,1,0 P,0,51407,52504,A C,0,51407,,225,91,236 M,0,51407,51460,434,99,441.5189,92.46129 M,0,51460,51514,441.5189,92.46129,449.9006,87.10578 M,0,51514,51567,449.9006,87.10578,458.9656,83.04351 M,0,51567,51621,458.9656,83.04351,468.5209,80.35808 M,0,51621,51674,468.5209,80.35808,478.3324,78.67734 M,0,51674,51728,478.3324,78.67734,488.2803,79.10242 M,0,51728,51781,488.2803,79.10242,498.0425,80.9793 M,0,51781,51835,498.0425,80.9793,507.4131,84.26494 M,0,51835,51889,507.4131,84.26494,516.1944,88.88776 M,0,51889,51942,516.1944,88.88776,524.4116,94.47636 M,0,51942,51996,524.4116,94.47636,531.3355,101.6226 M,0,51996,52049,531.3355,101.6226,537.1276,109.696 M,0,52049,52103,537.1276,109.696,541.6678,118.524 M,0,52103,52156,541.6678,118.524,545.3264,127.7944 M,0,52156,52210,545.3264,127.7944,546.8969,137.6314 M,0,52210,52264,546.8969,137.6314,547.2435,147.6031
Sprite,Foreground,Centre,"sb/highlight.png",554,235 S,2,52693,52933,0.5,0.1 F,2,52693,52933,1,0 P,0,52693,52933,A C,0,52693,,225,91,236
Sprite,Foreground,Centre,"sb/highlight.png",0,0 S,2,53121,53789,0.5,0.1 F,2,53121,53789,1,0 P,0,53121,53789,A C,0,53121,,225,91,236 M,0,53121,53174,492,298,482.0648,296.863 M,0,53174,53228,482.0648,296.863,472.1276,295.7453 M,0,53228,53281,472.1276,295.7453,462.188,294.647 M,0,53281,53335,462.188,294.647,452.2464,293.5683 M,0,53335,53388,452.2464,293.5683,442.3027,292.5088 M,0,53388,53442,442.3027,292.5088,432.3575,291.4632 M,0,53442,53495,432.3575,291.4632,422.4095,290.4451 M,0,53495,53549,422.4095,290.4451,412.4598,289.4435
Sprite,Foreground,Centre,"sb/highlight.png",0,0 S,2,53978,54646,0.5,0.1 F,2,53978,54646,1,0 P,0,53978,54646,A C,0,53978,,225,91,236 M,0,53978,54031,357,220,347.0496,220.995 M,0,54031,54085,347.0496,220.995,337.0992,221.9901 M,0,54085,54138,337.0992,221.9901,327.1489,222.9851 M,0,54138,54192,327.1489,222.9851,317.1985,223.9801 M,0,54192,54245,317.1985,223.9801,307.2481,224.9752 M,0,54245,54299,307.2481,224.9752,297.2978,225.9702 M,0,54299,54352,297.2978,225.9702,287.3474,226.9653 M,0,54352,54406,287.3474,226.9653,277.397,227.9603
Sprite,Foreground,Centre,"sb/highlight.png",0,0 S,2,54835,55932,0.5,0.1 F,2,54835,55932,1,0 P,0,54835,55932,A C,0,54835,,188,46,185 M,0,54835,54888,196,192,186.5657,195.3143 M,0,54888,54942,186.5657,195.3143,177.0266,198.3137 M,0,54942,54995,177.0266,198.3137,167.3889,200.979 M,0,54995,55049,167.3889,200.979,157.6607,203.292 M,0,55049,55102,157.6607,203.292,147.852,205.2355 M,0,55102,55156,147.852,205.2355,137.9745,206.7913 M,0,55156,55209,137.9745,206.7913,128.042,207.9448 M,0,55209,55263,128.042,207.9448,118.0699,208.6815 M,0,55263,55317,118.0699,208.6815,108.0755,208.9903 M,0,55317,55370,108.0755,208.9903,104.4574,216.771 M,0,55370,55424,104.4574,216.771,103.4067,226.7107 M,0,55424,55477,103.4067,226.7107,103.5124,236.7036 M,0,55477,55531,103.5124,236.7036,104.9147,246.5968 M,0,55531,55584,104.9147,246.5968,107.6848,256.1965 M,0,55584,55638,107.6848,256.1965,111.79,265.3058 M,0,55638,55692,111.79,265.3058,117.098,273.7721
Sprite,Foreground,Centre,"sb/highlight.png",167,346 S,2,56121,56361,0.5,0.1 F,2,56121,56361,1,0 P,0,56121,56361,A C,0,56121,,188,46,185
Sprite,Foreground,Centre,"sb/highlight.png",221,414 S,2,56550,56790,0.5,0.1 F,2,56550,56790,1,0 P,0,56550,56790,A C,0,56550,,188,46,185
Sprite,Foreground,Centre,"sb/highlight.png",0,0 S,2,58264,59361,0.5,0.1 F,2,58264,59361,1,0 P,0,58264,59361,A C,0,58264,,167,167,167 M,0,58264,58317,221,414,230.9715,413.3033 M,0,58317,58371,230.9715,413.3033,240.8066,411.5276 M,0,58371,58424,240.8066,411.5276,250.34,408.5337 M,0,58424,58478,250.34,408.5337,259.3611,404.2395 M,0,58478,58531,259.3611,404.2395,267.6524,398.666 M,0,58531,58585,267.6524,398.666,275.0423,391.9417 M,0,58585,58638,275.0423,391.9417,281.4501,384.2738 M,0,58638,58692,281.4501,384.2738,286.8849,375.8861 M,0,58692,58746,286.8849,375.8861,292.6921,368.0249 M,0,58746,58799,292.6921,368.0249,301.1992,362.7807 M,0,58799,58853,301.1992,362.7807,310.2932,358.6378 M,0,58853,58906,310.2932,358.6378,319.8334,355.662 M,0,58906,58960,319.8334,355.662,329.6615,353.8471 M,0,58960,59013,329.6615,353.8471,339.6306,353.1244 M,0,59013,59067,339.6306,353.1244,349.6236,353.3838 M,0,59067,59121,349.6236,353.3838,359.5578,354.505
Sprite,Foreground,Centre,"sb/highlight.png",446,344 S,2,59550,59790,0.5,0.1 F,2,59550,59790,1,0 P,0,59550,59790,A C,0,59550,,167,167,167
Sprite,Foreground,Centre,"sb/highlight.png",0,0 S,2,59978,60646,0.5,0.1 F,2,59978,60646,1,0 P,0,59978,60646,A C,0,59978,,167,167,167 M,0,59978,60031,532,329,536.7943,320.2749 M,0,60031,60085,536.7943,320.2749,540.0679,310.8969 M,0,60085,60138,540.0679,310.8969,541.7373,301.1226 M,0,60138,60192,541.7373,301.1226,541.7612,291.218 M,0,60192,60245,541.7612,291.218,540.7167,281.307 M,0,60245,60299,540.7167,281.307,537.259,271.9713 M,0,60299,60352,537.259,271.9713,532.3123,263.3578 M,0,60352,60406,532.3123,263.3578,526.2596,255.4368
Sprite,Foreground,Centre,"sb/highlight.png",458,199 S,2,60835,61075,0.5,0.1 F,2,60835,61075,1,0 P,0,60835,61075,A C,0,60835,,167,167,167
Sprite,Foreground,Centre,"sb/highlight.png",386,250 S,2,61264,61504,0.5,0.1 F,2,61264,61504,1,0 P,0,61264,61504,A C,0,61264,,167,167,167
Sprite,Foreground,Centre,"sb/highlight.png",0,0 S,2,61693,62361,0.5,0.1 F,2,61693,62361,1,0 P,0,61693,62361,A C,0,61693,,111,111,111 M,0,61693,61746,311,202,311.6953,192.0242 M,0,61746,61800,311.6953,192.0242,312.3812,182.0478 M,0,61800,61853,312.3812,182.0478,313.0582,172.0707 M,0,61853,61907,313.0582,172.0707,313.726,162.093 M,0,61907,61960,313.726,162.093,314.3876,152.1149 M,0,61960,62014,314.3876,152.1149,315.0346,142.1359 M,0,62014,62067,315.0346,142.1359,315.6739,132.1563 M,0,62067,62121,315.6739,132.1563,316.3029,122.1761
Sprite,Foreground,Centre,"sb/highlight.png",388,72 S,2,62550,62790,0.5,0.1 F,2,62550,62790,1,0 P,0,62550,62790,A C,0,62550,,111,111,111
Sprite,Foreground,Centre,"sb/highlight.png",0,0 S,2,63407,64075,0.5,0.1 F,2,63407,64075,1,0 P,0,63407,64075,A C,0,63407,,111,111,111 M,0,63407,63460,555,125,554.2263,134.97 M,0,63460,63514,554.2263,134.97,553.4576,144.9404 M,0,63514,63567,553.4576,144.9404,552.6924,154.9111 M,0,63567,63621,552.6924,154.9111,551.9332,164.8823 M,0,63621,63674,551.9332,164.8823,551.1794,174.8538 M,0,63674,63728,551.1794,174.8538,550.4287,184.8256 M,0,63728,63781,550.4287,184.8256,549.6848,194.7979 M,0,63781,63835,549.6848,194.7979,549,204
Sprite,Foreground,Centre,"sb/highlight.png",543,292 S,2,64264,64504,0.5,0.1 F,2,64264,64504,1,0 P,0,64264,64504,A C,0,64264,,111,111,111
Sprite,Foreground,Centre,"sb/highlight.png",537,379 S,2,64693,64933,0.5,0.1 F,2,64693,64933,1,0 P,0,64693,64933,A C,0,64693,,111,111,111
Sprite,Foreground,Centre,"sb/highlight.png",0,0 S,2,65121,65789,0.5,0.1 F,2,65121,65789,1,0 P,0,65121,65789,A C,0,65121,,225,91,236 M,0,65121,65174,455,411,445.4897,414.0909 M,0,65174,65228,445.4897,414.0909,435.9793,417.1817 M,0,65228,65281,435.9793,417.1817,426.469,420.2726 M,0,65281,65335,426.469,420.2726,416.9586,423.3634 M,0,65335,65388,416.9586,423.3634,408.4779,419.4708 M,0,65388,65442,408.4779,419.4708,400.2642,413.7668 M,0,65442,65495,400.2642,413.7668,392.0505,408.0628 M,0,65495,65549,392.0505,408.0628,383.8368,402.3589
Sprite,Foreground,Centre,"sb/highlight.png",316,345 S,2,65978,66218,0.5,0.1 F,2,65978,66218,1,0 P,0,65978,66218,A C,0,65978,,225,91,236
Sprite,Foreground,Centre,"sb/highlight.png",0,0 S,2,66835,67503,0.5,0.1 F,2,66835,67503,1,0 P,0,66835,67503,A C,0,66835,,225,91,236 M,0,66835,66888,249,179,250.2458,169.0779 M,0,66888,66942,250.2458,169.0779,251.5026,159.1573 M,0,66942,66995,251.5026,159.1573,252.7712,149.238 M,0,66995,67049,252.7712,149.238,254.0521,139.3203 M,0,67049,67102,254.0521,139.3203,255.3435,129.4042 M,0,67102,67156,255.3435,129.4042,256.644,119.4891 M,0,67156,67210,256.644,119.4891,257.9613,109.5762 M,0,67210,67263,257.9613,109.5762,259.2895,99.66481
Sprite,Foreground,Centre,"sb/highlight.png",181,57 S,2,67693,67933,0.5,0.1 F,2,67693,67933,1,0 P,0,67693,67933,A C,0,67693,,225,91,236
Sprite,Foreground,Centre,"sb/highlight.png",108,106 S,2,68121,68361,0.5,0.1 F,2,68121,68361,1,0 P,0,68121,68361,A C,0,68121,,225,91,236
Sprite,Foreground,Centre,"sb/highlight.png",0,0 S,2,68550,69218,0.5,0.1 F,2,68550,69218,1,0 P,0,68550,69218,A C,0,68550,,188,46,185 M,0,68550,68603,84,190,85.209,199.9266 M,0,68603,68657,85.209,199.9266,86.43501,209.8512 M,0,68657,68710,86.43501,209.8512,87.67815,219.7737 M,0,68710,68764,87.67815,219.7737,88.93788,229.6939 M,0,68764,68817,88.93788,229.6939,90.21499,239.612 M,0,68817,68871,90.21499,239.612,91.503,249.5287 M,0,68871,68925,91.503,249.5287,92.81612,259.4422 M,0,68925,68978,92.81612,259.4422,94.14584,269.3533
Sprite,Foreground,Centre,"sb/highlight.png",0,0 S,2,69407,70075,0.5,0.1 F,2,69407,70075,1,0 P,0,69407,70075,A C,0,69407,,188,46,185 M,0,69407,69460,178,295,176.791,304.9266 M,0,69460,69514,176.791,304.9266,175.565,314.8512 M,0,69514,69567,175.565,314.8512,174.3219,324.7737 M,0,69567,69621,174.3219,324.7737,173.0621,334.6939 M,0,69621,69674,173.0621,334.6939,171.785,344.6121 M,0,69674,69728,171.785,344.6121,170.497,354.5287 M,0,69728,69782,170.497,354.5287,169.1839,364.4422 M,0,69782,69835,169.1839,364.4422,167.8542,374.3533
Sprite,Foreground,Centre,"sb/highlight.png",244,417 S,2,70264,70504,0.5,0.1 F,2,70264,70504,1,0 P,0,70264,70504,A C,0,70264,,188,46,185
Sprite,Foreground,Centre,"sb/highlight.png",0,0 S,2,71978,73075,0.5,0.1 F,2,71978,73075,1,0 P,0,71978,73075,A C,0,71978,,167,167,167 M,0,71978,72031,244,417,253.9375,415.8834 M,0,72031,72085,253.9375,415.8834,263.8749,414.7668 M,0,72085,72138,263.8749,414.7668,273.8124,413.6503 M,0,72138,72192,273.8124,413.6503,283.7499,412.5337 M,0,72192,72245,283.7499,412.5337,293.6873,411.4171 M,0,72245,72299,293.6873,411.4171,303.6248,410.3006 M,0,72299,72353,303.6248,410.3006,313.5623,409.184 M,0,72353,72406,313.5623,409.184,323.4998,408.0674 M,0,72406,72460,323.4998,408.0674,313.5623,409.184 M,0,72460,72513,313.5623,409.184,303.6248,410.3006 M,0,72513,72567,303.6248,410.3006,293.6873,411.4171 M,0,72567,72620,293.6873,411.4171,283.7499,412.5337 M,0,72620,72674,283.7499,412.5337,273.8124,413.6503 M,0,72674,72728,273.8124,413.6503,263.8749,414.7668 M,0,72728,72781,263.8749,414.7668,253.9375,415.8834 M,0,72781,72835,253.9375,415.8834,244,417
Sprite,Foreground,Centre,"sb/highlight.png",156,427 S,2,73264,73504,0.5,0.1 F,2,73264,73504,1,0 P,0,73264,73504,A C,0,73264,,167,167,167
Sprite,Foreground,Centre,"sb/highlight.png",0,0 S,2,73693,74790,0.5,0.1 F,2,73693,74790,1,0 P,0,73693,74790,A C,0,73693,,167,167,167 M,0,73693,73746,89,369,91.30025,359.2682 M,0,73746,73800,91.30025,359.2682,93.60051,349.5363 M,0,73800,73853,93.60051,349.5363,95.90076,339.8045 M,0,73853,73907,95.90076,339.8045,98.20102,330.0726 M,0,73907,73960,98.20102,330.0726,100.5013,320.3408 M,0,73960,74014,100.5013,320.3408,100.6806,310.7749 M,0,74014,74068,100.6806,310.7749,96.89432,301.5194 M,0,74068,74121,96.89432,301.5194,93.10799,292.264 M,0,74121,74175,93.10799,292.264,89.32166,283.0085 M,0,74175,74228,89.32166,283.0085,85.53533,273.7531 M,0,74228,74282,85.53533,273.7531,85.62196,264.2805 M,0,74282,74335,85.62196,264.2805,88.3502,254.6598 M,0,74335,74389,88.3502,254.6598,91.07844,245.0392 M,0,74389,74443,91.07844,245.0392,93.80668,235.4185 M,0,74443,74496,93.80668,235.4185,96.53492,225.7979 M,0,74496,74550,96.53492,225.7979,99.26316,216.1773
Sprite,Foreground,Centre,"sb/highlight.png",0,0 S,2,75407,76504,0.5,0.1 F,2,75407,76504,1,0 P,0,75407,76504,A C,0,75407,,167,167,167 M,0,75407,75460,219,88,228.9643,88.84443 M,0,75460,75514,228.9643,88.84443,238.9286,89.68886 M,0,75514,75567,238.9286,89.68886,248.8929,90.53329 M,0,75567,75621,248.8929,90.53329,258.8571,91.37772 M,0,75621,75674,258.8571,91.37772,268.8214,92.22215 M,0,75674,75728,268.8214,92.22215,278.7857,93.06659 M,0,75728,75782,278.7857,93.06659,288.75,93.91101 M,0,75782,75835,288.75,93.91101,298.7143,94.75545 M,0,75835,75889,298.7143,94.75545,308.6785,95.59988 M,0,75889,75942,308.6785,95.59988,318.6428,96.44431 M,0,75942,75996,318.6428,96.44431,328.6071,97.28874 M,0,75996,76049,328.6071,97.28874,338.5714,98.13317 M,0,76049,76103,338.5714,98.13317,348.5357,98.9776 M,0,76103,76157,348.5357,98.9776,358.4999,99.82203 M,0,76157,76210,358.4999,99.82203,368.4642,100.6665 M,0,76210,76264,368.4642,100.6665,378.4285,101.5109
Sprite,Foreground,Centre,"sb/highlight.png",465,111 S,2,76693,76933,0.5,0.1 F,2,76693,76933,1,0 P,0,76693,76933,A C,0,76693,,167,167,167
Sprite,Foreground,Centre,"sb/highlight.png",0,0 S,2,77121,77789,0.5,0.1 F,2,77121,77789,1,0 P,0,77121,77789,A C,0,77121,,167,167,167 M,0,77121,77174,552,119,551.0231,128.9521 M,0,77174,77228,551.0231,128.9521,550.0901,138.9085 M,0,77228,77281,550.0901,138.9085,549.2009,148.8688 M,0,77281,77335,549.2009,148.8688,548.3556,158.8329 M,0,77335,77388,548.3556,158.8329,547.5541,168.8007 M,0,77388,77442,547.5541,168.8007,546.7965,178.7719 M,0,77442,77496,546.7965,178.7719,546.0699,188.7454 M,0,77496,77549,546.0699,188.7454,545.4009,198.723
Sprite,Foreground,Centre,"sb/highlight.png",539,286 S,2,77978,78218,0.5,0.1 F,2,77978,78218,1,0 P,0,77978,78218,A C,0,77978,,167,167,167
Sprite,Foreground,Centre,"sb/highlight.png",451,277 S,2,78407,78647,0.5,0.1 F,2,78407,78647,1,0 P,0,78407,78647,A C,0,78407,,167,167,167
Sprite,Foreground,Centre,"sb/highlight.png",0,0 S,2,78835,79932,0.5,0.1 F,2,78835,79932,1,0 P,0,78835,79932,A C,0,78835,,111,111,111 M,0,78835,78888,363,268,357.4231,276.3005 M,0,78888,78942,357.4231,276.3005,351.8462,284.601 M,0,78942,78995,351.8462,284.601,346.2693,292.9015 M,0,78995,79049,346.2693,292.9015,340.6924,301.202 M,0,79049,79102,340.6924,301.202,335.1155,309.5025 M,0,79102,79156,335.1155,309.5025,329.5386,317.803 M,0,79156,79210,329.5386,317.803,323.9617,326.1035 M,0,79210,79263,323.9617,326.1035,321.5923,334.4191 M,0,79263,79317,321.5923,334.4191,327.0905,342.772 M,0,79317,79370,327.0905,342.772,332.5886,351.1249 M,0,79370,79424,332.5886,351.1249,338.0867,359.4778 M,0,79424,79477,338.0867,359.4778,343.5848,367.8307 M,0,79477,79531,343.5848,367.8307,349.0829,376.1836 M,0,79531,79585,349.0829,376.1836,354.581,384.5365 M,0,79585,79638,354.581,384.5365,360.0791,392.8894 M,0,79638,79692,360.0791,392.8894,365.5772,401.2423
Sprite,Foreground,Centre,"sb/highlight.png",453,406 S,2,80121,80361,0.5,0.1 F,2,80121,80361,1,0 P,0,80121,80361,A C,0,80121,,111,111,111
Sprite,Foreground,Centre,"sb/highlight.png",0,0 S,2,80550,81218,0.5,0.1 F,2,80550,81218,1,0 P,0,80550,81218,A C,0,80550,,111,111,111 M,0,80550,80603,541,409,543.0112,399.2044 M,0,80603,80657,543.0112,399.2044,544.9711,389.3984 M,0,80657,80710,544.9711,389.3984,546.8795,379.5823 M,0,80710,80764,546.8795,379.5823,548.7365,369.7563 M,0,80764,80817,548.7365,369.7563,550.5518,359.9225 M,0,80817,80871,550.5518,359.9225,552.2971,350.0761 M,0,80871,80925,552.2971,350.0761,553.991,340.2206 M,0,80925,80978,553.991,340.2206,555.6329,330.3565
Sprite,Foreground,Centre,"sb/highlight.png",565,242 S,2,81407,81647,0.5,0.1 F,2,81407,81647,1,0 P,0,81407,81647,A C,0,81407,,111,111,111
Sprite,Foreground,Centre,"sb/highlight.png",489,196 S,2,81835,82075,0.5,0.1 F,2,81835,82075,1,0 P,0,81835,82075,A C,0,81835,,111,111,111
Sprite,Foreground,Centre,"sb/highlight.png",0,0 S,2,82264,82932,0.5,0.1 F,2,82264,82932,1,0 P,0,82264,82932,A C,0,82264,,111,111,111 M,0,82264,82317,408,231,398.0718,232.1962 M,0,82317,82371,398.0718,232.1962,388.1388,233.3514 M,0,82371,82424,388.1388,233.3514,378.2011,234.4656 M,0,82424,82478,378.2011,234.4656,368.2589,235.5387 M,0,82478,82531,368.2589,235.5387,358.3124,236.5707 M,0,82531,82585,358.3124,236.5707,348.3617,237.5615 M,0,82585,82639,348.3617,237.5615,338.4081,238.524 M,0,82639,82692,338.4081,238.524,328.4494,239.4317
Sprite,Foreground,Centre,"sb/highlight.png",0,0 S,2,83121,83789,0.5,0.1 F,2,83121,83789,1,0 P,0,83121,83789,A C,0,83121,,111,111,111 M,0,83121,83174,265,301,255.0326,300.1932 M,0,83174,83228,255.0326,300.1932,245.0655,299.3835 M,0,83228,83281,245.0655,299.3835,235.0987,298.5688 M,0,83281,83335,235.0987,298.5688,225.1323,297.7512 M,0,83335,83388,225.1323,297.7512,215.166,296.9287 M,0,83388,83442,215.166,296.9287,205.2,296.1041 M,0,83442,83496,205.2,296.1041,195.2345,295.2744 M,0,83496,83549,195.2345,295.2744,185.2693,294.442
Sprite,Foreground,Centre,"sb/highlight.png",116,349 S,2,83978,84218,0.5,0.1 F,2,83978,84218,1,0 P,0,83978,84218,A C,0,83978,,111,111,111
Sprite,Foreground,Centre,"sb/highlight.png",0,0 S,2,85693,86790,0.5,0.1 F,2,85693,86790,1,0 P,0,85693,86790,A C,0,85693,,225,91,236 M,0,85693,85746,116,349,113.7485,358.6941 M,0,85746,85800,113.7485,358.6941,113.2021,368.6068 M,0,85800,85853,113.2021,368.6068,114.3705,378.447 M,0,85853,85907,114.3705,378.447,117.2148,387.9265 M,0,85907,85960,117.2148,387.9265,121.6488,396.7675 M,0,85960,86014,121.6488,396.7675,127.236,404.946 M,0,86014,86068,127.236,404.946,134.6005,411.605 M,0,86068,86121,134.6005,411.605,142.9868,416.8849 M,0,86121,86175,142.9868,416.8849,152.1463,420.6347 M,0,86175,86228,152.1463,420.6347,161.809,422.7468 M,0,86228,86282,161.809,422.7468,171.6828,423.5561 M,0,86282,86335,171.6828,423.5561,181.4924,422.0173 M,0,86335,86389,181.4924,422.0173,190.872,418.8167 M,0,86389,86443,190.872,418.8167,199.5479,414.0528 M,0,86443,86496,199.5479,414.0528,207.2666,407.8679 M,0,86496,86550,207.2666,407.8679,214.2075,400.7573
Sprite,Foreground,Centre,"sb/highlight.png",269,332 S,2,86978,87218,0.5,0.1 F,2,86978,87218,1,0 P,0,86978,87218,A C,0,86978,,225,91,236
Sprite,Foreground,Centre,"sb/highlight.png",0,0 S,2,87407,88075,0.5,0.1 F,2,87407,88075,1,0 P,0,87407,88075,A C,0,87407,,225,91,236 M,0,87407,87460,216,261,218.2698,251.261 M,0,87460,87514,218.2698,251.261,220.5652,241.528 M,0,87514,87567,220.5652,241.528,222.886,231.8011 M,0,87567,87621,222.886,231.8011,225.2322,222.0803 M,0,87621,87674,225.2322,222.0803,227.6039,212.3656 M,0,87674,87728,227.6039,212.3656,229.994,202.6554 M,0,87728,87782,229.994,202.6554,232.4197,192.9541 M,0,87782,87835,232.4197,192.9541,234.8709,183.2592
Sprite,Foreground,Centre,"sb/highlight.png",0,0 S,2,88264,88932,0.5,0.1 F,2,88264,88932,1,0 P,0,88264,88932,A C,0,88264,,225,91,236 M,0,88264,88317,260,98,269.8669,99.6264 M,0,88317,88371,269.8669,99.6264,279.7337,101.2528 M,0,88371,88424,279.7337,101.2528,289.6006,102.8792 M,0,88424,88478,289.6006,102.8792,299.4674,104.5056 M,0,88478,88531,299.4674,104.5056,309.3343,106.132 M,0,88531,88585,309.3343,106.132,319.2011,107.7584 M,0,88585,88639,319.2011,107.7584,329.068,109.3848 M,0,88639,88692,329.068,109.3848,338.9348,111.0112
Sprite,Foreground,Centre,"sb/highlight.png",421,80 S,2,89121,89361,0.5,0.1 F,2,89121,89361,1,0 P,0,89121,89361,A C,0,89121,,188,46,185
Sprite,Foreground,Centre,"sb/highlight.png",508,69 S,2,89550,89790,0.5,0.1 F,2,89550,89790,1,0 P,0,89550,89790,A C,0,89550,,188,46,185
Sprite,Foreground,Centre,"sb/highlight.png",563,137 S,2,89978,90218,0.5,0.1 F,2,89978,90218,1,0 P,0,89978,90218,A C,0,89978,,188,46,185
Sprite,Foreground,Centre,"sb/highlight.png",516,211 S,2,90407,90647,0.5,0.1 F,2,90407,90647,1,0 P,0,90407,90647,A C,0,90407,,188,46,185
Sprite,Foreground,Centre,"sb/highlight.png",0,0 S,2,90835,91503,0.5,0.1 F,2,90835,91503,1,0 P,0,90835,91503,A C,0,90835,,188,46,185 M,0,90835,90888,428,202,418.1274,203.5908 M,0,90888,90942,418.1274,203.5908,408.2603,205.216 M,0,90942,90995,408.2603,205.216,398.399,206.8756 M,0,90995,91049,398.399,206.8756,388.5436,208.5695 M,0,91049,91102,388.5436,208.5695,378.6941,210.2976 M,0,91102,91156,378.6941,210.2976,368.8491,212.0511 M,0,91156,91210,368.8491,212.0511,359.0127,213.8524 M,0,91210,91263,359.0127,213.8524,349.1826,215.688
Sprite,Foreground,Centre,"sb/highlight.png",0,0 S,2,91693,92361,0.5,0.1 F,2,91693,92361,1,0 P,0,91693,92361,A C,0,91693,,188,46,185 M,0,91693,91746,263,234,264.3893,243.903 M,0,91746,91800,264.3893,243.903,265.7556,253.8093 M,0,91800,91853,265.7556,253.8093,267.0981,263.7187 M,0,91853,91907,267.0981,263.7187,268.4177,273.6312 M,0,91907,91960,268.4177,273.6312,269.714,283.5468 M,0,91960,92014,269.714,283.5468,270.9935,293.4646 M,0,92014,92068,270.9935,293.4646,272.2397,303.3866 M,0,92068,92121,272.2397,303.3866,273.4628,313.3116
Sprite,Foreground,Centre,"sb/highlight.png",0,0 S,2,92550,93647,0.5,0.1 F,2,92550,93647,1,0 P,0,92550,93647,A C,0,92550,,167,167,167 M,0,92550,92603,333,377,342.8873,378.4868 M,0,92603,92657,342.8873,378.4868,352.8501,379.3137 M,0,92657,92710,352.8501,379.3137,362.8431,379.1817 M,0,92710,92764,362.8431,379.1817,372.7151,377.6664 M,0,92764,92817,372.7151,377.6664,382.1188,374.3209 M,0,92817,92871,382.1188,374.3209,390.6699,369.1614 M,0,92871,92925,390.6699,369.1614,398.59,363.0578 M,0,92925,92978,398.59,363.0578,406.6974,357.2115 M,0,92978,93032,406.6974,357.2115,415.553,352.595 M,0,93032,93085,415.553,352.595,425.0771,349.5883 M,0,93085,93139,425.0771,349.5883,434.9462,348.0229 M,0,93139,93192,434.9462,348.0229,444.9314,347.5581 M,0,93192,93246,444.9314,347.5581,454.9233,347.8947 M,0,93246,93300,454.9233,347.8947,464.8792,348.8195 M,0,93300,93353,464.8792,348.8195,474.7822,350.2038 M,0,93353,93407,474.7822,350.2038,484.6315,351.9301
Sprite,Foreground,Centre,"sb/highlight.png",566,318 S,2,93835,94075,0.5,0.1 F,2,93835,94075,1,0 P,0,93835,94075,A C,0,93835,,167,167,167
Sprite,Foreground,Centre,"sb/highlight.png",0,0 S,2,94264,94932,0.5,0.1 F,2,94264,94932,1,0 P,0,94264,94932,A C,0,94264,,167,167,167 M,0,94264,94317,517,244,519.0648,234.2154 M,0,94317,94371,519.0648,234.2154,521.1384,224.4329 M,0,94371,94424,521.1384,224.4329,523.2212,214.6521 M,0,94424,94478,523.2212,214.6521,525.3125,204.8733 M,0,94478,94531,525.3125,204.8733,527.4131,195.0963 M,0,94531,94585,527.4131,195.0963,529.5221,185.3213 M,0,94585,94639,529.5221,185.3213,531.6379,175.5476 M,0,94639,94692,531.6379,175.5476,533.7665,165.7767
Sprite,Foreground,Centre,"sb/highlight.png",554,80 S,2,95121,95361,0.5,0.1 F,2,95121,95361,1,0 P,0,95121,95361,A C,0,95121,,167,167,167
Sprite,Foreground,Centre,"sb/highlight.png",0,0 S,2,95978,96646,0.5,0.1 F,2,95978,96646,1,0 P,0,95978,96646,A C,0,95978,,167,167,167 M,0,95978,96031,378,84,368.0361,84.84827 M,0,96031,96085,368.0361,84.84827,358.0713,85.68722 M,0,96085,96138,358.0713,85.68722,348.1057,86.5161 M,0,96138,96192,348.1057,86.5161,338.1393,87.33485 M,0,96192,96245,338.1393,87.33485,328.1721,88.14404 M,0,96245,96299,328.1721,88.14404,318.2041,88.9434 M,0,96299,96353,318.2041,88.9434,308.2355,89.73564 M,0,96353,96406,308.2355,89.73564,298.2659,90.51489
Sprite,Foreground,Centre,"sb/highlight.png",0,0 S,2,96835,97503,0.5,0.1 F,2,96835,97503,1,0 P,0,96835,97503,A C,0,96835,,167,167,167 M,0,96835,96888,234,151,224.0771,149.7608 M,0,96888,96942,224.0771,149.7608,214.1581,148.4904 M,0,96942,96995,214.1581,148.4904,204.2432,147.1891 M,0,96995,97049,204.2432,147.1891,194.3324,145.8567 M,0,97049,97102,194.3324,145.8567,184.4258,144.4934 M,0,97102,97156,184.4258,144.4934,174.5235,143.0992 M,0,97156,97210,174.5235,143.0992,164.6243,141.6831 M,0,97210,97263,164.6243,141.6831,154.7314,140.2234
Sprite,Foreground,Centre,"sb/highlight.png",87,197 S,2,97693,97933,0.5,0.1 F,2,97693,97933,1,0 P,0,97693,97933,A C,0,97693,,167,167,167
Sprite,Foreground,Centre,"sb/highlight.png",0,0 S,2,99407,100504,0.5,0.1 F,2,99407,100504,1,0 P,0,99407,100504,A C,0,99407,,111,111,111 M,0,99407,99460,87,197,89.09529,206.778 M,0,99460,99514,89.09529,206.778,91.19058,216.556 M,0,99514,99567,91.19058,216.556,93.28587,226.3341 M,0,99567,99621,93.28587,226.3341,95.38116,236.1121 M,0,99621,99674,95.38116,236.1121,97.47646,245.8901 M,0,99674,99728,97.47646,245.8901,97.86679,255.4823 M,0,99728,99782,97.86679,255.4823,93.71387,264.5792 M,0,99782,99835,93.71387,264.5792,89.56094,273.676 M,0,99835,99889,89.56094,273.676,85.40802,282.7729 M,0,99889,99942,85.40802,282.7729,81.2551,291.8698 M,0,99942,99996,81.2551,291.8698,78.45299,301.114 M,0,99996,100049,78.45299,301.114,80.54828,310.892 M,0,100049,100103,80.54828,310.892,82.64357,320.67 M,0,100103,100157,82.64357,320.67,84.73886,330.448 M,0,100157,100210,84.73886,330.448,86.83415,340.226 M,0,100210,100264,86.83415,340.226,88.92944,350.0041
Sprite,Foreground,Centre,"sb/highlight.png",151,412 S,2,100693,100933,0.5,0.1 F,2,100693,100933,1,0 P,0,100693,100933,A C,0,100693,,111,111,111
Sprite,Foreground,Centre,"sb/highlight.png",0,0 S,2,101121,101789,0.5,0.1 F,2,101121,101789,1,0 P,0,101121,101789,A C,0,101121,,111,111,111 M,0,101121,101174,217,354,225.8893,349.5036 M,0,101174,101228,225.8893,349.5036,235.3331,346.3928 M,0,101228,101281,235.3331,346.3928,245.1236,344.7319 M,0,101281,101335,245.1236,344.7319,255.0456,344.555 M,0,101335,101388,255.0456,344.555,264.9213,345.58 M,0,101388,101442,264.9213,345.58,274.4016,348.584 M,0,101442,101496,274.4016,348.584,283.3138,352.9663 M,0,101496,101549,283.3138,352.9663,291.4638,358.6289
Sprite,Foreground,Centre,"sb/highlight.png",0,0 S,2,101978,102646,0.5,0.1 F,2,101978,102646,1,0 P,0,101978,102646,A C,0,101978,,111,111,111 M,0,101978,102031,364,308,356.0528,302.0033 M,0,102031,102085,356.0528,302.0033,349.2855,294.7323 M,0,102085,102138,349.2855,294.7323,343.8972,286.4105 M,0,102138,102192,343.8972,286.4105,340.0459,277.2914 M,0,102192,102245,340.0459,277.2914,337.8441,267.6516 M,0,102245,102299,337.8441,267.6516,337.3554,257.7826 M,0,102299,102353,337.3554,257.7826,337.9908,247.86 M,0,102353,102406,337.9908,247.86,341.0118,238.3537
Sprite,Foreground,Centre,"sb/highlight.png",0,0 S,2,102835,103932,0.5,0.1 F,2,102835,103932,1,0 P,0,102835,103932,A C,0,102835,,111,111,111 M,0,102835,102888,367,154,375.7839,149.2205 M,0,102888,102942,375.7839,149.2205,384.5678,144.4411 M,0,102942,102995,384.5678,144.4411,393.3517,139.6616 M,0,102995,103049,393.3517,139.6616,402.1356,134.8821 M,0,103049,103102,402.1356,134.8821,410.9194,130.1027 M,0,103102,103156,410.9194,130.1027,419.7033,125.3232 M,0,103156,103210,419.7033,125.3232,428.4872,120.5437 M,0,103210,103263,428.4872,120.5437,437.301,118.1792 M,0,103263,103317,437.301,118.1792,446.2003,122.7401 M,0,103317,103370,446.2003,122.7401,455.0996,127.3011 M,0,103370,103424,455.0996,127.3011,463.999,131.862 M,0,103424,103477,463.999,131.862,472.8983,136.4229 M,0,103477,103531,472.8983,136.4229,481.7976,140.9838 M,0,103531,103585,481.7976,140.9838,490.697,145.5447 M,0,103585,103638,490.697,145.5447,499.5963,150.1056 M,0,103638,103692,499.5963,150.1056,508.4956,154.6665
Sprite,Foreground,Centre,"sb/highlight.png",533,239 S,2,104121,104361,0.5,0.1 F,2,104121,104361,1,0 P,0,104121,104361,A C,0,104121,,111,111,111
Sprite,Foreground,Centre,"sb/highlight.png",0,0 S,2,104550,105218,0.5,0.1 F,2,104550,105218,1,0 P,0,104550,105218,A C,0,104550,,111,111,111 M,0,104550,104603,564,321,562.6898,330.9138 M,0,104603,104657,562.6898,330.9138,561.3727,340.8266 M,0,104657,104710,561.3727,340.8266,560.0487,350.7387 M,0,104710,104764,560.0487,350.7387,558.7189,360.6498 M,0,104764,104817,558.7189,360.6498,557.384,370.5603 M,0,104817,104871,557.384,370.5603,556.0409,380.4696 M,0,104871,104925,556.0409,380.4696,554.691,390.3782 M,0,104925,104978,554.691,390.3782,553.3342,400.2857
Sprite,Foreground,Centre,"sb/highlight.png",466,384 S,2,105407,105647,0.5,0.1 F,2,105407,105647,1,0 P,0,105407,105647,A C,0,105407,,111,111,111
Sprite,Foreground,Centre,"sb/highlight.png",388,425 S,2,105835,106075,0.5,0.1 F,2,105835,106075,1,0 P,0,105835,106075,A C,0,105835,,111,111,111
Sprite,Foreground,Centre,"sb/highlight.png",0,0 S,2,106264,106932,0.5,0.1 F,2,106264,106932,1,0 P,0,106264,106932,A C,0,106264,,225,91,236 M,0,106264,106317,310,383,311.2996,373.0849 M,0,106317,106371,311.2996,373.0849,312.6509,363.1767 M,0,106371,106424,312.6509,363.1767,314.054,353.2757 M,0,106424,106478,314.054,353.2757,315.5088,343.3821 M,0,106478,106531,315.5088,343.3821,317.0013,333.4942 M,0,106531,106585,317.0013,333.4942,318.5674,323.6176 M,0,106585,106639,318.5674,323.6176,320.1849,313.7494 M,0,106639,106692,320.1849,313.7494,321.8539,303.8898
Sprite,Foreground,Centre,"sb/highlight.png",269,232 S,2,107121,107361,0.5,0.1 F,2,107121,107361,1,0 P,0,107121,107361,A C,0,107121,,225,91,236
Sprite,Foreground,Centre,"sb/highlight.png",188,268 S,2,107550,107790,0.5,0.1 F,2,107550,107790,1,0 P,0,107550,107790,A C,0,107550,,225,91,236
Sprite,Foreground,Centre,"sb/highlight.png",0,0 S,2,107978,108646,0.5,0.1 F,2,107978,108646,1,0 P,0,107978,108646,A C,0,107978,,225,91,236 M,0,107978,108031,114,219,115.4797,209.1101 M,0,108031,108085,115.4797,209.1101,116.9733,199.2223 M,0,108085,108138,116.9733,199.2223,118.4813,189.3366 M,0,108138,108192,118.4813,189.3366,120.0034,179.4532 M,0,108192,108245,120.0034,179.4532,121.5354,169.5712 M,0,108245,108299,121.5354,169.5712,123.088,159.6925 M,0,108299,108353,123.088,159.6925,124.6551,149.816 M,0,108353,108406,124.6551,149.816,126.236,139.9418
Sprite,Foreground,Centre,"sb/highlight.png",192,82 S,2,108835,109075,0.5,0.1 F,2,108835,109075,1,0 P,0,108835,109075,A C,0,108835,,225,91,236
Sprite,Foreground,Centre,"sb/highlight.png",0,0 S,2,109693,110361,0.5,0.1 F,2,109693,110361,1,0 P,0,109693,110361,A C,0,109693,,225,91,236 M,0,109693,109746,364,118,373.9461,116.9632 M,0,109746,109800,373.9461,116.9632,383.8969,115.9729 M,0,109800,109853,383.8969,115.9729,393.8522,115.0293 M,0,109853,109907,393.8522,115.0293,403.8118,114.1326 M,0,109907,109960,403.8118,114.1326,413.7755,113.2824 M,0,109960,110014,413.7755,113.2824,423.7431,112.479 M,0,110014,110068,423.7431,112.479,433.7133,111.7072 M,0,110068,110121,433.7133,111.7072,443.6884,111.0027
Sprite,Foreground,Centre,"sb/highlight.png",530,99 S,2,110550,110790,0.5,0.1 F,2,110550,110790,1,0 P,0,110550,110790,A C,0,110550,,225,91,236
Sprite,Foreground,Centre,"sb/highlight.png",568,178 S,2,110978,111218,0.5,0.1 F,2,110978,111218,1,0 P,0,110978,111218,A C,0,110978,,225,91,236
Sprite,Foreground,Centre,"sb/highlight.png",0,0 S,2,111407,112504,0.5,0.1 F,2,111407,112504,1,0 P,0,111407,112504,A C,0,111407,,188,46,185 M,0,111407,111460,514,248,504.1005,246.5858 M,0,111460,111514,504.1005,246.5858,494.201,245.1716 M,0,111514,111567,494.201,245.1716,484.3015,243.7574 M,0,111567,111621,484.3015,243.7574,474.402,242.3431 M,0,111621,111674,474.402,242.3431,464.5025,240.9289 M,0,111674,111728,464.5025,240.9289,455.2182,242.0091 M,0,111728,111782,455.2182,242.0091,447.1114,247.864 M,0,111782,111835,447.1114,247.864,439.0046,253.7189 M,0,111835,111889,439.0046,253.7189,430.8978,259.5738 M,0,111889,111942,430.8978,259.5738,422.791,265.4287 M,0,111942,111996,422.791,265.4287,413.0549,264.8073 M,0,111996,112049,413.0549,264.8073,403.1426,263.4857 M,0,112049,112103,403.1426,263.4857,393.2303,262.1641 M,0,112103,112157,393.2303,262.1641,383.3181,260.8424 M,0,112157,112210,383.3181,260.8424,373.4058,259.5208 M,0,112210,112264,373.4058,259.5208,363.4935,258.1992
Sprite,Foreground,Centre,"sb/highlight.png",291,207 S,2,112693,112933,0.5,0.1 F,2,112693,112933,1,0 P,0,112693,112933,A C,0,112693,,188,46,185
//Storyboard Sound Samples

[TimingPoints]
1693,428.571428571429,4,2,1,30,1,0
1907,-100,4,2,1,35,0,0
2121,-100,4,2,1,40,0,0
2335,-100,4,2,1,45,0,0
2550,-100,4,2,1,50,0,0
2764,-100,4,2,1,55,0,0
2978,-100,4,2,1,60,0,0
10264,-100,4,2,1,70,0,0
13264,-100,4,2,1,20,0,0
13371,-100,4,2,1,22,0,0
13478,-100,4,2,1,25,0,0
13585,-100,4,2,1,27,0,0
13693,-100,4,2,1,30,0,0
13800,-100,4,2,1,32,0,0
13907,-100,4,2,1,35,0,0
14014,-100,4,2,1,37,0,0
14121,-100,4,2,1,40,0,0
14228,-100,4,2,1,42,0,0
14335,-100,4,2,1,45,0,0
14443,-100,4,2,1,47,0,0
14550,-100,4,2,1,50,0,0
14657,-100,4,2,1,52,0,0
14764,-100,4,2,1,55,0,0
14871,-100,4,2,1,57,0,0
14978,-100,4,2,1,60,0,0
15085,-100,4,2,1,62,0,0
15193,-100,4,2,1,65,0,0
15300,-100,4,2,1,67,0,0
15407,-100,4,2,1,70,0,0
17121,-100,4,2,1,80,0,0
29121,-100,4,2,1,70,0,0
30835,-100,4,2,1,80,0,0
42835,-100,4,2,1,50,0,0
43050,-100,4,2,1,60,0,0
43264,-100,4,2,1,50,0,0
43478,-100,4,2,1,60,0,0
43693,-100,4,2,1,80,0,0
44550,-100,4,2,1,90,0,0
56550,-100,4,2,1,60,0,0
58264,-100,4,2,1,80,0,0
70264,-100,4,2,1,70,0,0
71978,-100,4,2,1,80,0,0
83978,-100,4,2,1,50,0,0
84193,-100,4,2,1,60,0,0
84407,-100,4,2,1,50,0,0
84621,-100,4,2,1,60,0,0
84836,-100,4,2,1,80,0,0
85693,-100,4,2,1,90,0,0
97693,-100,4,2,1,70,0,0
99407,-100,4,2,1,90,0,0
113121,-100,4,2,2,100,0,0
113550,-100,4,2,2,90,0,0
113978,-100,4,2,2,80,0,0
114407,-100,4,2,2,70,0,0
114835,-100,4,2,2,60,0,0
115264,-100,4,2,2,50,0,0
115693,-100,4,2,2,40,0,0
116121,-100,4,2,2,20,0,0
116550,-100,4,2,2,5,0,0

[Colours]
Combo1 : 188,46,185
Combo2 : 167,167,167
Combo3 : 111,111,111
Combo4 : 225,91,236

[HitObjects]
30,83,3407,6,0,L|39:173,1,80,4|2,3:2|3:2,0:0:0:0:
119,195,4264,2,0,L|107:283,1,80,2|2,3:2|3:2,0:0:0:0:
160,345,5121,2,0,B|248:355|205:290|315:304,1,160,2|2,3:2|3:2,0:0:0:0:
485,301,6835,2,0,P|490:251|493:216,1,80,2|2,3:2|3:2,0:0:0:0:
432,156,7693,2,0,P|437:106|440:71,1,80,2|2,3:2|3:2,0:0:0:0:
362,33,8550,2,0,P|289:28|272:103,1,160,2|2,3:2|3:2,0:0:0:0:
155,232,10264,6,0,B|101:241|67:263|67:263|37:248|37:196,1,160,2|2,3:2|3:2,0:0:0:0:
22,121,11550,1,2,3:2:0:0:
72,49,11978,2,0,P|110:54|156:59,1,80,2|2,3:2|3:2,0:0:0:0:
233,25,12835,1,2,3:2:0:0:
303,78,13264,1,10,3:2:0:0:
251,149,13693,2,0,P|233:184|243:225,1,80,10|10,3:2|3:2,0:0:0:0:
321,259,14550,2,0,P|339:294|329:335,1,80,10|10,3:2|3:2,0:0:0:0:
252,372,15407,1,2,3:2:0:0:
252,372,17121,6,0,B|198:369|183:333|183:333|143:310|95:333,1,160,6|2,1:2|3:2,0:0:0:0:
32,282,18407,1,10,3:1:0:0:
71,203,18835,2,0,P|117:200|162:197,1,80,0|8,3:0|3:2,0:0:0:0:
238,190,19693,1,2,1:1:0:0:
285,115,20121,1,10,1:1:0:0:
237,40,20550,6,0,P|191:36|151:33,1,80,2|8,3:2|3:2,0:0:0:0:
69,24,21407,1,2,3:2:0:0:
23,194,22264,2,0,B|5:234|5:234|29:267,1,80,0|8,3:0|3:2,0:0:0:0:
92,321,23121,1,2,1:1:0:0:
167,367,23550,1,10,1:1:0:0:
238,315,23978,6,0,P|281:310|334:304,1,80,2|8,3:2|3:2,0:0:0:0:
404,295,24835,1,2,3:2:0:0:
499,146,25693,2,0,B|519:108|519:108|500:70,1,80,0|8,3:0|3:2,0:0:0:0:
436,16,26550,1,2,1:1:0:0:
361,62,26978,1,10,1:1:0:0:
278,31,27407,6,0,P|239:17|199:32,1,80,2|8,3:2|3:2,0:0:0:0:
133,82,28264,2,0,P|139:126|144:167,1,80,2|8,3:2|3:2,0:0:0:0:
157,248,29121,1,2,3:1:0:0:
157,248,30835,6,0,B|205:262|205:262|257:233|257:233|309:246,1,160,6|2,1:2|3:2,0:0:0:0:
392,231,32121,1,8,3:2:0:0:
467,276,32550,2,0,P|461:319|456:361,2,80,0|8|2,3:0|3:2|1:1,0:0:0:0:
371,127,34264,2,0,L|207:144,1,160,2|2,3:2|3:2,0:0:0:0:
124,153,35550,1,10,3:2:0:0:
36,161,35978,2,0,B|16:123|16:123|35:85,1,80,0|8,3:0|3:2,0:0:0:0:
76,13,36835,1,2,1:1:0:0:
156,53,37264,1,10,1:1:0:0:
236,17,37693,6,0,L|329:32,1,80,2|8,3:2|3:2,0:0:0:0:
399,53,38550,2,0,L|387:143,1,80,2|8,3:2|3:2,0:0:0:0:
310,173,39407,2,0,B|232:155|232:155|191:230,1,160,0|2,3:0|1:1,0:0:0:0:
312,357,41121,2,0,L|405:351,1,80,2|8,3:2|3:2,0:0:0:0:
479,341,41978,2,0,L|474:247,1,80,2|8,3:2|3:2,0:0:0:0:
469,173,42835,1,10,0:0:0:0:
140,46,44550,6,0,P|102:33|66:49,1,80,6|10,1:2|3:1,0:0:0:0:
10,115,45407,1,2,3:2:0:0:
29,200,45835,1,10,0:1:0:0:
115,214,46264,2,0,P|109:255|103:300,1,80,2|10,3:2|3:2,0:0:0:0:
163,357,47121,2,0,L|258:366,1,80,2|10,3:2|3:2,0:0:0:0:
330,363,47978,6,0,B|374:295|374:295|321:226,1,160,6|2,3:2|3:2,0:0:0:0:
268,165,49264,1,10,0:1:0:0:
205,103,49693,2,0,L|121:98,2,80,2|10|2,3:2|3:2|3:2,0:0:0:0:
370,43,51407,6,0,P|444:28|483:96,1,160,6|2,0:2|3:2,0:0:0:0:
490,179,52693,1,10,0:1:0:0:
428,242,53121,2,0,P|383:237|344:233,1,80,2|10,3:2|3:2,0:0:0:0:
293,164,53978,2,0,P|253:168|213:172,1,80,2|10,3:2|3:2,0:0:0:0:
132,136,54835,6,0,B|86:153|42:153|42:153|33:191|54:219,1,160,6|2,3:2|3:2,0:0:0:0:
103,290,56121,1,10,0:1:0:0:
157,358,56550,1,2,3:2:0:0:
157,358,58264,6,0,B|205:357|226:314|226:314|260:288|312:302,1,160,6|2,1:2|3:2,0:0:0:0:
382,288,59550,1,10,3:1:0:0:
468,273,59978,2,0,P|478:232|460:197,1,80,0|8,3:0|3:2,0:0:0:0:
394,143,60835,1,2,1:1:0:0:
322,194,61264,1,10,1:1:0:0:
247,146,61693,6,0,P|250:102|253:55,1,80,2|8,3:2|3:2,0:0:0:0:
324,16,62550,1,2,3:2:0:0:
491,69,63407,2,0,P|488:108|485:148,1,80,0|8,3:0|3:2,0:0:0:0:
479,236,64264,1,2,1:1:0:0:
473,323,64693,1,10,1:1:0:0:
391,355,65121,6,0,B|351:368|351:368|315:343,1,80,2|8,3:2|3:2,0:0:0:0:
252,289,65978,1,2,3:2:0:0:
185,123,66835,2,0,P|191:76|197:31,1,80,0|8,3:0|3:2,0:0:0:0:
117,1,67693,1,2,1:1:0:0:
44,50,68121,1,10,1:1:0:0:
20,134,68550,6,0,P|26:182|32:227,1,80,2|8,3:2|3:2,0:0:0:0:
114,239,69407,2,0,P|108:287|102:332,1,80,2|8,3:2|3:2,0:0:0:0:
180,361,70264,1,8,0:0:0:0:
180,361,71978,6,0,L|269:351,2,80,6|8|2,1:2|3:2|3:2,0:0:0:0:
92,371,73264,1,8,3:2:0:0:
25,313,73693,2,0,B|38:258|38:258|20:214|20:214|39:147,1,160,0|2,3:0|1:1,0:0:0:0:
155,32,75407,2,0,L|332:47,1,160,2|2,3:2|3:2,0:0:0:0:
401,55,76693,1,10,3:2:0:0:
488,63,77121,2,0,P|484:107|481:149,1,80,0|8,3:0|3:2,0:0:0:0:
475,230,77978,1,2,1:1:0:0:
387,221,78407,1,10,1:1:0:0:
299,212,78835,6,0,B|256:276|256:276|308:355,1,160,2|2,3:2|3:2,0:0:0:0:
389,350,80121,1,8,3:2:0:0:
477,353,80550,2,0,P|486:307|493:266,1,80,0|8,3:0|3:2,0:0:0:0:
501,186,81407,1,2,1:1:0:0:
425,140,81835,1,10,1:1:0:0:
344,175,82264,2,0,P|300:180|258:184,1,80,2|8,3:2|3:2,0:0:0:0:
201,245,83121,2,0,P|152:241|116:238,1,80,2|8,3:2|3:2,0:0:0:0:
52,293,83978,1,10,0:0:0:0:
52,293,85693,6,0,P|63:349|154:339,1,160,6|2,1:2|3:2,0:0:0:0:
205,276,86978,1,10,0:1:0:0:
152,205,87407,2,0,P|161:167|174:115,1,80,2|10,3:2|3:2,0:0:0:0:
196,42,88264,2,0,L|287:57,1,80,2|10,3:2|3:2,0:0:0:0:
357,24,89121,5,2,3:2:0:0:
444,13,89550,1,10,3:1:0:0:
499,81,89978,1,2,3:2:0:0:
452,155,90407,1,10,0:1:0:0:
364,146,90835,2,0,P|322:153|273:162,1,80,2|10,3:2|3:2,0:0:0:0:
199,178,91693,2,0,P|205:222|211:270,1,80,2|10,3:2|3:2,0:0:0:0:
269,321,92550,6,0,B|353:336|312:275|421:296,1,160,2|2,3:2|3:2,0:0:0:0:
502,262,93835,1,10,0:1:0:0:
453,188,94264,2,0,P|463:141|473:95,1,80,2|10,3:2|3:2,0:0:0:0:
490,24,95121,1,2,3:2:0:0:
314,28,95978,2,0,P|266:32|228:35,1,80,2|10,3:2|3:1,0:0:0:0:
170,95,96835,2,0,P|124:89|76:82,1,80,2|10,3:2|0:1,0:0:0:0:
23,141,97693,1,2,3:2:0:0:
23,141,99407,6,0,B|35:197|35:197|14:243|14:243|26:299,1,160,6|2,1:2|3:2,0:0:0:0:
87,356,100693,1,10,0:1:0:0:
153,298,101121,2,0,P|190:288|234:308,1,80,2|10,3:2|3:2,0:0:0:0:
300,252,101978,2,0,P|274:216|280:176,1,80,2|10,3:2|3:2,0:0:0:0:
303,98,102835,2,0,B|371:61|371:61|451:102,1,160,2|2,3:2|3:2,0:0:0:0:
469,183,104121,1,10,0:1:0:0:
500,265,104550,2,0,P|494:310|488:354,1,80,2|10,3:2|3:2,0:0:0:0:
402,328,105407,1,2,3:2:0:0:
324,369,105835,1,10,3:2:0:0:
246,327,106264,6,0,P|252:284|261:230,1,80,2|10,3:2|3:1,0:0:0:0:
205,176,107121,1,2,3:2:0:0:
124,212,107550,1,10,0:1:0:0:
50,163,107978,2,0,P|57:117|64:73,1,80,2|10,3:2|3:2,0:0:0:0:
128,26,108835,1,2,3:2:0:0:
300,62,109693,2,0,P|353:57|395:54,1,80,2|10,3:2|3:1,0:0:0:0:
466,43,110550,1,2,3:2:0:0:
504,122,110978,1,10,0:1:0:0:
450,192,111407,6,0,B|394:184|394:184|358:210|358:210|298:202,1,160,0|10,0:0|0:2,0:0:0:0:
227,151,112693,1,10,0:2:0:0:
168,216,113121,1,4,3:2:0:0:
