osu file format v14

[General]
AudioFilename: audio.ogg
AudioLeadIn: 0
PreviewTime: 83979
Countdown: 0
SampleSet: Soft
StackLeniency: 0.3
Mode: 0
LetterboxInBreaks: 0
EpilepsyWarning: 1
WidescreenStoryboard: 1

[Editor]
DistanceSpacing: 1.2
BeatDivisor: 4
GridSize: 32
TimelineZoom: 3.199999

[Metadata]
Title:MURDER PLOT
TitleUnicode:MURDER PLOT
Artist:KORDHELL
ArtistUnicode:KORDHELL
Creator:Sayuka
Version:SKEEMASK
Source:
Tags:tiktok electronic instrumental hip hop hip-hop phonk english julie daycore ryxliee dabbe_01 stompy_ amats kord hell
BeatmapID:4092975
BeatmapSetID:1972480

[Difficulty]
HPDrainRate:5
CircleSize:4.2
OverallDifficulty:9.3
ApproachRate:9.5
SliderMultiplier:2.1
SliderTickRate:1

[Events]
//Background and Video events
0,0,"kordhell.jpg",0,0
//Break Periods
//Storyboard Layer 0 (Background)
//Storyboard Layer 1 (Fail)
//Storyboard Layer 2 (Pass)
//Storyboard Layer 3 (Foreground)
Sprite,Foreground,Centre,"sb\highlight.png",0,0 C,0,3407,,167,167,167 M,0,3407,3460,554,70,551.9742,89.58299 F,2,3407,3754,1,0 S,2,3407,3754,0.5,0.1 P,0,3407,3754,A M,0,3460,3514,551.9742,89.58299,549.9484,109.166
Sprite,Foreground,Centre,"sb\highlight.png",0,0 C,0,3621,,167,167,167 M,0,3621,3674,474,92,471.9742,111.583 F,2,3621,3968,1,0 S,2,3621,3968,0.5,0.1 P,0,3621,3968,A M,0,3674,3728,471.9742,111.583,469.9483,131.166
Sprite,Foreground,Centre,"sb\highlight.png",0,0 C,0,3835,,167,167,167 M,0,3835,3888,483,209,501.5822,202.4962 F,2,3835,4289,1,0 S,2,3835,4289,0.5,0.1 P,0,3835,4289,A M,0,3888,3942,501.5822,202.4962,520.1644,195.9924 M,0,3942,3995,520.1644,195.9924,538.7466,189.4887 M,0,3995,4049,538.7466,189.4887,557.3289,182.9849
Sprite,Foreground,Centre,"sb\highlight.png",0,0 C,0,4264,,111,111,111 M,0,4264,4317,86,70,87.69093,89.61475 F,2,4264,4611,1,0 S,2,4264,4611,0.5,0.1 P,0,4264,4611,A M,0,4317,4371,87.69093,89.61475,89.38185,109.2295
Sprite,Foreground,Centre,"sb\highlight.png",0,0 C,0,4478,,111,111,111 M,0,4478,4531,166,92,167.6909,111.6147 F,2,4478,4825,1,0 S,2,4478,4825,0.5,0.1 P,0,4478,4825,A M,0,4531,4585,167.6909,111.6147,169.3819,131.2295
Sprite,Foreground,Centre,"sb\highlight.png",0,0 C,0,4692,,111,111,111 M,0,4692,4745,157,209,138.4178,202.4962 F,2,4692,5146,1,0 S,2,4692,5146,0.5,0.1 P,0,4692,5146,A M,0,4745,4799,138.4178,202.4962,119.8356,195.9924 M,0,4799,4852,119.8356,195.9924,101.2534,189.4887 M,0,4852,4906,101.2534,189.4887,82.67115,182.9849
Sprite,Foreground,Centre,"sb\highlight.png",0,0 C,0,5121,,225,91,236 M,0,5121,5174,323,57,321.0014,76.5858 F,2,5121,5468,1,0 S,2,5121,5468,0.5,0.1 P,0,5121,5468,A M,0,5174,5228,321.0014,76.5858,319.0029,96.1716
Sprite,Foreground,Centre,"sb\highlight.png",0,0 C,0,5335,,225,91,236 M,0,5335,5388,323,175,321.0014,194.5858 F,2,5335,5682,1,0 S,2,5335,5682,0.5,0.1 P,0,5335,5682,A M,0,5388,5442,321.0014,194.5858,319.0029,214.1716
Sprite,Foreground,Centre,"sb\highlight.png",0,0 C,0,5550,,225,91,236 M,0,5550,5603,323,293,321.0883,312.5945 F,2,5550,6004,1,0 S,2,5550,6004,0.5,0.1 P,0,5550,6004,A M,0,5603,5657,321.0883,312.5945,319.1767,332.1889 M,0,5657,5710,319.1767,332.1889,317.265,351.7834 M,0,5710,5764,317.265,351.7834,315.3534,371.3779
Sprite,Foreground,Centre,"sb\highlight.png",0,0 C,0,5978,,188,46,185 M,0,5978,6031,554,426,552.0082,406.4135 F,2,5978,6325,1,0 S,2,5978,6325,0.5,0.1 P,0,5978,6325,A M,0,6031,6085,552.0082,406.4135,550.0163,386.827
Sprite,Foreground,Centre,"sb\highlight.png",0,0 C,0,6192,,188,46,185 M,0,6192,6245,474,404,472.0081,384.4135 F,2,6192,6539,1,0 S,2,6192,6539,0.5,0.1 P,0,6192,6539,A M,0,6245,6299,472.0081,384.4135,470.0163,364.827
Sprite,Foreground,Centre,"sb\highlight.png",0,0 C,0,6406,,188,46,185 M,0,6406,6459,483,287,501.5822,293.5038 F,2,6406,6860,1,0 S,2,6406,6860,0.5,0.1 P,0,6406,6860,A M,0,6459,6513,501.5822,293.5038,520.1644,300.0076 M,0,6513,6566,520.1644,300.0076,538.7466,306.5113 M,0,6566,6620,538.7466,306.5113,557.3289,313.0151
Sprite,Foreground,Centre,"sb\highlight.png",0,0 C,0,6835,,167,167,167 M,0,6835,6888,86,426,87.66248,406.3828 F,2,6835,7182,1,0 S,2,6835,7182,0.5,0.1 P,0,6835,7182,A M,0,6888,6942,87.66248,406.3828,89.32494,386.7656
Sprite,Foreground,Centre,"sb\highlight.png",0,0 C,0,7049,,167,167,167 M,0,7049,7102,166,404,167.6625,384.3828 F,2,7049,7396,1,0 S,2,7049,7396,0.5,0.1 P,0,7049,7396,A M,0,7102,7156,167.6625,384.3828,169.325,364.7656
Sprite,Foreground,Centre,"sb\highlight.png",0,0 C,0,7263,,167,167,167 M,0,7263,7316,157,287,138.4178,293.5038 F,2,7263,7717,1,0 S,2,7263,7717,0.5,0.1 P,0,7263,7717,A M,0,7316,7370,138.4178,293.5038,119.8356,300.0076 M,0,7370,7423,119.8356,300.0076,101.2534,306.5113 M,0,7423,7477,101.2534,306.5113,82.67115,313.0151
Sprite,Foreground,Centre,"sb\highlight.png",0,0 C,0,7693,,111,111,111 M,0,7693,7746,244,440,245.6625,420.3828 F,2,7693,8040,1,0 S,2,7693,8040,0.5,0.1 P,0,7693,8040,A M,0,7746,7800,245.6625,420.3828,247.325,400.7656
Sprite,Foreground,Centre,"sb\highlight.png",258,319 C,0,7907,,111,111,111 F,2,7907,8147,1,0 S,2,7907,8147,0.5,0.1 P,0,7907,8147,A
Sprite,Foreground,Centre,"sb\highlight.png",254,308 C,0,8014,,111,111,111 F,2,8014,8254,1,0 S,2,8014,8254,0.5,0.1 P,0,8014,8254,A
Sprite,Foreground,Centre,"sb\highlight.png",0,0 C,0,8121,,225,91,236 M,0,8121,8174,396,440,394.0081,420.4135 F,2,8121,8468,1,0 S,2,8121,8468,0.5,0.1 P,0,8121,8468,A M,0,8174,8228,394.0081,420.4135,392.0163,400.827
Sprite,Foreground,Centre,"sb\highlight.png",382,319 C,0,8335,,225,91,236 F,2,8335,8575,1,0 S,2,8335,8575,0.5,0.1 P,0,8335,8575,A
Sprite,Foreground,Centre,"sb\highlight.png",386,308 C,0,8442,,225,91,236 F,2,8442,8682,1,0 S,2,8442,8682,0.5,0.1 P,0,8442,8682,A
Sprite,Foreground,Centre,"sb\highlight.png",0,0 C,0,8550,,188,46,185 M,0,8550,8603,557,313,565.4703,295.329 F,2,8550,9004,1,0 S,2,8550,9004,0.5,0.1 P,0,8550,9004,A M,0,8603,8657,565.4703,295.329,569.3992,276.1683 M,0,8657,8710,569.3992,276.1683,568.5675,256.6465 M,0,8710,8764,568.5675,256.6465,563.2471,237.8366
Sprite,Foreground,Centre,"sb\highlight.png",0,0 C,0,8978,,188,46,185 M,0,8978,9031,529,167,510.5823,160.4954 F,2,8978,9325,1,0 S,2,8978,9325,0.5,0.1 P,0,8978,9325,A M,0,9031,9085,510.5823,160.4954,491.0686,161.3776
Sprite,Foreground,Centre,"sb\highlight.png",0,0 C,0,9193,,188,46,185 M,0,9193,9246,416,135,398.3246,143.0375 F,2,9193,9540,1,0 S,2,9193,9540,0.5,0.1 P,0,9193,9540,A M,0,9246,9300,398.3246,143.0375,385.353,157.3567
Sprite,Foreground,Centre,"sb\highlight.png",0,0 C,0,9407,,167,167,167 M,0,9407,9460,83,313,74.52965,295.329 F,2,9407,9861,1,0 S,2,9407,9861,0.5,0.1 P,0,9407,9861,A M,0,9460,9514,74.52965,295.329,70.60078,276.1683 M,0,9514,9567,70.60078,276.1683,71.43247,256.6465 M,0,9567,9621,71.43247,256.6465,76.75291,237.8366
Sprite,Foreground,Centre,"sb\highlight.png",0,0 C,0,9835,,167,167,167 M,0,9835,9888,111,167,129.4177,160.4954 F,2,9835,10182,1,0 S,2,9835,10182,0.5,0.1 P,0,9835,10182,A M,0,9888,9942,129.4177,160.4954,148.9313,161.3776
Sprite,Foreground,Centre,"sb\highlight.png",0,0 C,0,10050,,167,167,167 M,0,10050,10103,224,135,241.6552,143.275 F,2,10050,10397,1,0 S,2,10050,10397,0.5,0.1 P,0,10050,10397,A M,0,10103,10157,241.6552,143.275,254.5789,157.8783
Sprite,Foreground,Centre,"sb\highlight.png",427,383 C,0,10264,,111,111,111 F,2,10264,10504,1,0 S,2,10264,10504,0.5,0.1 P,0,10264,10504,A
Sprite,Foreground,Centre,"sb\highlight.png",491,222 C,0,10478,,111,111,111 F,2,10478,10718,1,0 S,2,10478,10718,0.5,0.1 P,0,10478,10718,A
Sprite,Foreground,Centre,"sb\highlight.png",320,248 C,0,10693,,111,111,111 F,2,10693,10933,1,0 S,2,10693,10933,0.5,0.1 P,0,10693,10933,A
Sprite,Foreground,Centre,"sb\highlight.png",213,383 C,0,11121,,225,91,236 F,2,11121,11361,1,0 S,2,11121,11361,0.5,0.1 P,0,11121,11361,A
Sprite,Foreground,Centre,"sb\highlight.png",149,222 C,0,11335,,225,91,236 F,2,11335,11575,1,0 S,2,11335,11575,0.5,0.1 P,0,11335,11575,A
Sprite,Foreground,Centre,"sb\highlight.png",320,248 C,0,11550,,225,91,236 F,2,11550,11790,1,0 S,2,11550,11790,0.5,0.1 P,0,11550,11790,A
Sprite,Foreground,Centre,"sb\highlight.png",0,0 C,0,11978,,188,46,185 M,0,11978,12031,224,84,225.7509,103.6095 F,2,11978,12325,1,0 S,2,11978,12325,0.5,0.1 P,0,11978,12325,A M,0,12031,12085,225.7509,103.6095,227.5017,123.219
Sprite,Foreground,Centre,"sb\highlight.png",234,212 C,0,12193,,188,46,185 F,2,12193,12433,1,0 S,2,12193,12433,0.5,0.1 P,0,12193,12433,A
Sprite,Foreground,Centre,"sb\highlight.png",229,218 C,0,12300,,188,46,185 F,2,12300,12540,1,0 S,2,12300,12540,0.5,0.1 P,0,12300,12540,A
Sprite,Foreground,Centre,"sb\highlight.png",411,218 C,0,12407,,167,167,167 F,2,12407,12647,1,0 S,2,12407,12647,0.5,0.1 P,0,12407,12647,A
Sprite,Foreground,Centre,"sb\highlight.png",406,212 C,0,12514,,167,167,167 F,2,12514,12754,1,0 S,2,12514,12754,0.5,0.1 P,0,12514,12754,A
Sprite,Foreground,Centre,"sb\highlight.png",0,0 C,0,12622,,167,167,167 M,0,12622,12675,412,123,414.0087,103.4152 F,2,12622,12969,1,0 S,2,12622,12969,0.5,0.1 P,0,12622,12969,A M,0,12675,12729,414.0087,103.4152,416,84
Sprite,Foreground,Centre,"sb\highlight.png",320,56 C,0,12835,,111,111,111 F,2,12835,13075,1,0 S,2,12835,13075,0.5,0.1 P,0,12835,13075,A
Sprite,Foreground,Centre,"sb\highlight.png",320,248 C,0,13050,,111,111,111 F,2,13050,13290,1,0 S,2,13050,13290,0.5,0.1 P,0,13050,13290,A
Sprite,Foreground,Centre,"sb\highlight.png",0,0 C,0,13264,,111,111,111 M,0,13264,13317,319,413,338.5922,411.065 F,2,13264,13718,1,0 S,2,13264,13718,0.5,0.1 P,0,13264,13718,A M,0,13317,13371,338.5922,411.065,358.1844,409.1299 M,0,13371,13424,358.1844,409.1299,377.7765,407.1949 M,0,13424,13478,377.7765,407.1949,397.3687,405.2599
Sprite,Foreground,Centre,"sb\highlight.png",431,329 C,0,13692,,225,91,236 F,2,13692,13932,1,0 S,2,13692,13932,0.5,0.1 P,0,13692,13932,A
Sprite,Foreground,Centre,"sb\highlight.png",403,300 C,0,13800,,225,91,236 F,2,13800,14040,1,0 S,2,13800,14040,0.5,0.1 P,0,13800,14040,A
Sprite,Foreground,Centre,"sb\highlight.png",375,272 C,0,13907,,225,91,236 F,2,13907,14147,1,0 S,2,13907,14147,0.5,0.1 P,0,13907,14147,A
Sprite,Foreground,Centre,"sb\highlight.png",347,244 C,0,14014,,225,91,236 F,2,14014,14254,1,0 S,2,14014,14254,0.5,0.1 P,0,14014,14254,A
Sprite,Foreground,Centre,"sb\highlight.png",319,216 C,0,14121,,188,46,185 F,2,14121,14361,1,0 S,2,14121,14361,0.5,0.1 P,0,14121,14361,A
Sprite,Foreground,Centre,"sb\highlight.png",291,244 C,0,14228,,188,46,185 F,2,14228,14468,1,0 S,2,14228,14468,0.5,0.1 P,0,14228,14468,A
Sprite,Foreground,Centre,"sb\highlight.png",263,272 C,0,14335,,188,46,185 F,2,14335,14575,1,0 S,2,14335,14575,0.5,0.1 P,0,14335,14575,A
Sprite,Foreground,Centre,"sb\highlight.png",235,300 C,0,14442,,188,46,185 F,2,14442,14682,1,0 S,2,14442,14682,0.5,0.1 P,0,14442,14682,A
Sprite,Foreground,Centre,"sb\highlight.png",206,328 C,0,14550,,167,167,167 F,2,14550,14790,1,0 S,2,14550,14790,0.5,0.1 P,0,14550,14790,A
Sprite,Foreground,Centre,"sb\highlight.png",234,356 C,0,14656,,167,167,167 F,2,14656,14896,1,0 S,2,14656,14896,0.5,0.1 P,0,14656,14896,A
Sprite,Foreground,Centre,"sb\highlight.png",262,384 C,0,14763,,167,167,167 F,2,14763,15003,1,0 S,2,14763,15003,0.5,0.1 P,0,14763,15003,A
Sprite,Foreground,Centre,"sb\highlight.png",290,412 C,0,14870,,167,167,167 F,2,14870,15110,1,0 S,2,14870,15110,0.5,0.1 P,0,14870,15110,A
Sprite,Foreground,Centre,"sb\highlight.png",319,440 C,0,14978,,111,111,111 F,2,14978,15218,1,0 S,2,14978,15218,0.5,0.1 P,0,14978,15218,A
Sprite,Foreground,Centre,"sb\highlight.png",319,412 C,0,15085,,111,111,111 F,2,15085,15325,1,0 S,2,15085,15325,0.5,0.1 P,0,15085,15325,A
Sprite,Foreground,Centre,"sb\highlight.png",319,385 C,0,15192,,111,111,111 F,2,15192,15432,1,0 S,2,15192,15432,0.5,0.1 P,0,15192,15432,A
Sprite,Foreground,Centre,"sb\highlight.png",319,357 C,0,15299,,111,111,111 F,2,15299,15539,1,0 S,2,15299,15539,0.5,0.1 P,0,15299,15539,A
Sprite,Foreground,Centre,"sb\highlight.png",319,330 C,0,15406,,225,91,236 F,2,15406,15646,1,0 S,2,15406,15646,0.5,0.1 P,0,15406,15646,A
Sprite,Foreground,Centre,"sb\highlight.png",0,0 C,0,17121,,188,46,185 M,0,17121,17174,106,91,102.467,125.6599 F,2,17121,17468,1,0 S,2,17121,17468,0.5,0.1 P,0,17121,17468,A M,0,17174,17228,102.467,125.6599,179.6107,141.4842
Sprite,Foreground,Centre,"sb\highlight.png",0,0 C,0,17335,,188,46,185 M,0,17335,17388,254,117,257.5331,82.34011 F,2,17335,17682,1,0 S,2,17335,17682,0.5,0.1 P,0,17335,17682,A M,0,17388,17442,257.5331,82.34011,180.3893,66.51576
Sprite,Foreground,Centre,"sb\highlight.png",70,197 C,0,17550,,188,46,185 F,2,17550,17790,1,0 S,2,17550,17790,0.5,0.1 P,0,17550,17790,A
Sprite,Foreground,Centre,"sb\highlight.png",0,0 C,0,17657,,188,46,185 M,0,17657,17710,64,207,67.79276,246.1919 F,2,17657,18111,1,0 S,2,17657,18111,0.5,0.1 P,0,17657,18111,A M,0,17710,17764,67.79276,246.1919,71.58553,285.3838 M,0,17764,17817,71.58553,285.3838,67.79276,246.1919 M,0,17817,17871,67.79276,246.1919,64,207
Sprite,Foreground,Centre,"sb\highlight.png",0,0 C,0,17978,,167,167,167 M,0,17978,18031,249,434,253.0034,395.271 F,2,17978,18539,1,0 S,2,17978,18539,0.5,0.1 P,0,17978,18539,A M,0,18031,18085,253.0034,395.271,239.628,358.7964 M,0,18085,18138,239.628,358.7964,211.3387,332.1589 M,0,18138,18192,211.3387,332.1589,174.1096,320.9945 M,0,18192,18245,174.1096,320.9945,135.8065,327.6737 M,0,18245,18299,135.8065,327.6737,104.5284,350.7989
Sprite,Foreground,Centre,"sb\highlight.png",0,0 C,0,18407,,111,111,111 M,0,18407,18460,169,406,185.1986,392.5603 F,2,18407,18861,1,0 S,2,18407,18861,0.5,0.1 P,0,18407,18861,A M,0,18460,18514,185.1986,392.5603,219.7356,321.7877 M,0,18514,18567,219.7356,321.7877,270.8441,267.3043 M,0,18567,18621,270.8441,267.3043,304.987,196.3407
Sprite,Foreground,Centre,"sb\highlight.png",0,0 C,0,18835,,225,91,236 M,0,18835,18888,553,77,549.4805,116.2174 F,2,18835,19182,1,0 S,2,18835,19182,0.5,0.1 P,0,18835,19182,A M,0,18888,18942,549.4805,116.2174,546,155
Sprite,Foreground,Centre,"sb\highlight.png",0,0 C,0,19050,,225,91,236 M,0,19050,19103,471,116,467.4805,155.2174 F,2,19050,19397,1,0 S,2,19050,19397,0.5,0.1 P,0,19050,19397,A M,0,19103,19157,467.4805,155.2174,464,194
Sprite,Foreground,Centre,"sb\highlight.png",403,57 C,0,19264,,225,91,236 F,2,19264,19504,1,0 S,2,19264,19504,0.5,0.1 P,0,19264,19504,A
Sprite,Foreground,Centre,"sb\highlight.png",0,0 C,0,19371,,225,91,236 M,0,19371,19424,401,69,397.4805,108.2174 F,2,19371,19825,1,0 S,2,19371,19825,0.5,0.1 P,0,19371,19825,A M,0,19424,19478,397.4805,108.2174,394,147 M,0,19478,19531,394,147,397.4805,108.2174 M,0,19531,19585,397.4805,108.2174,401,69
Sprite,Foreground,Centre,"sb\highlight.png",0,0 C,0,19693,,188,46,185 M,0,19693,19746,453,407,509.909,411.0401 F,2,19693,20040,1,0 S,2,19693,20040,0.5,0.1 P,0,19693,20040,A M,0,19746,19800,509.909,411.0401,550.3842,371.1409
Sprite,Foreground,Centre,"sb\highlight.png",0,0 C,0,19907,,188,46,185 M,0,19907,19960,512,275,455.091,270.9599 F,2,19907,20254,1,0 S,2,19907,20254,0.5,0.1 P,0,19907,20254,A M,0,19960,20014,455.091,270.9599,414.6158,310.8591
Sprite,Foreground,Centre,"sb\highlight.png",0,0 C,0,20121,,167,167,167 M,0,20121,20174,187,407,130.091,411.0401 F,2,20121,20468,1,0 S,2,20121,20468,0.5,0.1 P,0,20121,20468,A M,0,20174,20228,130.091,411.0401,89.61578,371.1409
Sprite,Foreground,Centre,"sb\highlight.png",0,0 C,0,20335,,167,167,167 M,0,20335,20388,128,275,184.909,270.9599 F,2,20335,20682,1,0 S,2,20335,20682,0.5,0.1 P,0,20335,20682,A M,0,20388,20442,184.909,270.9599,225.3842,310.8591
Sprite,Foreground,Centre,"sb\highlight.png",0,0 C,0,20550,,111,111,111 M,0,20550,20603,330,373,354.3216,435.6122 F,2,20550,21111,1,0 S,2,20550,21111,0.5,0.1 P,0,20550,21111,A M,0,20603,20657,354.3216,435.6122,338.5431,366.0916 M,0,20657,20710,338.5431,366.0916,320.2057,289.5063 M,0,20710,20764,320.2057,289.5063,305.1558,213.1503 M,0,20764,20817,305.1558,213.1503,287.1447,136.4876 M,0,20817,20871,287.1447,136.4876,269.1336,59.82494
Sprite,Foreground,Centre,"sb\highlight.png",83,171 C,0,20978,,111,111,111 F,2,20978,21218,1,0 S,2,20978,21218,0.5,0.1 P,0,20978,21218,A
Sprite,Foreground,Centre,"sb\highlight.png",0,0 C,0,21085,,111,111,111 M,0,21085,21138,93,165,126.0903,144.143 F,2,21085,21539,1,0 S,2,21085,21539,0.5,0.1 P,0,21085,21539,A M,0,21138,21192,126.0903,144.143,165.131,149.2631 M,0,21192,21245,165.131,149.2631,126.0903,144.143 M,0,21245,21299,126.0903,144.143,93,165
Sprite,Foreground,Centre,"sb\highlight.png",0,0 C,0,21407,,111,111,111 M,0,21407,21460,203,243,241.5097,234.7906 F,2,21407,21968,1,0 S,2,21407,21968,0.5,0.1 P,0,21407,21968,A M,0,21460,21514,241.5097,234.7906,280.0194,226.5811 M,0,21514,21567,280.0194,226.5811,318.5291,218.3717 M,0,21567,21621,318.5291,218.3717,357.0388,210.1623 M,0,21621,21674,357.0388,210.1623,395.5484,201.9529 M,0,21674,21728,395.5484,201.9529,434.0581,193.7434
Sprite,Foreground,Centre,"sb\highlight.png",0,0 C,0,21835,,225,91,236 M,0,21835,21888,557,64,521.7907,132.6017 F,2,21835,22289,1,0 S,2,21835,22289,0.5,0.1 P,0,21835,22289,A M,0,21888,21942,521.7907,132.6017,529.3848,210.7695 M,0,21942,21995,529.3848,210.7695,540.2982,287.0593 M,0,21995,22049,540.2982,287.0593,515.1918,361.6999
Sprite,Foreground,Centre,"sb\highlight.png",0,0 C,0,22264,,225,91,236 M,0,22264,22317,357,319,319.7603,308.3469 F,2,22264,22611,1,0 S,2,22264,22611,0.5,0.1 P,0,22264,22611,A M,0,22317,22371,319.7603,308.3469,282.511,318.5549
Sprite,Foreground,Centre,"sb\highlight.png",0,0 C,0,22478,,225,91,236 M,0,22478,22531,281,397,318.2397,407.6531 F,2,22478,22825,1,0 S,2,22478,22825,0.5,0.1 P,0,22478,22825,A M,0,22531,22585,318.2397,407.6531,355.489,397.4451
Sprite,Foreground,Centre,"sb\highlight.png",448,309 C,0,22693,,225,91,236 F,2,22693,22933,1,0 S,2,22693,22933,0.5,0.1 P,0,22693,22933,A
Sprite,Foreground,Centre,"sb\highlight.png",0,0 C,0,22800,,225,91,236 M,0,22800,22853,443,320,432.4663,357.5013 F,2,22800,23254,1,0 S,2,22800,23254,0.5,0.1 P,0,22800,23254,A M,0,22853,22907,432.4663,357.5013,438.8409,395.9418 M,0,22907,22960,438.8409,395.9418,432.4663,357.5013 M,0,22960,23014,432.4663,357.5013,443,320
Sprite,Foreground,Centre,"sb\highlight.png",0,0 C,0,23121,,188,46,185 M,0,23121,23174,263,200,206.6381,182.3445 F,2,23121,23468,1,0 S,2,23121,23468,0.5,0.1 P,0,23121,23468,A M,0,23174,23228,206.6381,182.3445,150.2762,164.6889
Sprite,Foreground,Centre,"sb\highlight.png",0,0 C,0,23335,,188,46,185 M,0,23335,23388,103,71,159.3606,88.65965 F,2,23335,23682,1,0 S,2,23335,23682,0.5,0.1 P,0,23335,23682,A M,0,23388,23442,159.3606,88.65965,215.7212,106.3193
Sprite,Foreground,Centre,"sb\highlight.png",0,0 C,0,23550,,167,167,167 M,0,23550,23603,377,200,433.3619,182.3445 F,2,23550,23897,1,0 S,2,23550,23897,0.5,0.1 P,0,23550,23897,A M,0,23603,23657,433.3619,182.3445,489.7238,164.6889
Sprite,Foreground,Centre,"sb\highlight.png",0,0 C,0,23764,,167,167,167 M,0,23764,23817,537,71,480.6061,88.55305 F,2,23764,24111,1,0 S,2,23764,24111,0.5,0.1 P,0,23764,24111,A M,0,23817,23871,480.6061,88.55305,424.2122,106.1061
Sprite,Foreground,Centre,"sb\highlight.png",0,0 C,0,23978,,111,111,111 M,0,23978,24031,320,56,312.7915,134.4194 F,2,23978,24539,1,0 S,2,23978,24539,0.5,0.1 P,0,23978,24539,A M,0,24031,24085,312.7915,134.4194,305.5831,212.8388 M,0,24085,24138,305.5831,212.8388,298.3746,291.2582 M,0,24138,24192,298.3746,291.2582,291.1661,369.6776 M,0,24192,24245,291.1661,369.6776,281.7371,382.2943 M,0,24245,24299,281.7371,382.2943,228.5497,328.0209
Sprite,Foreground,Centre,"sb\highlight.png",115,423 C,0,24407,,111,111,111 F,2,24407,24647,1,0 S,2,24407,24647,0.5,0.1 P,0,24407,24647,A
Sprite,Foreground,Centre,"sb\highlight.png",0,0 C,0,24514,,111,111,111 M,0,24514,24567,127,421,165.7006,413.7437 F,2,24514,24968,1,0 S,2,24514,24968,0.5,0.1 P,0,24514,24968,A M,0,24567,24621,165.7006,413.7437,204.4012,406.4873 M,0,24621,24674,204.4012,406.4873,165.7006,413.7437 M,0,24674,24728,165.7006,413.7437,127,421
Sprite,Foreground,Centre,"sb\highlight.png",0,0 C,0,24835,,111,111,111 M,0,24835,24888,195,179,182.8195,216.4436 F,2,24835,25289,1,0 S,2,24835,25289,0.5,0.1 P,0,24835,25289,A M,0,24888,24942,182.8195,216.4436,170.6391,253.8873 M,0,24942,24995,170.6391,253.8873,158.4586,291.3309 M,0,24995,25049,158.4586,291.3309,146.2781,328.7746
Sprite,Foreground,Centre,"sb\highlight.png",0,0 C,0,25264,,111,111,111 M,0,25264,25317,391,413,450.0242,395.1059 F,2,25264,25718,1,0 S,2,25264,25718,0.5,0.1 P,0,25264,25718,A M,0,25317,25371,450.0242,395.1059,408.1056,336.7803 M,0,25371,25424,408.1056,336.7803,336.5265,359.0779 M,0,25424,25478,336.5265,359.0779,312.9008,431.8262
Sprite,Foreground,Centre,"sb\highlight.png",0,0 C,0,25693,,111,111,111 M,0,25693,25746,550,440,557.345,401.3161 F,2,25693,26040,1,0 S,2,25693,26040,0.5,0.1 P,0,25693,26040,A M,0,25746,25800,557.345,401.3161,564.6901,362.6323
Sprite,Foreground,Centre,"sb\highlight.png",0,0 C,0,25907,,111,111,111 M,0,25907,25960,540,294,547.345,255.3161 F,2,25907,26254,1,0 S,2,25907,26254,0.5,0.1 P,0,25907,26254,A M,0,25960,26014,547.345,255.3161,554.6901,216.6323
Sprite,Foreground,Centre,"sb\highlight.png",529,149 C,0,26121,,111,111,111 F,2,26121,26361,1,0 S,2,26121,26361,0.5,0.1 P,0,26121,26361,A
Sprite,Foreground,Centre,"sb\highlight.png",0,0 C,0,26228,,111,111,111 M,0,26228,26281,531,137,538.345,98.31615 F,2,26228,26682,1,0 S,2,26228,26682,0.5,0.1 P,0,26228,26682,A M,0,26281,26335,538.345,98.31615,545.6901,59.63229 M,0,26335,26388,545.6901,59.63229,538.345,98.31613 M,0,26388,26442,538.345,98.31613,531,137
Sprite,Foreground,Centre,"sb\highlight.png",0,0 C,0,26550,,225,91,236 M,0,26550,26603,264,264,205.5388,272.4062 F,2,26550,26897,1,0 S,2,26550,26897,0.5,0.1 P,0,26550,26897,A M,0,26603,26657,205.5388,272.4062,147.0775,280.8124
Sprite,Foreground,Centre,"sb\highlight.png",0,0 C,0,26764,,225,91,236 M,0,26764,26817,86,216,144.4487,207.5074 F,2,26764,27111,1,0 S,2,26764,27111,0.5,0.1 P,0,26764,27111,A M,0,26817,26871,144.4487,207.5074,202.8975,199.0149
Sprite,Foreground,Centre,"sb\highlight.png",0,0 C,0,26978,,188,46,185 M,0,26978,27031,376,264,434.4612,272.4062 F,2,26978,27325,1,0 S,2,26978,27325,0.5,0.1 P,0,26978,27325,A M,0,27031,27085,434.4612,272.4062,492.9225,280.8124
Sprite,Foreground,Centre,"sb\highlight.png",0,0 C,0,27192,,188,46,185 M,0,27192,27245,554,216,495.5513,207.5074 F,2,27192,27539,1,0 S,2,27192,27539,0.5,0.1 P,0,27192,27539,A M,0,27245,27299,495.5513,207.5074,437.1025,199.0149
Sprite,Foreground,Centre,"sb\highlight.png",0,0 C,0,27407,,188,46,185 M,0,27407,27460,281,68,357.2562,71.52319 F,2,27407,27968,1,0 S,2,27407,27968,0.5,0.1 P,0,27407,27968,A M,0,27460,27514,357.2562,71.52319,354.1946,104.6942 M,0,27514,27567,354.1946,104.6942,311.9156,171.1325 M,0,27567,27621,311.9156,171.1325,276.3449,240.2936 M,0,27621,27674,276.3449,240.2936,330.3026,280.7592 M,0,27674,27728,330.3026,280.7592,352.1129,216.1619
Sprite,Foreground,Centre,"sb\highlight.png",210,116 C,0,27835,,188,46,185 F,2,27835,28075,1,0 S,2,27835,28075,0.5,0.1 P,0,27835,28075,A
Sprite,Foreground,Centre,"sb\highlight.png",0,0 C,0,27943,,188,46,185 M,0,27943,27996,199,111,160.5894,114.8748 F,2,27943,28397,1,0 S,2,27943,28397,0.5,0.1 P,0,27943,28397,A M,0,27996,28050,160.5894,114.8748,130.9209,139.5435 M,0,28050,28103,130.9209,139.5435,160.5894,114.8748 M,0,28103,28157,160.5894,114.8748,199,111
Sprite,Foreground,Centre,"sb\highlight.png",0,0 C,0,28264,,188,46,185 M,0,28264,28317,202,199,195.6237,237.8553 F,2,28264,28718,1,0 S,2,28264,28718,0.5,0.1 P,0,28264,28718,A M,0,28317,28371,195.6237,237.8553,189.2475,276.7106 M,0,28371,28424,189.2475,276.7106,182.8712,315.5659 M,0,28424,28478,182.8712,315.5659,176.495,354.4212
Sprite,Foreground,Centre,"sb\highlight.png",0,0 C,0,28693,,167,167,167 M,0,28693,28746,118,429,90.70537,365.3055 F,2,28693,29147,1,0 S,2,28693,29147,0.5,0.1 P,0,28693,29147,A M,0,28746,28800,90.70537,365.3055,167.4714,382.8706 M,0,28800,28853,167.4714,382.8706,244.2375,400.4357 M,0,28853,28907,244.2375,400.4357,321,418
Sprite,Foreground,Centre,"sb\highlight.png",0,0 C,0,29121,,111,111,111 M,0,29121,29174,437,199,435.7843,212.0686 F,2,29121,29468,1,0 S,2,29121,29468,0.5,0.1 P,0,29121,29468,A M,0,29174,29228,435.7843,212.0686,434.5686,225.1372
Sprite,Foreground,Centre,"sb\highlight.png",428,301 C,0,29335,,111,111,111 F,2,29335,29575,1,0 S,2,29335,29575,0.5,0.1 P,0,29335,29575,A
Sprite,Foreground,Centre,"sb\highlight.png",0,0 C,0,29443,,225,91,236 M,0,29443,29496,361,114,359.7843,127.0686 F,2,29443,29790,1,0 S,2,29443,29790,0.5,0.1 P,0,29443,29790,A M,0,29496,29550,359.7843,127.0686,358.5686,140.1371
Sprite,Foreground,Centre,"sb\highlight.png",352,216 C,0,29657,,225,91,236 F,2,29657,29897,1,0 S,2,29657,29897,0.5,0.1 P,0,29657,29897,A
Sprite,Foreground,Centre,"sb\highlight.png",0,0 C,0,29764,,188,46,185 M,0,29764,29817,526,127,524.7843,140.0686 F,2,29764,30111,1,0 S,2,29764,30111,0.5,0.1 P,0,29764,30111,A M,0,29817,29871,524.7843,140.0686,523.5686,153.1371
Sprite,Foreground,Centre,"sb\highlight.png",517,229 C,0,29978,,188,46,185 F,2,29978,30218,1,0 S,2,29978,30218,0.5,0.1 P,0,29978,30218,A
Sprite,Foreground,Centre,"sb\highlight.png",524,240 C,0,30085,,188,46,185 F,2,30085,30325,1,0 S,2,30085,30325,0.5,0.1 P,0,30085,30325,A
Sprite,Foreground,Centre,"sb\highlight.png",443,113 C,0,30193,,188,46,185 F,2,30193,30433,1,0 S,2,30193,30433,0.5,0.1 P,0,30193,30433,A
Sprite,Foreground,Centre,"sb\highlight.png",450,102 C,0,30300,,188,46,185 F,2,30300,30540,1,0 S,2,30300,30540,0.5,0.1 P,0,30300,30540,A
Sprite,Foreground,Centre,"sb\highlight.png",0,0 C,0,30407,,167,167,167 M,0,30407,30460,352,216,345.4759,215.2909 F,2,30407,30968,1,0 S,2,30407,30968,0.5,0.1 P,0,30407,30968,A M,0,30460,30514,345.4759,215.2909,338.9518,214.5817 M,0,30514,30567,338.9518,214.5817,332.4278,213.8726 M,0,30567,30621,332.4278,213.8726,325.9037,213.1635 M,0,30621,30674,325.9037,213.1635,319.3796,212.4543 M,0,30674,30728,319.3796,212.4543,312.8556,211.7452
Sprite,Foreground,Centre,"sb\highlight.png",0,0 C,0,30835,,111,111,111 M,0,30835,30888,258,73,225.9296,69.68575 F,2,30835,31182,1,0 S,2,30835,31182,0.5,0.1 P,0,30835,31182,A M,0,30888,30942,225.9296,69.68575,196.7325,82.98725
Sprite,Foreground,Centre,"sb\highlight.png",0,0 C,0,31050,,111,111,111 M,0,31050,31103,110,56,90.24301,81.36658 F,2,31050,31397,1,0 S,2,31050,31397,0.5,0.1 P,0,31050,31397,A M,0,31103,31157,90.24301,81.36658,87.24765,113.2038
Sprite,Foreground,Centre,"sb\highlight.png",64,203 C,0,31264,,225,91,236 F,2,31264,31504,1,0 S,2,31264,31504,0.5,0.1 P,0,31264,31504,A
Sprite,Foreground,Centre,"sb\highlight.png",0,0 C,0,31371,,225,91,236 M,0,31371,31424,76,197,106.7593,185.5751 F,2,31371,31825,1,0 S,2,31371,31825,0.5,0.1 P,0,31371,31825,A M,0,31424,31478,106.7593,185.5751,137.5185,174.1503 M,0,31478,31531,137.5185,174.1503,106.7593,185.5751 M,0,31531,31585,106.7593,185.5751,76,197
Sprite,Foreground,Centre,"sb\highlight.png",0,0 C,0,31693,,188,46,185 M,0,31693,31746,258,423,225.9296,426.3142 F,2,31693,32040,1,0 S,2,31693,32040,0.5,0.1 P,0,31693,32040,A M,0,31746,31800,225.9296,426.3142,196.7325,413.0128
Sprite,Foreground,Centre,"sb\highlight.png",0,0 C,0,31908,,188,46,185 M,0,31908,31961,110,440,90.39893,414.4736 F,2,31908,32255,1,0 S,2,31908,32255,0.5,0.1 P,0,31908,32255,A M,0,31961,32015,90.39893,414.4736,87.0977,382.6175
Sprite,Foreground,Centre,"sb\highlight.png",64,293 C,0,32122,,167,167,167 F,2,32122,32362,1,0 S,2,32122,32362,0.5,0.1 P,0,32122,32362,A
Sprite,Foreground,Centre,"sb\highlight.png",0,0 C,0,32229,,167,167,167 M,0,32229,32282,76,299,106.7593,310.4249 F,2,32229,32683,1,0 S,2,32229,32683,0.5,0.1 P,0,32229,32683,A M,0,32282,32336,106.7593,310.4249,137.5185,321.8497 M,0,32336,32389,137.5185,321.8497,106.7593,310.4249 M,0,32389,32443,106.7593,310.4249,76,299
Sprite,Foreground,Centre,"sb\highlight.png",0,0 C,0,32550,,111,111,111 M,0,32550,32603,169,248,201.7183,245.5151 F,2,32550,32897,1,0 S,2,32550,32897,0.5,0.1 P,0,32550,32897,A M,0,32603,32657,201.7183,245.5151,234.4365,243.0301
Sprite,Foreground,Centre,"sb\highlight.png",0,0 C,0,32764,,111,111,111 M,0,32764,32817,320,279,352.7505,281.0154 F,2,32764,33111,1,0 S,2,32764,33111,0.5,0.1 P,0,32764,33111,A M,0,32817,32871,352.7505,281.0154,385,283
Sprite,Foreground,Centre,"sb\highlight.png",547,247 C,0,32978,,225,91,236 F,2,32978,33218,1,0 S,2,32978,33218,0.5,0.1 P,0,32978,33218,A
Sprite,Foreground,Centre,"sb\highlight.png",0,0 C,0,33085,,225,91,236 M,0,33085,33138,530,165,499.0645,175.1795 F,2,33085,33539,1,0 S,2,33085,33539,0.5,0.1 P,0,33085,33539,A M,0,33138,33192,499.0645,175.1795,474.8478,196.9305 M,0,33192,33245,474.8478,196.9305,461.4308,226.5703 M,0,33245,33299,461.4308,226.5703,461.0682,259.0887
Sprite,Foreground,Centre,"sb\highlight.png",0,0 C,0,33407,,188,46,185 M,0,33407,33460,531,349,542.7418,392.9237 F,2,33407,33754,1,0 S,2,33407,33754,0.5,0.1 P,0,33407,33754,A M,0,33460,33514,542.7418,392.9237,534.1693,437.5854
Sprite,Foreground,Centre,"sb\highlight.png",0,0 C,0,33621,,188,46,185 M,0,33621,33674,385,440,372.3237,396.6199 F,2,33621,33968,1,0 S,2,33621,33968,0.5,0.1 P,0,33621,33968,A M,0,33674,33728,372.3237,396.6199,384.8907,353.1875
Sprite,Foreground,Centre,"sb\highlight.png",0,0 C,0,33835,,167,167,167 M,0,33835,33888,108,349,96.26422,392.8841 F,2,33835,34182,1,0 S,2,33835,34182,0.5,0.1 P,0,33835,34182,A M,0,33888,33942,96.26422,392.8841,105.7017,437.329
Sprite,Foreground,Centre,"sb\highlight.png",0,0 C,0,34049,,167,167,167 M,0,34049,34102,254,440,266.6743,396.5711 F,2,34049,34396,1,0 S,2,34049,34396,0.5,0.1 P,0,34049,34396,A M,0,34102,34156,266.6743,396.5711,255,353
Sprite,Foreground,Centre,"sb\highlight.png",0,0 C,0,34264,,111,111,111 M,0,34264,34317,159,289,177.8834,262.1657 F,2,34264,34611,1,0 S,2,34264,34611,0.5,0.1 P,0,34264,34611,A M,0,34317,34371,177.8834,262.1657,197.0928,288.4361
Sprite,Foreground,Centre,"sb\highlight.png",0,0 C,0,34478,,111,111,111 M,0,34478,34531,481,289,462.1166,262.1657 F,2,34478,34825,1,0 S,2,34478,34825,0.5,0.1 P,0,34478,34825,A M,0,34531,34585,462.1166,262.1657,442.9072,288.4361
Sprite,Foreground,Centre,"sb\highlight.png",0,0 C,0,34693,,225,91,236 M,0,34693,34746,320,310,322.4849,277.2817 F,2,34693,35040,1,0 S,2,34693,35040,0.5,0.1 P,0,34693,35040,A M,0,34746,34800,322.4849,277.2817,324.9698,244.5635
Sprite,Foreground,Centre,"sb\highlight.png",0,0 C,0,34907,,225,91,236 M,0,34907,34960,320,161,322.4849,128.2817 F,2,34907,35254,1,0 S,2,34907,35254,0.5,0.1 P,0,34907,35254,A M,0,34960,35014,322.4849,128.2817,324.9698,95.56346
Sprite,Foreground,Centre,"sb\highlight.png",0,0 C,0,35121,,188,46,185 M,0,35121,35174,437,56,468.6906,59.18265 F,2,35121,35468,1,0 S,2,35121,35468,0.5,0.1 P,0,35121,35468,A M,0,35174,35228,468.6906,59.18265,490.9917,81.56638
Sprite,Foreground,Centre,"sb\highlight.png",513,153 C,0,35335,,188,46,185 F,2,35335,35575,1,0 S,2,35335,35575,0.5,0.1 P,0,35335,35575,A
Sprite,Foreground,Centre,"sb\highlight.png",511,162 C,0,35443,,188,46,185 F,2,35443,35683,1,0 S,2,35443,35683,0.5,0.1 P,0,35443,35683,A
Sprite,Foreground,Centre,"sb\highlight.png",0,0 C,0,35550,,167,167,167 M,0,35550,35603,424,200,425.985,167.2476 F,2,35550,35897,1,0 S,2,35550,35897,0.5,0.1 P,0,35550,35897,A M,0,35603,35657,425.985,167.2476,427.97,134.4952
Sprite,Foreground,Centre,"sb\highlight.png",0,0 C,0,35764,,167,167,167 M,0,35764,35817,217,87,219.0154,119.7505 F,2,35764,36111,1,0 S,2,35764,36111,0.5,0.1 P,0,35764,36111,A M,0,35817,35871,219.0154,119.7505,221,152
Sprite,Foreground,Centre,"sb\highlight.png",320,56 C,0,35978,,111,111,111 F,2,35978,36218,1,0 S,2,35978,36218,0.5,0.1 P,0,35978,36218,A
Sprite,Foreground,Centre,"sb\highlight.png",316,65 C,0,36085,,111,111,111 F,2,36085,36325,1,0 S,2,36085,36325,0.5,0.1 P,0,36085,36325,A
Sprite,Foreground,Centre,"sb\highlight.png",329,86 C,0,36193,,225,91,236 F,2,36193,36433,1,0 S,2,36193,36433,0.5,0.1 P,0,36193,36433,A
Sprite,Foreground,Centre,"sb\highlight.png",325,95 C,0,36300,,225,91,236 F,2,36300,36540,1,0 S,2,36300,36540,0.5,0.1 P,0,36300,36540,A
Sprite,Foreground,Centre,"sb\highlight.png",0,0 C,0,36407,,225,91,236 M,0,36407,36460,262,201,248.7857,171.4372 F,2,36407,36754,1,0 S,2,36407,36754,0.5,0.1 P,0,36407,36754,A M,0,36460,36514,248.7857,171.4372,222.0992,153.1452
Sprite,Foreground,Centre,"sb\highlight.png",0,0 C,0,36621,,225,91,236 M,0,36621,36674,377,201,390.5541,171.5415 F,2,36621,36968,1,0 S,2,36621,36968,0.5,0.1 P,0,36621,36968,A M,0,36674,36728,390.5541,171.5415,417,153
Sprite,Foreground,Centre,"sb\highlight.png",0,0 C,0,36835,,188,46,185 M,0,36835,36888,245,292,201.89,306.1368 F,2,36835,37182,1,0 S,2,36835,37182,0.5,0.1 P,0,36835,37182,A M,0,36888,36942,201.89,306.1368,160,289
Sprite,Foreground,Centre,"sb\highlight.png",0,0 C,0,37050,,188,46,185 M,0,37050,37103,132,131,114.6066,173.5173 F,2,37050,37397,1,0 S,2,37050,37397,0.5,0.1 P,0,37050,37397,A M,0,37103,37157,114.6066,173.5173,128.7152,216.8223
Sprite,Foreground,Centre,"sb\highlight.png",0,0 C,0,37264,,167,167,167 M,0,37264,37317,395,292,438.11,306.1368 F,2,37264,37611,1,0 S,2,37264,37611,0.5,0.1 P,0,37264,37611,A M,0,37317,37371,438.11,306.1368,480,289
Sprite,Foreground,Centre,"sb\highlight.png",0,0 C,0,37479,,167,167,167 M,0,37479,37532,508,131,525.3934,173.5173 F,2,37479,37826,1,0 S,2,37479,37826,0.5,0.1 P,0,37479,37826,A M,0,37532,37586,525.3934,173.5173,511.2848,216.8223
Sprite,Foreground,Centre,"sb\highlight.png",0,0 C,0,37693,,111,111,111 M,0,37693,37746,391,440,407.4344,377.9938 F,2,37693,38254,1,0 S,2,37693,38254,0.5,0.1 P,0,37693,38254,A M,0,37746,37800,407.4344,377.9938,378.1295,320.9608 M,0,37800,37853,378.1295,320.9608,318.196,298.2364 M,0,37853,37907,318.196,298.2364,258.4889,321.4858 M,0,37907,37960,258.4889,321.4858,229.7249,378.7164 M,0,37960,38014,229.7249,378.7164,246.5939,440.5365
Sprite,Foreground,Centre,"sb\highlight.png",482,440 C,0,38121,,111,111,111 F,2,38121,38361,1,0 S,2,38121,38361,0.5,0.1 P,0,38121,38361,A
Sprite,Foreground,Centre,"sb\highlight.png",0,0 C,0,38228,,111,111,111 M,0,38228,38281,482,430,488.1471,398.0432 F,2,38228,38682,1,0 S,2,38228,38682,0.5,0.1 P,0,38228,38682,A M,0,38281,38335,488.1471,398.0432,507.2484,371.7119 M,0,38335,38388,507.2484,371.7119,535.6967,355.961 M,0,38388,38442,535.6967,355.961,568.1421,353.6888
Sprite,Foreground,Centre,"sb\highlight.png",0,0 C,0,38550,,225,91,236 M,0,38550,38603,319,385,316.1855,352.3084 F,2,38550,39004,1,0 S,2,38550,39004,0.5,0.1 P,0,38550,39004,A M,0,38603,38657,316.1855,352.3084,313.371,319.6169 M,0,38657,38710,313.371,319.6169,310.5565,286.9253 M,0,38710,38764,310.5565,286.9253,307.742,254.2337
Sprite,Foreground,Centre,"sb\highlight.png",405,207 C,0,38871,,225,91,236 F,2,38871,39111,1,0 S,2,38871,39111,0.5,0.1 P,0,38871,39111,A
Sprite,Foreground,Centre,"sb\highlight.png",0,0 C,0,38978,,225,91,236 M,0,38978,39031,406,197,408.9503,164.3204 F,2,38978,39432,1,0 S,2,38978,39432,0.5,0.1 P,0,38978,39432,A M,0,39031,39085,408.9503,164.3204,411.9005,131.6408 M,0,39085,39138,411.9005,131.6408,414.8507,98.9612 M,0,39138,39192,414.8507,98.9612,417.801,66.2816
Sprite,Foreground,Centre,"sb\highlight.png",0,0 C,0,39407,,188,46,185 M,0,39407,39460,115,66,101.0733,95.71037 F,2,39407,39754,1,0 S,2,39407,39754,0.5,0.1 P,0,39407,39754,A M,0,39460,39514,101.0733,95.71037,109.7718,126.6639
Sprite,Foreground,Centre,"sb\highlight.png",189,185 C,0,39621,,188,46,185 F,2,39621,39861,1,0 S,2,39621,39861,0.5,0.1 P,0,39621,39861,A
Sprite,Foreground,Centre,"sb\highlight.png",195,177 C,0,39728,,188,46,185 F,2,39728,39968,1,0 S,2,39728,39968,0.5,0.1 P,0,39728,39968,A
Sprite,Foreground,Centre,"sb\highlight.png",301,56 C,0,39835,,167,167,167 F,2,39835,40075,1,0 S,2,39835,40075,0.5,0.1 P,0,39835,40075,A
Sprite,Foreground,Centre,"sb\highlight.png",0,0 C,0,39943,,167,167,167 M,0,39943,39996,224,76,236.787,105.9266 F,2,39943,40397,1,0 S,2,39943,40397,0.5,0.1 P,0,39943,40397,A M,0,39996,40050,236.787,105.9266,260.9034,127.7476 M,0,40050,40103,260.9034,127.7476,291.9174,137.4753 M,0,40103,40157,291.9174,137.4753,324.1391,133.3413
Sprite,Foreground,Centre,"sb\highlight.png",0,0 C,0,40264,,111,111,111 M,0,40264,40317,492,242,488.088,287.7706 F,2,40264,40611,1,0 S,2,40264,40611,0.5,0.1 P,0,40264,40611,A M,0,40317,40371,488.088,287.7706,484.176,333.5413
Sprite,Foreground,Centre,"sb\highlight.png",0,0 C,0,40478,,111,111,111 M,0,40478,40531,380,438,376.0204,392.2352 F,2,40478,40825,1,0 S,2,40478,40825,0.5,0.1 P,0,40478,40825,A M,0,40531,40585,376.0204,392.2352,372.0409,346.4704
Sprite,Foreground,Centre,"sb\highlight.png",0,0 C,0,40693,,225,91,236 M,0,40693,40746,148,245,151.912,290.7706 F,2,40693,41040,1,0 S,2,40693,41040,0.5,0.1 P,0,40693,41040,A M,0,40746,40800,151.912,290.7706,155.824,336.5413
Sprite,Foreground,Centre,"sb\highlight.png",0,0 C,0,40907,,225,91,236 M,0,40907,40960,257,440,260.9796,394.2352 F,2,40907,41254,1,0 S,2,40907,41254,0.5,0.1 P,0,40907,41254,A M,0,40960,41014,260.9796,394.2352,264.9591,348.4704
Sprite,Foreground,Centre,"sb\highlight.png",0,0 C,0,41121,,167,167,167 M,0,41121,41174,324,133,370.7185,179.0871 F,2,41121,41682,1,0 S,2,41121,41682,0.5,0.1 P,0,41121,41682,A M,0,41174,41228,370.7185,179.0871,378.0815,224.6736 M,0,41228,41281,378.0815,224.6736,330.2056,269.5572 M,0,41281,41335,330.2056,269.5572,283.6562,246.1983 M,0,41335,41388,283.6562,246.1983,248.5545,199.6042 M,0,41388,41442,248.5545,199.6042,295.626,153.8776
Sprite,Foreground,Centre,"sb\highlight.png",0,0 C,0,41550,,111,111,111 M,0,41550,41603,426,84,458.64,80.64 F,2,41550,41897,1,0 S,2,41550,41897,0.5,0.1 P,0,41550,41897,A M,0,41603,41657,458.64,80.64,491.28,77.28
Sprite,Foreground,Centre,"sb\highlight.png",0,0 C,0,41764,,111,111,111 M,0,41764,41817,533,160,500.2813,162.4787 F,2,41764,42111,1,0 S,2,41764,42111,0.5,0.1 P,0,41764,42111,A M,0,41817,41871,500.2813,162.4787,467.5625,164.9574
Sprite,Foreground,Centre,"sb\highlight.png",0,0 C,0,41978,,225,91,236 M,0,41978,42031,219,85,186.3551,81.68819 F,2,41978,42325,1,0 S,2,41978,42325,0.5,0.1 P,0,41978,42325,A M,0,42031,42085,186.3551,81.68819,153.7101,78.37639
Sprite,Foreground,Centre,"sb\highlight.png",0,0 C,0,42192,,225,91,236 M,0,42192,42245,107,160,139.7159,162.5166 F,2,42192,42539,1,0 S,2,42192,42539,0.5,0.1 P,0,42192,42539,A M,0,42245,42299,139.7159,162.5166,172,165
Sprite,Foreground,Centre,"sb\highlight.png",320,56 C,0,42407,,188,46,185 F,2,42407,42647,1,0 S,2,42407,42647,0.5,0.1 P,0,42407,42647,A
Sprite,Foreground,Centre,"sb\highlight.png",482,440 C,0,42835,,167,167,167 F,2,42835,43075,1,0 S,2,42835,43075,0.5,0.1 P,0,42835,43075,A
Sprite,Foreground,Centre,"sb\highlight.png",420,417 C,0,42943,,167,167,167 F,2,42943,43183,1,0 S,2,42943,43183,0.5,0.1 P,0,42943,43183,A
Sprite,Foreground,Centre,"sb\highlight.png",387,360 C,0,43050,,167,167,167 F,2,43050,43290,1,0 S,2,43050,43290,0.5,0.1 P,0,43050,43290,A
Sprite,Foreground,Centre,"sb\highlight.png",398,296 C,0,43157,,167,167,167 F,2,43157,43397,1,0 S,2,43157,43397,0.5,0.1 P,0,43157,43397,A
Sprite,Foreground,Centre,"sb\highlight.png",449,253 C,0,43264,,167,167,167 F,2,43264,43504,1,0 S,2,43264,43504,0.5,0.1 P,0,43264,43504,A
Sprite,Foreground,Centre,"sb\highlight.png",514,253 C,0,43371,,167,167,167 F,2,43371,43611,1,0 S,2,43371,43611,0.5,0.1 P,0,43371,43611,A
Sprite,Foreground,Centre,"sb\highlight.png",565,296 C,0,43478,,167,167,167 F,2,43478,43718,1,0 S,2,43478,43718,0.5,0.1 P,0,43478,43718,A
Sprite,Foreground,Centre,"sb\highlight.png",576,360 C,0,43585,,167,167,167 F,2,43585,43825,1,0 S,2,43585,43825,0.5,0.1 P,0,43585,43825,A
Sprite,Foreground,Centre,"sb\highlight.png",543,417 C,0,43693,,111,111,111 F,2,43693,43933,1,0 S,2,43693,43933,0.5,0.1 P,0,43693,43933,A
Sprite,Foreground,Centre,"sb\highlight.png",482,394 C,0,43800,,225,91,236 F,2,43800,44040,1,0 S,2,43800,44040,0.5,0.1 P,0,43800,44040,A
Sprite,Foreground,Centre,"sb\highlight.png",420,417 C,0,43908,,188,46,185 F,2,43908,44148,1,0 S,2,43908,44148,0.5,0.1 P,0,43908,44148,A
Sprite,Foreground,Centre,"sb\highlight.png",359,394 C,0,44013,,167,167,167 F,2,44013,44253,1,0 S,2,44013,44253,0.5,0.1 P,0,44013,44253,A
Sprite,Foreground,Centre,"sb\highlight.png",320,440 C,0,44121,,111,111,111 F,2,44121,44361,1,0 S,2,44121,44361,0.5,0.1 P,0,44121,44361,A
Sprite,Foreground,Centre,"sb\highlight.png",0,0 C,0,44550,,225,91,236 M,0,44550,44603,133,248,108.6479,218.0073 F,2,44550,44897,1,0 S,2,44550,44897,0.5,0.1 P,0,44550,44897,A M,0,44603,44657,108.6479,218.0073,71.85802,206.6881
Sprite,Foreground,Centre,"sb\highlight.png",0,0 C,0,44764,,225,91,236 M,0,44764,44817,249,297,271.5619,265.6214 F,2,44764,45111,1,0 S,2,44764,45111,0.5,0.1 P,0,44764,45111,A M,0,44817,44871,271.5619,265.6214,273.104,227.1391
Sprite,Foreground,Centre,"sb\highlight.png",0,0 C,0,44978,,225,91,236 M,0,44978,45031,222,418,258.2272,431.4361 F,2,44978,45325,1,0 S,2,44978,45325,0.5,0.1 P,0,44978,45325,A M,0,45031,45085,258.2272,431.4361,295.9301,422.8343
Sprite,Foreground,Centre,"sb\highlight.png",108,398 C,0,45193,,188,46,185 F,2,45193,45433,1,0 S,2,45193,45433,0.5,0.1 P,0,45193,45433,A
Sprite,Foreground,Centre,"sb\highlight.png",112,387 C,0,45300,,188,46,185 F,2,45300,45540,1,0 S,2,45300,45540,0.5,0.1 P,0,45300,45540,A
Sprite,Foreground,Centre,"sb\highlight.png",152,319 C,0,45407,,167,167,167 F,2,45407,45647,1,0 S,2,45407,45647,0.5,0.1 P,0,45407,45647,A
Sprite,Foreground,Centre,"sb\highlight.png",162,314 C,0,45514,,167,167,167 F,2,45514,45754,1,0 S,2,45514,45754,0.5,0.1 P,0,45514,45754,A
Sprite,Foreground,Centre,"sb\highlight.png",238,294 C,0,45621,,111,111,111 F,2,45621,45861,1,0 S,2,45621,45861,0.5,0.1 P,0,45621,45861,A
Sprite,Foreground,Centre,"sb\highlight.png",249,297 C,0,45728,,111,111,111 F,2,45728,45968,1,0 S,2,45728,45968,0.5,0.1 P,0,45728,45968,A
Sprite,Foreground,Centre,"sb\highlight.png",331,346 C,0,45835,,225,91,236 F,2,45835,46075,1,0 S,2,45835,46075,0.5,0.1 P,0,45835,46075,A
Sprite,Foreground,Centre,"sb\highlight.png",329,334 C,0,45943,,225,91,236 F,2,45943,46183,1,0 S,2,45943,46183,0.5,0.1 P,0,45943,46183,A
Sprite,Foreground,Centre,"sb\highlight.png",327,322 C,0,46050,,225,91,236 F,2,46050,46290,1,0 S,2,46050,46290,0.5,0.1 P,0,46050,46290,A
Sprite,Foreground,Centre,"sb\highlight.png",325,310 C,0,46157,,225,91,236 F,2,46157,46397,1,0 S,2,46157,46397,0.5,0.1 P,0,46157,46397,A
Sprite,Foreground,Centre,"sb\highlight.png",0,0 C,0,46264,,188,46,185 M,0,46264,46317,349,235,386.2348,224.0052 F,2,46264,46557,1,0 S,2,46264,46557,0.5,0.1 P,0,46264,46557,A
Sprite,Foreground,Centre,"sb\highlight.png",0,0 C,0,46371,,188,46,185 M,0,46371,46424,369,188,406.7732,196.5725 F,2,46371,46664,1,0 S,2,46371,46664,0.5,0.1 P,0,46371,46664,A
Sprite,Foreground,Centre,"sb\highlight.png",0,0 C,0,46478,,188,46,185 M,0,46478,46531,409,157,437.2479,183.5428 F,2,46478,46771,1,0 S,2,46478,46771,0.5,0.1 P,0,46478,46771,A
Sprite,Foreground,Centre,"sb\highlight.png",0,0 C,0,46586,,188,46,185 M,0,46586,46639,459,150,470.1265,187.1217 F,2,46586,46879,1,0 S,2,46586,46879,0.5,0.1 P,0,46586,46879,A
Sprite,Foreground,Centre,"sb\highlight.png",0,0 C,0,46693,,188,46,185 M,0,46693,46746,506,169,496.2458,206.6153 F,2,46693,46986,1,0 S,2,46693,46986,0.5,0.1 P,0,46693,46986,A
Sprite,Foreground,Centre,"sb\highlight.png",0,0 C,0,46800,,188,46,185 M,0,46800,46853,537,208,509.8274,235.795 F,2,46800,47093,1,0 S,2,46800,47093,0.5,0.1 P,0,46800,47093,A
Sprite,Foreground,Centre,"sb\highlight.png",544,257 C,0,46907,,167,167,167 F,2,46907,47147,1,0 S,2,46907,47147,0.5,0.1 P,0,46907,47147,A
Sprite,Foreground,Centre,"sb\highlight.png",466,245 C,0,47014,,167,167,167 F,2,47014,47254,1,0 S,2,47014,47254,0.5,0.1 P,0,47014,47254,A
Sprite,Foreground,Centre,"sb\highlight.png",388,233 C,0,47121,,167,167,167 F,2,47121,47361,1,0 S,2,47121,47361,0.5,0.1 P,0,47121,47361,A
Sprite,Foreground,Centre,"sb\highlight.png",310,221 C,0,47228,,167,167,167 F,2,47228,47468,1,0 S,2,47228,47468,0.5,0.1 P,0,47228,47468,A
Sprite,Foreground,Centre,"sb\highlight.png",232,209 C,0,47335,,167,167,167 F,2,47335,47575,1,0 S,2,47335,47575,0.5,0.1 P,0,47335,47575,A
Sprite,Foreground,Centre,"sb\highlight.png",154,197 C,0,47443,,167,167,167 F,2,47443,47683,1,0 S,2,47443,47683,0.5,0.1 P,0,47443,47683,A
Sprite,Foreground,Centre,"sb\highlight.png",76,185 C,0,47550,,111,111,111 F,2,47550,47790,1,0 S,2,47550,47790,0.5,0.1 P,0,47550,47790,A
Sprite,Foreground,Centre,"sb\highlight.png",78,197 C,0,47657,,111,111,111 F,2,47657,47897,1,0 S,2,47657,47897,0.5,0.1 P,0,47657,47897,A
Sprite,Foreground,Centre,"sb\highlight.png",113,267 C,0,47764,,225,91,236 F,2,47764,48004,1,0 S,2,47764,48004,0.5,0.1 P,0,47764,48004,A
Sprite,Foreground,Centre,"sb\highlight.png",115,279 C,0,47871,,225,91,236 F,2,47871,48111,1,0 S,2,47871,48111,0.5,0.1 P,0,47871,48111,A
Sprite,Foreground,Centre,"sb\highlight.png",0,0 C,0,47978,,188,46,185 M,0,47978,48031,144,347,105.2199,353.8185 F,2,47978,48325,1,0 S,2,47978,48325,0.5,0.1 P,0,47978,48325,A M,0,48031,48085,105.2199,353.8185,66.43973,360.637
Sprite,Foreground,Centre,"sb\highlight.png",0,0 C,0,48193,,188,46,185 M,0,48193,48246,196,425,234.8255,418.445 F,2,48193,48540,1,0 S,2,48193,48540,0.5,0.1 P,0,48193,48540,A M,0,48246,48300,234.8255,418.445,273,412
Sprite,Foreground,Centre,"sb\highlight.png",0,0 C,0,48407,,167,167,167 M,0,48407,48460,496,347,534.7802,353.8185 F,2,48407,48754,1,0 S,2,48407,48754,0.5,0.1 P,0,48407,48754,A M,0,48460,48514,534.7802,353.8185,573.5603,360.637
Sprite,Foreground,Centre,"sb\highlight.png",0,0 C,0,48622,,167,167,167 M,0,48622,48675,444,425,405.1744,418.445 F,2,48622,48969,1,0 S,2,48622,48969,0.5,0.1 P,0,48622,48969,A M,0,48675,48729,405.1744,418.445,367,412
Sprite,Foreground,Centre,"sb\highlight.png",320,248 C,0,48835,,111,111,111 F,2,48835,49075,1,0 S,2,48835,49075,0.5,0.1 P,0,48835,49075,A
Sprite,Foreground,Centre,"sb\highlight.png",0,0 C,0,48943,,111,111,111 M,0,48943,48996,356,333,317.9195,340.6974 F,2,48943,49290,1,0 S,2,48943,49290,0.5,0.1 P,0,48943,49290,A M,0,48996,49050,317.9195,340.6974,280.8739,329.3382
Sprite,Foreground,Centre,"sb\highlight.png",321,255 C,0,49157,,225,91,236 F,2,49157,49397,1,0 S,2,49157,49397,0.5,0.1 P,0,49157,49397,A
Sprite,Foreground,Centre,"sb\highlight.png",0,0 C,0,49265,,225,91,236 M,0,49265,49318,357,340,318.9195,347.6974 F,2,49265,49612,1,0 S,2,49265,49612,0.5,0.1 P,0,49265,49612,A M,0,49318,49372,318.9195,347.6974,281.8739,336.3382
Sprite,Foreground,Centre,"sb\highlight.png",0,0 C,0,49478,,225,91,236 M,0,49478,49531,281,159,318.015,147.3621 F,2,49478,49825,1,0 S,2,49478,49825,0.5,0.1 P,0,49478,49825,A M,0,49531,49585,318.015,147.3621,355.9682,155.5131
Sprite,Foreground,Centre,"sb\highlight.png",0,0 C,0,49693,,188,46,185 M,0,49693,49746,454,192,488.6049,210.7855 F,2,49693,50040,1,0 S,2,49693,50040,0.5,0.1 P,0,49693,50040,A M,0,49746,49800,488.6049,210.7855,526.6855,201.2538
Sprite,Foreground,Centre,"sb\highlight.png",0,0 C,0,49907,,188,46,185 M,0,49907,49960,538,108,504.0613,88.03609 F,2,49907,50254,1,0 S,2,49907,50254,0.5,0.1 P,0,49907,50254,A M,0,49960,50014,504.0613,88.03609,465.9481,97.841
Sprite,Foreground,Centre,"sb\highlight.png",0,0 C,0,50121,,167,167,167 M,0,50121,50174,189,190,154.8129,209.5355 F,2,50121,50468,1,0 S,2,50121,50468,0.5,0.1 P,0,50121,50468,A M,0,50174,50228,154.8129,209.5355,116.7857,200.3756
Sprite,Foreground,Centre,"sb\highlight.png",0,0 C,0,50335,,167,167,167 M,0,50335,50388,105,106,139.4127,87.10674 F,2,50335,50682,1,0 S,2,50335,50682,0.5,0.1 P,0,50335,50682,A M,0,50388,50442,139.4127,87.10674,177.5335,96.96556
Sprite,Foreground,Centre,"sb\highlight.png",0,0 C,0,50550,,111,111,111 M,0,50550,50603,122,358,87.37491,340.6644 F,2,50550,50897,1,0 S,2,50550,50897,0.5,0.1 P,0,50550,50897,A M,0,50603,50657,87.37491,340.6644,66.7315,307.8799
Sprite,Foreground,Centre,"sb\highlight.png",83,233 C,0,50765,,111,111,111 F,2,50765,51005,1,0 S,2,50765,51005,0.5,0.1 P,0,50765,51005,A
Sprite,Foreground,Centre,"sb\highlight.png",0,0 C,0,50872,,111,111,111 M,0,50872,50925,141,286,180.2445,282.7964 F,2,50872,51165,1,0 S,2,50872,51165,0.5,0.1 P,0,50872,51165,A
Sprite,Foreground,Centre,"sb\highlight.png",0,0 C,0,50978,,111,111,111 M,0,50978,51031,256,247,252.3991,286.21 F,2,50978,51325,1,0 S,2,50978,51325,0.5,0.1 P,0,50978,51325,A M,0,51031,51085,252.3991,286.21,248.7982,325.42
Sprite,Foreground,Centre,"sb\highlight.png",0,0 C,0,51193,,111,111,111 M,0,51193,51246,313,427,315.9819,387.7381 F,2,51193,51540,1,0 S,2,51193,51540,0.5,0.1 P,0,51193,51540,A M,0,51246,51300,315.9819,387.7381,318.9638,348.4761
Sprite,Foreground,Centre,"sb\highlight.png",0,0 C,0,51407,,225,91,236 M,0,51407,51460,531,82,534.0199,121.259 F,2,51407,51754,1,0 S,2,51407,51754,0.5,0.1 P,0,51407,51754,A M,0,51460,51514,534.0199,121.259,537,160
Sprite,Foreground,Centre,"sb\highlight.png",0,0 C,0,51621,,225,91,236 M,0,51621,51674,354,246,350.9801,206.741 F,2,51621,51968,1,0 S,2,51621,51968,0.5,0.1 P,0,51621,51968,A M,0,51674,51728,350.9801,206.741,348,168
Sprite,Foreground,Centre,"sb\highlight.png",0,0 C,0,51835,,225,91,236 M,0,51835,51888,436,121,439.0199,160.259 F,2,51835,52182,1,0 S,2,51835,52182,0.5,0.1 P,0,51835,52182,A M,0,51888,51942,439.0199,160.259,442,199
Sprite,Foreground,Centre,"sb\highlight.png",495,300 C,0,52050,,188,46,185 F,2,52050,52290,1,0 S,2,52050,52290,0.5,0.1 P,0,52050,52290,A
Sprite,Foreground,Centre,"sb\highlight.png",500,289 C,0,52157,,188,46,185 F,2,52157,52397,1,0 S,2,52157,52397,0.5,0.1 P,0,52157,52397,A
Sprite,Foreground,Centre,"sb\highlight.png",527,363 C,0,52264,,167,167,167 F,2,52264,52504,1,0 S,2,52264,52504,0.5,0.1 P,0,52264,52504,A
Sprite,Foreground,Centre,"sb\highlight.png",539,361 C,0,52371,,167,167,167 F,2,52371,52611,1,0 S,2,52371,52611,0.5,0.1 P,0,52371,52611,A
Sprite,Foreground,Centre,"sb\highlight.png",488,422 C,0,52478,,111,111,111 F,2,52478,52718,1,0 S,2,52478,52718,0.5,0.1 P,0,52478,52718,A
Sprite,Foreground,Centre,"sb\highlight.png",496,431 C,0,52585,,111,111,111 F,2,52585,52825,1,0 S,2,52585,52825,0.5,0.1 P,0,52585,52825,A
Sprite,Foreground,Centre,"sb\highlight.png",417,417 C,0,52693,,225,91,236 F,2,52693,52933,1,0 S,2,52693,52933,0.5,0.1 P,0,52693,52933,A
Sprite,Foreground,Centre,"sb\highlight.png",419,405 C,0,52800,,225,91,236 F,2,52800,53040,1,0 S,2,52800,53040,0.5,0.1 P,0,52800,53040,A
Sprite,Foreground,Centre,"sb\highlight.png",421,393 C,0,52907,,225,91,236 F,2,52907,53147,1,0 S,2,52907,53147,0.5,0.1 P,0,52907,53147,A
Sprite,Foreground,Centre,"sb\highlight.png",423,381 C,0,53014,,225,91,236 F,2,53014,53254,1,0 S,2,53014,53254,0.5,0.1 P,0,53014,53254,A
Sprite,Foreground,Centre,"sb\highlight.png",0,0 C,0,53121,,188,46,185 M,0,53121,53174,376,318,337.3896,310.2779 F,2,53121,53414,1,0 S,2,53121,53414,0.5,0.1 P,0,53121,53414,A
Sprite,Foreground,Centre,"sb\highlight.png",0,0 C,0,53228,,188,46,185 M,0,53228,53281,348,272,310.6456,284.4515 F,2,53228,53521,1,0 S,2,53228,53521,0.5,0.1 P,0,53228,53521,A
Sprite,Foreground,Centre,"sb\highlight.png",0,0 C,0,53335,,188,46,185 M,0,53335,53388,300,246,273.6595,275.2672 F,2,53335,53628,1,0 S,2,53335,53628,0.5,0.1 P,0,53335,53628,A
Sprite,Foreground,Centre,"sb\highlight.png",0,0 C,0,53443,,188,46,185 M,0,53443,53496,245,247,236.3567,285.4146 F,2,53443,53736,1,0 S,2,53443,53736,0.5,0.1 P,0,53443,53736,A
Sprite,Foreground,Centre,"sb\highlight.png",0,0 C,0,53549,,188,46,185 M,0,53549,53602,199,275,211.7452,312.2552 F,2,53549,53842,1,0 S,2,53549,53842,0.5,0.1 P,0,53549,53842,A
Sprite,Foreground,Centre,"sb\highlight.png",0,0 C,0,53657,,188,46,185 M,0,53657,53710,172,324,201.7552,349.7879 F,2,53657,53950,1,0 S,2,53657,53950,0.5,0.1 P,0,53657,53950,A
Sprite,Foreground,Centre,"sb\highlight.png",173,379 C,0,53764,,167,167,167 F,2,53764,54004,1,0 S,2,53764,54004,0.5,0.1 P,0,53764,54004,A
Sprite,Foreground,Centre,"sb\highlight.png",247,405 C,0,53871,,167,167,167 F,2,53871,54111,1,0 S,2,53871,54111,0.5,0.1 P,0,53871,54111,A
Sprite,Foreground,Centre,"sb\highlight.png",312,362 C,0,53978,,167,167,167 F,2,53978,54218,1,0 S,2,53978,54218,0.5,0.1 P,0,53978,54218,A
Sprite,Foreground,Centre,"sb\highlight.png",310,284 C,0,54085,,167,167,167 F,2,54085,54325,1,0 S,2,54085,54325,0.5,0.1 P,0,54085,54325,A
Sprite,Foreground,Centre,"sb\highlight.png",248,234 C,0,54193,,167,167,167 F,2,54193,54433,1,0 S,2,54193,54433,0.5,0.1 P,0,54193,54433,A
Sprite,Foreground,Centre,"sb\highlight.png",227,158 C,0,54300,,167,167,167 F,2,54300,54540,1,0 S,2,54300,54540,0.5,0.1 P,0,54300,54540,A
Sprite,Foreground,Centre,"sb\highlight.png",265,89 C,0,54407,,111,111,111 F,2,54407,54647,1,0 S,2,54407,54647,0.5,0.1 P,0,54407,54647,A
Sprite,Foreground,Centre,"sb\highlight.png",276,93 C,0,54514,,111,111,111 F,2,54514,54754,1,0 S,2,54514,54754,0.5,0.1 P,0,54514,54754,A
Sprite,Foreground,Centre,"sb\highlight.png",338,142 C,0,54621,,225,91,236 F,2,54621,54861,1,0 S,2,54621,54861,0.5,0.1 P,0,54621,54861,A
Sprite,Foreground,Centre,"sb\highlight.png",349,146 C,0,54728,,225,91,236 F,2,54728,54968,1,0 S,2,54728,54968,0.5,0.1 P,0,54728,54968,A
Sprite,Foreground,Centre,"sb\highlight.png",0,0 C,0,54835,,188,46,185 M,0,54835,54888,428,144,424.5247,104.7787 F,2,54835,55182,1,0 S,2,54835,55182,0.5,0.1 P,0,54835,55182,A M,0,54888,54942,424.5247,104.7787,421.0494,65.55733
Sprite,Foreground,Centre,"sb\highlight.png",0,0 C,0,55050,,188,46,185 M,0,55050,55103,512,56,515.0199,95.25902 F,2,55050,55397,1,0 S,2,55050,55397,0.5,0.1 P,0,55050,55397,A M,0,55103,55157,515.0199,95.25902,518,134
Sprite,Foreground,Centre,"sb\highlight.png",0,0 C,0,55264,,167,167,167 M,0,55264,55317,212,144,214.9819,104.7381 F,2,55264,55611,1,0 S,2,55264,55611,0.5,0.1 P,0,55264,55611,A M,0,55317,55371,214.9819,104.7381,217.9638,65.47615
Sprite,Foreground,Centre,"sb\highlight.png",0,0 C,0,55479,,167,167,167 M,0,55479,55532,128,56,124.4805,95.21739 F,2,55479,55826,1,0 S,2,55479,55826,0.5,0.1 P,0,55479,55826,A M,0,55532,55586,124.4805,95.21739,121,134
Sprite,Foreground,Centre,"sb\highlight.png",320,248 C,0,55693,,111,111,111 F,2,55693,55933,1,0 S,2,55693,55933,0.5,0.1 P,0,55693,55933,A
Sprite,Foreground,Centre,"sb\highlight.png",0,0 C,0,55800,,111,111,111 M,0,55800,55853,418,218,414.6254,257.2301 F,2,55800,56147,1,0 S,2,55800,56147,0.5,0.1 P,0,55800,56147,A M,0,55853,55907,414.6254,257.2301,411.2507,296.4602
Sprite,Foreground,Centre,"sb\highlight.png",329,248 C,0,56014,,225,91,236 F,2,56014,56254,1,0 S,2,56014,56254,0.5,0.1 P,0,56014,56254,A
Sprite,Foreground,Centre,"sb\highlight.png",0,0 C,0,56121,,225,91,236 M,0,56121,56174,427,218,423.6254,257.2301 F,2,56121,56468,1,0 S,2,56121,56468,0.5,0.1 P,0,56121,56468,A M,0,56174,56228,423.6254,257.2301,420.2507,296.4602
Sprite,Foreground,Centre,"sb\highlight.png",0,0 C,0,56335,,225,91,236 M,0,56335,56388,219,296,215.9801,256.741 F,2,56335,56682,1,0 S,2,56335,56682,0.5,0.1 P,0,56335,56682,A M,0,56388,56442,215.9801,256.741,213,218
Sprite,Foreground,Centre,"sb\highlight.png",320,56 C,0,56550,,188,46,185 F,2,56550,56790,1,0 S,2,56550,56790,0.5,0.1 P,0,56550,56790,A
Sprite,Foreground,Centre,"sb\highlight.png",0,0 C,0,58264,,167,167,167 M,0,58264,58317,548,433,554.7063,354.5361 F,2,58264,58611,1,0 S,2,58264,58611,0.5,0.1 P,0,58264,58611,A M,0,58317,58371,554.7063,354.5361,526.9849,341.376
Sprite,Foreground,Centre,"sb\highlight.png",0,0 C,0,58478,,167,167,167 M,0,58478,58531,456,403,427.5119,391.6458 F,2,58478,58825,1,0 S,2,58478,58825,0.5,0.1 P,0,58478,58825,A M,0,58531,58585,427.5119,391.6458,434.8833,313.2415
Sprite,Foreground,Centre,"sb\highlight.png",504,177 C,0,58693,,167,167,167 F,2,58693,58933,1,0 S,2,58693,58933,0.5,0.1 P,0,58693,58933,A
Sprite,Foreground,Centre,"sb\highlight.png",0,0 C,0,58800,,167,167,167 M,0,58800,58853,502,189,498.3623,228.2066 F,2,58800,59254,1,0 S,2,58800,59254,0.5,0.1 P,0,58800,59254,A M,0,58853,58907,498.3623,228.2066,494.7245,267.4132 M,0,58907,58960,494.7245,267.4132,498.3623,228.2066 M,0,58960,59014,498.3623,228.2066,502,189
Sprite,Foreground,Centre,"sb\highlight.png",0,0 C,0,59121,,111,111,111 M,0,59121,59174,381,61,345.0067,75.6078 F,2,59121,59682,1,0 S,2,59121,59682,0.5,0.1 P,0,59121,59682,A M,0,59174,59228,345.0067,75.6078,320.4392,105.5663 M,0,59228,59281,320.4392,105.5663,313.5801,143.7132 M,0,59281,59335,313.5801,143.7132,326.1853,180.3887 M,0,59335,59388,326.1853,180.3887,355.0863,206.2932 M,0,59388,59442,355.0863,206.2932,392.9835,214.8386
Sprite,Foreground,Centre,"sb\highlight.png",0,0 C,0,59550,,225,91,236 M,0,59550,59603,453,115,380.8561,145.2775 F,2,59550,60004,1,0 S,2,59550,60004,0.5,0.1 P,0,59550,60004,A M,0,59603,59657,380.8561,145.2775,307.3416,123.9105 M,0,59657,59710,307.3416,123.9105,237.5887,88.81313 M,0,59710,59764,237.5887,88.81313,159.8169,94.94806
Sprite,Foreground,Centre,"sb\highlight.png",0,0 C,0,59978,,188,46,185 M,0,59978,60031,64,434,103.2096,437.6055 F,2,59978,60325,1,0 S,2,59978,60325,0.5,0.1 P,0,59978,60325,A M,0,60031,60085,103.2096,437.6055,142.4192,441.211
Sprite,Foreground,Centre,"sb\highlight.png",0,0 C,0,60193,,188,46,185 M,0,60193,60246,110,361,149.2174,364.5195 F,2,60193,60540,1,0 S,2,60193,60540,0.5,0.1 P,0,60193,60540,A M,0,60246,60300,149.2174,364.5195,188,368
Sprite,Foreground,Centre,"sb\highlight.png",144,286 C,0,60407,,188,46,185 F,2,60407,60647,1,0 S,2,60407,60647,0.5,0.1 P,0,60407,60647,A
Sprite,Foreground,Centre,"sb\highlight.png",0,0 C,0,60514,,188,46,185 M,0,60514,60567,156,288,195.2174,291.5195 F,2,60514,60968,1,0 S,2,60514,60968,0.5,0.1 P,0,60514,60968,A M,0,60567,60621,195.2174,291.5195,234,295 M,0,60621,60674,234,295,195.2174,291.5195 M,0,60674,60728,195.2174,291.5195,156,288
Sprite,Foreground,Centre,"sb\highlight.png",0,0 C,0,60835,,167,167,167 M,0,60835,60888,445,56,492.4258,88.2735 F,2,60835,61182,1,0 S,2,60835,61182,0.5,0.1 P,0,60835,61182,A M,0,60888,60942,492.4258,88.2735,502.047,144.6807
Sprite,Foreground,Centre,"sb\highlight.png",0,0 C,0,61050,,167,167,167 M,0,61050,61103,419,136,415.6338,193.2125 F,2,61050,61397,1,0 S,2,61050,61397,0.5,0.1 P,0,61050,61397,A M,0,61103,61157,415.6338,193.2125,371.6524,229.7327
Sprite,Foreground,Centre,"sb\highlight.png",0,0 C,0,61264,,111,111,111 M,0,61264,61317,195,56,147.5742,88.2735 F,2,61264,61611,1,0 S,2,61264,61611,0.5,0.1 P,0,61264,61611,A M,0,61317,61371,147.5742,88.2735,137.953,144.6807
Sprite,Foreground,Centre,"sb\highlight.png",0,0 C,0,61479,,111,111,111 M,0,61479,61532,221,136,224.3662,193.2125 F,2,61479,61826,1,0 S,2,61479,61826,0.5,0.1 P,0,61479,61826,A M,0,61532,61586,224.3662,193.2125,268.3477,229.7326
Sprite,Foreground,Centre,"sb\highlight.png",0,0 C,0,61693,,225,91,236 M,0,61693,61746,314,110,337.085,78.40507 F,2,61693,62254,1,0 S,2,61693,62254,0.5,0.1 P,0,61693,62254,A M,0,61746,61800,337.085,78.40507,325.9481,156.3636 M,0,61800,61853,325.9481,156.3636,320.8262,232.3242 M,0,61853,61907,320.8262,232.3242,310.5782,310.4045 M,0,61907,61960,310.5782,310.4045,300.3301,388.4849 M,0,61960,62014,300.3301,388.4849,328.9272,320.4898
Sprite,Foreground,Centre,"sb\highlight.png",480,247 C,0,62121,,225,91,236 F,2,62121,62361,1,0 S,2,62121,62361,0.5,0.1 P,0,62121,62361,A
Sprite,Foreground,Centre,"sb\highlight.png",0,0 C,0,62228,,225,91,236 M,0,62228,62281,490,241,528.6688,241.6988 F,2,62228,62682,1,0 S,2,62228,62682,0.5,0.1 P,0,62228,62682,A M,0,62281,62335,528.6688,241.6988,560.7697,263.0714 M,0,62335,62388,560.7697,263.0714,528.6688,241.6988 M,0,62388,62442,528.6688,241.6988,490,241
Sprite,Foreground,Centre,"sb\highlight.png",0,0 C,0,62550,,225,91,236 M,0,62550,62603,576,361,550.4226,390.3432 F,2,62550,63111,1,0 S,2,62550,63111,0.5,0.1 P,0,62550,63111,A M,0,62603,62657,550.4226,390.3432,514.5608,405.2532 M,0,62657,62710,514.5608,405.2532,475.8284,402.3288 M,0,62710,62764,475.8284,402.3288,442.6015,382.1969 M,0,62764,62817,442.6015,382.1969,422.0696,349.2042 M,0,62817,62871,422.0696,349.2042,418.6813,310.4803
Sprite,Foreground,Centre,"sb\highlight.png",0,0 C,0,62978,,188,46,185 M,0,62978,63031,500,325,422.1577,336.9218 F,2,62978,63432,1,0 S,2,62978,63432,0.5,0.1 P,0,62978,63432,A M,0,63031,63085,422.1577,336.9218,347.473,354.7302 M,0,63085,63138,347.473,354.7302,270.8792,360.5491 M,0,63138,63192,270.8792,360.5491,193.0358,372.4639
Sprite,Foreground,Centre,"sb\highlight.png",0,0 C,0,63407,,167,167,167 M,0,63407,63460,144,192,147.3901,152.7712 F,2,63407,63754,1,0 S,2,63407,63754,0.5,0.1 P,0,63407,63754,A M,0,63460,63514,147.3901,152.7712,150.7803,113.5424
Sprite,Foreground,Centre,"sb\highlight.png",0,0 C,0,63621,,167,167,167 M,0,63621,63674,71,83,67.48049,122.2174 F,2,63621,63968,1,0 S,2,63621,63968,0.5,0.1 P,0,63621,63968,A M,0,63674,63728,67.48049,122.2174,64,161
Sprite,Foreground,Centre,"sb\highlight.png",222,234 C,0,63835,,167,167,167 F,2,63835,64075,1,0 S,2,63835,64075,0.5,0.1 P,0,63835,64075,A
Sprite,Foreground,Centre,"sb\highlight.png",0,0 C,0,63943,,167,167,167 M,0,63943,63996,223,222,226.3901,182.7712 F,2,63943,64397,1,0 S,2,63943,64397,0.5,0.1 P,0,63943,64397,A M,0,63996,64050,226.3901,182.7712,229.7803,143.5424 M,0,64050,64103,229.7803,143.5424,226.3901,182.7712 M,0,64103,64157,226.3901,182.7712,223,222
Sprite,Foreground,Centre,"sb\highlight.png",0,0 C,0,64264,,111,111,111 M,0,64264,64317,512,189,548.1262,143.8346 F,2,64264,64611,1,0 S,2,64264,64611,0.5,0.1 P,0,64264,64611,A M,0,64317,64371,548.1262,143.8346,526.0254,89.06292
Sprite,Foreground,Centre,"sb\highlight.png",0,0 C,0,64478,,111,111,111 M,0,64478,64531,402,72,367.7685,118.9045 F,2,64478,64825,1,0 S,2,64478,64825,0.5,0.1 P,0,64478,64825,A M,0,64531,64585,367.7685,118.9045,389.8693,173.6762
Sprite,Foreground,Centre,"sb\highlight.png",0,0 C,0,64693,,225,91,236 M,0,64693,64746,483,341,505.1008,395.7716 F,2,64693,65040,1,0 S,2,64693,65040,0.5,0.1 P,0,64693,65040,A M,0,64746,64800,505.1008,395.7716,469.0443,440.9486
Sprite,Foreground,Centre,"sb\highlight.png",0,0 C,0,64907,,225,91,236 M,0,64907,64960,386,431,363.8992,376.2284 F,2,64907,65254,1,0 S,2,64907,65254,0.5,0.1 P,0,64907,65254,A M,0,64960,65014,363.8992,376.2284,397.7856,329.2756
Sprite,Foreground,Centre,"sb\highlight.png",0,0 C,0,65121,,188,46,185 M,0,65121,65174,559,263,480.9795,257.347 F,2,65121,65682,1,0 S,2,65121,65682,0.5,0.1 P,0,65121,65682,A M,0,65174,65228,480.9795,257.347,405.7823,249.1814 M,0,65228,65281,405.7823,249.1814,331.2458,242.4441 M,0,65281,65335,331.2458,242.4441,257.7358,236.1808 M,0,65335,65388,257.7358,236.1808,180.4135,234.6355 M,0,65388,65442,180.4135,234.6355,105.1049,222.0877
Sprite,Foreground,Centre,"sb\highlight.png",65,126 C,0,65550,,188,46,185 F,2,65550,65790,1,0 S,2,65550,65790,0.5,0.1 P,0,65550,65790,A
Sprite,Foreground,Centre,"sb\highlight.png",0,0 C,0,65657,,188,46,185 M,0,65657,65710,69,115,99.0757,90.15367 F,2,65657,66111,1,0 S,2,65657,66111,0.5,0.1 P,0,65657,66111,A M,0,65710,65764,99.0757,90.15367,138.055,95.72214 M,0,65764,65817,138.055,95.72214,99.07571,90.15367 M,0,65817,65871,99.07571,90.15367,69,115
Sprite,Foreground,Centre,"sb\highlight.png",0,0 C,0,65978,,167,167,167 M,0,65978,66031,229,143,225.5954,182.2275 F,2,65978,66539,1,0 S,2,65978,66539,0.5,0.1 P,0,65978,66539,A M,0,66031,66085,225.5954,182.2275,222.1907,221.455 M,0,66085,66138,222.1907,221.455,218.786,260.6826 M,0,66138,66192,218.786,260.6826,215.3814,299.9101 M,0,66192,66245,215.3814,299.9101,211.9767,339.1376 M,0,66245,66299,211.9767,339.1376,208.5721,378.3652
Sprite,Foreground,Centre,"sb\highlight.png",0,0 C,0,66407,,111,111,111 M,0,66407,66460,145,440,121.7772,367.7757 F,2,66407,66861,1,0 S,2,66407,66861,0.5,0.1 P,0,66407,66861,A M,0,66460,66514,121.7772,367.7757,164.5458,305.216 M,0,66514,66567,164.5458,305.216,240.2179,301.3698 M,0,66567,66621,240.2179,301.3698,289.4433,358.8786
Sprite,Foreground,Centre,"sb\highlight.png",0,0 C,0,66835,,225,91,236 M,0,66835,66888,559,263,521.1226,270.6137 F,2,66835,67182,1,0 S,2,66835,67182,0.5,0.1 P,0,66835,67182,A M,0,66888,66942,521.1226,270.6137,493.6955,297.7637
Sprite,Foreground,Centre,"sb\highlight.png",0,0 C,0,67050,,225,91,236 M,0,67050,67103,429,262,416.3475,298.4918 F,2,67050,67397,1,0 S,2,67050,67397,0.5,0.1 P,0,67050,67397,A M,0,67103,67157,416.3475,298.4918,426.0073,335.8359
Sprite,Foreground,Centre,"sb\highlight.png",572,427 C,0,67264,,225,91,236 F,2,67264,67504,1,0 S,2,67264,67504,0.5,0.1 P,0,67264,67504,A
Sprite,Foreground,Centre,"sb\highlight.png",0,0 C,0,67371,,225,91,236 M,0,67371,67424,570,415,564.309,376.0385 F,2,67371,67825,1,0 S,2,67371,67825,0.5,0.1 P,0,67371,67825,A M,0,67424,67478,564.309,376.0385,558.618,337.0769 M,0,67478,67531,558.618,337.0769,564.309,376.0385 M,0,67531,67585,564.309,376.0385,570,415
Sprite,Foreground,Centre,"sb\highlight.png",0,0 C,0,67693,,188,46,185 M,0,67693,67746,356,220,400.6329,181.3182 F,2,67693,68040,1,0 S,2,67693,68040,0.5,0.1 P,0,67693,68040,A M,0,67746,67800,400.6329,181.3182,459.3128,186.5536
Sprite,Foreground,Centre,"sb\highlight.png",0,0 C,0,67907,,188,46,185 M,0,67907,67960,560,143,521.8052,97.94966 F,2,67907,68254,1,0 S,2,67907,68254,0.5,0.1 P,0,67907,68254,A M,0,67960,68014,521.8052,97.94966,463.3696,92.35239
Sprite,Foreground,Centre,"sb\highlight.png",0,0 C,0,68121,,167,167,167 M,0,68121,68174,176,92,117.4603,97.6533 F,2,68121,68468,1,0 S,2,68121,68468,0.5,0.1 P,0,68121,68468,A M,0,68174,68228,117.4603,97.6533,80,143
Sprite,Foreground,Centre,"sb\highlight.png",0,0 C,0,68335,,167,167,167 M,0,68335,68388,179,186,237.8515,181.0126 F,2,68335,68682,1,0 S,2,68335,68682,0.5,0.1 P,0,68335,68682,A M,0,68388,68442,237.8515,181.0126,282.9367,219.0985
Sprite,Foreground,Centre,"sb\highlight.png",0,0 C,0,68550,,111,111,111 M,0,68550,68603,244,315,207.6109,378.2451 F,2,68550,69111,1,0 S,2,68550,69111,0.5,0.1 P,0,68550,69111,A M,0,68603,68657,207.6109,378.2451,173.6162,409.7243 M,0,68657,68710,173.6162,409.7243,195.1042,333.9626 M,0,68710,68764,195.1042,333.9626,216.5921,258.201 M,0,68764,68817,216.5921,258.201,238.0801,182.4393 M,0,68817,68871,238.0801,182.4393,259.5681,106.6776
Sprite,Foreground,Centre,"sb\highlight.png",350,58 C,0,68978,,111,111,111 F,2,68978,69218,1,0 S,2,68978,69218,0.5,0.1 P,0,68978,69218,A
Sprite,Foreground,Centre,"sb\highlight.png",0,0 C,0,69085,,111,111,111 M,0,69085,69138,348,70,338.3557,108.1756 F,2,69085,69539,1,0 S,2,69085,69539,0.5,0.1 P,0,69085,69539,A M,0,69138,69192,338.3557,108.1756,328.7113,146.3512 M,0,69192,69245,328.7113,146.3512,338.3556,108.1756 M,0,69245,69299,338.3556,108.1756,348,70
Sprite,Foreground,Centre,"sb\highlight.png",0,0 C,0,69407,,111,111,111 M,0,69407,69460,356,220,375.7565,253.7675 F,2,69407,69968,1,0 S,2,69407,69968,0.5,0.1 P,0,69407,69968,A M,0,69460,69514,375.7565,253.7675,405.6735,278.9056 M,0,69514,69567,405.6735,278.9056,442.409,292.2634 M,0,69567,69621,442.409,292.2634,481.5166,292.2122 M,0,69621,69674,481.5166,292.2122,518.2582,278.7426 M,0,69674,69728,518.2582,278.7426,547.9413,253.2748
Sprite,Foreground,Centre,"sb\highlight.png",0,0 C,0,69835,,225,91,236 M,0,69835,69888,491,100,473.6383,176.8123 F,2,69835,70289,1,0 S,2,69835,70289,0.5,0.1 P,0,69835,70289,A M,0,69888,69942,473.6383,176.8123,451.9658,250.9693 M,0,69942,69995,451.9658,250.9693,425.6173,322.6844 M,0,69995,70049,425.6173,322.6844,406.849,399.1653
Sprite,Foreground,Centre,"sb\highlight.png",226,400 C,0,70264,,188,46,185 F,2,70264,70504,1,0 S,2,70264,70504,0.5,0.1 P,0,70264,70504,A
Sprite,Foreground,Centre,"sb\highlight.png",178,400 C,0,70371,,188,46,185 F,2,70371,70611,1,0 S,2,70371,70611,0.5,0.1 P,0,70371,70611,A
Sprite,Foreground,Centre,"sb\highlight.png",131,400 C,0,70478,,188,46,185 F,2,70478,70718,1,0 S,2,70478,70718,0.5,0.1 P,0,70478,70718,A
Sprite,Foreground,Centre,"sb\highlight.png",84,400 C,0,70585,,188,46,185 F,2,70585,70825,1,0 S,2,70585,70825,0.5,0.1 P,0,70585,70825,A
Sprite,Foreground,Centre,"sb\highlight.png",64,331 C,0,70693,,167,167,167 F,2,70693,70933,1,0 S,2,70693,70933,0.5,0.1 P,0,70693,70933,A
Sprite,Foreground,Centre,"sb\highlight.png",112,331 C,0,70800,,167,167,167 F,2,70800,71040,1,0 S,2,70800,71040,0.5,0.1 P,0,70800,71040,A
Sprite,Foreground,Centre,"sb\highlight.png",159,331 C,0,70907,,167,167,167 F,2,70907,71147,1,0 S,2,70907,71147,0.5,0.1 P,0,70907,71147,A
Sprite,Foreground,Centre,"sb\highlight.png",206,331 C,0,71014,,167,167,167 F,2,71014,71254,1,0 S,2,71014,71254,0.5,0.1 P,0,71014,71254,A
Sprite,Foreground,Centre,"sb\highlight.png",0,0 C,0,71121,,111,111,111 M,0,71121,71174,213,258,204.25,258 F,2,71121,71468,1,0 S,2,71121,71468,0.5,0.1 P,0,71121,71468,A M,0,71174,71228,204.25,258,195.5,258
Sprite,Foreground,Centre,"sb\highlight.png",280,297 C,0,71336,,111,111,111 F,2,71336,71576,1,0 S,2,71336,71576,0.5,0.1 P,0,71336,71576,A
Sprite,Foreground,Centre,"sb\highlight.png",347,258 C,0,71443,,111,111,111 F,2,71443,71683,1,0 S,2,71443,71683,0.5,0.1 P,0,71443,71683,A
Sprite,Foreground,Centre,"sb\highlight.png",0,0 C,0,71550,,111,111,111 M,0,71550,71603,414,297,420.5356,296.4059 F,2,71550,72111,1,0 S,2,71550,72111,0.5,0.1 P,0,71550,72111,A M,0,71603,71657,420.5356,296.4059,427.0711,295.8117 M,0,71657,71710,427.0711,295.8117,433.6067,295.2176 M,0,71710,71764,433.6067,295.2176,440.1422,294.6234 M,0,71764,71817,440.1422,294.6234,446.6777,294.0293 M,0,71817,71871,446.6777,294.0293,453.2133,293.4352
Sprite,Foreground,Centre,"sb\highlight.png",0,0 C,0,71978,,225,91,236 M,0,71978,72031,508,63,539.1014,72.1198 F,2,71978,72325,1,0 S,2,71978,72325,0.5,0.1 P,0,71978,72325,A M,0,72031,72085,539.1014,72.1198,561,95
Sprite,Foreground,Centre,"sb\highlight.png",0,0 C,0,72193,,225,91,236 M,0,72193,72246,562,176,537.8582,197.4622 F,2,72193,72540,1,0 S,2,72193,72540,0.5,0.1 P,0,72193,72540,A M,0,72246,72300,537.8582,197.4622,506.4497,204.9923
Sprite,Foreground,Centre,"sb\highlight.png",442,173 C,0,72407,,225,91,236 F,2,72407,72647,1,0 S,2,72407,72647,0.5,0.1 P,0,72407,72647,A
Sprite,Foreground,Centre,"sb\highlight.png",0,0 C,0,72514,,225,91,236 M,0,72514,72567,437,165,429.5333,133.5745 F,2,72514,72968,1,0 S,2,72514,72968,0.5,0.1 P,0,72514,72968,A M,0,72567,72621,429.5333,133.5745,437.8149,102.3578 M,0,72621,72674,437.8149,102.3578,429.5333,133.5745 M,0,72674,72728,429.5333,133.5745,437,165
Sprite,Foreground,Centre,"sb\highlight.png",0,0 C,0,72835,,188,46,185 M,0,72835,72888,132,63,101.0034,72.03737 F,2,72835,73182,1,0 S,2,72835,73182,0.5,0.1 P,0,72835,73182,A M,0,72888,72942,101.0034,72.03737,78.12025,94.812
Sprite,Foreground,Centre,"sb\highlight.png",0,0 C,0,73050,,188,46,185 M,0,73050,73103,78,176,101.5315,198.2651 F,2,73050,73397,1,0 S,2,73050,73397,0.5,0.1 P,0,73050,73397,A M,0,73103,73157,101.5315,198.2651,133,205
Sprite,Foreground,Centre,"sb\highlight.png",198,173 C,0,73264,,188,46,185 F,2,73264,73504,1,0 S,2,73264,73504,0.5,0.1 P,0,73264,73504,A
Sprite,Foreground,Centre,"sb\highlight.png",0,0 C,0,73371,,188,46,185 M,0,73371,73424,203,165,209.4993,133.3061 F,2,73371,73825,1,0 S,2,73371,73825,0.5,0.1 P,0,73371,73825,A M,0,73424,73478,209.4993,133.3061,201.0399,102.079 M,0,73478,73531,201.0399,102.079,209.4993,133.3061 M,0,73531,73585,209.4993,133.3061,203,165
Sprite,Foreground,Centre,"sb\highlight.png",0,0 C,0,73693,,167,167,167 M,0,73693,73746,331,56,327.8519,88.66113 F,2,73693,74040,1,0 S,2,73693,74040,0.5,0.1 P,0,73693,74040,A M,0,73746,73800,327.8519,88.66113,324.7039,121.3223
Sprite,Foreground,Centre,"sb\highlight.png",0,0 C,0,73907,,167,167,167 M,0,73907,73960,309,206,311.7575,238.6964 F,2,73907,74254,1,0 S,2,73907,74254,0.5,0.1 P,0,73907,74254,A M,0,73960,74014,311.7575,238.6964,314.5151,271.3929
Sprite,Foreground,Centre,"sb\highlight.png",320,425 C,0,74121,,167,167,167 F,2,74121,74361,1,0 S,2,74121,74361,0.5,0.1 P,0,74121,74361,A
Sprite,Foreground,Centre,"sb\highlight.png",0,0 C,0,74228,,167,167,167 M,0,74228,74281,381,376,355.4623,355.91 F,2,74228,74682,1,0 S,2,74228,74682,0.5,0.1 P,0,74228,74682,A M,0,74281,74335,355.4623,355.91,324.2022,347.3834 M,0,74335,74388,324.2022,347.3834,292.1486,352.1288 M,0,74388,74442,292.1486,352.1288,264.6981,369.3483
Sprite,Foreground,Centre,"sb\highlight.png",0,0 C,0,74550,,111,111,111 M,0,74550,74603,107,440,102.7989,394.255 F,2,74550,74897,1,0 S,2,74550,74897,0.5,0.1 P,0,74550,74897,A M,0,74603,74657,102.7989,394.255,98.59785,348.51
Sprite,Foreground,Centre,"sb\highlight.png",0,0 C,0,74764,,111,111,111 M,0,74764,74817,239,273,243.0229,318.761 F,2,74764,75111,1,0 S,2,74764,75111,0.5,0.1 P,0,74764,75111,A M,0,74817,74871,243.0229,318.761,247,364
Sprite,Foreground,Centre,"sb\highlight.png",0,0 C,0,74978,,225,91,236 M,0,74978,75031,541,440,544.7375,394.2148 F,2,74978,75325,1,0 S,2,74978,75325,0.5,0.1 P,0,74978,75325,A M,0,75031,75085,544.7375,394.2148,548.4751,348.4296
Sprite,Foreground,Centre,"sb\highlight.png",0,0 C,0,75192,,225,91,236 M,0,75192,75245,400,278,395.4788,323.7145 F,2,75192,75539,1,0 S,2,75192,75539,0.5,0.1 P,0,75192,75539,A M,0,75245,75299,395.4788,323.7145,391,369
Sprite,Foreground,Centre,"sb\highlight.png",0,0 C,0,75407,,188,46,185 M,0,75407,75460,520,170,491.0755,155.6699 F,2,75407,75754,1,0 S,2,75407,75754,0.5,0.1 P,0,75407,75754,A M,0,75460,75514,491.0755,155.6699,458.9837,157.3248
Sprite,Foreground,Centre,"sb\highlight.png",0,0 C,0,75621,,188,46,185 M,0,75621,75674,202,190,169.6194,190.6271 F,2,75621,75968,1,0 S,2,75621,75968,0.5,0.1 P,0,75621,75968,A M,0,75674,75728,169.6194,190.6271,140.1808,177.131
Sprite,Foreground,Centre,"sb\highlight.png",0,0 C,0,75835,,167,167,167 M,0,75835,75888,331,206,327.8519,238.6611 F,2,75835,76182,1,0 S,2,75835,76182,0.5,0.1 P,0,75835,76182,A M,0,75888,75942,327.8519,238.6611,324.7039,271.3223
Sprite,Foreground,Centre,"sb\highlight.png",0,0 C,0,76050,,167,167,167 M,0,76050,76103,306,123,308.4787,90.28126 F,2,76050,76397,1,0 S,2,76050,76397,0.5,0.1 P,0,76050,76397,A M,0,76103,76157,308.4787,90.28126,310.9574,57.56252
Sprite,Foreground,Centre,"sb\highlight.png",0,0 C,0,76264,,111,111,111 M,0,76264,76317,433,231,429.984,263.6736 F,2,76264,76611,1,0 S,2,76264,76611,0.5,0.1 P,0,76264,76611,A M,0,76317,76371,429.984,263.6736,427,296
Sprite,Foreground,Centre,"sb\highlight.png",419,388 C,0,76478,,111,111,111 F,2,76478,76718,1,0 S,2,76478,76718,0.5,0.1 P,0,76478,76718,A
Sprite,Foreground,Centre,"sb\highlight.png",419,398 C,0,76585,,111,111,111 F,2,76585,76825,1,0 S,2,76585,76825,0.5,0.1 P,0,76585,76825,A
Sprite,Foreground,Centre,"sb\highlight.png",0,0 C,0,76693,,111,111,111 M,0,76693,76746,572,355,539.5691,350.0106 F,2,76693,77040,1,0 S,2,76693,77040,0.5,0.1 P,0,76693,77040,A M,0,76746,76800,539.5691,350.0106,507.1381,345.0212
Sprite,Foreground,Centre,"sb\highlight.png",0,0 C,0,76907,,111,111,111 M,0,76907,76960,307,275,274.4976,279.5003 F,2,76907,77254,1,0 S,2,76907,77254,0.5,0.1 P,0,76907,77254,A M,0,76960,77014,274.4976,279.5003,242,284
Sprite,Foreground,Centre,"sb\highlight.png",320,439 C,0,77121,,225,91,236 F,2,77121,77361,1,0 S,2,77121,77361,0.5,0.1 P,0,77121,77361,A
Sprite,Foreground,Centre,"sb\highlight.png",324,430 C,0,77228,,225,91,236 F,2,77228,77468,1,0 S,2,77228,77468,0.5,0.1 P,0,77228,77468,A
Sprite,Foreground,Centre,"sb\highlight.png",315,416 C,0,77335,,188,46,185 F,2,77335,77575,1,0 S,2,77335,77575,0.5,0.1 P,0,77335,77575,A
Sprite,Foreground,Centre,"sb\highlight.png",319,407 C,0,77442,,188,46,185 F,2,77442,77682,1,0 S,2,77442,77682,0.5,0.1 P,0,77442,77682,A
Sprite,Foreground,Centre,"sb\highlight.png",0,0 C,0,77550,,167,167,167 M,0,77550,77603,383,325,412.4325,311.3415 F,2,77550,77897,1,0 S,2,77550,77897,0.5,0.1 P,0,77550,77897,A M,0,77603,77657,412.4325,311.3415,444.7761,311.1694
Sprite,Foreground,Centre,"sb\highlight.png",0,0 C,0,77764,,167,167,167 M,0,77764,77817,264,323,234.5675,309.3415 F,2,77764,78111,1,0 S,2,77764,78111,0.5,0.1 P,0,77764,78111,A M,0,77817,77871,234.5675,309.3415,202.2239,309.1694
Sprite,Foreground,Centre,"sb\highlight.png",0,0 C,0,77978,,111,111,111 M,0,77978,78031,462,396,507.6685,400.964 F,2,77978,78325,1,0 S,2,77978,78325,0.5,0.1 P,0,77978,78325,A M,0,78031,78085,507.6685,400.964,534,364
Sprite,Foreground,Centre,"sb\highlight.png",0,0 C,0,78193,,111,111,111 M,0,78193,78246,489,203,443.1599,200.0104 F,2,78193,78540,1,0 S,2,78193,78540,0.5,0.1 P,0,78193,78540,A M,0,78246,78300,443.1599,200.0104,416.4855,237.3167
Sprite,Foreground,Centre,"sb\highlight.png",0,0 C,0,78407,,225,91,236 M,0,78407,78460,178,396,132.3315,400.964 F,2,78407,78754,1,0 S,2,78407,78754,0.5,0.1 P,0,78407,78754,A M,0,78460,78514,132.3315,400.964,106,364
Sprite,Foreground,Centre,"sb\highlight.png",0,0 C,0,78622,,225,91,236 M,0,78622,78675,151,203,196.8401,200.0104 F,2,78622,78969,1,0 S,2,78622,78969,0.5,0.1 P,0,78622,78969,A M,0,78675,78729,196.8401,200.0104,223.5145,237.3167
Sprite,Foreground,Centre,"sb\highlight.png",0,0 C,0,78835,,188,46,185 M,0,78835,78888,340,438,334.7667,372.584 F,2,78835,79396,1,0 S,2,78835,79396,0.5,0.1 P,0,78835,79396,A M,0,78888,78942,334.7667,372.584,329.5334,307.168 M,0,78942,78995,329.5334,307.168,324.3002,241.752 M,0,78995,79049,324.3002,241.752,319.0669,176.336 M,0,79049,79102,319.0669,176.336,313.9819,115.0866 M,0,79102,79156,313.9819,115.0866,298.5728,178.4321
Sprite,Foreground,Centre,"sb\highlight.png",65,188 C,0,79264,,188,46,185 F,2,79264,79504,1,0 S,2,79264,79504,0.5,0.1 P,0,79264,79504,A
Sprite,Foreground,Centre,"sb\highlight.png",0,0 C,0,79371,,188,46,185 M,0,79371,79424,65,178,79.83379,149.0591 F,2,79371,79825,1,0 S,2,79371,79825,0.5,0.1 P,0,79371,79825,A M,0,79424,79478,79.83379,149.0591,104.3624,127.8312 M,0,79478,79531,104.3624,127.8312,135.1811,117.7079 M,0,79531,79585,135.1811,117.7079,167.5197,120.2561
Sprite,Foreground,Centre,"sb\highlight.png",0,0 C,0,79693,,167,167,167 M,0,79693,79746,257,325,224.3117,322.148 F,2,79693,80147,1,0 S,2,79693,80147,0.5,0.1 P,0,79693,80147,A M,0,79746,79800,224.3117,322.148,191.6234,319.296 M,0,79800,79853,191.6234,319.296,158.935,316.444 M,0,79853,79907,158.935,316.444,126.2467,313.592
Sprite,Foreground,Centre,"sb\highlight.png",113,241 C,0,80014,,167,167,167 F,2,80014,80254,1,0 S,2,80014,80254,0.5,0.1 P,0,80014,80254,A
Sprite,Foreground,Centre,"sb\highlight.png",0,0 C,0,80121,,167,167,167 M,0,80121,80174,123,241,155.6957,243.7666 F,2,80121,80575,1,0 S,2,80121,80575,0.5,0.1 P,0,80121,80575,A M,0,80174,80228,155.6957,243.7666,188.3913,246.5331 M,0,80228,80281,188.3913,246.5331,221.087,249.2997 M,0,80281,80335,221.087,249.2997,253,252
Sprite,Foreground,Centre,"sb\highlight.png",0,0 C,0,80550,,111,111,111 M,0,80550,80603,526,428,539.9268,398.2896 F,2,80550,80897,1,0 S,2,80550,80897,0.5,0.1 P,0,80550,80897,A M,0,80603,80657,539.9268,398.2896,531.2282,367.3361
Sprite,Foreground,Centre,"sb\highlight.png",452,309 C,0,80764,,111,111,111 F,2,80764,81004,1,0 S,2,80764,81004,0.5,0.1 P,0,80764,81004,A
Sprite,Foreground,Centre,"sb\highlight.png",446,317 C,0,80871,,111,111,111 F,2,80871,81111,1,0 S,2,80871,81111,0.5,0.1 P,0,80871,81111,A
Sprite,Foreground,Centre,"sb\highlight.png",340,438 C,0,80978,,225,91,236 F,2,80978,81218,1,0 S,2,80978,81218,0.5,0.1 P,0,80978,81218,A
Sprite,Foreground,Centre,"sb\highlight.png",0,0 C,0,81086,,225,91,236 M,0,81086,81139,417,418,404.213,388.0734 F,2,81086,81540,1,0 S,2,81086,81540,0.5,0.1 P,0,81086,81540,A M,0,81139,81193,404.213,388.0734,380.0966,366.2524 M,0,81193,81246,380.0966,366.2524,349.0826,356.5247 M,0,81246,81300,349.0826,356.5247,316.861,360.6587
Sprite,Foreground,Centre,"sb\highlight.png",0,0 C,0,81407,,188,46,185 M,0,81407,81460,134,440,97.02453,414.6842 F,2,81407,81754,1,0 S,2,81407,81754,0.5,0.1 P,0,81407,81754,A M,0,81460,81514,97.02453,414.6842,84.97549,371.6355
Sprite,Foreground,Centre,"sb\highlight.png",0,0 C,0,81621,,188,46,185 M,0,81621,81674,267,169,274.5482,213.2187 F,2,81621,81968,1,0 S,2,81621,81968,0.5,0.1 P,0,81621,81968,A M,0,81674,81728,274.5482,213.2187,253,252
Sprite,Foreground,Centre,"sb\highlight.png",0,0 C,0,81835,,167,167,167 M,0,81835,81888,506,440,542.9755,414.6842 F,2,81835,82182,1,0 S,2,81835,82182,0.5,0.1 P,0,81835,82182,A M,0,81888,81942,542.9755,414.6842,555.0245,371.6355
Sprite,Foreground,Centre,"sb\highlight.png",0,0 C,0,82049,,167,167,167 M,0,82049,82102,373,169,364.4134,212.9688 F,2,82049,82396,1,0 S,2,82049,82396,0.5,0.1 P,0,82049,82396,A M,0,82102,82156,364.4134,212.9688,386,252
Sprite,Foreground,Centre,"sb\highlight.png",0,0 C,0,82264,,111,111,111 M,0,82264,82317,528,83,462.5786,88.16486 F,2,82264,82825,1,0 S,2,82264,82825,0.5,0.1 P,0,82264,82825,A M,0,82317,82371,462.5786,88.16486,482.2318,134.9622 M,0,82371,82424,482.2318,134.9622,518.295,189.79 M,0,82424,82478,518.295,189.79,554.3582,244.6178 M,0,82478,82531,554.3582,244.6178,547.0651,278.6746 M,0,82531,82585,547.0651,278.6746,481.7388,284.9293
Sprite,Foreground,Centre,"sb\highlight.png",0,0 C,0,82693,,225,91,236 M,0,82693,82746,198,198,195.0293,165.3223 F,2,82693,83040,1,0 S,2,82693,83040,0.5,0.1 P,0,82693,83040,A M,0,82746,82800,195.0293,165.3223,192.0586,132.6445
Sprite,Foreground,Centre,"sb\highlight.png",0,0 C,0,82907,,225,91,236 M,0,82907,82960,261,103,263.9707,135.6777 F,2,82907,83254,1,0 S,2,82907,83254,0.5,0.1 P,0,82907,83254,A M,0,82960,83014,263.9707,135.6777,266.9414,168.3555
Sprite,Foreground,Centre,"sb\highlight.png",0,0 C,0,83121,,188,46,185 M,0,83121,83174,142,331,144.4787,298.2813 F,2,83121,83468,1,0 S,2,83121,83468,0.5,0.1 P,0,83121,83468,A M,0,83174,83228,144.4787,298.2813,146.9574,265.5625
Sprite,Foreground,Centre,"sb\highlight.png",0,0 C,0,83335,,188,46,185 M,0,83335,83388,78,236,75.52131,268.7188 F,2,83335,83682,1,0 S,2,83335,83682,0.5,0.1 P,0,83335,83682,A M,0,83388,83442,75.52131,268.7188,73.04262,301.4375
Sprite,Foreground,Centre,"sb\highlight.png",320,440 C,0,83550,,167,167,167 F,2,83550,83790,1,0 S,2,83550,83790,0.5,0.1 P,0,83550,83790,A
Sprite,Foreground,Centre,"sb\highlight.png",432,358 C,0,83978,,111,111,111 F,2,83978,84218,1,0 S,2,83978,84218,0.5,0.1 P,0,83978,84218,A
Sprite,Foreground,Centre,"sb\highlight.png",404,330 C,0,84085,,111,111,111 F,2,84085,84325,1,0 S,2,84085,84325,0.5,0.1 P,0,84085,84325,A
Sprite,Foreground,Centre,"sb\highlight.png",376,302 C,0,84192,,111,111,111 F,2,84192,84432,1,0 S,2,84192,84432,0.5,0.1 P,0,84192,84432,A
Sprite,Foreground,Centre,"sb\highlight.png",348,274 C,0,84299,,111,111,111 F,2,84299,84539,1,0 S,2,84299,84539,0.5,0.1 P,0,84299,84539,A
Sprite,Foreground,Centre,"sb\highlight.png",319,246 C,0,84407,,225,91,236 F,2,84407,84647,1,0 S,2,84407,84647,0.5,0.1 P,0,84407,84647,A
Sprite,Foreground,Centre,"sb\highlight.png",292,273 C,0,84514,,225,91,236 F,2,84514,84754,1,0 S,2,84514,84754,0.5,0.1 P,0,84514,84754,A
Sprite,Foreground,Centre,"sb\highlight.png",264,301 C,0,84621,,225,91,236 F,2,84621,84861,1,0 S,2,84621,84861,0.5,0.1 P,0,84621,84861,A
Sprite,Foreground,Centre,"sb\highlight.png",236,329 C,0,84728,,225,91,236 F,2,84728,84968,1,0 S,2,84728,84968,0.5,0.1 P,0,84728,84968,A
Sprite,Foreground,Centre,"sb\highlight.png",208,357 C,0,84835,,188,46,185 F,2,84835,85075,1,0 S,2,84835,85075,0.5,0.1 P,0,84835,85075,A
Sprite,Foreground,Centre,"sb\highlight.png",226,290 C,0,84943,,167,167,167 F,2,84943,85183,1,0 S,2,84943,85183,0.5,0.1 P,0,84943,85183,A
Sprite,Foreground,Centre,"sb\highlight.png",208,223 C,0,85050,,225,91,236 F,2,85050,85290,1,0 S,2,85050,85290,0.5,0.1 P,0,85050,85290,A
Sprite,Foreground,Centre,"sb\highlight.png",226,156 C,0,85157,,111,111,111 F,2,85157,85397,1,0 S,2,85157,85397,0.5,0.1 P,0,85157,85397,A
Sprite,Foreground,Centre,"sb\highlight.png",155,173 C,0,85264,,188,46,185 F,2,85264,85504,1,0 S,2,85264,85504,0.5,0.1 P,0,85264,85504,A
Sprite,Foreground,Centre,"sb\highlight.png",0,0 C,0,85693,,111,111,111 M,0,85693,85746,395,79,433.6104,71.27792 F,2,85693,86040,1,0 S,2,85693,86040,0.5,0.1 P,0,85693,86040,A M,0,85746,85800,433.6104,71.27792,466.2354,92.5673
Sprite,Foreground,Centre,"sb\highlight.png",0,0 C,0,85908,,111,111,111 M,0,85908,85961,414,283,388.1393,253.308 F,2,85908,86255,1,0 S,2,85908,86255,0.5,0.1 P,0,85908,86255,A M,0,85961,86015,388.1393,253.308,389.9431,214.4749
Sprite,Foreground,Centre,"sb\highlight.png",0,0 C,0,86122,,111,111,111 M,0,86122,86175,576,167,562.3878,203.9473 F,2,86122,86469,1,0 S,2,86122,86469,0.5,0.1 P,0,86122,86469,A M,0,86175,86229,562.3878,203.9473,527.4906,221.5045
Sprite,Foreground,Centre,"sb\highlight.png",320,87 C,0,86336,,225,91,236 F,2,86336,86576,1,0 S,2,86336,86576,0.5,0.1 P,0,86336,86576,A
Sprite,Foreground,Centre,"sb\highlight.png",310,81 C,0,86443,,225,91,236 F,2,86443,86683,1,0 S,2,86443,86683,0.5,0.1 P,0,86443,86683,A
Sprite,Foreground,Centre,"sb\highlight.png",253,130 C,0,86550,,188,46,185 F,2,86550,86790,1,0 S,2,86550,86790,0.5,0.1 P,0,86550,86790,A
Sprite,Foreground,Centre,"sb\highlight.png",241,132 C,0,86657,,188,46,185 F,2,86657,86897,1,0 S,2,86657,86897,0.5,0.1 P,0,86657,86897,A
Sprite,Foreground,Centre,"sb\highlight.png",235,206 C,0,86765,,167,167,167 F,2,86765,87005,1,0 S,2,86765,87005,0.5,0.1 P,0,86765,87005,A
Sprite,Foreground,Centre,"sb\highlight.png",228,216 C,0,86872,,167,167,167 F,2,86872,87112,1,0 S,2,86872,87112,0.5,0.1 P,0,86872,87112,A
Sprite,Foreground,Centre,"sb\highlight.png",276,272 C,0,86979,,111,111,111 F,2,86979,87219,1,0 S,2,86979,87219,0.5,0.1 P,0,86979,87219,A
Sprite,Foreground,Centre,"sb\highlight.png",282,262 C,0,87086,,111,111,111 F,2,87086,87326,1,0 S,2,87086,87326,0.5,0.1 P,0,87086,87326,A
Sprite,Foreground,Centre,"sb\highlight.png",288,252 C,0,87193,,111,111,111 F,2,87193,87433,1,0 S,2,87193,87433,0.5,0.1 P,0,87193,87433,A
Sprite,Foreground,Centre,"sb\highlight.png",294,242 C,0,87300,,111,111,111 F,2,87300,87540,1,0 S,2,87300,87540,0.5,0.1 P,0,87300,87540,A
Sprite,Foreground,Centre,"sb\highlight.png",0,0 C,0,87408,,225,91,236 M,0,87408,87461,360,199,371.1519,233.1606 F,2,87408,87701,1,0 S,2,87408,87701,0.5,0.1 P,0,87408,87701,A
Sprite,Foreground,Centre,"sb\highlight.png",0,0 C,0,87515,,225,91,236 M,0,87515,87568,410,221,393.2256,252.9863 F,2,87515,87808,1,0 S,2,87515,87808,0.5,0.1 P,0,87515,87808,A
Sprite,Foreground,Centre,"sb\highlight.png",0,0 C,0,87622,,225,91,236 M,0,87622,87675,429,271,394.6939,281.9825 F,2,87622,87915,1,0 S,2,87622,87915,0.5,0.1 P,0,87622,87915,A
Sprite,Foreground,Centre,"sb\highlight.png",0,0 C,0,87729,,225,91,236 M,0,87729,87782,407,319,374.4921,303.1261 F,2,87729,88022,1,0 S,2,87729,88022,0.5,0.1 P,0,87729,88022,A
Sprite,Foreground,Centre,"sb\highlight.png",0,0 C,0,87836,,225,91,236 M,0,87836,87889,357,337,344.7521,303.3161 F,2,87836,88129,1,0 S,2,87836,88129,0.5,0.1 P,0,87836,88129,A
Sprite,Foreground,Centre,"sb\highlight.png",0,0 C,0,87943,,225,91,236 M,0,87943,87996,308,314,322.8911,281.3819 F,2,87943,88236,1,0 S,2,87943,88236,0.5,0.1 P,0,87943,88236,A
Sprite,Foreground,Centre,"sb\highlight.png",365,276 C,0,88050,,188,46,185 F,2,88050,88290,1,0 S,2,88050,88290,0.5,0.1 P,0,88050,88290,A
Sprite,Foreground,Centre,"sb\highlight.png",382,353 C,0,88158,,188,46,185 F,2,88158,88398,1,0 S,2,88158,88398,0.5,0.1 P,0,88158,88398,A
Sprite,Foreground,Centre,"sb\highlight.png",333,415 C,0,88265,,188,46,185 F,2,88265,88505,1,0 S,2,88265,88505,0.5,0.1 P,0,88265,88505,A
Sprite,Foreground,Centre,"sb\highlight.png",254,415 C,0,88372,,188,46,185 F,2,88372,88612,1,0 S,2,88372,88612,0.5,0.1 P,0,88372,88612,A
Sprite,Foreground,Centre,"sb\highlight.png",205,353 C,0,88479,,188,46,185 F,2,88479,88719,1,0 S,2,88479,88719,0.5,0.1 P,0,88479,88719,A
Sprite,Foreground,Centre,"sb\highlight.png",126,353 C,0,88586,,188,46,185 F,2,88586,88826,1,0 S,2,88586,88826,0.5,0.1 P,0,88586,88826,A
Sprite,Foreground,Centre,"sb\highlight.png",77,415 C,0,88693,,167,167,167 F,2,88693,88933,1,0 S,2,88693,88933,0.5,0.1 P,0,88693,88933,A
Sprite,Foreground,Centre,"sb\highlight.png",88,411 C,0,88800,,167,167,167 F,2,88800,89040,1,0 S,2,88800,89040,0.5,0.1 P,0,88800,89040,A
Sprite,Foreground,Centre,"sb\highlight.png",166,424 C,0,88908,,111,111,111 F,2,88908,89148,1,0 S,2,88908,89148,0.5,0.1 P,0,88908,89148,A
Sprite,Foreground,Centre,"sb\highlight.png",177,428 C,0,89015,,111,111,111 F,2,89015,89255,1,0 S,2,89015,89255,0.5,0.1 P,0,89015,89255,A
Sprite,Foreground,Centre,"sb\highlight.png",0,0 C,0,89122,,225,91,236 M,0,89122,89175,275,322,251.2189,291.4151 F,2,89122,89469,1,0 S,2,89122,89469,0.5,0.1 P,0,89122,89469,A M,0,89175,89229,251.2189,291.4151,215.1311,277.2639
Sprite,Foreground,Centre,"sb\highlight.png",0,0 C,0,89336,,225,91,236 M,0,89336,89389,171,208,132.5867,212.825 F,2,89336,89683,1,0 S,2,89336,89683,0.5,0.1 P,0,89336,89683,A M,0,89389,89443,132.5867,212.825,102.2906,236.9668
Sprite,Foreground,Centre,"sb\highlight.png",0,0 C,0,89550,,188,46,185 M,0,89550,89603,365,322,388.7811,291.4151 F,2,89550,89897,1,0 S,2,89550,89897,0.5,0.1 P,0,89550,89897,A M,0,89603,89657,388.7811,291.4151,424.8689,277.2639
Sprite,Foreground,Centre,"sb\highlight.png",0,0 C,0,89764,,188,46,185 M,0,89764,89817,469,208,507.3456,213.2572 F,2,89764,90111,1,0 S,2,89764,90111,0.5,0.1 P,0,89764,90111,A M,0,89817,89871,507.3456,213.2572,537.256,237.8317
Sprite,Foreground,Centre,"sb\highlight.png",319,246 C,0,89979,,167,167,167 F,2,89979,90219,1,0 S,2,89979,90219,0.5,0.1 P,0,89979,90219,A
Sprite,Foreground,Centre,"sb\highlight.png",0,0 C,0,90086,,167,167,167 M,0,90086,90139,283,178,320.5246,168.3887 F,2,90086,90433,1,0 S,2,90086,90433,0.5,0.1 P,0,90086,90433,A M,0,90139,90193,320.5246,168.3887,357.3714,179.9366
Sprite,Foreground,Centre,"sb\highlight.png",319,261 C,0,90300,,111,111,111 F,2,90300,90540,1,0 S,2,90300,90540,0.5,0.1 P,0,90300,90540,A
Sprite,Foreground,Centre,"sb\highlight.png",0,0 C,0,90407,,111,111,111 M,0,90407,90460,282,159,319.5246,149.3887 F,2,90407,90754,1,0 S,2,90407,90754,0.5,0.1 P,0,90407,90754,A M,0,90460,90514,319.5246,149.3887,356.3714,160.9366
Sprite,Foreground,Centre,"sb\highlight.png",0,0 C,0,90622,,111,111,111 M,0,90622,90675,356,335,319.0839,346.5663 F,2,90622,90969,1,0 S,2,90622,90969,0.5,0.1 P,0,90622,90969,A M,0,90675,90729,319.0839,346.5663,282,337
Sprite,Foreground,Centre,"sb\highlight.png",0,0 C,0,90836,,225,91,236 M,0,90836,90889,90,160,86.51375,120.7796 F,2,90836,91183,1,0 S,2,90836,91183,0.5,0.1 P,0,90836,91183,A M,0,90889,90943,86.51375,120.7796,83.0275,81.55928
Sprite,Foreground,Centre,"sb\highlight.png",0,0 C,0,91050,,225,91,236 M,0,91050,91103,164,129,167.0199,168.259 F,2,91050,91397,1,0 S,2,91050,91397,0.5,0.1 P,0,91050,91397,A M,0,91103,91157,167.0199,168.259,170,207
Sprite,Foreground,Centre,"sb\highlight.png",0,0 C,0,91265,,188,46,185 M,0,91265,91318,550,160,553.0533,120.7436 F,2,91265,91612,1,0 S,2,91265,91612,0.5,0.1 P,0,91265,91612,A M,0,91318,91372,553.0533,120.7436,556.1066,81.48712
Sprite,Foreground,Centre,"sb\highlight.png",0,0 C,0,91479,,188,46,185 M,0,91479,91532,476,129,472.4805,168.2174 F,2,91479,91826,1,0 S,2,91479,91826,0.5,0.1 P,0,91479,91826,A M,0,91532,91586,472.4805,168.2174,469,207
Sprite,Foreground,Centre,"sb\highlight.png",0,0 C,0,91693,,167,167,167 M,0,91693,91746,517,438,551.6251,420.6644 F,2,91693,92040,1,0 S,2,91693,92040,0.5,0.1 P,0,91693,92040,A M,0,91746,91800,551.6251,420.6644,572.2686,387.8799
Sprite,Foreground,Centre,"sb\highlight.png",556,313 C,0,91908,,167,167,167 F,2,91908,92148,1,0 S,2,91908,92148,0.5,0.1 P,0,91908,92148,A
Sprite,Foreground,Centre,"sb\highlight.png",0,0 C,0,92015,,167,167,167 M,0,92015,92068,498,366,458.7556,362.7964 F,2,92015,92308,1,0 S,2,92015,92308,0.5,0.1 P,0,92015,92308,A
Sprite,Foreground,Centre,"sb\highlight.png",0,0 C,0,92122,,111,111,111 M,0,92122,92175,399,284,438.2647,286.9449 F,2,92122,92469,1,0 S,2,92122,92469,0.5,0.1 P,0,92122,92469,A M,0,92175,92229,438.2647,286.9449,477.5294,289.8897
Sprite,Foreground,Centre,"sb\highlight.png",0,0 C,0,92336,,111,111,111 M,0,92336,92389,436,436,396.7787,432.5247 F,2,92336,92683,1,0 S,2,92336,92683,0.5,0.1 P,0,92336,92683,A M,0,92389,92443,396.7787,432.5247,357.5573,429.0494
Sprite,Foreground,Centre,"sb\highlight.png",0,0 C,0,92550,,225,91,236 M,0,92550,92603,64,303,95.7791,280.9254 F,2,92550,92897,1,0 S,2,92550,92897,0.5,0.1 P,0,92550,92897,A M,0,92603,92657,95.7791,280.9254,134.3095,279.3238
Sprite,Foreground,Centre,"sb\highlight.png",0,0 C,0,92765,,225,91,236 M,0,92765,92818,191,440,155.9954,423.4548 F,2,92765,93112,1,0 S,2,92765,93112,0.5,0.1 P,0,92765,93112,A M,0,92818,92872,155.9954,423.4548,135.0306,391.052
Sprite,Foreground,Centre,"sb\highlight.png",0,0 C,0,92979,,225,91,236 M,0,92979,93032,249,269,252.1568,307.5417 F,2,92979,93326,1,0 S,2,92979,93326,0.5,0.1 P,0,92979,93326,A M,0,93032,93086,252.1568,307.5417,233.8773,341.4644
Sprite,Foreground,Centre,"sb\highlight.png",158,198 C,0,93193,,188,46,185 F,2,93193,93433,1,0 S,2,93193,93433,0.5,0.1 P,0,93193,93433,A
Sprite,Foreground,Centre,"sb\highlight.png",159,185 C,0,93300,,188,46,185 F,2,93300,93540,1,0 S,2,93300,93540,0.5,0.1 P,0,93300,93540,A
Sprite,Foreground,Centre,"sb\highlight.png",238,180 C,0,93408,,167,167,167 F,2,93408,93648,1,0 S,2,93408,93648,0.5,0.1 P,0,93408,93648,A
Sprite,Foreground,Centre,"sb\highlight.png",247,172 C,0,93515,,167,167,167 F,2,93515,93755,1,0 S,2,93515,93755,0.5,0.1 P,0,93515,93755,A
Sprite,Foreground,Centre,"sb\highlight.png",307,223 C,0,93622,,111,111,111 F,2,93622,93862,1,0 S,2,93622,93862,0.5,0.1 P,0,93622,93862,A
Sprite,Foreground,Centre,"sb\highlight.png",319,224 C,0,93729,,111,111,111 F,2,93729,93969,1,0 S,2,93729,93969,0.5,0.1 P,0,93729,93969,A
Sprite,Foreground,Centre,"sb\highlight.png",325,302 C,0,93836,,225,91,236 F,2,93836,94076,1,0 S,2,93836,94076,0.5,0.1 P,0,93836,94076,A
Sprite,Foreground,Centre,"sb\highlight.png",313,300 C,0,93943,,225,91,236 F,2,93943,94183,1,0 S,2,93943,94183,0.5,0.1 P,0,93943,94183,A
Sprite,Foreground,Centre,"sb\highlight.png",301,298 C,0,94050,,225,91,236 F,2,94050,94290,1,0 S,2,94050,94290,0.5,0.1 P,0,94050,94290,A
Sprite,Foreground,Centre,"sb\highlight.png",289,296 C,0,94158,,225,91,236 F,2,94158,94398,1,0 S,2,94158,94398,0.5,0.1 P,0,94158,94398,A
Sprite,Foreground,Centre,"sb\highlight.png",0,0 C,0,94265,,188,46,185 M,0,94265,94318,219,273,211,235 F,2,94265,94558,1,0 S,2,94265,94558,0.5,0.1 P,0,94265,94558,A
Sprite,Foreground,Centre,"sb\highlight.png",0,0 C,0,94372,,188,46,185 M,0,94372,94425,172,227,193,194 F,2,94372,94665,1,0 S,2,94372,94665,0.5,0.1 P,0,94372,94665,A
Sprite,Foreground,Centre,"sb\highlight.png",0,0 C,0,94479,,188,46,185 M,0,94479,94532,171,161,209,153 F,2,94479,94772,1,0 S,2,94479,94772,0.5,0.1 P,0,94479,94772,A
Sprite,Foreground,Centre,"sb\highlight.png",0,0 C,0,94586,,188,46,185 M,0,94586,94639,216,113,248,134 F,2,94586,94879,1,0 S,2,94586,94879,0.5,0.1 P,0,94586,94879,A
Sprite,Foreground,Centre,"sb\highlight.png",0,0 C,0,94693,,188,46,185 M,0,94693,94746,281,110,289,148 F,2,94693,94986,1,0 S,2,94693,94986,0.5,0.1 P,0,94693,94986,A
Sprite,Foreground,Centre,"sb\highlight.png",0,0 C,0,94800,,188,46,185 M,0,94800,94853,329,153,307,185 F,2,94800,95093,1,0 S,2,94800,95093,0.5,0.1 P,0,94800,95093,A
Sprite,Foreground,Centre,"sb\highlight.png",348,260 C,0,94908,,167,167,167 F,2,94908,95148,1,0 S,2,94908,95148,0.5,0.1 P,0,94908,95148,A
Sprite,Foreground,Centre,"sb\highlight.png",418,295 C,0,95015,,167,167,167 F,2,95015,95255,1,0 S,2,95015,95255,0.5,0.1 P,0,95015,95255,A
Sprite,Foreground,Centre,"sb\highlight.png",495,281 C,0,95122,,167,167,167 F,2,95122,95362,1,0 S,2,95122,95362,0.5,0.1 P,0,95122,95362,A
Sprite,Foreground,Centre,"sb\highlight.png",544,219 C,0,95229,,167,167,167 F,2,95229,95469,1,0 S,2,95229,95469,0.5,0.1 P,0,95229,95469,A
Sprite,Foreground,Centre,"sb\highlight.png",542,140 C,0,95336,,167,167,167 F,2,95336,95576,1,0 S,2,95336,95576,0.5,0.1 P,0,95336,95576,A
Sprite,Foreground,Centre,"sb\highlight.png",493,78 C,0,95443,,167,167,167 F,2,95443,95683,1,0 S,2,95443,95683,0.5,0.1 P,0,95443,95683,A
Sprite,Foreground,Centre,"sb\highlight.png",414,80 C,0,95550,,111,111,111 F,2,95550,95790,1,0 S,2,95550,95790,0.5,0.1 P,0,95550,95790,A
Sprite,Foreground,Centre,"sb\highlight.png",420,90 C,0,95657,,111,111,111 F,2,95657,95897,1,0 S,2,95657,95897,0.5,0.1 P,0,95657,95897,A
Sprite,Foreground,Centre,"sb\highlight.png",464,151 C,0,95764,,225,91,236 F,2,95764,96004,1,0 S,2,95764,96004,0.5,0.1 P,0,95764,96004,A
Sprite,Foreground,Centre,"sb\highlight.png",458,161 C,0,95871,,225,91,236 F,2,95871,96111,1,0 S,2,95871,96111,0.5,0.1 P,0,95871,96111,A
Sprite,Foreground,Centre,"sb\highlight.png",0,0 C,0,95979,,188,46,185 M,0,95979,96032,403,217,410.2307,255.7054 F,2,95979,96326,1,0 S,2,95979,96326,0.5,0.1 P,0,95979,96326,A M,0,96032,96086,410.2307,255.7054,417.4614,294.4108
Sprite,Foreground,Centre,"sb\highlight.png",0,0 C,0,96193,,188,46,185 M,0,96193,96246,509,358,501.5641,319.3335 F,2,96193,96540,1,0 S,2,96193,96540,0.5,0.1 P,0,96193,96540,A M,0,96246,96300,501.5641,319.3335,494.1283,280.667
Sprite,Foreground,Centre,"sb\highlight.png",0,0 C,0,96408,,167,167,167 M,0,96408,96461,237,217,229.7693,255.7054 F,2,96408,96755,1,0 S,2,96408,96755,0.5,0.1 P,0,96408,96755,A M,0,96461,96515,229.7693,255.7054,222.5386,294.4108
Sprite,Foreground,Centre,"sb\highlight.png",0,0 C,0,96622,,167,167,167 M,0,96622,96675,131,358,137.9561,319.2443 F,2,96622,96969,1,0 S,2,96622,96969,0.5,0.1 P,0,96622,96969,A M,0,96675,96729,137.9561,319.2443,144.9123,280.4886
Sprite,Foreground,Centre,"sb\highlight.png",320,68 C,0,96836,,111,111,111 F,2,96836,97076,1,0 S,2,96836,97076,0.5,0.1 P,0,96836,97076,A
Sprite,Foreground,Centre,"sb\highlight.png",0,0 C,0,96943,,111,111,111 M,0,96943,96996,356,139,319.0527,152.6122 F,2,96943,97290,1,0 S,2,96943,97290,0.5,0.1 P,0,96943,97290,A M,0,96996,97050,319.0527,152.6122,283.0162,137.5264
Sprite,Foreground,Centre,"sb\highlight.png",320,76 C,0,97158,,225,91,236 F,2,97158,97398,1,0 S,2,97158,97398,0.5,0.1 P,0,97158,97398,A
Sprite,Foreground,Centre,"sb\highlight.png",0,0 C,0,97265,,225,91,236 M,0,97265,97318,356,147,319.0527,160.6122 F,2,97265,97612,1,0 S,2,97265,97612,0.5,0.1 P,0,97265,97612,A M,0,97318,97372,319.0527,160.6122,283.0162,145.5264
Sprite,Foreground,Centre,"sb\highlight.png",0,0 C,0,97479,,225,91,236 M,0,97479,97532,181,75,144.0527,61.38785 F,2,97479,97826,1,0 S,2,97479,97826,0.5,0.1 P,0,97479,97826,A M,0,97532,97586,144.0527,61.38785,108.0162,76.4736
Sprite,Foreground,Centre,"sb\highlight.png",121,249 C,0,97693,,188,46,185 F,2,97693,97933,1,0 S,2,97693,97933,0.5,0.1 P,0,97693,97933,A
Sprite,Foreground,Centre,"sb\highlight.png",178,249 C,0,97800,,188,46,185 F,2,97800,98040,1,0 S,2,97800,98040,0.5,0.1 P,0,97800,98040,A
Sprite,Foreground,Centre,"sb\highlight.png",235,249 C,0,97907,,188,46,185 F,2,97907,98147,1,0 S,2,97907,98147,0.5,0.1 P,0,97907,98147,A
Sprite,Foreground,Centre,"sb\highlight.png",292,249 C,0,98014,,188,46,185 F,2,98014,98254,1,0 S,2,98014,98254,0.5,0.1 P,0,98014,98254,A
Sprite,Foreground,Centre,"sb\highlight.png",271,273 C,0,98121,,167,167,167 F,2,98121,98361,1,0 S,2,98121,98361,0.5,0.1 P,0,98121,98361,A
Sprite,Foreground,Centre,"sb\highlight.png",228,273 C,0,98228,,167,167,167 F,2,98228,98468,1,0 S,2,98228,98468,0.5,0.1 P,0,98228,98468,A
Sprite,Foreground,Centre,"sb\highlight.png",184,273 C,0,98335,,167,167,167 F,2,98335,98575,1,0 S,2,98335,98575,0.5,0.1 P,0,98335,98575,A
Sprite,Foreground,Centre,"sb\highlight.png",142,273 C,0,98443,,167,167,167 F,2,98443,98683,1,0 S,2,98443,98683,0.5,0.1 P,0,98443,98683,A
Sprite,Foreground,Centre,"sb\highlight.png",157,294 C,0,98550,,111,111,111 F,2,98550,98790,1,0 S,2,98550,98790,0.5,0.1 P,0,98550,98790,A
Sprite,Foreground,Centre,"sb\highlight.png",189,294 C,0,98657,,111,111,111 F,2,98657,98897,1,0 S,2,98657,98897,0.5,0.1 P,0,98657,98897,A
Sprite,Foreground,Centre,"sb\highlight.png",222,294 C,0,98764,,111,111,111 F,2,98764,99004,1,0 S,2,98764,99004,0.5,0.1 P,0,98764,99004,A
Sprite,Foreground,Centre,"sb\highlight.png",254,294 C,0,98871,,111,111,111 F,2,98871,99111,1,0 S,2,98871,99111,0.5,0.1 P,0,98871,99111,A
Sprite,Foreground,Centre,"sb\highlight.png",208,372 C,0,98978,,225,91,236 F,2,98978,99218,1,0 S,2,98978,99218,0.5,0.1 P,0,98978,99218,A
Sprite,Foreground,Centre,"sb\highlight.png",0,0 C,0,99408,,188,46,185 M,0,99408,99461,513,440,540.6257,411.9427 F,2,99408,99755,1,0 S,2,99408,99755,0.5,0.1 P,0,99408,99755,A M,0,99461,99515,540.6257,411.9427,568.2513,383.8854
Sprite,Foreground,Centre,"sb\highlight.png",0,0 C,0,99622,,188,46,185 M,0,99622,99675,368,336,378.0638,374.0672 F,2,99622,99969,1,0 S,2,99622,99969,0.5,0.1 P,0,99622,99969,A M,0,99675,99729,378.0638,374.0672,388.1275,412.1344
Sprite,Foreground,Centre,"sb\highlight.png",0,0 C,0,99836,,188,46,185 M,0,99836,99889,533,273,495.0124,262.6398 F,2,99836,100183,1,0 S,2,99836,100183,0.5,0.1 P,0,99836,100183,A M,0,99889,99943,495.0124,262.6398,457.0248,252.2795
Sprite,Foreground,Centre,"sb\highlight.png",346,184 C,0,100050,,167,167,167 F,2,100050,100290,1,0 S,2,100050,100290,0.5,0.1 P,0,100050,100290,A
Sprite,Foreground,Centre,"sb\highlight.png",355,176 C,0,100157,,167,167,167 F,2,100157,100397,1,0 S,2,100157,100397,0.5,0.1 P,0,100157,100397,A
Sprite,Foreground,Centre,"sb\highlight.png",433,185 C,0,100264,,111,111,111 F,2,100264,100504,1,0 S,2,100264,100504,0.5,0.1 P,0,100264,100504,A
Sprite,Foreground,Centre,"sb\highlight.png",442,177 C,0,100371,,111,111,111 F,2,100371,100611,1,0 S,2,100371,100611,0.5,0.1 P,0,100371,100611,A
Sprite,Foreground,Centre,"sb\highlight.png",520,186 C,0,100478,,225,91,236 F,2,100478,100718,1,0 S,2,100478,100718,0.5,0.1 P,0,100478,100718,A
Sprite,Foreground,Centre,"sb\highlight.png",529,178 C,0,100585,,225,91,236 F,2,100585,100825,1,0 S,2,100585,100825,0.5,0.1 P,0,100585,100825,A
Sprite,Foreground,Centre,"sb\highlight.png",488,110 C,0,100693,,188,46,185 F,2,100693,100933,1,0 S,2,100693,100933,0.5,0.1 P,0,100693,100933,A
Sprite,Foreground,Centre,"sb\highlight.png",483,99 C,0,100800,,188,46,185 F,2,100800,101040,1,0 S,2,100800,101040,0.5,0.1 P,0,100800,101040,A
Sprite,Foreground,Centre,"sb\highlight.png",478,88 C,0,100907,,188,46,185 F,2,100907,101147,1,0 S,2,100907,101147,0.5,0.1 P,0,100907,101147,A
Sprite,Foreground,Centre,"sb\highlight.png",473,77 C,0,101014,,188,46,185 F,2,101014,101254,1,0 S,2,101014,101254,0.5,0.1 P,0,101014,101254,A
Sprite,Foreground,Centre,"sb\highlight.png",0,0 C,0,101122,,167,167,167 M,0,101122,101175,551,68,530.6115,101.6853 F,2,101122,101415,1,0 S,2,101122,101415,0.5,0.1 P,0,101122,101415,A
Sprite,Foreground,Centre,"sb\highlight.png",0,0 C,0,101229,,167,167,167 M,0,101229,101282,539,141,500.8006,150.5498 F,2,101229,101522,1,0 S,2,101229,101522,0.5,0.1 P,0,101229,101522,A
Sprite,Foreground,Centre,"sb\highlight.png",0,0 C,0,101336,,167,167,167 M,0,101336,101389,478,184,444.0837,163.9981 F,2,101336,101629,1,0 S,2,101336,101629,0.5,0.1 P,0,101336,101629,A
Sprite,Foreground,Centre,"sb\highlight.png",0,0 C,0,101443,,167,167,167 M,0,101443,101496,420,196,382.1778,206.9485 F,2,101443,101736,1,0 S,2,101443,101736,0.5,0.1 P,0,101443,101736,A
Sprite,Foreground,Centre,"sb\highlight.png",0,0 C,0,101550,,167,167,167 M,0,101550,101603,389,245,370.2145,279.6049 F,2,101550,101843,1,0 S,2,101550,101843,0.5,0.1 P,0,101550,101843,A
Sprite,Foreground,Centre,"sb\highlight.png",0,0 C,0,101658,,167,167,167 M,0,101658,101711,402,301,412,339 F,2,101658,101951,1,0 S,2,101658,101951,0.5,0.1 P,0,101658,101951,A
Sprite,Foreground,Centre,"sb\highlight.png",449,331 C,0,101765,,111,111,111 F,2,101765,102005,1,0 S,2,101765,102005,0.5,0.1 P,0,101765,102005,A
Sprite,Foreground,Centre,"sb\highlight.png",476,257 C,0,101872,,111,111,111 F,2,101872,102112,1,0 S,2,101872,102112,0.5,0.1 P,0,101872,102112,A
Sprite,Foreground,Centre,"sb\highlight.png",434,190 C,0,101979,,111,111,111 F,2,101979,102219,1,0 S,2,101979,102219,0.5,0.1 P,0,101979,102219,A
Sprite,Foreground,Centre,"sb\highlight.png",355,181 C,0,102086,,111,111,111 F,2,102086,102326,1,0 S,2,102086,102326,0.5,0.1 P,0,102086,102326,A
Sprite,Foreground,Centre,"sb\highlight.png",300,237 C,0,102193,,111,111,111 F,2,102193,102433,1,0 S,2,102193,102433,0.5,0.1 P,0,102193,102433,A
Sprite,Foreground,Centre,"sb\highlight.png",225,262 C,0,102301,,111,111,111 F,2,102301,102541,1,0 S,2,102301,102541,0.5,0.1 P,0,102301,102541,A
Sprite,Foreground,Centre,"sb\highlight.png",157,221 C,0,102408,,225,91,236 F,2,102408,102648,1,0 S,2,102408,102648,0.5,0.1 P,0,102408,102648,A
Sprite,Foreground,Centre,"sb\highlight.png",162,210 C,0,102515,,225,91,236 F,2,102515,102755,1,0 S,2,102515,102755,0.5,0.1 P,0,102515,102755,A
Sprite,Foreground,Centre,"sb\highlight.png",224,162 C,0,102622,,188,46,185 F,2,102622,102862,1,0 S,2,102622,102862,0.5,0.1 P,0,102622,102862,A
Sprite,Foreground,Centre,"sb\highlight.png",219,151 C,0,102729,,188,46,185 F,2,102729,102969,1,0 S,2,102729,102969,0.5,0.1 P,0,102729,102969,A
Sprite,Foreground,Centre,"sb\highlight.png",0,0 C,0,102836,,167,167,167 M,0,102836,102889,141,140,102.0882,133.9779 F,2,102836,103183,1,0 S,2,102836,103183,0.5,0.1 P,0,102836,103183,A M,0,102889,102943,102.0882,133.9779,63.17647,127.9559
Sprite,Foreground,Centre,"sb\highlight.png",0,0 C,0,103050,,167,167,167 M,0,103050,103103,212,56,250.8393,62.47321 F,2,103050,103397,1,0 S,2,103050,103397,0.5,0.1 P,0,103050,103397,A M,0,103103,103157,250.8393,62.47321,289.6785,68.94642
Sprite,Foreground,Centre,"sb\highlight.png",0,0 C,0,103265,,167,167,167 M,0,103265,103318,300,315,300,275.625 F,2,103265,103612,1,0 S,2,103265,103612,0.5,0.1 P,0,103265,103612,A M,0,103318,103372,300,275.625,300,236.25
Sprite,Foreground,Centre,"sb\highlight.png",455,76 C,0,103479,,111,111,111 F,2,103479,103719,1,0 S,2,103479,103719,0.5,0.1 P,0,103479,103719,A
Sprite,Foreground,Centre,"sb\highlight.png",466,74 C,0,103586,,111,111,111 F,2,103586,103826,1,0 S,2,103586,103826,0.5,0.1 P,0,103586,103826,A
Sprite,Foreground,Centre,"sb\highlight.png",512,138 C,0,103693,,225,91,236 F,2,103693,103933,1,0 S,2,103693,103933,0.5,0.1 P,0,103693,103933,A
Sprite,Foreground,Centre,"sb\highlight.png",522,145 C,0,103800,,225,91,236 F,2,103800,104040,1,0 S,2,103800,104040,0.5,0.1 P,0,103800,104040,A
Sprite,Foreground,Centre,"sb\highlight.png",509,223 C,0,103908,,188,46,185 F,2,103908,104148,1,0 S,2,103908,104148,0.5,0.1 P,0,103908,104148,A
Sprite,Foreground,Centre,"sb\highlight.png",511,235 C,0,104015,,188,46,185 F,2,104015,104255,1,0 S,2,104015,104255,0.5,0.1 P,0,104015,104255,A
Sprite,Foreground,Centre,"sb\highlight.png",446,279 C,0,104122,,167,167,167 F,2,104122,104362,1,0 S,2,104122,104362,0.5,0.1 P,0,104122,104362,A
Sprite,Foreground,Centre,"sb\highlight.png",441,268 C,0,104229,,167,167,167 F,2,104229,104469,1,0 S,2,104229,104469,0.5,0.1 P,0,104229,104469,A
Sprite,Foreground,Centre,"sb\highlight.png",436,257 C,0,104336,,167,167,167 F,2,104336,104576,1,0 S,2,104336,104576,0.5,0.1 P,0,104336,104576,A
Sprite,Foreground,Centre,"sb\highlight.png",431,246 C,0,104443,,167,167,167 F,2,104443,104683,1,0 S,2,104443,104683,0.5,0.1 P,0,104443,104683,A
Sprite,Foreground,Centre,"sb\highlight.png",0,0 C,0,104550,,111,111,111 M,0,104550,104603,391,178,403.5042,143.2447 F,2,104550,104843,1,0 S,2,104550,104843,0.5,0.1 P,0,104550,104843,A
Sprite,Foreground,Centre,"sb\highlight.png",0,0 C,0,104658,,111,111,111 M,0,104658,104711,364,152,347.6824,118.9688 F,2,104658,104951,1,0 S,2,104658,104951,0.5,0.1 P,0,104658,104951,A
Sprite,Foreground,Centre,"sb\highlight.png",0,0 C,0,104765,,111,111,111 M,0,104765,104818,326,152,290.8453,138.8808 F,2,104765,105058,1,0 S,2,104765,105058,0.5,0.1 P,0,104765,105058,A
Sprite,Foreground,Centre,"sb\highlight.png",0,0 C,0,104872,,111,111,111 M,0,104872,104925,299,178,265.2158,193.2235 F,2,104872,105165,1,0 S,2,104872,105165,0.5,0.1 P,0,104872,105165,A
Sprite,Foreground,Centre,"sb\highlight.png",0,0 C,0,104979,,111,111,111 M,0,104979,105032,298,215,284.7197,249.4102 F,2,104979,105272,1,0 S,2,104979,105272,0.5,0.1 P,0,104979,105272,A
Sprite,Foreground,Centre,"sb\highlight.png",0,0 C,0,105086,,111,111,111 M,0,105086,105139,323,241,338.1823,274.4603 F,2,105086,105379,1,0 S,2,105086,105379,0.5,0.1 P,0,105086,105379,A
Sprite,Foreground,Centre,"sb\highlight.png",359,241 C,0,105193,,225,91,236 F,2,105193,105433,1,0 S,2,105193,105433,0.5,0.1 P,0,105193,105433,A
Sprite,Foreground,Centre,"sb\highlight.png",379,164 C,0,105300,,225,91,236 F,2,105300,105540,1,0 S,2,105300,105540,0.5,0.1 P,0,105300,105540,A
Sprite,Foreground,Centre,"sb\highlight.png",345,93 C,0,105408,,225,91,236 F,2,105408,105648,1,0 S,2,105408,105648,0.5,0.1 P,0,105408,105648,A
Sprite,Foreground,Centre,"sb\highlight.png",274,59 C,0,105515,,225,91,236 F,2,105515,105755,1,0 S,2,105515,105755,0.5,0.1 P,0,105515,105755,A
Sprite,Foreground,Centre,"sb\highlight.png",198,80 C,0,105622,,225,91,236 F,2,105622,105862,1,0 S,2,105622,105862,0.5,0.1 P,0,105622,105862,A
Sprite,Foreground,Centre,"sb\highlight.png",153,144 C,0,105729,,225,91,236 F,2,105729,105969,1,0 S,2,105729,105969,0.5,0.1 P,0,105729,105969,A
Sprite,Foreground,Centre,"sb\highlight.png",0,0 C,0,105836,,188,46,185 M,0,105836,105889,159,223,195.1716,211.1949 F,2,105836,106129,1,0 S,2,105836,106129,0.5,0.1 P,0,105836,106129,A
Sprite,Foreground,Centre,"sb\highlight.png",0,0 C,0,105943,,188,46,185 M,0,105943,105996,165,233,198.6613,249.7372 F,2,105943,106236,1,0 S,2,105943,106236,0.5,0.1 P,0,105943,106236,A
Sprite,Foreground,Centre,"sb\highlight.png",0,0 C,0,106050,,167,167,167 M,0,106050,106103,136,313,99.8284,301.1949 F,2,106050,106343,1,0 S,2,106050,106343,0.5,0.1 P,0,106050,106343,A
Sprite,Foreground,Centre,"sb\highlight.png",0,0 C,0,106157,,167,167,167 M,0,106157,106210,130,323,95.96416,338.9622 F,2,106157,106450,1,0 S,2,106157,106450,0.5,0.1 P,0,106157,106450,A
Sprite,Foreground,Centre,"sb\highlight.png",0,0 C,0,106265,,111,111,111 M,0,106265,106318,286,435,297.7762,398.1841 F,2,106265,106612,1,0 S,2,106265,106612,0.5,0.1 P,0,106265,106612,A M,0,106318,106372,297.7762,398.1841,287.6766,360.8671
Sprite,Foreground,Centre,"sb\highlight.png",0,0 C,0,106479,,111,111,111 M,0,106479,106532,80,360,68.40944,396.8957 F,2,106479,106826,1,0 S,2,106479,106826,0.5,0.1 P,0,106479,106826,A M,0,106532,106586,68.40944,396.8957,78.56688,434.2363
Sprite,Foreground,Centre,"sb\highlight.png",0,0 C,0,106693,,111,111,111 M,0,106693,106746,223,397,183.625,397 F,2,106693,107040,1,0 S,2,106693,107040,0.5,0.1 P,0,106693,107040,A M,0,106746,106800,183.625,397,144.25,397
Sprite,Foreground,Centre,"sb\highlight.png",219,321 C,0,106908,,225,91,236 F,2,106908,107148,1,0 S,2,106908,107148,0.5,0.1 P,0,106908,107148,A
Sprite,Foreground,Centre,"sb\highlight.png",227,312 C,0,107015,,225,91,236 F,2,107015,107255,1,0 S,2,107015,107255,0.5,0.1 P,0,107015,107255,A
Sprite,Foreground,Centre,"sb\highlight.png",302,288 C,0,107122,,188,46,185 F,2,107122,107362,1,0 S,2,107122,107362,0.5,0.1 P,0,107122,107362,A
Sprite,Foreground,Centre,"sb\highlight.png",310,279 C,0,107229,,188,46,185 F,2,107229,107469,1,0 S,2,107229,107469,0.5,0.1 P,0,107229,107469,A
Sprite,Foreground,Centre,"sb\highlight.png",385,255 C,0,107336,,167,167,167 F,2,107336,107576,1,0 S,2,107336,107576,0.5,0.1 P,0,107336,107576,A
Sprite,Foreground,Centre,"sb\highlight.png",393,246 C,0,107443,,167,167,167 F,2,107443,107683,1,0 S,2,107443,107683,0.5,0.1 P,0,107443,107683,A
Sprite,Foreground,Centre,"sb\highlight.png",468,222 C,0,107551,,111,111,111 F,2,107551,107791,1,0 S,2,107551,107791,0.5,0.1 P,0,107551,107791,A
Sprite,Foreground,Centre,"sb\highlight.png",476,231 C,0,107658,,111,111,111 F,2,107658,107898,1,0 S,2,107658,107898,0.5,0.1 P,0,107658,107898,A
Sprite,Foreground,Centre,"sb\highlight.png",484,240 C,0,107765,,111,111,111 F,2,107765,108005,1,0 S,2,107765,108005,0.5,0.1 P,0,107765,108005,A
Sprite,Foreground,Centre,"sb\highlight.png",492,249 C,0,107872,,111,111,111 F,2,107872,108112,1,0 S,2,107872,108112,0.5,0.1 P,0,107872,108112,A
Sprite,Foreground,Centre,"sb\highlight.png",0,0 C,0,107979,,225,91,236 M,0,107979,108032,562,274,543.2145,308.6049 F,2,107979,108272,1,0 S,2,107979,108272,0.5,0.1 P,0,107979,108272,A
Sprite,Foreground,Centre,"sb\highlight.png",0,0 C,0,108086,,225,91,236 M,0,108086,108139,557,346,522.3951,364.7855 F,2,108086,108379,1,0 S,2,108086,108379,0.5,0.1 P,0,108086,108379,A
Sprite,Foreground,Centre,"sb\highlight.png",0,0 C,0,108193,,225,91,236 M,0,108193,108246,516,404,476.625,404 F,2,108193,108486,1,0 S,2,108193,108486,0.5,0.1 P,0,108193,108486,A
Sprite,Foreground,Centre,"sb\highlight.png",0,0 C,0,108300,,225,91,236 M,0,108300,108353,451,433,416.8129,413.4645 F,2,108300,108593,1,0 S,2,108300,108593,0.5,0.1 P,0,108300,108593,A
Sprite,Foreground,Centre,"sb\highlight.png",0,0 C,0,108408,,225,91,236 M,0,108408,108461,380,425,360.4645,390.8129 F,2,108408,108701,1,0 S,2,108408,108701,0.5,0.1 P,0,108408,108701,A
Sprite,Foreground,Centre,"sb\highlight.png",0,0 C,0,108515,,225,91,236 M,0,108515,108568,322,382,322,342.625 F,2,108515,108808,1,0 S,2,108515,108808,0.5,0.1 P,0,108515,108808,A
Sprite,Foreground,Centre,"sb\highlight.png",293,315 C,0,108622,,188,46,185 F,2,108622,108862,1,0 S,2,108622,108862,0.5,0.1 P,0,108622,108862,A
Sprite,Foreground,Centre,"sb\highlight.png",368,338 C,0,108729,,188,46,185 F,2,108729,108969,1,0 S,2,108729,108969,0.5,0.1 P,0,108729,108969,A
Sprite,Foreground,Centre,"sb\highlight.png",439,304 C,0,108836,,188,46,185 F,2,108836,109076,1,0 S,2,108836,109076,0.5,0.1 P,0,108836,109076,A
Sprite,Foreground,Centre,"sb\highlight.png",456,227 C,0,108943,,188,46,185 F,2,108943,109183,1,0 S,2,108943,109183,0.5,0.1 P,0,108943,109183,A
Sprite,Foreground,Centre,"sb\highlight.png",416,159 C,0,109050,,188,46,185 F,2,109050,109290,1,0 S,2,109050,109290,0.5,0.1 P,0,109050,109290,A
Sprite,Foreground,Centre,"sb\highlight.png",337,149 C,0,109158,,188,46,185 F,2,109158,109398,1,0 S,2,109158,109398,0.5,0.1 P,0,109158,109398,A
Sprite,Foreground,Centre,"sb\highlight.png",277,200 C,0,109265,,167,167,167 F,2,109265,109505,1,0 S,2,109265,109505,0.5,0.1 P,0,109265,109505,A
Sprite,Foreground,Centre,"sb\highlight.png",283,210 C,0,109372,,167,167,167 F,2,109372,109612,1,0 S,2,109372,109612,0.5,0.1 P,0,109372,109612,A
Sprite,Foreground,Centre,"sb\highlight.png",205,198 C,0,109479,,111,111,111 F,2,109479,109719,1,0 S,2,109479,109719,0.5,0.1 P,0,109479,109719,A
Sprite,Foreground,Centre,"sb\highlight.png",205,209 C,0,109586,,111,111,111 F,2,109586,109826,1,0 S,2,109586,109826,0.5,0.1 P,0,109586,109826,A
Sprite,Foreground,Centre,"sb\highlight.png",0,0 C,0,109693,,225,91,236 M,0,109693,109746,143,160,182.2018,156.3104 F,2,109693,110040,1,0 S,2,109693,110040,0.5,0.1 P,0,109693,110040,A M,0,109746,109800,182.2018,156.3104,221.4035,152.6208
Sprite,Foreground,Centre,"sb\highlight.png",0,0 C,0,109908,,225,91,236 M,0,109908,109961,278,71,238.7381,73.98192 F,2,109908,110255,1,0 S,2,109908,110255,0.5,0.1 P,0,109908,110255,A M,0,109961,110015,238.7381,73.98192,199.4762,76.96384
Sprite,Foreground,Centre,"sb\highlight.png",0,0 C,0,110122,,225,91,236 M,0,110122,110175,91,241,130.2018,237.3104 F,2,110122,110469,1,0 S,2,110122,110469,0.5,0.1 P,0,110122,110469,A M,0,110175,110229,130.2018,237.3104,169.4035,233.6208
Sprite,Foreground,Centre,"sb\highlight.png",87,79 C,0,110336,,188,46,185 F,2,110336,110576,1,0 S,2,110336,110576,0.5,0.1 P,0,110336,110576,A
Sprite,Foreground,Centre,"sb\highlight.png",77,85 C,0,110443,,188,46,185 F,2,110443,110683,1,0 S,2,110443,110683,0.5,0.1 P,0,110443,110683,A
Sprite,Foreground,Centre,"sb\highlight.png",84,163 C,0,110550,,167,167,167 F,2,110550,110790,1,0 S,2,110550,110790,0.5,0.1 P,0,110550,110790,A
Sprite,Foreground,Centre,"sb\highlight.png",74,169 C,0,110657,,167,167,167 F,2,110657,110897,1,0 S,2,110657,110897,0.5,0.1 P,0,110657,110897,A
Sprite,Foreground,Centre,"sb\highlight.png",91,241 C,0,110765,,111,111,111 F,2,110765,111005,1,0 S,2,110765,111005,0.5,0.1 P,0,110765,111005,A
Sprite,Foreground,Centre,"sb\highlight.png",81,247 C,0,110872,,111,111,111 F,2,110872,111112,1,0 S,2,110872,111112,0.5,0.1 P,0,110872,111112,A
Sprite,Foreground,Centre,"sb\highlight.png",98,319 C,0,110979,,225,91,236 F,2,110979,111219,1,0 S,2,110979,111219,0.5,0.1 P,0,110979,111219,A
Sprite,Foreground,Centre,"sb\highlight.png",110,317 C,0,111086,,225,91,236 F,2,111086,111326,1,0 S,2,111086,111326,0.5,0.1 P,0,111086,111326,A
Sprite,Foreground,Centre,"sb\highlight.png",122,315 C,0,111193,,225,91,236 F,2,111193,111433,1,0 S,2,111193,111433,0.5,0.1 P,0,111193,111433,A
Sprite,Foreground,Centre,"sb\highlight.png",134,313 C,0,111301,,225,91,236 F,2,111301,111541,1,0 S,2,111301,111541,0.5,0.1 P,0,111301,111541,A
Sprite,Foreground,Centre,"sb\highlight.png",206,345 C,0,111408,,188,46,185 F,2,111408,111648,1,0 S,2,111408,111648,0.5,0.1 P,0,111408,111648,A
Sprite,Foreground,Centre,"sb\highlight.png",198,363 C,0,111515,,188,46,185 F,2,111515,111755,1,0 S,2,111515,111755,0.5,0.1 P,0,111515,111755,A
Sprite,Foreground,Centre,"sb\highlight.png",183,376 C,0,111622,,188,46,185 F,2,111622,111862,1,0 S,2,111622,111862,0.5,0.1 P,0,111622,111862,A
Sprite,Foreground,Centre,"sb\highlight.png",164,381 C,0,111729,,188,46,185 F,2,111729,111969,1,0 S,2,111729,111969,0.5,0.1 P,0,111729,111969,A
Sprite,Foreground,Centre,"sb\highlight.png",101,418 C,0,111835,,167,167,167 F,2,111835,112075,1,0 S,2,111835,112075,0.5,0.1 P,0,111835,112075,A
Sprite,Foreground,Centre,"sb\highlight.png",89,402 C,0,111942,,167,167,167 F,2,111942,112182,1,0 S,2,111942,112182,0.5,0.1 P,0,111942,112182,A
Sprite,Foreground,Centre,"sb\highlight.png",85,382 C,0,112049,,167,167,167 F,2,112049,112289,1,0 S,2,112049,112289,0.5,0.1 P,0,112049,112289,A
Sprite,Foreground,Centre,"sb\highlight.png",90,364 C,0,112156,,167,167,167 F,2,112156,112396,1,0 S,2,112156,112396,0.5,0.1 P,0,112156,112396,A
Sprite,Foreground,Centre,"sb\highlight.png",88,290 C,0,112264,,111,111,111 F,2,112264,112504,1,0 S,2,112264,112504,0.5,0.1 P,0,112264,112504,A
Sprite,Foreground,Centre,"sb\highlight.png",108,288 C,0,112371,,111,111,111 F,2,112371,112611,1,0 S,2,112371,112611,0.5,0.1 P,0,112371,112611,A
Sprite,Foreground,Centre,"sb\highlight.png",127,294 C,0,112478,,111,111,111 F,2,112478,112718,1,0 S,2,112478,112718,0.5,0.1 P,0,112478,112718,A
Sprite,Foreground,Centre,"sb\highlight.png",140,307 C,0,112585,,111,111,111 F,2,112585,112825,1,0 S,2,112585,112825,0.5,0.1 P,0,112585,112825,A
Sprite,Foreground,Centre,"sb\highlight.png",0,0 C,0,112693,,225,91,236 M,0,112693,112746,206,345,239.2911,323.974 F,2,112693,112986,1,0 S,2,112693,112986,0.5,0.1 P,0,112693,112986,A
Sprite,Foreground,Centre,"sb\highlight.png",0,0 C,0,112800,,188,46,185 M,0,112800,112853,299,367,277.6095,333.9419 F,2,112800,113093,1,0 S,2,112800,113093,0.5,0.1 P,0,112800,113093,A
Sprite,Foreground,Centre,"sb\highlight.png",0,0 C,0,112908,,167,167,167 M,0,112908,112961,321,274,287.0837,294.0019 F,2,112908,113201,1,0 S,2,112908,113201,0.5,0.1 P,0,112908,113201,A
Sprite,Foreground,Centre,"sb\highlight.png",0,0 C,0,113015,,111,111,111 M,0,113015,113068,228,251,247,284 F,2,113015,113308,1,0 S,2,113015,113308,0.5,0.1 P,0,113015,113308,A
//Storyboard Layer 4 (Overlay)
//Storyboard Sound Samples

[TimingPoints]
1693,428.571428571429,4,2,1,30,1,0
1907,-100,4,2,1,35,0,0
2121,-100,4,2,1,40,0,0
2335,-100,4,2,1,45,0,0
2550,-100,4,2,1,50,0,0
2764,-100,4,2,1,55,0,0
2978,-100,4,2,1,60,0,0
3407,-133.333333333333,4,2,1,60,0,0
10264,-133.333333333333,4,2,1,70,0,0
13264,-133.333333333333,4,2,1,20,0,0
13371,-133.333333333333,4,2,1,22,0,0
13478,-133.333333333333,4,2,1,25,0,0
13585,-133.333333333333,4,2,1,27,0,0
13693,-133.333333333333,4,2,1,30,0,0
13800,-133.333333333333,4,2,1,32,0,0
13907,-133.333333333333,4,2,1,35,0,0
14014,-133.333333333333,4,2,1,37,0,0
14121,-133.333333333333,4,2,1,40,0,0
14228,-133.333333333333,4,2,1,42,0,0
14335,-133.333333333333,4,2,1,45,0,0
14443,-133.333333333333,4,2,1,47,0,0
14550,-133.333333333333,4,2,1,50,0,0
14657,-133.333333333333,4,2,1,52,0,0
14764,-133.333333333333,4,2,1,55,0,0
14871,-133.333333333333,4,2,1,57,0,0
14978,-133.333333333333,4,2,1,60,0,0
15085,-133.333333333333,4,2,1,62,0,0
15193,-133.333333333333,4,2,1,65,0,0
15300,-133.333333333333,4,2,1,67,0,0
15407,-133.333333333333,4,2,1,70,0,0
17121,-33.3333333333333,4,2,1,80,0,0
17550,-66.6666666666667,4,2,1,80,0,0
18407,-33.3333333333333,4,2,1,80,0,0
18835,-66.6666666666667,4,2,1,80,0,0
19693,-44.4444444444445,4,2,1,80,0,0
20550,-33.3333333333333,4,2,1,80,0,0
20978,-66.6666666666667,4,2,1,80,0,0
21835,-33.3333333333333,4,2,1,80,0,0
22264,-66.6666666666667,4,2,1,80,0,0
23121,-44.4444444444445,4,2,1,80,0,0
23978,-33.3333333333333,4,2,1,80,0,0
24407,-66.6666666666667,4,2,1,80,0,0
25264,-33.3333333333333,4,2,1,80,0,0
25693,-66.6666666666667,4,2,1,80,0,0
26550,-44.4444444444445,4,2,1,80,0,0
27407,-33.3333333333333,4,2,1,80,0,0
27835,-66.6666666666667,4,2,1,80,0,0
28693,-33.3333333333333,4,2,1,80,0,0
29121,-200,4,2,1,70,0,0
30407,-400,4,2,1,70,0,0
30835,-80,4,2,1,80,0,0
33407,-57.1428571428571,4,2,1,80,0,0
34264,-80,4,2,1,80,0,0
36835,-57.1428571428571,4,2,1,80,0,0
37693,-40,4,2,1,80,0,0
38121,-80,4,2,1,80,0,0
40264,-57.1428571428571,4,2,1,80,0,0
41121,-40,4,2,1,80,0,0
41550,-80,4,2,1,80,0,0
42835,-80,4,2,1,50,0,0
43050,-80,4,2,1,60,0,0
43264,-80,4,2,1,50,0,0
43478,-80,4,2,1,60,0,0
43693,-80,4,2,1,80,0,0
44550,-66.6666666666667,4,2,1,90,0,1
46318,-66.6666666666667,4,2,1,5,0,1
46371,-66.6666666666667,4,2,1,90,0,1
46425,-66.6666666666667,4,2,1,5,0,1
46478,-66.6666666666667,4,2,1,90,0,1
46532,-66.6666666666667,4,2,1,5,0,1
46585,-66.6666666666667,4,2,1,90,0,1
46639,-66.6666666666667,4,2,1,5,0,1
46692,-66.6666666666667,4,2,1,90,0,1
46746,-66.6666666666667,4,2,1,5,0,1
46799,-66.6666666666667,4,2,1,90,0,1
46853,-66.6666666666667,4,2,1,5,0,1
46906,-66.6666666666667,4,2,1,90,0,1
50925,-66.6666666666667,4,2,1,5,0,1
50978,-66.6666666666667,4,2,1,90,0,1
53175,-66.6666666666667,4,2,1,5,0,1
53228,-66.6666666666667,4,2,1,90,0,1
53282,-66.6666666666667,4,2,1,5,0,1
53335,-66.6666666666667,4,2,1,90,0,1
53389,-66.6666666666667,4,2,1,5,0,1
53442,-66.6666666666667,4,2,1,90,0,1
53496,-66.6666666666667,4,2,1,5,0,1
53549,-66.6666666666667,4,2,1,90,0,1
53603,-66.6666666666667,4,2,1,5,0,1
53656,-66.6666666666667,4,2,1,90,0,1
53710,-66.6666666666667,4,2,1,5,0,1
53763,-66.6666666666667,4,2,1,90,0,1
56550,-66.6666666666667,4,2,1,60,0,0
58264,-33.3333333333333,4,2,1,80,0,0
58693,-66.6666666666667,4,2,1,80,0,0
59550,-33.3333333333333,4,2,1,80,0,0
59978,-66.6666666666667,4,2,1,80,0,0
60835,-44.4444444444445,4,2,1,80,0,0
61693,-33.3333333333333,4,2,1,80,0,0
62121,-66.6666666666667,4,2,1,80,0,0
62978,-33.3333333333333,4,2,1,80,0,0
63407,-66.6666666666667,4,2,1,80,0,0
64264,-44.4444444444445,4,2,1,80,0,0
65121,-33.3333333333333,4,2,1,80,0,0
65550,-66.6666666666667,4,2,1,80,0,0
66407,-33.3333333333333,4,2,1,80,0,0
66835,-66.6666666666667,4,2,1,80,0,0
67693,-44.4444444444445,4,2,1,80,0,0
68550,-33.3333333333333,4,2,1,80,0,0
68978,-66.6666666666667,4,2,1,80,0,0
69835,-33.3333333333333,4,2,1,80,0,0
70264,-33.3333333333333,4,2,1,70,0,0
71121,-100,4,2,1,70,0,0
71550,-400,4,2,1,70,0,0
71978,-80,4,2,1,80,0,0
74550,-57.1428571428571,4,2,1,80,0,0
75407,-80,4,2,1,80,0,0
77978,-57.1428571428571,4,2,1,80,0,0
78835,-40,4,2,1,80,0,0
79264,-80,4,2,1,80,0,0
81407,-57.1428571428571,4,2,1,80,0,0
82264,-40,4,2,1,80,0,0
82693,-80,4,2,1,80,0,0
83978,-80,4,2,1,50,0,0
84193,-80,4,2,1,60,0,0
84407,-80,4,2,1,50,0,0
84621,-80,4,2,1,60,0,0
84836,-80,4,2,1,80,0,0
85693,-66.6666666666667,4,2,1,90,0,1
87460,-66.6666666666667,4,2,1,5,0,1
87513,-66.6666666666667,4,2,1,90,0,1
87568,-66.6666666666667,4,2,1,5,0,1
87621,-66.6666666666667,4,2,1,90,0,1
87675,-66.6666666666667,4,2,1,5,0,1
87728,-66.6666666666667,4,2,1,90,0,1
87782,-66.6666666666667,4,2,1,5,0,1
87835,-66.6666666666667,4,2,1,90,0,1
87889,-66.6666666666667,4,2,1,5,0,1
87942,-66.6666666666667,4,2,1,90,0,1
87996,-66.6666666666667,4,2,1,5,0,1
88049,-66.6666666666667,4,2,1,90,0,1
92068,-66.6666666666667,4,2,1,5,0,1
92121,-66.6666666666667,4,2,1,90,0,1
94318,-66.6666666666667,4,2,1,5,0,1
94371,-66.6666666666667,4,2,1,90,0,1
94425,-66.6666666666667,4,2,1,5,0,1
94478,-66.6666666666667,4,2,1,90,0,1
94532,-66.6666666666667,4,2,1,5,0,1
94585,-66.6666666666667,4,2,1,90,0,1
94639,-66.6666666666667,4,2,1,5,0,1
94692,-66.6666666666667,4,2,1,90,0,1
94746,-66.6666666666667,4,2,1,5,0,1
94799,-66.6666666666667,4,2,1,90,0,1
94853,-66.6666666666667,4,2,1,5,0,1
94908,-66.6666666666667,4,2,1,90,0,1
97693,-66.6666666666667,4,2,1,70,0,0
99407,-66.6666666666667,4,2,1,90,0,1
101175,-66.6666666666667,4,2,1,5,0,1
101228,-66.6666666666667,4,2,1,90,0,1
101282,-66.6666666666667,4,2,1,5,0,1
101335,-66.6666666666667,4,2,1,90,0,1
101389,-66.6666666666667,4,2,1,5,0,1
101442,-66.6666666666667,4,2,1,90,0,1
101496,-66.6666666666667,4,2,1,5,0,1
101549,-66.6666666666667,4,2,1,90,0,1
101603,-66.6666666666667,4,2,1,5,0,1
101656,-66.6666666666667,4,2,1,90,0,1
101710,-66.6666666666667,4,2,1,5,0,1
101764,-66.6666666666667,4,2,1,90,0,1
104603,-66.6666666666667,4,2,1,5,0,1
104656,-66.6666666666667,4,2,1,90,0,1
104710,-66.6666666666667,4,2,1,5,0,1
104763,-66.6666666666667,4,2,1,90,0,1
104818,-66.6666666666667,4,2,1,5,0,1
104871,-66.6666666666667,4,2,1,90,0,1
104925,-66.6666666666667,4,2,1,5,0,1
104978,-66.6666666666667,4,2,1,90,0,1
105032,-66.6666666666667,4,2,1,5,0,1
105085,-66.6666666666667,4,2,1,90,0,1
105139,-66.6666666666667,4,2,1,5,0,1
105192,-66.6666666666667,4,2,1,90,0,1
105889,-66.6666666666667,4,2,1,5,0,1
105942,-66.6666666666667,4,2,1,90,0,1
105996,-66.6666666666667,4,2,1,5,0,1
106049,-66.6666666666667,4,2,1,90,0,1
106103,-66.6666666666667,4,2,1,5,0,1
106156,-66.6666666666667,4,2,1,90,0,1
106210,-66.6666666666667,4,2,1,5,0,1
106263,-66.6666666666667,4,2,1,90,0,1
108032,-66.6666666666667,4,2,1,5,0,1
108085,-66.6666666666667,4,2,1,90,0,1
108139,-66.6666666666667,4,2,1,5,0,1
108192,-66.6666666666667,4,2,1,90,0,1
108246,-66.6666666666667,4,2,1,5,0,1
108299,-66.6666666666667,4,2,1,90,0,1
108353,-66.6666666666667,4,2,1,5,0,1
108406,-66.6666666666667,4,2,1,90,0,1
108460,-66.6666666666667,4,2,1,5,0,1
108513,-66.6666666666667,4,2,1,90,0,1
108568,-66.6666666666667,4,2,1,5,0,1
108621,-66.6666666666667,4,2,1,90,0,1
112746,-66.6666666666667,4,2,1,5,0,1
112799,-66.6666666666667,4,2,1,90,0,1
112853,-66.6666666666667,4,2,1,5,0,1
112906,-66.6666666666667,4,2,1,90,0,1
112960,-66.6666666666667,4,2,1,5,0,1
113013,-66.6666666666667,4,2,1,90,0,1
113068,-66.6666666666667,4,2,1,5,0,1
113121,-66.6666666666667,4,2,2,100,0,0
113550,-66.6666666666667,4,2,2,90,0,0
113978,-66.6666666666667,4,2,2,80,0,0
114407,-66.6666666666667,4,2,2,70,0,0
114835,-66.6666666666667,4,2,2,60,0,0
115264,-66.6666666666667,4,2,2,50,0,0
115693,-66.6666666666667,4,2,2,40,0,0
116121,-66.6666666666667,4,2,2,20,0,0
116550,-66.6666666666667,4,2,2,5,0,0

[Colours]
Combo1 : 188,46,185
Combo2 : 167,167,167
Combo3 : 111,111,111
Combo4 : 225,91,236

[HitObjects]
256,192,1693,12,0,3193,0:0:0:0:
490,14,3407,6,0,L|484:72,1,39.3750015020371,4|0,3:2|0:0,0:0:0:0:
410,36,3621,2,0,L|404:94,1,39.3750015020371
419,153,3835,2,0,L|519:118,1,78.7500030040742,2|0,3:2|0:0,0:0:0:0:
22,14,4264,6,0,L|27:72,1,39.3750015020371,2|0,3:2|0:0,0:0:0:0:
102,36,4478,2,0,L|107:94,1,39.3750015020371,2|0,0:0|0:0,0:0:0:0:
93,153,4692,2,0,L|-7:118,1,78.7500030040742,2|0,3:2|0:0,0:0:0:0:
259,1,5121,6,0,L|254:50,1,39.3750015020371,2|0,3:2|0:0,0:0:0:0:
259,119,5335,2,0,L|254:168,1,39.3750015020371
259,237,5550,2,0,L|251:319,1,78.7500030040742,2|0,3:2|0:0,0:0:0:0:
490,370,5978,6,0,L|484:311,1,39.3750015020371,2|0,3:2|0:0,0:0:0:0:
410,348,6192,2,0,L|404:289,1,39.3750015020371,2|0,0:0|0:0,0:0:0:0:
419,231,6406,2,0,L|519:266,1,78.7500030040742,2|2,3:2|0:0,0:0:0:0:
22,370,6835,6,0,L|27:311,1,39.3750015020371,2|0,3:2|0:0,0:0:0:0:
102,348,7049,2,0,L|107:289,1,39.3750015020371
93,231,7263,2,0,L|-7:266,1,78.7500030040742,2|0,3:2|0:0,0:0:0:0:
180,384,7693,6,0,L|185:325,1,39.3750015020371,2|0,3:2|0:0,0:0:0:0:
194,263,7907,1,0,0:0:0:0:
190,252,8014,1,2,0:0:0:0:
332,384,8121,6,0,L|326:325,1,39.3750015020371,2|0,3:2|0:0,0:0:0:0:
318,263,8335,1,2,0:2:0:0:
322,252,8442,1,2,0:2:0:0:
493,257,8550,6,0,P|506:217|487:162,1,78.7500030040742,2|2,3:2|0:0,0:0:0:0:
465,111,8978,2,0,P|435:104|419:108,1,39.3750015020371,2|2,3:2|0:0,0:0:0:0:
352,79,9193,2,0,P|325:95|317:109,1,39.3750015020371
19,257,9407,6,0,P|6:217|25:162,1,78.7500030040742,2|2,3:2|0:0,0:0:0:0:
47,111,9835,2,0,P|77:104|93:108,1,39.3750015020371,2|0,3:2|0:0,0:0:0:0:
160,79,10050,2,0,P|186:95|194:109,1,39.3750015020371,2|0,0:0|0:0,0:0:0:0:
363,327,10264,5,2,3:2:0:0:
427,166,10478,1,2,0:3:0:0:
256,192,10693,1,2,3:2:0:0:
149,327,11121,5,2,3:2:0:0:
85,166,11335,1,2,0:3:0:0:
256,192,11550,1,2,3:2:0:0:
160,28,11978,6,0,L|165:84,1,39.3750015020371,2|0,3:2|0:0,0:0:0:0:
170,156,12193,1,2,0:3:0:0:
165,162,12300,1,2,0:0:0:0:
347,162,12407,5,2,3:2:0:0:
342,156,12514,1,0,0:0:0:0:
348,67,12622,2,0,L|352:28,1,39.3750015020371,2|2,0:3|0:0,0:0:0:0:
256,0,12835,5,2,3:2:0:0:
256,192,13050,1,2,0:0:0:0:
255,357,13264,2,0,L|336:349,1,78.7500030040742,10|10,3:2|0:2,0:0:0:0:
367,273,13692,5,10,3:2:0:0:
339,244,13800,1,8,0:2:0:0:
311,216,13907,1,8,0:2:0:0:
283,188,14014,1,8,0:2:0:0:
255,160,14121,5,10,3:2:0:0:
227,188,14228,1,8,0:2:0:0:
199,216,14335,1,10,0:2:0:0:
171,244,14442,1,8,0:2:0:0:
142,272,14550,5,10,3:2:0:0:
170,300,14656,1,10,0:2:0:0:
198,328,14763,1,10,0:2:0:0:
226,356,14870,1,8,0:2:0:0:
255,384,14978,5,10,3:2:0:0:
255,356,15085,1,10,0:2:0:0:
255,329,15192,1,10,0:2:0:0:
255,301,15299,1,10,0:2:0:0:
255,274,15406,5,2,3:2:0:0:
42,35,17121,6,0,B|6:63|6:63|162:95,1,157.500006008148,6|0,1:2|0:0,0:0:0:0:
190,61,17335,2,0,B|226:33|226:33|70:1,1,157.500006008148,2|0,0:0|0:0,0:0:0:0:
6,141,17550,1,8,3:2:0:0:
0,151,17657,2,0,L|9:244,2,78.7500030040742,2|0|0,0:0|0:0|0:0,0:0:0:0:
185,378,17978,6,0,P|154:280|29:312,1,236.250009012223,2|0,3:2|0:0,0:0:0:0:
105,350,18407,6,0,B|100:380|100:380|161:255|161:255|194:238|194:238|245:132,1,315.000012016297,10|0,3:1|0:0,0:0:0:0:
489,21,18835,6,0,L|482:99,1,78.7500030040742,0|0,3:0|0:0,0:0:0:0:
407,60,19050,2,0,L|400:138,1,78.7500030040742,2|0,0:0|0:0,0:0:0:0:
339,1,19264,1,8,3:2:0:0:
337,13,19371,2,0,L|330:91,2,78.7500030040742,2|0|0,0:0|0:0|0:0,0:0:0:0:
389,351,19693,6,0,P|456:351|491:298,1,118.125004506111,2|0,1:1|0:0,0:0:0:0:
448,219,19907,2,0,P|381:219|346:272,1,118.125004506111,2|0,1:1|0:0,0:0:0:0:
123,351,20121,6,0,P|56:351|21:298,1,118.125004506111,10|0,1:1|0:0,0:0:0:0:
64,219,20335,2,0,P|131:219|166:272,1,118.125004506111,10|0,1:1|0:0,0:0:0:0:
266,317,20550,6,1,B|253:324|257:337|257:337|277:352|292:383|292:383|241:170|241:170|243:165|243:165|204:-1,1,472.500018024445,2|0,3:2|0:0,0:0:0:0:
19,115,20978,1,8,3:2:0:0:
29,109,21085,2,0,B|61:88|61:88|122:96,2,78.7500030040742,2|0|0,0:0|0:0|0:0,0:0:0:0:
139,187,21407,2,0,L|397:132,1,236.250009012223,2|0,3:2|0:0,0:0:0:0:
493,8,21835,6,0,B|457:67|457:67|464:152|464:152|474:172|474:172|478:226|478:226|441:336,1,315.000012016297,10|0,3:1|0:0,0:0:0:0:
293,263,22264,2,0,P|251:252|209:269,1,78.7500030040742,0|0,3:0|0:0,0:0:0:0:
217,341,22478,2,0,P|259:352|301:335,1,78.7500030040742,2|0,0:0|0:0,0:0:0:0:
384,253,22693,1,8,3:2:0:0:
379,264,22800,2,0,P|368:306|383:355,2,78.7500030040742,2|0|0,0:0|0:0|0:0,0:0:0:0:
199,144,23121,6,0,L|33:92,1,118.125004506111,2|0,1:1|0:0,0:0:0:0:
39,15,23335,2,0,L|189:62,1,118.125004506111,2|0,1:1|0:0,0:0:0:0:
313,144,23550,6,0,L|479:92,1,118.125004506111,10|0,1:1|0:0,0:0:0:0:
473,15,23764,2,0,L|322:62,1,118.125004506111,10|0,1:1|0:0,0:0:0:0:
256,0,23978,6,0,B|223:359|223:359|221:291|159:270,1,472.500018024445,2|0,3:2|0:0,0:0:0:0:
51,367,24407,1,8,3:2:0:0:
63,365,24514,2,0,L|159:347,2,78.7500030040742,2|0|0,0:0|0:0|0:0,0:0:0:0:
131,123,24835,2,0,L|77:289,1,157.500006008148,2|0,3:2|0:0,0:0:0:0:
327,357,25264,54,1,B|368:401|425:343|410:280|343:232|262:260|227:334|257:410,1,315.000012016297,10|0,3:1|0:0,0:0:0:0:
486,384,25693,2,0,L|501:305,1,78.7500030040742,0|0,3:0|0:0,0:0:0:0:
476,238,25907,2,0,L|491:159,1,78.7500030040742,2|0,0:0|0:0,0:0:0:0:
465,93,26121,1,8,3:2:0:0:
467,81,26228,2,0,L|482:2,2,78.7500030040742,2|0|0,0:0|0:0|0:0,0:0:0:0:
200,208,26550,6,0,L|47:230,1,118.125004506111,2|0,1:1|0:0,0:0:0:0:
22,160,26764,2,0,L|139:143,1,118.125004506111,2|0,1:1|0:0,0:0:0:0:
312,208,26978,6,0,L|465:230,1,118.125004506111,10|0,1:1|0:0,0:0:0:0:
490,160,27192,2,0,L|373:143,1,118.125004506111,10|0,1:1|0:0,0:0:0:0:
217,12,27407,54,1,B|256:-7|259:38|318:5|318:5|220:159|220:159|185:216|262:272|312:220|323:161|249:130,1,472.500018024445,2|0,3:2|0:0,0:0:0:0:
146,60,27835,1,8,3:2:0:0:
135,55,27943,2,0,P|91:61|60:98,2,78.7500030040742,2|0|0,0:0|0:0|0:0,0:0:0:0:
138,143,28264,2,0,L|106:338,1,157.500006008148,2|0,3:2|0:0,0:0:0:0:
54,373,28693,6,0,B|21:308|21:308|257:362,1,315.000012016297,8|0,3:2|0:0,0:0:0:0:
373,143,29121,6,0,L|369:186,1,26.25,2|0,3:1|0:0,0:0:0:0:
364,245,29335,1,2,0:1:0:0:
297,58,29443,6,0,L|293:101,1,26.25,10|0,0:1|0:0,0:0:0:0:
288,160,29657,1,2,0:0:0:0:
462,71,29764,6,0,L|458:114,1,26.25,10|0,0:1|0:0,0:0:0:0:
453,173,29978,1,8,0:0:0:0:
460,184,30085,1,8,0:0:0:0:
379,57,30193,1,8,0:0:0:0:
386,46,30300,1,8,0:0:0:0:
288,160,30407,6,0,L|242:155,1,39.375,0|0,3:0|0:0,0:0:0:0:
194,17,30835,6,0,P|148:17|125:34,1,65.625,6|0,1:2|0:0,0:0:0:0:
46,0,31050,2,0,P|22:39|26:68,1,65.625,2|0,0:0|0:0,0:0:0:0:
0,147,31264,5,8,3:2:0:0:
12,141,31371,2,0,L|82:115,2,65.625,2|0|0,0:0|0:0|0:0,0:0:0:0:
194,367,31693,6,0,P|148:367|125:350,1,65.625,2|0,3:2|0:0,0:0:0:0:
46,384,31908,2,0,P|22:344|26:315,1,65.625
0,237,32122,5,8,3:2:0:0:
12,243,32229,2,0,L|82:269,2,65.625
105,192,32550,6,0,L|184:186,1,65.625,0|0,3:0|0:0,0:0:0:0:
256,223,32764,2,0,L|321:227,1,65.625,2|0,0:0|0:0,0:0:0:0:
483,191,32978,5,8,3:2:0:0:
466,109,33085,2,0,P|413:138|401:217,1,131.25,2|0,0:0|0:0,0:0:0:0:
467,293,33407,6,0,P|479:337|470:382,1,91.8750008761883,2|0,1:1|0:0,0:0:0:0:
321,384,33621,2,0,P|308:340|321:297,1,91.8750008761883,2|0,1:1|0:0,0:0:0:0:
44,293,33835,6,0,P|32:337|42:382,1,91.8750008761883,10|0,1:1|0:0,0:0:0:0:
190,384,34049,2,0,P|203:340|191:297,1,91.8750008761883,10|0,1:1|0:0,0:0:0:0:
95,233,34264,6,0,B|114:206|114:206|140:242,1,65.625,2|0,3:2|0:0,0:0:0:0:
417,233,34478,2,0,B|398:206|398:206|372:242,1,65.625,2|0,0:0|0:0,0:0:0:0:
256,254,34693,6,0,L|262:175,1,65.625,8|2,3:2|0:0,0:0:0:0:
256,105,34907,2,0,L|262:26,1,65.625
373,0,35121,6,0,P|408:4|431:36,1,65.625,2|0,3:2|0:0,0:0:0:0:
449,97,35335,1,0,0:0:0:0:
447,106,35443,1,0,0:0:0:0:
360,144,35550,6,0,L|364:78,1,65.625,10|0,3:2|0:0,0:0:0:0:
153,31,35764,2,0,L|157:96,1,65.625
256,0,35978,5,0,3:0:0:0:
252,9,36085,1,0,0:0:0:0:
265,30,36193,5,2,0:0:0:0:
261,39,36300,1,0,0:0:0:0:
198,145,36407,2,0,P|169:102|135:94,1,65.625,8|2,3:2|0:0,0:0:0:0:
313,145,36621,2,0,P|327:115|353:97,1,65.625
181,236,36835,6,0,B|140:251|140:251|96:233,1,91.8750008761883,2|0,1:1|0:0,0:0:0:0:
68,75,37050,2,0,B|50:119|50:119|69:173,1,91.8750008761883,2|0,1:1|0:0,0:0:0:0:
331,236,37264,6,0,B|372:251|372:251|416:233,1,91.8750008761883,10|0,1:1|0:0,0:0:0:0:
444,75,37479,2,0,B|462:119|462:119|443:173,1,91.8750008761883,10|0,1:1|0:0,0:0:0:0:
327,384,37693,6,0,P|267:243|186:389,1,393.75,2|0,3:2|0:0,0:0:0:0:
418,384,38121,1,8,3:2:0:0:
418,374,38228,2,0,P|436:323|511:299,1,131.25,2|0,0:0|0:0,0:0:0:0:
255,329,38550,6,0,L|242:178,1,131.25,2|0,3:2|0:0,0:0:0:0:
341,151,38871,1,0,0:0:0:0:
342,141,38978,2,0,L|355:-3,1,131.25,8|0,3:2|0:0,0:0:0:0:
51,10,39407,6,0,B|36:42|36:42|51:86,1,65.625,0|0,3:0|0:0,0:0:0:0:
125,129,39621,1,2,0:0:0:0:
131,121,39728,1,0,0:0:0:0:
237,0,39835,5,8,3:2:0:0:
160,20,39943,2,0,P|203:75|286:62,1,131.25,2|0,0:0|0:0,0:0:0:0:
428,186,40264,6,0,L|418:303,1,91.8750008761883,2|0,1:1|0:0,0:0:0:0:
316,382,40478,2,0,L|308:290,1,91.8750008761883,2|0,1:1|0:0,0:0:0:0:
84,189,40693,6,0,L|94:306,1,91.8750008761883,10|0,1:1|0:0,0:0:0:0:
193,384,40907,2,0,L|201:292,1,91.8750008761883,10|0,1:1|0:0,0:0:0:0:
260,77,41121,22,1,B|334:150|334:150|254:225|254:225|179:149|179:149|249:81,1,393.75,2|0,3:2|0:0,0:0:0:0:
362,28,41550,6,0,L|430:21,1,65.625,8|2,3:2|0:0,0:0:0:0:
469,104,41764,2,0,L|403:109,1,65.625
155,29,41978,6,0,L|86:22,1,65.625,2|0,3:2|0:0,0:0:0:0:
43,104,42192,2,0,L|108:109,1,65.625
256,0,42407,5,8,3:2:0:0:
418,384,42835,5,10,0:0:0:0:
356,361,42943,1,8,0:0:0:0:
323,304,43050,1,8,0:0:0:0:
334,240,43157,1,8,0:0:0:0:
385,197,43264,1,10,0:0:0:0:
450,197,43371,1,8,0:0:0:0:
501,240,43478,1,8,0:0:0:0:
512,304,43585,1,8,0:0:0:0:
479,361,43693,5,10,0:3:0:0:
418,338,43800,5,8,0:3:0:0:
356,361,43908,5,4,0:3:0:0:
295,338,44013,5,4,0:3:0:0:
256,384,44121,5,8,3:2:0:0:
69,192,44550,6,0,P|39:158|-2:151,1,78.7500030040742,6|2,1:2|0:1,0:0:0:0:
185,241,44764,2,0,P|210:203|206:161,1,78.7500030040742,2|2,0:1|0:1,0:0:0:0:
158,362,44978,2,0,P|200:376|239:362,1,78.7500030040742,10|0,3:1|0:0,0:0:0:0:
44,342,45193,5,2,0:1:0:0:
48,331,45300,1,2,0:1:0:0:
88,263,45407,5,2,3:2:0:0:
98,258,45514,1,2,0:1:0:0:
174,238,45621,5,2,0:1:0:0:
185,241,45728,1,2,0:1:0:0:
267,290,45835,5,10,0:1:0:0:
265,278,45943,1,0,0:0:0:0:
263,266,46050,1,2,0:1:0:0:
261,254,46157,1,0,0:0:0:0:
285,179,46264,6,0,P|306:170|344:170,1,39.3750015020371,2|0,3:2|0:0,0:0:0:0:
305,132,46371,2,0,P|327:134|360:153,1,39.3750015020371
345,101,46478,2,0,P|363:114|382:147,1,39.3750015020371,2|0,0:0|0:0,0:0:0:0:
395,94,46586,2,0,P|404:114|404:152,1,39.3750015020371
442,113,46693,2,0,P|439:135|420:168,1,39.3750015020371,10|0,3:2|0:0,0:0:0:0:
473,152,46800,2,0,P|459:170|426:189,1,39.3750015020371,2|0,0:0|0:0,0:0:0:0:
480,201,46907,5,0,0:0:0:0:
402,189,47014,1,0,0:0:0:0:
324,177,47121,1,2,3:2:0:0:
246,165,47228,1,0,0:0:0:0:
168,153,47335,1,0,0:0:0:0:
90,141,47443,1,2,0:0:0:0:
12,129,47550,5,10,3:2:0:0:
14,141,47657,1,0,0:0:0:0:
49,211,47764,5,2,0:0:0:0:
51,223,47871,1,0,0:0:0:0:
80,291,47978,6,0,L|-11:307,1,78.7500030040742,6|2,3:2|0:1,0:0:0:0:
132,369,48193,2,0,L|209:356,1,78.7500030040742,2|2,0:1|0:1,0:0:0:0:
432,291,48407,6,0,L|523:307,1,78.7500030040742,10|0,3:1|0:0,0:0:0:0:
380,369,48622,2,0,L|303:356,1,78.7500030040742,2|2,0:1|0:1,0:0:0:0:
256,192,48835,5,2,3:2:0:0:
292,277,48943,2,0,P|252:285|203:263,1,78.7500030040742,2|2,0:1|0:1,0:0:0:0:
257,199,49157,5,2,0:1:0:0:
293,284,49265,2,0,P|253:292|204:270,1,78.7500030040742,10|0,0:1|0:0,0:0:0:0:
217,103,49478,2,0,P|254:91|293:100,1,78.7500030040742,2|0,0:1|0:0,0:0:0:0:
390,136,49693,6,0,B|425:155|425:155|483:140,1,78.7500030040742,2|0,3:2|0:0,0:0:0:0:
474,52,49907,2,0,B|440:32|440:32|382:47,1,78.7500030040742,2|0,0:0|0:0,0:0:0:0:
125,134,50121,6,0,B|90:154|90:154|32:139,1,78.7500030040742,10|2,3:2|0:0,0:0:0:0:
41,50,50335,2,0,B|75:31|75:31|133:46,1,78.7500030040742
58,302,50550,6,0,P|20:282|1:244,1,78.7500030040742,2|0,3:2|0:0,0:0:0:0:
19,177,50765,1,0,0:0:0:0:
77,230,50872,2,0,L|126:226,1,39.3750015020371,2|0,0:0|0:0,0:0:0:0:
192,191,50978,2,0,L|183:289,1,78.7500030040742,10|0,3:2|0:0,0:0:0:0:
249,371,51193,2,0,L|255:292,1,78.7500030040742,2|0,0:0|0:0,0:0:0:0:
467,26,51407,6,0,L|473:104,1,78.7500030040742,6|2,0:2|0:1,0:0:0:0:
290,190,51621,2,0,L|284:112,1,78.7500030040742,2|2,0:1|0:1,0:0:0:0:
372,65,51835,2,0,L|378:143,1,78.7500030040742,10|0,3:1|0:0,0:0:0:0:
431,244,52050,5,2,0:1:0:0:
436,233,52157,1,2,0:1:0:0:
463,307,52264,5,2,3:2:0:0:
475,305,52371,1,2,0:1:0:0:
424,366,52478,5,2,0:1:0:0:
432,375,52585,1,2,0:1:0:0:
353,361,52693,5,10,0:1:0:0:
355,349,52800,1,0,0:0:0:0:
357,337,52907,1,2,0:1:0:0:
359,325,53014,1,0,0:0:0:0:
312,262,53121,6,0,L|272:254,1,39.3750015020371,2|0,3:2|0:0,0:0:0:0:
284,216,53228,2,0,L|245:229,1,39.3750015020371
236,190,53335,2,0,L|209:220,1,39.3750015020371,2|0,0:0|0:0,0:0:0:0:
181,191,53443,2,0,L|172:231,1,39.3750015020371
135,219,53549,2,0,L|148:257,1,39.3750015020371,10|0,3:2|0:0,0:0:0:0:
108,268,53657,2,0,L|138:294,1,39.3750015020371,2|0,0:0|0:0,0:0:0:0:
109,323,53764,5,0,0:0:0:0:
183,349,53871,1,0,0:0:0:0:
248,306,53978,1,2,3:2:0:0:
246,228,54085,1,0,0:0:0:0:
184,178,54193,1,0,0:0:0:0:
163,102,54300,1,2,0:0:0:0:
201,33,54407,5,10,3:2:0:0:
212,37,54514,1,0,0:0:0:0:
274,86,54621,5,2,0:0:0:0:
285,90,54728,1,0,0:0:0:0:
364,88,54835,6,0,L|357:9,1,78.7500030040742,6|2,3:2|0:1,0:0:0:0:
448,0,55050,2,0,L|454:78,1,78.7500030040742,2|2,0:1|0:1,0:0:0:0:
148,88,55264,6,0,L|154:9,1,78.7500030040742,10|0,3:1|0:0,0:0:0:0:
64,0,55479,2,0,L|57:78,1,78.7500030040742,2|2,0:1|0:1,0:0:0:0:
256,192,55693,5,2,3:2:0:0:
354,162,55800,2,0,L|346:255,1,78.7500030040742,2|2,0:1|0:1,0:0:0:0:
265,192,56014,5,2,0:1:0:0:
363,162,56121,2,0,L|355:255,1,78.7500030040742,10|0,0:1|0:0,0:0:0:0:
155,240,56335,2,0,L|149:162,1,78.7500030040742,2|0,0:1|0:0,0:0:0:0:
256,0,56550,5,2,3:2:0:0:
256,192,56764,12,2,58050,0:0:0:0:
484,377,58264,6,0,B|494:260|494:260|450:296,1,157.500006008148,6|0,1:2|0:0,0:0:0:0:
392,347,58478,2,0,B|360:373|360:373|371:256,1,157.500006008148,2|0,0:0|0:0,0:0:0:0:
440,121,58693,1,8,3:2:0:0:
438,133,58800,2,0,L|429:230,2,78.7500030040742,2|0|0,0:0|0:0|0:0,0:0:0:0:
317,5,59121,6,0,P|249:83|351:155,1,236.250009012223,2|0,3:2|0:0,0:0:0:0:
389,59,59550,6,0,B|219:164|261:-36|52:55,1,315.000012016297,10|0,3:1|0:0,0:0:0:0:
0,378,59978,6,0,L|87:386,1,78.7500030040742,0|0,3:0|0:0,0:0:0:0:
46,305,60193,2,0,L|124:312,1,78.7500030040742,2|0,0:0|0:0,0:0:0:0:
80,230,60407,1,8,3:2:0:0:
92,232,60514,2,0,L|170:239,2,78.7500030040742,2|0|0,0:0|0:0|0:0,0:0:0:0:
381,0,60835,6,0,P|434:42|432:106,1,118.125004506111,2|0,1:1|0:0,0:0:0:0:
355,80,61050,2,0,P|346:147|289:177,1,118.125004506111,2|0,1:1|0:0,0:0:0:0:
131,0,61264,6,0,P|78:42|80:106,1,118.125004506111,10|0,1:1|0:0,0:0:0:0:
157,80,61479,2,0,P|166:147|223:177,1,118.125004506111,10|0,1:1|0:0,0:0:0:0:
250,54,61693,6,0,B|276:2|276:2|252:170|252:170|257:175|257:175|236:335|236:335|284:218,1,472.500018024445,2|0,3:2|0:0,0:0:0:0:
416,191,62121,1,8,3:2:0:0:
426,185,62228,2,0,P|464:185|504:217,2,78.7500030040742,2|0|0,0:0|0:0|0:0,0:0:0:0:
512,305,62550,2,0,P|407:345|363:228,1,236.250009012223,2|0,3:2|0:0,0:0:0:0:
436,269,62978,6,0,B|325:286|325:286|319:293|319:293|226:308|226:308|217:303|217:303|119:318,1,315.000012016297,10|0,3:1|0:0,0:0:0:0:
80,136,63407,6,0,L|87:55,1,78.7500030040742,0|0,3:0|0:0,0:0:0:0:
7,27,63621,2,0,L|0:105,1,78.7500030040742,2|0,0:0|0:0,0:0:0:0:
158,178,63835,1,8,3:2:0:0:
159,166,63943,2,0,L|166:85,2,78.7500030040742,2|0|0,0:0|0:0|0:0,0:0:0:0:
448,133,64264,6,0,B|485:90|485:90|462:33,1,118.125004506111,2|0,1:1|0:0,0:0:0:0:
338,16,64478,2,0,B|303:61|303:61|326:118,1,118.125004506111,2|0,1:1|0:0,0:0:0:0:
419,285,64693,6,0,B|442:342|442:342|405:385,1,118.125004506111,10|0,1:1|0:0,0:0:0:0:
322,375,64907,2,0,B|299:318|299:318|334:273,1,118.125004506111,10|0,1:1|0:0,0:0:0:0:
495,207,65121,6,0,B|419:200|419:200|413:204|413:204|381:202|381:202|375:196|375:196|342:193|342:193|336:198|336:198|303:195|303:195|296:189|296:189|251:185|251:185|245:190|245:190|209:187|209:187|205:181|205:181|150:177|150:177|144:181|144:181|109:178|109:178|103:171|103:171|40:166,1,472.500018024445,2|0,3:2|0:0,0:0:0:0:
1,70,65550,1,8,3:2:0:0:
5,59,65657,2,0,B|34:34|34:34|90:42,2,78.7500030040742,2|0|0,0:0|0:0|0:0,0:0:0:0:
165,87,65978,6,0,L|142:352,1,236.250009012223,2|0,3:2|0:0,0:0:0:0:
81,384,66407,6,0,P|80:265|223:354,1,315.000012016297,10|0,3:1|0:0,0:0:0:0:
495,207,66835,6,0,P|441:226|422:273,1,78.7500030040742,0|0,3:0|0:0,0:0:0:0:
365,206,67050,2,0,P|354:262|385:302,1,78.7500030040742,2|0,0:0|0:0,0:0:0:0:
508,371,67264,1,8,3:2:0:0:
506,359,67371,2,0,L|493:270,2,78.7500030040742,2|0|0,0:0|0:0|0:0,0:0:0:0:
292,164,67693,6,0,B|337:125|337:125|400:131,1,118.125004506111,2|0,1:1|0:0,0:0:0:0:
496,87,67907,2,0,B|457:41|457:41|395:36,1,118.125004506111,2|0,1:1|0:0,0:0:0:0:
112,36,68121,6,0,B|54:41|54:41|16:87,1,118.125004506111,10|0,1:1|0:0,0:0:0:0:
115,130,68335,2,0,B|174:125|174:125|220:164,1,118.125004506111,10|0,1:1|0:0,0:0:0:0:
180,259,68550,6,0,B|185:323|146:295|105:370|105:370|202:28,1,472.500018024445,2|0,3:2|0:0,0:0:0:0:
286,2,68978,1,8,3:2:0:0:
284,14,69085,2,0,L|260:109,2,78.7500030040742,2|0|0,0:0|0:0|0:0,0:0:0:0:
292,164,69407,2,0,P|361:232|504:162,1,236.250009012223,2|0,3:2|0:0,0:0:0:0:
427,44,69835,6,0,B|394:190|394:190|377:204|377:204|337:367,1,315.000012016297,8|0,3:2|0:0,0:0:0:0:
162,344,70264,5,8,0:0:0:0:
114,344,70371,1,8,0:0:0:0:
67,344,70478,1,8,0:0:0:0:
20,344,70585,1,8,0:0:0:0:
0,275,70693,5,8,0:0:0:0:
48,275,70800,1,8,0:0:0:0:
95,275,70907,1,8,0:0:0:0:
142,275,71014,1,8,0:0:0:0:
149,202,71121,6,0,L|130:202,3,17.5,8|0|0|8,0:3|0:0|0:0|0:3,0:0:0:0:
216,241,71336,1,12,0:3:0:0:
283,202,71443,1,12,0:3:0:0:
350,241,71550,2,0,L|394:237,1,39.375,8|0,3:2|0:0,0:0:0:0:
444,7,71978,6,0,P|475:16|497:39,1,65.625,6|0,1:2|0:0,0:0:0:0:
498,120,72193,2,0,P|474:142|442:149,1,65.625,2|0,0:0|0:0,0:0:0:0:
378,117,72407,1,8,3:2:0:0:
373,109,72514,2,0,P|365:77|374:46,2,65.625,2|0|0,0:0|0:0|0:0,0:0:0:0:
68,7,72835,6,0,P|36:16|14:39,1,65.625,2|0,3:2|0:0,0:0:0:0:
14,120,73050,2,0,P|37:142|69:149,1,65.625
134,117,73264,1,8,3:2:0:0:
139,109,73371,2,0,P|146:77|137:46,2,65.625
267,0,73693,6,0,L|259:83,1,65.625,0|0,3:0|0:0,0:0:0:0:
245,150,73907,2,0,L|252:233,1,65.625,2|0,0:0|0:0,0:0:0:0:
256,369,74121,1,8,3:2:0:0:
317,320,74228,2,0,P|237:293|194:320,1,131.25,2|0,0:0|0:0,0:0:0:0:
43,384,74550,6,0,L|34:286,1,91.8750008761883,2|0,1:1|0:0,0:0:0:0:
175,217,74764,2,0,L|183:308,1,91.8750008761883,2|0,1:1|0:0,0:0:0:0:
477,384,74978,6,0,L|485:286,1,91.8750008761883,10|0,1:1|0:0,0:0:0:0:
336,222,75192,2,0,L|327:313,1,91.8750008761883,10|0,1:1|0:0,0:0:0:0:
456,114,75407,6,0,P|420:98|385:105,1,65.625,2|0,3:2|0:0,0:0:0:0:
138,134,75621,2,0,P|105:135|76:121,1,65.625,2|0,0:0|0:0,0:0:0:0:
267,150,75835,6,0,L|259:233,1,65.625,8|2,3:2|0:0,0:0:0:0:
242,67,76050,2,0,L|247:1,1,65.625
369,175,76264,6,0,L|363:240,1,65.625,2|0,3:2|0:0,0:0:0:0:
355,332,76478,1,0,0:0:0:0:
355,342,76585,1,0,0:0:0:0:
508,299,76693,2,0,L|443:289,1,65.625,10|0,3:2|0:0,0:0:0:0:
243,219,76907,2,0,L|178:228,1,65.625
256,383,77121,5,0,3:0:0:0:
260,374,77228,1,0,0:0:0:0:
251,360,77335,5,2,0:0:0:0:
255,351,77442,1,0,0:0:0:0:
319,269,77550,6,0,P|365:253|389:257,1,65.625,8|2,3:2|0:0,0:0:0:0:
200,267,77764,2,0,P|154:251|130:255,1,65.625
398,340,77978,6,0,B|444:345|444:345|470:308,1,91.8750008761883,2|0,1:1|0:0,0:0:0:0:
425,147,78193,2,0,B|379:144|379:144|352:182,1,91.8750008761883,2|0,1:1|0:0,0:0:0:0:
114,340,78407,6,0,B|68:345|68:345|42:308,1,91.8750008761883,10|0,1:1|0:0,0:0:0:0:
87,147,78622,2,0,B|133:144|133:144|160:182,1,91.8750008761883,10|0,1:1|0:0,0:0:0:0:
276,382,78835,6,0,B|250:57|250:57|250:95|226:140,1,393.75,2|0,3:2|0:0,0:0:0:0:
1,132,79264,1,8,3:2:0:0:
1,122,79371,2,0,P|36:74|126:74,1,131.25,2|0,0:0|0:0,0:0:0:0:
193,269,79693,6,0,L|44:256,1,131.25,2|0,3:2|0:0,0:0:0:0:
49,185,80014,1,0,0:0:0:0:
59,185,80121,2,0,L|189:196,1,131.25,8|0,3:2|0:0,0:0:0:0:
462,372,80550,6,0,B|477:340|477:340|462:296,1,65.625,0|0,3:0|0:0,0:0:0:0:
388,253,80764,1,2,0:0:0:0:
382,261,80871,1,0,0:0:0:0:
276,382,80978,5,8,3:2:0:0:
353,362,81086,2,0,P|310:307|227:320,1,131.25,2|0,0:0|0:0,0:0:0:0:
70,384,81407,6,0,P|25:345|23:303,1,91.8750008761883,2|0,1:1|0:0,0:0:0:0:
203,113,81621,2,0,P|211:157|189:196,1,91.8750008761883,2|0,1:1|0:0,0:0:0:0:
442,384,81835,6,0,P|487:345|489:303,1,91.8750008761883,10|0,1:1|0:0,0:0:0:0:
309,113,82049,2,0,P|300:157|322:196,1,91.8750008761883,10|0,1:1|0:0,0:0:0:0:
464,27,82264,6,0,B|388:33|388:33|511:220|511:220|417:229,1,393.75,2|0,3:2|0:0,0:0:0:0:
134,142,82693,6,0,L|128:76,1,65.625,8|2,3:2|0:0,0:0:0:0:
197,47,82907,2,0,L|203:113,1,65.625
78,275,83121,6,0,L|83:209,1,65.625,2|0,3:2|0:0,0:0:0:0:
14,180,83335,2,0,L|9:246,1,65.625
256,384,83550,5,8,3:2:0:0:
368,302,83978,5,10,0:0:0:0:
340,274,84085,1,8,0:0:0:0:
312,246,84192,1,8,0:0:0:0:
284,218,84299,1,8,0:0:0:0:
255,190,84407,5,10,0:0:0:0:
228,217,84514,1,8,0:0:0:0:
200,245,84621,1,8,0:0:0:0:
172,273,84728,1,8,0:0:0:0:
144,301,84835,5,10,0:3:0:0:
162,234,84943,5,8,0:3:0:0:
144,167,85050,21,4,0:3:0:0:
162,100,85157,37,4,0:3:0:0:
91,117,85264,21,8,3:2:0:0:
331,23,85693,22,0,B|371:15|371:15|413:44,1,78.7500030040742,6|2,1:2|0:1,0:0:0:0:
350,227,85908,2,0,B|323:196|323:196|327:145,1,78.7500030040742,2|2,0:1|0:1,0:0:0:0:
512,111,86122,2,0,B|498:149|498:149|452:171,1,78.7500030040742,10|0,3:1|0:0,0:0:0:0:
256,31,86336,5,2,0:1:0:0:
246,25,86443,1,2,0:1:0:0:
189,74,86550,5,2,3:2:0:0:
177,76,86657,1,2,0:1:0:0:
171,150,86765,5,2,0:1:0:0:
164,160,86872,1,2,0:1:0:0:
212,216,86979,5,10,0:1:0:0:
218,206,87086,1,0,0:0:0:0:
224,196,87193,1,2,0:1:0:0:
230,186,87300,1,0,0:0:0:0:
296,143,87408,6,0,P|309:162|303:187,1,39.3750015020371,2|0,3:2|0:0,0:0:0:0:
346,165,87515,2,0,P|341:188|320:201,1,39.3750015020371
365,215,87622,2,0,P|345:228|321:222,1,39.3750015020371,2|0,0:0|0:0,0:0:0:0:
343,263,87729,2,0,P|319:258|306:237,1,39.3750015020371
293,281,87836,2,0,P|279:261|285:237,1,39.3750015020371,10|0,3:2|0:0,0:0:0:0:
244,258,87943,2,0,P|248:234|269:221,1,39.3750015020371,2|0,0:0|0:0,0:0:0:0:
301,220,88050,5,0,0:0:0:0:
318,297,88158,1,0,0:0:0:0:
269,359,88265,1,2,3:2:0:0:
190,359,88372,1,0,0:0:0:0:
141,297,88479,1,0,0:0:0:0:
62,297,88586,1,2,0:0:0:0:
13,359,88693,5,10,3:2:0:0:
24,355,88800,1,0,0:0:0:0:
102,368,88908,5,2,0:0:0:0:
113,372,89015,1,0,0:0:0:0:
211,266,89122,6,0,P|183:232|143:221,1,78.7500030040742,2|2,3:2|0:1,0:0:0:0:
107,152,89336,2,0,P|63:159|34:188,1,78.7500030040742,2|2,0:1|0:1,0:0:0:0:
301,266,89550,6,0,P|329:232|369:221,1,78.7500030040742,10|0,3:1|0:0,0:0:0:0:
405,152,89764,2,0,P|448:159|477:188,1,78.7500030040742,2|2,0:1|0:1,0:0:0:0:
255,190,89979,5,2,3:2:0:0:
219,122,90086,2,0,P|257:112|301:129,1,78.7500030040742,2|2,0:1|0:1,0:0:0:0:
255,205,90300,5,2,0:1:0:0:
218,103,90407,2,0,P|256:93|300:110,1,78.7500030040742,10|0,0:1|0:0,0:0:0:0:
292,279,90622,2,0,P|255:291|218:281,1,78.7500030040742,2|0,0:1|0:0,0:0:0:0:
26,104,90836,6,0,L|18:14,1,78.7500030040742,2|0,3:2|0:0,0:0:0:0:
100,73,91050,2,0,L|106:151,1,78.7500030040742,2|0,0:0|0:0,0:0:0:0:
486,104,91265,6,0,L|493:14,1,78.7500030040742,10|2,3:2|0:0,0:0:0:0:
412,73,91479,2,0,L|405:151,1,78.7500030040742
453,382,91693,6,0,P|491:362|510:324,1,78.7500030040742,2|0,3:2|0:0,0:0:0:0:
492,257,91908,1,0,0:0:0:0:
434,310,92015,2,0,L|385:306,1,39.3750015020371,2|0,0:0|0:0,0:0:0:0:
335,228,92122,6,0,L|415:234,1,78.7500030040742,10|0,3:2|0:0,0:0:0:0:
372,380,92336,2,0,L|293:373,1,78.7500030040742,2|0,0:0|0:0,0:0:0:0:
0,247,92550,6,0,P|41:222|94:234,1,78.7500030040742,2|2,3:2|0:1,0:0:0:0:
127,384,92765,2,0,P|84:360|68:309,1,78.7500030040742,2|2,0:1|0:1,0:0:0:0:
185,213,92979,2,0,P|186:261|149:300,1,78.7500030040742,10|0,3:1|0:0,0:0:0:0:
94,142,93193,5,2,0:1:0:0:
95,129,93300,1,2,0:1:0:0:
174,124,93408,5,2,3:2:0:0:
183,116,93515,1,2,0:1:0:0:
243,167,93622,5,2,0:1:0:0:
255,168,93729,1,2,0:1:0:0:
261,246,93836,5,10,0:1:0:0:
249,244,93943,1,0,0:0:0:0:
237,242,94050,1,2,0:1:0:0:
225,240,94158,1,0,0:0:0:0:
155,217,94265,6,0,L|147:179,1,39.3750015020371,2|0,3:2|0:0,0:0:0:0:
108,171,94372,2,0,L|129:138,1,39.3750015020371
107,105,94479,2,0,L|145:97,1,39.3750015020371,2|0,0:0|0:0,0:0:0:0:
152,57,94586,2,0,L|184:78,1,39.3750015020371
217,54,94693,2,0,L|225:92,1,39.3750015020371,10|0,3:2|0:0,0:0:0:0:
265,97,94800,2,0,L|243:129,1,39.3750015020371,2|0,0:0|0:0,0:0:0:0:
284,204,94908,5,0,0:0:0:0:
354,239,95015,1,0,0:0:0:0:
431,225,95122,1,2,3:2:0:0:
480,163,95229,1,0,0:0:0:0:
478,84,95336,1,0,0:0:0:0:
429,22,95443,1,2,0:0:0:0:
350,24,95550,5,10,3:2:0:0:
356,34,95657,1,0,0:0:0:0:
400,95,95764,5,2,0:0:0:0:
394,105,95871,1,0,0:0:0:0:
339,161,95979,6,0,L|356:252,1,78.7500030040742,2|2,3:2|0:1,0:0:0:0:
445,302,96193,2,0,L|430:224,1,78.7500030040742,2|2,0:1|0:1,0:0:0:0:
173,161,96408,6,0,L|156:252,1,78.7500030040742,10|0,3:1|0:0,0:0:0:0:
67,302,96622,2,0,L|81:224,1,78.7500030040742,2|2,0:1|0:1,0:0:0:0:
256,12,96836,5,2,3:2:0:0:
292,83,96943,2,0,B|254:97|254:97|202:74,1,78.7500030040742,2|2,0:1|0:1,0:0:0:0:
256,20,97158,5,2,0:1:0:0:
292,91,97265,2,0,B|254:105|254:105|202:82,1,78.7500030040742,10|0,0:1|0:0,0:0:0:0:
117,19,97479,2,0,B|79:5|79:5|27:28,1,78.7500030040742,2|0,0:1|0:0,0:0:0:0:
57,193,97693,5,2,3:2:0:0:
114,193,97800,1,0,0:0:0:0:
171,193,97907,1,2,0:0:0:0:
228,193,98014,1,8,0:0:0:0:
207,217,98121,5,10,0:2:0:0:
164,217,98228,1,0,0:0:0:0:
120,217,98335,1,10,0:0:0:0:
78,217,98443,1,2,0:0:0:0:
93,238,98550,5,10,0:2:0:0:
125,238,98657,1,8,0:0:0:0:
158,238,98764,1,8,0:0:0:0:
190,238,98871,1,8,0:0:0:0:
144,316,98978,5,14,0:2:0:0:
449,384,99408,6,0,L|513:319,1,78.7500030040742,6|2,1:2|0:1,0:0:0:0:
304,280,99622,2,0,L|327:367,1,78.7500030040742,2|2,0:1|0:1,0:0:0:0:
469,217,99836,2,0,L|381:193,1,78.7500030040742,10|0,3:1|0:0,0:0:0:0:
282,128,100050,5,2,0:1:0:0:
291,120,100157,1,2,0:1:0:0:
369,129,100264,5,2,3:2:0:0:
378,121,100371,1,2,0:1:0:0:
456,130,100478,5,2,0:1:0:0:
465,122,100585,1,2,0:1:0:0:
424,54,100693,5,10,0:1:0:0:
419,43,100800,1,0,0:0:0:0:
414,32,100907,1,2,0:1:0:0:
409,21,101014,1,0,0:0:0:0:
487,12,101122,6,0,L|464:50,1,39.3750015020371,2|0,3:2|0:0,0:0:0:0:
475,85,101229,2,0,L|431:96,1,39.3750015020371
414,128,101336,2,0,L|375:105,1,39.3750015020371,2|0,0:0|0:0,0:0:0:0:
356,140,101443,2,0,L|318:151,1,39.3750015020371
325,189,101550,2,0,L|306:224,1,39.3750015020371,10|0,3:2|0:0,0:0:0:0:
338,245,101658,2,0,L|348:283,1,39.3750015020371,2|0,0:0|0:0,0:0:0:0:
385,275,101765,5,0,0:0:0:0:
412,201,101872,1,0,0:0:0:0:
370,134,101979,1,2,3:2:0:0:
291,125,102086,1,0,0:0:0:0:
236,181,102193,1,0,0:0:0:0:
161,206,102301,1,2,0:0:0:0:
93,165,102408,5,10,3:2:0:0:
98,154,102515,1,0,0:0:0:0:
160,106,102622,5,2,0:0:0:0:
155,95,102729,1,0,0:0:0:0:
77,84,102836,6,0,L|-7:71,1,78.7500030040742,2|2,3:2|0:1,0:0:0:0:
148,0,103050,2,0,L|226:13,1,78.7500030040742,2|2,0:1|0:1,0:0:0:0:
236,259,103265,2,0,L|236:180,1,78.7500030040742,10|0,3:1|0:0,0:0:0:0:
391,20,103479,5,2,0:1:0:0:
402,18,103586,1,2,0:1:0:0:
448,82,103693,5,2,3:2:0:0:
458,89,103800,1,2,0:1:0:0:
445,167,103908,5,2,0:1:0:0:
447,179,104015,1,2,0:1:0:0:
382,223,104122,5,10,0:1:0:0:
377,212,104229,1,0,0:0:0:0:
372,201,104336,1,2,0:1:0:0:
367,190,104443,1,0,0:0:0:0:
327,122,104550,6,0,P|328:102|341:86,1,39.3750015020371,2|0,3:2|0:0,0:0:0:0:
300,96,104658,2,0,P|286:81|284:60,1,39.3750015020371
262,96,104765,2,0,P|242:94|226:82,1,39.3750015020371,2|0,0:0|0:0,0:0:0:0:
235,122,104872,2,0,P|220:135|199:137,1,39.3750015020371
234,159,104979,2,0,P|233:178|220:194,1,39.3750015020371,10|0,3:2|0:0,0:0:0:0:
259,185,105086,2,0,P|272:199|274:220,1,39.3750015020371,2|0,0:0|0:0,0:0:0:0:
295,185,105193,5,0,0:0:0:0:
315,108,105300,1,0,0:0:0:0:
281,37,105408,1,2,3:2:0:0:
210,3,105515,1,0,0:0:0:0:
134,24,105622,1,0,0:0:0:0:
89,88,105729,1,2,0:0:0:0:
95,167,105836,6,0,P|112:157|140:156,1,39.3750015020371,10|0,3:2|0:0,0:0:0:0:
101,177,105943,2,0,P|120:181|140:201,1,39.3750015020371
72,257,106050,6,0,P|55:247|27:246,1,39.3750015020371,2|0,0:0|0:0,0:0:0:0:
66,267,106157,2,0,P|46:271|26:291,1,39.3750015020371
222,379,106265,6,0,P|234:335|213:292,1,78.7500030040742,2|2,3:2|0:1,0:0:0:0:
16,304,106479,2,0,P|4:341|15:379,1,78.7500030040742,2|2,0:1|0:1,0:0:0:0:
159,341,106693,2,0,L|53:341,1,78.7500030040742,10|0,3:1|0:0,0:0:0:0:
155,265,106908,5,2,0:1:0:0:
163,256,107015,1,2,0:1:0:0:
238,232,107122,5,2,3:2:0:0:
246,223,107229,1,2,0:1:0:0:
321,199,107336,5,2,0:1:0:0:
329,190,107443,1,2,0:1:0:0:
404,166,107551,5,10,0:1:0:0:
412,175,107658,1,0,0:0:0:0:
420,184,107765,1,2,0:1:0:0:
428,193,107872,1,0,0:0:0:0:
498,218,107979,6,0,L|479:253,1,39.3750015020371,2|0,3:2|0:0,0:0:0:0:
493,290,108086,2,0,L|458:309,1,39.3750015020371
452,348,108193,2,0,L|412:348,1,39.3750015020371,2|0,0:0|0:0,0:0:0:0:
387,377,108300,2,0,L|352:357,1,39.3750015020371
316,369,108408,2,0,L|296:334,1,39.3750015020371,10|0,3:2|0:0,0:0:0:0:
258,326,108515,2,0,L|258:286,1,39.3750015020371,2|0,0:0|0:0,0:0:0:0:
229,259,108622,5,0,0:0:0:0:
304,282,108729,1,0,0:0:0:0:
375,248,108836,1,2,3:2:0:0:
392,171,108943,1,0,0:0:0:0:
352,103,109050,1,0,0:0:0:0:
273,93,109158,1,2,0:0:0:0:
213,144,109265,5,10,3:2:0:0:
219,154,109372,1,0,0:0:0:0:
141,142,109479,5,2,0:0:0:0:
141,153,109586,1,0,0:0:0:0:
79,104,109693,6,0,L|164:96,1,78.7500030040742,2|2,3:2|0:1,0:0:0:0:
214,15,109908,2,0,L|135:21,1,78.7500030040742,2|2,0:1|0:1,0:0:0:0:
27,185,110122,2,0,L|112:177,1,78.7500030040742,10|0,3:1|0:0,0:0:0:0:
23,23,110336,5,2,0:1:0:0:
13,29,110443,1,2,0:1:0:0:
20,107,110550,5,2,3:2:0:0:
10,113,110657,1,2,0:1:0:0:
27,185,110765,5,2,0:1:0:0:
17,191,110872,1,2,0:1:0:0:
34,263,110979,5,10,0:1:0:0:
46,261,111086,1,0,0:0:0:0:
58,259,111193,1,2,0:1:0:0:
70,257,111301,1,0,0:0:0:0:
142,289,111408,5,2,3:2:0:0:
134,307,111515,1,0,0:0:0:0:
119,320,111622,1,2,0:0:0:0:
100,325,111729,1,8,0:0:0:0:
37,362,111835,5,10,0:2:0:0:
25,346,111942,1,0,0:0:0:0:
21,326,112049,1,10,0:0:0:0:
26,308,112156,1,2,0:0:0:0:
24,234,112264,5,10,0:2:0:0:
44,232,112371,1,8,0:0:0:0:
63,238,112478,1,8,0:0:0:0:
76,251,112585,1,8,0:0:0:0:
142,289,112693,6,0,L|180:265,1,39.3750015020371,10|0,0:2|0:0,0:0:0:0:
235,311,112800,6,0,L|213:277,1,39.3750015020371,8|0,0:0|0:0,0:0:0:0:
257,218,112908,6,0,L|218:241,1,39.3750015020371,10|0,0:0|0:0,0:0:0:0:
164,195,113015,6,0,L|183:228,1,39.3750015020371,8|0,0:0|0:0,0:0:0:0:
304,282,113122,5,4,3:2:0:0:
256,192,113229,12,0,116550,0:0:0:0:
