osu file format v14

[General]
AudioFilename: audio.ogg
AudioLeadIn: 0
PreviewTime: 83979
Countdown: 0
SampleSet: Soft
StackLeniency: 0.3
Mode: 0
LetterboxInBreaks: 0
EpilepsyWarning: 1
WidescreenStoryboard: 1

[Editor]
Bookmarks: 10264,17121,23978,30835,37693,44550,51407,58264,65121,71978,78835,85693,92550,99407,106264,113121
DistanceSpacing: 1.62
BeatDivisor: 4
GridSize: 32
TimelineZoom: 1.9

[Metadata]
Title:MURDER PLOT
TitleUnicode:MURDER PLOT
Artist:KORDHELL
ArtistUnicode:KORDHELL
Creator:Sayuka
Version:DABBE & SAYUKA'S HARD
Source:
Tags:tiktok electronic instrumental hip hop hip-hop phonk english julie daycore ryxliee dabbe_01 stompy_ amats kord hell
BeatmapID:4173592
BeatmapSetID:1972480

[Difficulty]
HPDrainRate:3
CircleSize:3.2
OverallDifficulty:7
ApproachRate:8
SliderMultiplier:1.4
SliderTickRate:1

[Events]
//Background and Video events
0,0,"kordhell.jpg",0,0
//Break Periods
//Storyboard Layer 0 (Background)
//Storyboard Layer 1 (Fail)
//Storyboard Layer 2 (Pass)
//Storyboard Layer 3 (Foreground)
Sprite,Foreground,Centre,"sb/highlight.png",0,0 S,2,3407,3861,0.5,0.1 F,2,3407,3861,1,0 P,0,3407,3861,A C,0,3407,,167,167,167 M,0,3407,3460,510,129,494.9679,124.4822 M,0,3460,3514,494.9679,124.4822,479.4494,122.4018 M,0,3514,3567,479.4494,122.4018,463.8104,123.1794 M,0,3567,3621,463.8104,123.1794,448.5724,126.7897
Sprite,Foreground,Centre,"sb/highlight.png",386,197 S,2,3835,4075,0.5,0.1 F,2,3835,4075,1,0 P,0,3835,4075,A C,0,3835,,167,167,167
Sprite,Foreground,Centre,"sb/highlight.png",0,0 S,2,4264,4718,0.5,0.1 F,2,4264,4718,1,0 P,0,4264,4718,A C,0,4264,,111,111,111 M,0,4264,4317,235,82,235.8278,97.72823 M,0,4317,4371,235.8278,97.72823,236.6556,113.4565 M,0,4371,4424,236.6556,113.4565,237.4834,129.1847 M,0,4424,4478,237.4834,129.1847,238.3112,144.9129
Sprite,Foreground,Centre,"sb/highlight.png",245,239 S,2,4693,4933,0.5,0.1 F,2,4693,4933,1,0 P,0,4693,4933,A C,0,4693,,111,111,111
Sprite,Foreground,Centre,"sb/highlight.png",0,0 S,2,5121,5789,0.5,0.1 F,2,5121,5789,1,0 P,0,5121,5789,A C,0,5121,,225,91,236 M,0,5121,5174,134,391,118.4944,388.2494 M,0,5174,5228,118.4944,388.2494,102.9105,385.9955 M,0,5228,5281,102.9105,385.9955,87.25355,384.3219 M,0,5281,5335,87.25355,384.3219,71.54697,383.1837 M,0,5335,5388,71.54697,383.1837,87.25356,384.3219 M,0,5388,5442,87.25356,384.3219,102.9105,385.9955 M,0,5442,5495,102.9105,385.9955,118.4944,388.2494 M,0,5495,5549,118.4944,388.2494,134,391
Sprite,Foreground,Centre,"sb/highlight.png",215,439 S,2,5764,6004,0.5,0.1 F,2,5764,6004,1,0 P,0,5764,6004,A C,0,5764,,225,91,236
Sprite,Foreground,Centre,"sb/highlight.png",0,0 S,2,5978,6646,0.5,0.1 F,2,5978,6646,1,0 P,0,5978,6646,A C,0,5978,,225,91,236 M,0,5978,6031,295,389,310.5056,386.2494 M,0,6031,6085,310.5056,386.2494,326.0895,383.9955 M,0,6085,6138,326.0895,383.9955,341.7465,382.3219 M,0,6138,6192,341.7465,382.3219,357.453,381.1837 M,0,6192,6245,357.453,381.1837,341.7465,382.3219 M,0,6245,6299,341.7465,382.3219,326.0895,383.9955 M,0,6299,6352,326.0895,383.9955,310.5056,386.2494 M,0,6352,6406,310.5056,386.2494,295,389
Sprite,Foreground,Centre,"sb/highlight.png",0,0 S,2,6835,7289,0.5,0.1 F,2,6835,7289,1,0 P,0,6835,7289,A C,0,6835,,188,46,185 M,0,6835,6888,152,264,153.2461,248.2994 M,0,6888,6942,153.2461,248.2994,154.4922,232.5987 M,0,6942,6995,154.4922,232.5987,155.7383,216.8981 M,0,6995,7049,155.7383,216.8981,156.9843,201.1975
Sprite,Foreground,Centre,"sb/highlight.png",0,0 S,2,7264,7718,0.5,0.1 F,2,7264,7718,1,0 P,0,7264,7718,A C,0,7264,,188,46,185 M,0,7264,7317,250,176,248.4829,191.6768 M,0,7317,7371,248.4829,191.6768,246.9658,207.3535 M,0,7371,7424,246.9658,207.3535,245.4487,223.0303 M,0,7424,7478,245.4487,223.0303,244,238
Sprite,Foreground,Centre,"sb/highlight.png",315,301 S,2,7693,7933,0.5,0.1 F,2,7693,7933,1,0 P,0,7693,7933,A C,0,7693,,188,46,185
Sprite,Foreground,Centre,"sb/highlight.png",0,0 S,2,7907,8361,0.5,0.1 F,2,7907,8361,1,0 P,0,7907,8361,A C,0,7907,,188,46,185 M,0,7907,7960,395,251,395.8278,235.2718 M,0,7960,8014,395.8278,235.2718,396.6556,219.5435 M,0,8014,8067,396.6556,219.5435,395.8278,235.2718 M,0,8067,8121,395.8278,235.2718,395,251
Sprite,Foreground,Centre,"sb/highlight.png",458,320 S,2,8335,8575,0.5,0.1 F,2,8335,8575,1,0 P,0,8335,8575,A C,0,8335,,188,46,185
Sprite,Foreground,Centre,"sb/highlight.png",0,0 S,2,8550,9004,0.5,0.1 F,2,8550,9004,1,0 P,0,8550,9004,A C,0,8550,,188,46,185 M,0,8550,8603,389,385,373.5311,382.0379 M,0,8603,8657,373.5311,382.0379,358.0621,379.0757 M,0,8657,8710,358.0621,379.0757,373.5311,382.0379 M,0,8710,8764,373.5311,382.0379,389,385
Sprite,Foreground,Centre,"sb/highlight.png",289,319 S,2,8978,9218,0.5,0.1 F,2,8978,9218,1,0 P,0,8978,9218,A C,0,8978,,188,46,185
Sprite,Foreground,Centre,"sb/highlight.png",225,389 S,2,9193,9433,0.5,0.1 F,2,9193,9433,1,0 P,0,9193,9433,A C,0,9193,,188,46,185
Sprite,Foreground,Centre,"sb/highlight.png",0,0 S,2,9407,10075,0.5,0.1 F,2,9407,10075,1,0 P,0,9407,10075,A C,0,9407,,188,46,185 M,0,9407,9460,136,356,120.6353,352.5375 M,0,9460,9514,120.6353,352.5375,105.2706,349.0751 M,0,9514,9567,105.2706,349.0751,89.90591,345.6126 M,0,9567,9621,89.90591,345.6126,74.54123,342.1501 M,0,9621,9674,74.54123,342.1501,89.90592,345.6126 M,0,9674,9728,89.90592,345.6126,105.2706,349.0751 M,0,9728,9782,105.2706,349.0751,120.6353,352.5375 M,0,9782,9835,120.6353,352.5375,136,356
Sprite,Foreground,Centre,"sb/highlight.png",206,216 S,2,10264,10504,0.5,0.1 F,2,10264,10504,1,0 P,0,10264,10504,A C,0,10264,,167,167,167
Sprite,Foreground,Centre,"sb/highlight.png",189,133 S,2,10478,10718,0.5,0.1 F,2,10478,10718,1,0 P,0,10478,10718,A C,0,10478,,167,167,167
Sprite,Foreground,Centre,"sb/highlight.png",107,110 S,2,10693,10933,0.5,0.1 F,2,10693,10933,1,0 P,0,10693,10933,A C,0,10693,,167,167,167
Sprite,Foreground,Centre,"sb/highlight.png",131,276 S,2,11121,11361,0.5,0.1 F,2,11121,11361,1,0 P,0,11121,11361,A C,0,11121,,111,111,111
Sprite,Foreground,Centre,"sb/highlight.png",209,306 S,2,11335,11575,0.5,0.1 F,2,11335,11575,1,0 P,0,11335,11575,A C,0,11335,,111,111,111
Sprite,Foreground,Centre,"sb/highlight.png",283,265 S,2,11550,11790,0.5,0.1 F,2,11550,11790,1,0 P,0,11550,11790,A C,0,11550,,111,111,111
Sprite,Foreground,Centre,"sb/highlight.png",0,0 S,2,11978,12432,0.5,0.1 F,2,11978,12432,1,0 P,0,11978,12432,A C,0,11978,,225,91,236 M,0,11978,12031,348,136,361.0617,134.7122 M,0,12031,12085,361.0617,134.7122,374.1234,133.4245 M,0,12085,12138,374.1234,133.4245,387.185,132.1367 M,0,12138,12192,387.185,132.1367,400.2467,130.8489
Sprite,Foreground,Centre,"sb/highlight.png",434.9936,120.9936 S,2,12300,12540,0.5,0.1 F,2,12300,12540,1,0 P,0,12300,12540,A C,0,12300,,225,91,236
Sprite,Foreground,Centre,"sb/highlight.png",0,0 S,2,12407,12861,0.5,0.1 F,2,12407,12861,1,0 P,0,12407,12861,A C,0,12407,,225,91,236 M,0,12407,12460,439,125,447.2469,135.2105 M,0,12460,12514,447.2469,135.2105,455.4938,145.421 M,0,12514,12567,455.4938,145.421,458.6734,156.8038 M,0,12567,12621,458.6734,156.8038,455.7488,169.5988
Sprite,Foreground,Centre,"sb/highlight.png",387,219 S,2,12835,13075,0.5,0.1 F,2,12835,13075,1,0 P,0,12835,13075,A C,0,12835,,225,91,236
Sprite,Foreground,Centre,"sb/highlight.png",437,287 S,2,13050,13290,0.5,0.1 F,2,13050,13290,1,0 P,0,13050,13290,A C,0,13050,,225,91,236
Sprite,Foreground,Centre,"sb/highlight.png",0,0 S,2,13264,13718,0.5,0.1 F,2,13264,13718,1,0 P,0,13264,13718,A C,0,13264,,225,91,236 M,0,13264,13317,518,261,530.9828,261.5635 M,0,13317,13371,530.9828,261.5635,543.4502,265.0668 M,0,13371,13424,543.4502,265.0668,554.7748,271.2293 M,0,13424,13478,554.7748,271.2293,563.8793,280.4411
Sprite,Foreground,Centre,"sb/highlight.png",0,0 S,2,13693,14254,0.5,0.1 F,2,13693,14254,1,0 P,0,13693,14254,A C,0,13693,,188,46,185 M,0,13693,13746,552,364,543.1733,373.4093 M,0,13746,13800,543.1733,373.4093,532.0096,379.7132 M,0,13800,13853,532.0096,379.7132,543.1733,373.4093 M,0,13853,13907,543.1733,373.4093,552,364 M,0,13907,13960,552,364,543.1733,373.4093 M,0,13960,14014,543.1733,373.4093,532.0096,379.7132
Sprite,Foreground,Centre,"sb/highlight.png",0,0 S,2,14121,14682,0.5,0.1 F,2,14121,14682,1,0 P,0,14121,14682,A C,0,14121,,188,46,185 M,0,14121,14174,490,378,479.0605,371.1508 M,0,14174,14228,479.0605,371.1508,466.6667,367.8667 M,0,14228,14281,466.6667,367.8667,479.0605,371.1508 M,0,14281,14335,479.0605,371.1508,490,378 M,0,14335,14388,490,378,479.0605,371.1508 M,0,14388,14442,479.0605,371.1508,466.6667,367.8667
Sprite,Foreground,Centre,"sb/highlight.png",0,0 S,2,14550,15111,0.5,0.1 F,2,14550,15111,1,0 P,0,14550,15111,A C,0,14550,,188,46,185 M,0,14550,14603,424,366,413.4808,373.5896 M,0,14603,14657,413.4808,373.5896,402,379 M,0,14657,14710,402,379,413.4808,373.5896 M,0,14710,14764,413.4808,373.5896,424,366 M,0,14764,14817,424,366,413.4808,373.5896 M,0,14817,14871,413.4808,373.5896,402,379
Sprite,Foreground,Centre,"sb/highlight.png",0,0 S,2,14978,15539,0.5,0.1 F,2,14978,15539,1,0 P,0,14978,15539,A C,0,14978,,188,46,185 M,0,14978,15031,362,366,349.3166,363.9816 M,0,15031,15085,349.3166,363.9816,336.8103,366.3315 M,0,15085,15138,336.8103,366.3315,349.3166,363.9816 M,0,15138,15192,349.3166,363.9816,362,366 M,0,15192,15245,362,366,349.3166,363.9816 M,0,15245,15299,349.3166,363.9816,336.8103,366.3315
Sprite,Foreground,Centre,"sb/highlight.png",302,391 S,2,15407,15647,0.5,0.1 F,2,15407,15647,1,0 P,0,15407,15647,A C,0,15407,,188,46,185
Sprite,Foreground,Centre,"sb/highlight.png",0,0 S,2,17121,17575,0.5,0.1 F,2,17121,17575,1,0 P,0,17121,17575,A C,0,17121,,167,167,167 M,0,17121,17174,176,391,174.2587,373.5869 M,0,17174,17228,174.2587,373.5869,172.5174,356.1737 M,0,17228,17281,172.5174,356.1737,170.7761,338.7606 M,0,17281,17335,170.7761,338.7606,169.0347,321.3474
Sprite,Foreground,Centre,"sb/highlight.png",214.9936,243.9936 S,2,17550,17790,0.5,0.1 F,2,17550,17790,1,0 P,0,17550,17790,A C,0,17550,,167,167,167
Sprite,Foreground,Centre,"sb/highlight.png",0,0 S,2,17657,18218,0.5,0.1 F,2,17657,18218,1,0 P,0,17657,18218,A C,0,17657,,167,167,167 M,0,17657,17710,219,248,226.0413,231.992 M,0,17710,17764,226.0413,231.992,234.7577,216.8354 M,0,17764,17817,234.7577,216.8354,245.0482,202.7042 M,0,17817,17871,245.0482,202.7042,256.7938,189.7612 M,0,17871,17924,256.7938,189.7612,269.8586,178.1549 M,0,17924,17978,269.8586,178.1549,284.0917,168.0189
Sprite,Foreground,Centre,"sb/highlight.png",0,0 S,2,18407,18861,0.5,0.1 F,2,18407,18861,1,0 P,0,18407,18861,A C,0,18407,,167,167,167 M,0,18407,18460,436,240,436.1086,257.4639 M,0,18460,18514,436.1086,257.4639,440.8957,274.215 M,0,18514,18567,440.8957,274.215,450.9266,287.6978 M,0,18567,18621,450.9266,287.6978,449.8359,270.3261
Sprite,Foreground,Centre,"sb/highlight.png",527,207 S,2,18835,19075,0.5,0.1 F,2,18835,19075,1,0 P,0,18835,19075,A C,0,18835,,111,111,111
Sprite,Foreground,Centre,"sb/highlight.png",0,0 S,2,19050,19504,0.5,0.1 F,2,19050,19504,1,0 P,0,19050,19504,A C,0,19050,,111,111,111 M,0,19050,19103,486,125,468.5319,123.9617 M,0,19103,19157,468.5319,123.9617,451.1025,122.4071 M,0,19157,19210,451.1025,122.4071,433.727,120.3377 M,0,19210,19264,433.727,120.3377,416.4206,117.7551
Sprite,Foreground,Centre,"sb/highlight.png",374,101 S,2,19371,19611,0.5,0.1 F,2,19371,19611,1,0 P,0,19371,19611,A C,0,19371,,111,111,111
Sprite,Foreground,Centre,"sb/highlight.png",256,192 S,2,19693,19933,0.5,0.1 F,2,19693,19933,1,0 P,0,19693,19933,A C,0,19693,,225,91,236
Sprite,Foreground,Centre,"sb/highlight.png",270,281 S,2,19907,20147,0.5,0.1 F,2,19907,20147,1,0 P,0,19907,20147,A C,0,19907,,225,91,236
Sprite,Foreground,Centre,"sb/highlight.png",355,312 S,2,20121,20361,0.5,0.1 F,2,20121,20361,1,0 P,0,20121,20361,A C,0,20121,,225,91,236
Sprite,Foreground,Centre,"sb/highlight.png",341,401 S,2,20335,20575,0.5,0.1 F,2,20335,20575,1,0 P,0,20335,20575,A C,0,20335,,225,91,236
Sprite,Foreground,Centre,"sb/highlight.png",0,0 S,2,20550,21004,0.5,0.1 F,2,20550,21004,1,0 P,0,20550,21004,A C,0,20550,,188,46,185 M,0,20550,20603,432,357,449.4199,355.9383 M,0,20603,20657,449.4199,355.9383,466.6541,358.5853 M,0,20657,20710,466.6541,358.5853,482.9244,364.8153 M,0,20710,20764,482.9244,364.8153,497.4972,374.342
Sprite,Foreground,Centre,"sb/highlight.png",571.9936,423.9936 S,2,20978,21218,0.5,0.1 F,2,20978,21218,1,0 P,0,20978,21218,A C,0,20978,,188,46,185
Sprite,Foreground,Centre,"sb/highlight.png",0,0 S,2,21085,21646,0.5,0.1 F,2,21085,21646,1,0 P,0,21085,21646,A C,0,21085,,188,46,185 M,0,21085,21138,576,428,579.2485,410.8098 M,0,21138,21192,579.2485,410.8098,581.2384,393.4307 M,0,21192,21245,581.2384,393.4307,581.9597,375.9545 M,0,21245,21299,581.9597,375.9545,581.4085,358.4735 M,0,21299,21352,581.4085,358.4735,579.5882,341.08 M,0,21352,21406,579.5882,341.08,576.5993,323.845
Sprite,Foreground,Centre,"sb/highlight.png",0,0 S,2,21835,22289,0.5,0.1 F,2,21835,22289,1,0 P,0,21835,22289,A C,0,21835,,188,46,185 M,0,21835,21888,467,230,481.4965,220.3559 M,0,21888,21942,481.4965,220.3559,491.9855,206.4673 M,0,21942,21995,491.9855,206.4673,497.2914,189.8986 M,0,21995,22049,497.2914,189.8986,497,173
Sprite,Foreground,Centre,"sb/highlight.png",533,80 S,2,22264,22504,0.5,0.1 F,2,22264,22504,1,0 P,0,22264,22504,A C,0,22264,,167,167,167
Sprite,Foreground,Centre,"sb/highlight.png",0,0 S,2,22478,22932,0.5,0.1 F,2,22478,22932,1,0 P,0,22478,22932,A C,0,22478,,167,167,167 M,0,22478,22531,443,96,425.5319,94.96169 M,0,22531,22585,425.5319,94.96169,408.1025,93.40712 M,0,22585,22638,408.1025,93.40712,390.727,91.33766 M,0,22638,22692,390.727,91.33766,373.4206,88.7551
Sprite,Foreground,Centre,"sb/highlight.png",331,72 S,2,22800,23040,0.5,0.1 F,2,22800,23040,1,0 P,0,22800,23040,A C,0,22800,,167,167,167
Sprite,Foreground,Centre,"sb/highlight.png",252,205 S,2,23121,23361,0.5,0.1 F,2,23121,23361,1,0 P,0,23121,23361,A C,0,23121,,111,111,111
Sprite,Foreground,Centre,"sb/highlight.png",346,198 S,2,23335,23575,0.5,0.1 F,2,23335,23575,1,0 P,0,23335,23575,A C,0,23335,,111,111,111
Sprite,Foreground,Centre,"sb/highlight.png",381,284 S,2,23550,23790,0.5,0.1 F,2,23550,23790,1,0 P,0,23550,23790,A C,0,23550,,111,111,111
Sprite,Foreground,Centre,"sb/highlight.png",309,344 S,2,23764,24004,0.5,0.1 F,2,23764,24004,1,0 P,0,23764,24004,A C,0,23764,,111,111,111
Sprite,Foreground,Centre,"sb/highlight.png",0,0 S,2,23978,24432,0.5,0.1 F,2,23978,24432,1,0 P,0,23978,24432,A C,0,23978,,225,91,236 M,0,23978,24031,230,296,214.2012,288.5569 M,0,24031,24085,214.2012,288.5569,197.3159,284.1437 M,0,24085,24138,197.3159,284.1437,179.9177,282.9063 M,0,24138,24192,179.9177,282.9063,162.5969,284.8832
Sprite,Foreground,Centre,"sb/highlight.png",92.9936,332.9936 S,2,24407,24647,0.5,0.1 F,2,24407,24647,1,0 P,0,24407,24647,A C,0,24407,,225,91,236
Sprite,Foreground,Centre,"sb/highlight.png",0,0 S,2,24514,25075,0.5,0.1 F,2,24514,25075,1,0 P,0,24514,25075,A C,0,24514,,225,91,236 M,0,24514,24567,97,337,100.8548,354.0697 M,0,24567,24621,100.8548,354.0697,104.3429,371.2179 M,0,24621,24674,104.3429,371.2179,107.4627,388.4368 M,0,24674,24728,107.4627,388.4368,110.213,405.7185 M,0,24728,24781,110.213,405.7185,112.5922,423.0551 M,0,24781,24835,112.5922,423.0551,114.6238,440.4361
Sprite,Foreground,Centre,"sb/highlight.png",0,0 S,2,25264,25718,0.5,0.1 F,2,25264,25718,1,0 P,0,25264,25718,A C,0,25264,,188,46,185 M,0,25264,25317,310,436,304.3943,419.4245 M,0,25317,25371,304.3943,419.4245,297.4536,403.3714 M,0,25371,25424,297.4536,403.3714,292.1652,387.2073 M,0,25424,25478,292.1652,387.2073,298.6105,371.1629
Sprite,Foreground,Centre,"sb/highlight.png",390,302 S,2,25693,25933,0.5,0.1 F,2,25693,25933,1,0 P,0,25693,25933,A C,0,25693,,167,167,167
Sprite,Foreground,Centre,"sb/highlight.png",0,0 S,2,25907,26361,0.5,0.1 F,2,25907,26361,1,0 P,0,25907,26361,A C,0,25907,,167,167,167 M,0,25907,25960,339,234,338.1037,216.523 M,0,25960,26014,338.1037,216.523,337.2075,199.0459 M,0,26014,26067,337.2075,199.0459,336.3112,181.5689 M,0,26067,26121,336.3112,181.5689,335.415,164.0919
Sprite,Foreground,Centre,"sb/highlight.png",356,127 S,2,26228,26468,0.5,0.1 F,2,26228,26468,1,0 P,0,26228,26468,A C,0,26228,,167,167,167
Sprite,Foreground,Centre,"sb/highlight.png",232,68 S,2,26550,26790,0.5,0.1 F,2,26550,26790,1,0 P,0,26550,26790,A C,0,26550,,111,111,111
Sprite,Foreground,Centre,"sb/highlight.png",171,126 S,2,26764,27004,0.5,0.1 F,2,26764,27004,1,0 P,0,26764,27004,A C,0,26764,,111,111,111
Sprite,Foreground,Centre,"sb/highlight.png",228,187 S,2,26978,27218,0.5,0.1 F,2,26978,27218,1,0 P,0,26978,27218,A C,0,26978,,111,111,111
Sprite,Foreground,Centre,"sb/highlight.png",163,240 S,2,27193,27433,0.5,0.1 F,2,27193,27433,1,0 P,0,27193,27433,A C,0,27193,,111,111,111
Sprite,Foreground,Centre,"sb/highlight.png",0,0 S,2,27407,27861,0.5,0.1 F,2,27407,27861,1,0 P,0,27407,27861,A C,0,27407,,225,91,236 M,0,27407,27460,228,313,245.2744,310.1988 M,0,27460,27514,245.2744,310.1988,262.5487,307.3975 M,0,27514,27567,262.5487,307.3975,279.823,304.5963 M,0,27567,27621,279.823,304.5963,297.0974,301.795
Sprite,Foreground,Centre,"sb/highlight.png",360.9936,226.9936 S,2,27835,28075,0.5,0.1 F,2,27835,28075,1,0 P,0,27835,28075,A C,0,27835,,188,46,185
Sprite,Foreground,Centre,"sb/highlight.png",0,0 S,2,27943,28504,0.5,0.1 F,2,27943,28504,1,0 P,0,27943,28504,A C,0,27943,,188,46,185 M,0,27943,27996,365,231,380.3152,222.7124 M,0,27996,28050,380.3152,222.7124,397.3272,219.1269 M,0,28050,28103,397.3272,219.1269,414.6319,220.5246 M,0,28103,28157,414.6319,220.5246,430.8046,226.778 M,0,28157,28210,430.8046,226.778,444.5165,237.3618 M,0,28210,28264,444.5165,237.3618,454.643,251.3967
Sprite,Foreground,Centre,"sb/highlight.png",0,0 S,2,28693,29147,0.5,0.1 F,2,28693,29147,1,0 P,0,28693,29147,A C,0,28693,,188,46,185 M,0,28693,28746,553,420,535.5962,421.832 M,0,28746,28800,535.5962,421.832,518.1923,423.664 M,0,28800,28853,518.1923,423.664,500.7885,425.4959 M,0,28853,28907,500.7885,425.4959,483.3846,427.3279
Sprite,Foreground,Centre,"sb/highlight.png",0,0 S,2,29121,29575,0.5,0.1 F,2,29121,29575,1,0 P,0,29121,29575,A C,0,29121,,167,167,167 M,0,29121,29174,399,376,389.658,361.316 M,0,29174,29228,389.658,361.316,376.3499,350.148 M,0,29228,29281,376.3499,350.148,360.3207,343.519 M,0,29281,29335,360.3207,343.519,343.0626,342.0301
Sprite,Foreground,Centre,"sb/highlight.png",292.9936,355.9936 S,2,29443,29683,0.5,0.1 F,2,29443,29683,1,0 P,0,29443,29683,A C,0,29443,,167,167,167
Sprite,Foreground,Centre,"sb/highlight.png",0,0 S,2,29550,30004,0.5,0.1 F,2,29550,30004,1,0 P,0,29550,30004,A C,0,29550,,167,167,167 M,0,29550,29603,297,360,285.2875,372.9219 M,0,29603,29657,285.2875,372.9219,270.7787,382.5687 M,0,29657,29710,270.7787,382.5687,254.3622,388.3587 M,0,29710,29764,254.3622,388.3587,237.0411,389.9456
Sprite,Foreground,Centre,"sb/highlight.png",0,0 S,2,29978,30539,0.5,0.1 F,2,29978,30539,1,0 P,0,29978,30539,A C,0,29978,,167,167,167 M,0,29978,30031,149,345,147.484,327.5658 M,0,30031,30085,147.484,327.5658,145.968,310.1316 M,0,30085,30138,145.968,310.1316,147.484,327.5658 M,0,30138,30192,147.484,327.5658,149,345 M,0,30192,30245,149,345,147.484,327.5658 M,0,30245,30299,147.484,327.5658,145.968,310.1316
Sprite,Foreground,Centre,"sb/highlight.png",180,275 S,2,30407,30647,0.5,0.1 F,2,30407,30647,1,0 P,0,30407,30647,A C,0,30407,,167,167,167
Sprite,Foreground,Centre,"sb/highlight.png",0,0 S,2,30835,31289,0.5,0.1 F,2,30835,31289,1,0 P,0,30835,31289,A C,0,30835,,111,111,111 M,0,30835,30888,74,125,91.36108,122.7993 M,0,30888,30942,91.36108,122.7993,108.7222,120.5986 M,0,30942,30995,108.7222,120.5986,126.0832,118.3979 M,0,30995,31049,126.0832,118.3979,143.4443,116.1972
Sprite,Foreground,Centre,"sb/highlight.png",0,0 S,2,31264,31718,0.5,0.1 F,2,31264,31718,1,0 P,0,31264,31718,A C,0,31264,,111,111,111 M,0,31264,31317,224,61,241.4818,60.97589 M,0,31317,31371,241.4818,60.97589,258.7946,63.36655 M,0,31371,31424,258.7946,63.36655,275.6068,68.12495 M,0,31424,31478,275.6068,68.12495,291.6366,75.09082
Sprite,Foreground,Centre,"sb/highlight.png",0,0 S,2,31693,32040,0.5,0.1 F,2,31693,32040,1,0 P,0,31693,32040,A C,0,31693,,111,111,111 M,0,31693,31746,363,153,359.3948,170.1246 M,0,31746,31800,359.3948,170.1246,355.7896,187.2492
Sprite,Foreground,Centre,"sb/highlight.png",347,235 S,2,31907,32147,0.5,0.1 F,2,31907,32147,1,0 P,0,31907,32147,A C,0,31907,,111,111,111
Sprite,Foreground,Centre,"sb/highlight.png",0,0 S,2,32121,32575,0.5,0.1 F,2,32121,32575,1,0 P,0,32121,32575,A C,0,32121,,111,111,111 M,0,32121,32174,251,211,235.1569,218.1772 M,0,32174,32228,235.1569,218.1772,221.2688,228.5179 M,0,32228,32281,221.2688,228.5179,210.3281,241.9399 M,0,32281,32335,210.3281,241.9399,202.5544,257.4976
Sprite,Foreground,Centre,"sb/highlight.png",256,354 S,2,32550,32790,0.5,0.1 F,2,32550,32790,1,0 P,0,32550,32790,A C,0,32550,,225,91,236
Sprite,Foreground,Centre,"sb/highlight.png",344.9872,318.9872 S,2,32764,33004,0.5,0.1 F,2,32764,33004,1,0 P,0,32764,33004,A C,0,32764,,225,91,236
Sprite,Foreground,Centre,"sb/highlight.png",348.9936,322.9936 S,2,32871,33111,0.5,0.1 F,2,32871,33111,1,0 P,0,32871,33111,A C,0,32871,,225,91,236
Sprite,Foreground,Centre,"sb/highlight.png",353,327 S,2,32978,33218,0.5,0.1 F,2,32978,33218,1,0 P,0,32978,33218,A C,0,32978,,225,91,236
Sprite,Foreground,Centre,"sb/highlight.png",400,404 S,2,33193,33433,0.5,0.1 F,2,33193,33433,1,0 P,0,33193,33433,A C,0,33193,,225,91,236
Sprite,Foreground,Centre,"sb/highlight.png",502,352 S,2,33407,33647,0.5,0.1 F,2,33407,33647,1,0 P,0,33407,33647,A C,0,33407,,188,46,185
Sprite,Foreground,Centre,"sb/highlight.png",514,261 S,2,33621,33861,0.5,0.1 F,2,33621,33861,1,0 P,0,33621,33861,A C,0,33621,,188,46,185
Sprite,Foreground,Centre,"sb/highlight.png",0,0 S,2,33835,34289,0.5,0.1 F,2,33835,34289,1,0 P,0,33835,34289,A C,0,33835,,188,46,185 M,0,33835,33888,526,170,522.568,152.8398 M,0,33888,33942,522.568,152.8398,519.1359,135.6797 M,0,33942,33995,519.1359,135.6797,515.7039,118.5195 M,0,33995,34049,515.7039,118.5195,512.2719,101.3594
Sprite,Foreground,Centre,"sb/highlight.png",410,122 S,2,34264,34504,0.5,0.1 F,2,34264,34504,1,0 P,0,34264,34504,A C,0,34264,,167,167,167
Sprite,Foreground,Centre,"sb/highlight.png",335,86 S,2,34478,34718,0.5,0.1 F,2,34478,34718,1,0 P,0,34478,34718,A C,0,34478,,167,167,167
Sprite,Foreground,Centre,"sb/highlight.png",265,148 S,2,34693,34933,0.5,0.1 F,2,34693,34933,1,0 P,0,34693,34933,A C,0,34693,,167,167,167
Sprite,Foreground,Centre,"sb/highlight.png",189,112 S,2,34907,35147,0.5,0.1 F,2,34907,35147,1,0 P,0,34907,35147,A C,0,34907,,167,167,167
Sprite,Foreground,Centre,"sb/highlight.png",0,0 S,2,35121,35575,0.5,0.1 F,2,35121,35575,1,0 P,0,35121,35575,A C,0,35121,,111,111,111 M,0,35121,35174,117,171,115.1191,188.3986 M,0,35174,35228,115.1191,188.3986,113.2381,205.7972 M,0,35228,35281,113.2381,205.7972,111.3572,223.1959 M,0,35281,35335,111.3572,223.1959,109.4763,240.5945
Sprite,Foreground,Centre,"sb/highlight.png",94.9936,282.9936 S,2,35443,35683,0.5,0.1 F,2,35443,35683,1,0 P,0,35443,35683,A C,0,35443,,111,111,111
Sprite,Foreground,Centre,"sb/highlight.png",0,0 S,2,35550,36004,0.5,0.1 F,2,35550,36004,1,0 P,0,35550,36004,A C,0,35550,,111,111,111 M,0,35550,35603,99,287,107.9491,301.9769 M,0,35603,35657,107.9491,301.9769,120.45,314.1409 M,0,35657,35710,120.45,314.1409,135.6581,322.6732 M,0,35710,35764,135.6581,322.6732,152,327
Sprite,Foreground,Centre,"sb/highlight.png",251,295 S,2,35978,36218,0.5,0.1 F,2,35978,36218,1,0 P,0,35978,36218,A C,0,35978,,225,91,236
Sprite,Foreground,Centre,"sb/highlight.png",304.9872,368.9872 S,2,36193,36433,0.5,0.1 F,2,36193,36433,1,0 P,0,36193,36433,A C,0,36193,,225,91,236
Sprite,Foreground,Centre,"sb/highlight.png",308.9936,372.9936 S,2,36300,36540,0.5,0.1 F,2,36300,36540,1,0 P,0,36300,36540,A C,0,36300,,225,91,236
Sprite,Foreground,Centre,"sb/highlight.png",0,0 S,2,36407,36861,0.5,0.1 F,2,36407,36861,1,0 P,0,36407,36861,A C,0,36407,,225,91,236 M,0,36407,36460,313,377,330.141,373.4898 M,0,36460,36514,330.141,373.4898,347.4561,370.9825 M,0,36514,36567,347.4561,370.9825,364.8868,369.4866 M,0,36567,36621,364.8868,369.4866,382.3751,368.9681
Sprite,Foreground,Centre,"sb/highlight.png",479,326 S,2,36835,37075,0.5,0.1 F,2,36835,37075,1,0 P,0,36835,37075,A C,0,36835,,188,46,185
Sprite,Foreground,Centre,"sb/highlight.png",506,420 S,2,37050,37290,0.5,0.1 F,2,37050,37290,1,0 P,0,37050,37290,A C,0,37050,,188,46,185
Sprite,Foreground,Centre,"sb/highlight.png",0,0 S,2,37264,37718,0.5,0.1 F,2,37264,37718,1,0 P,0,37264,37718,A C,0,37264,,188,46,185 M,0,37264,37317,575,351,573.2524,333.5878 M,0,37317,37371,573.2524,333.5878,571.1575,316.214 M,0,37371,37424,571.1575,316.214,568.7161,298.8854 M,0,37424,37478,568.7161,298.8854,566,282
Sprite,Foreground,Centre,"sb/highlight.png",0,0 S,2,37693,38147,0.5,0.1 F,2,37693,38147,1,0 P,0,37693,38147,A C,0,37693,,167,167,167 M,0,37693,37746,508,196,495.3501,184.0245 M,0,37746,37800,495.3501,184.0245,479.9338,175.9732 M,0,37800,37853,479.9338,175.9732,462.9272,172.4454 M,0,37853,37907,462.9272,172.4454,445.6241,173.698
Sprite,Foreground,Centre,"sb/highlight.png",407.9936,193.9936 S,2,38014,38254,0.5,0.1 F,2,38014,38254,1,0 P,0,38014,38254,A C,0,38014,,167,167,167
Sprite,Foreground,Centre,"sb/highlight.png",0,0 S,2,38121,38575,0.5,0.1 F,2,38121,38575,1,0 P,0,38121,38575,A C,0,38121,,167,167,167 M,0,38121,38174,412,198,399.3501,209.9755 M,0,38174,38228,399.3501,209.9755,383.9338,218.0268 M,0,38228,38281,383.9338,218.0268,366.9272,221.5546 M,0,38281,38335,366.9272,221.5546,349.6241,220.302
Sprite,Foreground,Centre,"sb/highlight.png",0,0 S,2,38550,39004,0.5,0.1 F,2,38550,39004,1,0 P,0,38550,39004,A C,0,38550,,111,111,111 M,0,38550,38603,275,146,262.3502,134.0245 M,0,38603,38657,262.3502,134.0245,246.9338,125.9732 M,0,38657,38710,246.9338,125.9732,229.9272,122.4454 M,0,38710,38764,229.9272,122.4454,212.6241,123.698
Sprite,Foreground,Centre,"sb/highlight.png",174.9936,143.9936 S,2,38871,39111,0.5,0.1 F,2,38871,39111,1,0 P,0,38871,39111,A C,0,38871,,111,111,111
Sprite,Foreground,Centre,"sb/highlight.png",0,0 S,2,38978,39432,0.5,0.1 F,2,38978,39432,1,0 P,0,38978,39432,A C,0,38978,,111,111,111 M,0,38978,39031,179,148,166.3501,159.9755 M,0,39031,39085,166.3501,159.9755,150.9338,168.0268 M,0,39085,39138,150.9338,168.0268,133.9272,171.5546 M,0,39138,39192,133.9272,171.5546,116.6241,170.302
Sprite,Foreground,Centre,"sb/highlight.png",0,0 S,2,39407,39861,0.5,0.1 F,2,39407,39861,1,0 P,0,39407,39861,A C,0,39407,,225,91,236 M,0,39407,39460,69,264,73.26216,280.9722 M,0,39460,39514,73.26216,280.9722,77.02965,298.0609 M,0,39514,39567,77.02965,298.0609,80.29926,315.2516 M,0,39567,39621,80.29926,315.2516,83.08205,332.528
Sprite,Foreground,Centre,"sb/highlight.png",66.9936,375.9936 S,2,39728,39968,0.5,0.1 F,2,39728,39968,1,0 P,0,39728,39968,A C,0,39728,,225,91,236
Sprite,Foreground,Centre,"sb/highlight.png",0,0 S,2,39835,40289,0.5,0.1 F,2,39835,40289,1,0 P,0,39835,40289,A C,0,39835,,225,91,236 M,0,39835,39888,71,380,87.82655,384.6097 M,0,39888,39942,87.82655,384.6097,103.2601,392.7017 M,0,39942,39995,103.2601,392.7017,116.5934,403.8968 M,0,39995,40049,116.5934,403.8968,127.4421,417.5464
Sprite,Foreground,Centre,"sb/highlight.png",260,432 S,2,40264,40504,0.5,0.1 F,2,40264,40504,1,0 P,0,40264,40504,A C,0,40264,,188,46,185
Sprite,Foreground,Centre,"sb/highlight.png",343,380 S,2,40478,40718,0.5,0.1 F,2,40478,40718,1,0 P,0,40478,40718,A C,0,40478,,188,46,185
Sprite,Foreground,Centre,"sb/highlight.png",327,282 S,2,40693,40933,0.5,0.1 F,2,40693,40933,1,0 P,0,40693,40933,A C,0,40693,,188,46,185
Sprite,Foreground,Centre,"sb/highlight.png",229,272 S,2,40907,41147,0.5,0.1 F,2,40907,41147,1,0 P,0,40907,41147,A C,0,40907,,188,46,185
Sprite,Foreground,Centre,"sb/highlight.png",0,0 S,2,41121,41575,0.5,0.1 F,2,41121,41575,1,0 P,0,41121,41575,A C,0,41121,,167,167,167 M,0,41121,41174,186,360,203.4517,358.7004 M,0,41174,41228,203.4517,358.7004,220.9034,357.4008 M,0,41228,41281,220.9034,357.4008,238.355,356.1012 M,0,41281,41335,238.355,356.1012,255.8067,354.8016
Sprite,Foreground,Centre,"sb/highlight.png",0,0 S,2,41550,42004,0.5,0.1 F,2,41550,42004,1,0 P,0,41550,42004,A C,0,41550,,167,167,167 M,0,41550,41603,327,282,344.4517,283.2996 M,0,41603,41657,344.4517,283.2996,361.9034,284.5992 M,0,41657,41710,361.9034,284.5992,379.355,285.8988 M,0,41710,41764,379.355,285.8988,396.8067,287.1984
Sprite,Foreground,Centre,"sb/highlight.png",457,363 S,2,41978,42218,0.5,0.1 F,2,41978,42218,1,0 P,0,41978,42218,A C,0,41978,,167,167,167
Sprite,Foreground,Centre,"sb/highlight.png",548,327 S,2,42193,42433,0.5,0.1 F,2,42193,42433,1,0 P,0,42193,42433,A C,0,42193,,167,167,167
Sprite,Foreground,Centre,"sb/highlight.png",542,229 S,2,42407,42647,0.5,0.1 F,2,42407,42647,1,0 P,0,42407,42647,A C,0,42407,,167,167,167
Sprite,Foreground,Centre,"sb/highlight.png",0,0 S,2,42835,43396,0.5,0.1 F,2,42835,43396,1,0 P,0,42835,43396,A C,0,42835,,111,111,111 M,0,42835,42888,373,130,375.2634,147.353 M,0,42888,42942,375.2634,147.353,377.5269,164.706 M,0,42942,42995,377.5269,164.706,375.2634,147.353 M,0,42995,43049,375.2634,147.353,373,130 M,0,43049,43102,373,130,375.2634,147.353 M,0,43102,43156,375.2634,147.353,377.5269,164.706
Sprite,Foreground,Centre,"sb/highlight.png",0,0 S,2,43264,43825,0.5,0.1 F,2,43264,43825,1,0 P,0,43264,43825,A C,0,43264,,111,111,111 M,0,43264,43317,355,201,352.4539,218.3138 M,0,43317,43371,352.4539,218.3138,350,235 M,0,43371,43424,350,235,352.4539,218.3138 M,0,43424,43478,352.4539,218.3138,355,201 M,0,43478,43531,355,201,352.4539,218.3138 M,0,43531,43585,352.4539,218.3138,350,235
Sprite,Foreground,Centre,"sb/highlight.png",0,0 S,2,43693,44254,0.5,0.1 F,2,43693,44254,1,0 P,0,43693,44254,A C,0,43693,,111,111,111 M,0,43693,43746,373,272,375.0447,289.3801 M,0,43746,43800,375.0447,289.3801,377,306 M,0,43800,43853,377,306,375.0447,289.3801 M,0,43853,43907,375.0447,289.3801,373,272 M,0,43907,43960,373,272,375.0447,289.3801 M,0,43960,44014,375.0447,289.3801,377,306
Sprite,Foreground,Centre,"sb/highlight.png",358,344 S,2,44121,44361,0.5,0.1 F,2,44121,44361,1,0 P,0,44121,44361,A C,0,44121,,111,111,111
Sprite,Foreground,Centre,"sb/highlight.png",0,0 S,2,44550,45004,0.5,0.1 F,2,44550,45004,1,0 P,0,44550,45004,A C,0,44550,,225,91,236 M,0,44550,44603,166,407,164.7668,386.0363 M,0,44603,44657,164.7668,386.0363,169.1681,366.9706 M,0,44657,44710,169.1681,366.9706,162.1031,349.5362 M,0,44710,44764,162.1031,349.5362,160.3097,328.6129
Sprite,Foreground,Centre,"sb/highlight.png",0,0 S,2,44978,45432,0.5,0.1 F,2,44978,45432,1,0 P,0,44978,45432,A C,0,44978,,225,91,236 M,0,44978,45031,214,245,234.5338,249.4001 M,0,45031,45085,234.5338,249.4001,255.0677,253.8002 M,0,45085,45138,255.0677,253.8002,234.5338,249.4001 M,0,45138,45192,234.5338,249.4001,214,245
Sprite,Foreground,Centre,"sb/highlight.png",166.9936,235.9936 S,2,45300,45540,0.5,0.1 F,2,45300,45540,1,0 P,0,45300,45540,A C,0,45300,,225,91,236
Sprite,Foreground,Centre,"sb/highlight.png",171,240 S,2,45407,45647,0.5,0.1 F,2,45407,45647,1,0 P,0,45407,45647,A C,0,45407,,225,91,236
Sprite,Foreground,Centre,"sb/highlight.png",130,166 S,2,45621,45861,0.5,0.1 F,2,45621,45861,1,0 P,0,45621,45861,A C,0,45621,,225,91,236
Sprite,Foreground,Centre,"sb/highlight.png",0,0 S,2,45835,46289,0.5,0.1 F,2,45835,46289,1,0 P,0,45835,46289,A C,0,45835,,225,91,236 M,0,45835,45888,170,92,189.1054,83.58051 M,0,45888,45942,189.1054,83.58051,209.7033,80.43997 M,0,45942,45995,209.7033,80.43997,230.4047,82.66692 M,0,45995,46049,230.4047,82.66692,249.8317,90.38078
Sprite,Foreground,Centre,"sb/highlight.png",0,0 S,2,46264,46825,0.5,0.1 F,2,46264,46825,1,0 P,0,46264,46825,A C,0,46264,,188,46,185 M,0,46264,46317,365,104,378.6319,119.7226 M,0,46317,46371,378.6319,119.7226,386.4312,138.9469 M,0,46371,46424,386.4312,138.9469,387.6199,159.6216 M,0,46424,46478,387.6199,159.6216,381.5038,179.4462 M,0,46478,46531,381.5038,179.4462,369.3571,196.2203 M,0,46531,46585,369.3571,196.2203,352.0815,207.7096
Sprite,Foreground,Centre,"sb/highlight.png",327,204 S,2,46693,46933,0.5,0.1 F,2,46693,46933,1,0 P,0,46693,46933,A C,0,46693,,188,46,185
Sprite,Foreground,Centre,"sb/highlight.png",299,296 S,2,46907,47147,0.5,0.1 F,2,46907,47147,1,0 P,0,46907,47147,A C,0,46907,,188,46,185
Sprite,Foreground,Centre,"sb/highlight.png",305,320 S,2,47014,47254,0.5,0.1 F,2,47014,47254,1,0 P,0,47014,47254,A C,0,47014,,188,46,185
Sprite,Foreground,Centre,"sb/highlight.png",0,0 S,2,47121,47682,0.5,0.1 F,2,47121,47682,1,0 P,0,47121,47682,A C,0,47121,,188,46,185 M,0,47121,47174,311,344,331.9288,342.2893 M,0,47174,47228,331.9288,342.2893,352.8984,341.1848 M,0,47228,47281,352.8984,341.1848,331.9288,342.2893 M,0,47281,47335,331.9288,342.2893,311,344 M,0,47335,47388,311,344,331.9288,342.2893 M,0,47388,47442,331.9288,342.2893,352.8984,341.1848
Sprite,Foreground,Centre,"sb/highlight.png",397,357 S,2,47550,47790,0.5,0.1 F,2,47550,47790,1,0 P,0,47550,47790,A C,0,47550,,188,46,185
Sprite,Foreground,Centre,"sb/highlight.png",422,355 S,2,47657,47897,0.5,0.1 F,2,47657,47897,1,0 P,0,47657,47897,A C,0,47657,,188,46,185
Sprite,Foreground,Centre,"sb/highlight.png",447,353 S,2,47764,48004,0.5,0.1 F,2,47764,48004,1,0 P,0,47764,48004,A C,0,47764,,188,46,185
Sprite,Foreground,Centre,"sb/highlight.png",0,0 S,2,47978,48432,0.5,0.1 F,2,47978,48432,1,0 P,0,47978,48432,A C,0,47978,,167,167,167 M,0,47978,48031,546,307,548.4667,286.1454 M,0,48031,48085,548.4667,286.1454,550.9333,265.2907 M,0,48085,48138,550.9333,265.2907,553.4,244.4361 M,0,48138,48192,553.4,244.4361,555.8667,223.5815
Sprite,Foreground,Centre,"sb/highlight.png",567.9936,182.9936 S,2,48300,48540,0.5,0.1 F,2,48300,48540,1,0 P,0,48300,48540,A C,0,48300,,167,167,167
Sprite,Foreground,Centre,"sb/highlight.png",0,0 S,2,48407,48861,0.5,0.1 F,2,48407,48861,1,0 P,0,48407,48861,A C,0,48407,,167,167,167 M,0,48407,48460,572,187,566.0986,167.0032 M,0,48460,48514,566.0986,167.0032,555.0902,149.2671 M,0,48514,48567,555.0902,149.2671,538.8328,136.2182 M,0,48567,48621,538.8328,136.2182,520,128
Sprite,Foreground,Centre,"sb/highlight.png",390.9872,137.9872 S,2,48835,49075,0.5,0.1 F,2,48835,49075,1,0 P,0,48835,49075,A C,0,48835,,111,111,111
Sprite,Foreground,Centre,"sb/highlight.png",394.9936,141.9936 S,2,48943,49183,0.5,0.1 F,2,48943,49183,1,0 P,0,48943,49183,A C,0,48943,,111,111,111
Sprite,Foreground,Centre,"sb/highlight.png",0,0 S,2,49050,49611,0.5,0.1 F,2,49050,49611,1,0 P,0,49050,49611,A C,0,49050,,111,111,111 M,0,49050,49103,399,146,394.1809,166.4342 M,0,49103,49157,394.1809,166.4342,390.4466,187.0948 M,0,49157,49210,390.4466,187.0948,394.1809,166.4342 M,0,49210,49264,394.1809,166.4342,399,146 M,0,49264,49317,399,146,394.1809,166.4342 M,0,49317,49371,394.1809,166.4342,390.4466,187.0948
Sprite,Foreground,Centre,"sb/highlight.png",394,233 S,2,49478,49718,0.5,0.1 F,2,49478,49718,1,0 P,0,49478,49718,A C,0,49478,,111,111,111
Sprite,Foreground,Centre,"sb/highlight.png",0,0 S,2,49693,50147,0.5,0.1 F,2,49693,50147,1,0 P,0,49693,50147,A C,0,49693,,225,91,236 M,0,49693,49746,323,319,302.8115,324.4392 M,0,49746,49800,302.8115,324.4392,281.9479,325.119 M,0,49800,49853,281.9479,325.119,261.4406,321.2162 M,0,49853,49907,261.4406,321.2162,242.4355,312.4546
Sprite,Foreground,Centre,"sb/highlight.png",200,230 S,2,50121,50361,0.5,0.1 F,2,50121,50361,1,0 P,0,50121,50361,A C,0,50121,,225,91,236
Sprite,Foreground,Centre,"sb/highlight.png",253.9872,154.9872 S,2,50335,50575,0.5,0.1 F,2,50335,50575,1,0 P,0,50335,50575,A C,0,50335,,225,91,236
Sprite,Foreground,Centre,"sb/highlight.png",257.9936,158.9936 S,2,50443,50683,0.5,0.1 F,2,50443,50683,1,0 P,0,50443,50683,A C,0,50443,,225,91,236
Sprite,Foreground,Centre,"sb/highlight.png",262,163 S,2,50550,50790,0.5,0.1 F,2,50550,50790,1,0 P,0,50550,50790,A C,0,50550,,225,91,236
Sprite,Foreground,Centre,"sb/highlight.png",204,90 S,2,50764,51004,0.5,0.1 F,2,50764,51004,1,0 P,0,50764,51004,A C,0,50764,,225,91,236
Sprite,Foreground,Centre,"sb/highlight.png",0,0 S,2,50978,51432,0.5,0.1 F,2,50978,51432,1,0 P,0,50978,51432,A C,0,50978,,225,91,236 M,0,50978,51031,117,122,115.4675,142.944 M,0,51031,51085,115.4675,142.944,113.2877,163.5342 M,0,51085,51138,113.2877,163.5342,108.3193,182.8066 M,0,51138,51192,108.3193,182.8066,106.2298,203.7023
Sprite,Foreground,Centre,"sb/highlight.png",0,0 S,2,51407,51861,0.5,0.1 F,2,51407,51861,1,0 P,0,51407,51861,A C,0,51407,,188,46,185 M,0,51407,51460,141,298,161.9444,296.4728 M,0,51460,51514,161.9444,296.4728,182.8888,294.9456 M,0,51514,51567,182.8888,294.9456,203.8332,293.4184 M,0,51567,51621,203.8332,293.4184,224.7776,291.8912
Sprite,Foreground,Centre,"sb/highlight.png",251.9936,259.9936 S,2,51728,51968,0.5,0.1 F,2,51728,51968,1,0 P,0,51728,51968,A C,0,51728,,188,46,185
Sprite,Foreground,Centre,"sb/highlight.png",0,0 S,2,51835,52289,0.5,0.1 F,2,51835,52289,1,0 P,0,51835,52289,A C,0,51835,,188,46,185 M,0,51835,51888,256,264,276.9444,265.5272 M,0,51888,51942,276.9444,265.5272,297.8888,267.0544 M,0,51942,51995,297.8888,267.0544,318.8332,268.5816 M,0,51995,52049,318.8332,268.5816,339.7776,270.1088
Sprite,Foreground,Centre,"sb/highlight.png",0,0 S,2,52264,52718,0.5,0.1 F,2,52264,52718,1,0 P,0,52264,52718,A C,0,52264,,167,167,167 M,0,52264,52317,403,325,400.4403,345.8434 M,0,52317,52371,400.4403,345.8434,397.8806,366.6868 M,0,52371,52424,397.8806,366.6868,400.4403,345.8434 M,0,52424,52478,400.4403,345.8434,403,325
Sprite,Foreground,Centre,"sb/highlight.png",429.9936,292.9936 S,2,52585,52825,0.5,0.1 F,2,52585,52825,1,0 P,0,52585,52825,A C,0,52585,,167,167,167
Sprite,Foreground,Centre,"sb/highlight.png",434,297 S,2,52693,52933,0.5,0.1 F,2,52693,52933,1,0 P,0,52693,52933,A C,0,52693,,167,167,167
Sprite,Foreground,Centre,"sb/highlight.png",509,332 S,2,52907,53147,0.5,0.1 F,2,52907,53147,1,0 P,0,52907,53147,A C,0,52907,,167,167,167
Sprite,Foreground,Centre,"sb/highlight.png",0,0 S,2,53121,53575,0.5,0.1 F,2,53121,53575,1,0 P,0,53121,53575,A C,0,53121,,167,167,167 M,0,53121,53174,566,271,563.9104,250.1042 M,0,53174,53228,563.9104,250.1042,561.8208,229.2084 M,0,53228,53281,561.8208,229.2084,559.7313,208.3127 M,0,53281,53335,559.7313,208.3127,557.6417,187.4169
Sprite,Foreground,Centre,"sb/highlight.png",0,0 S,2,53550,54111,0.5,0.1 F,2,53550,54111,1,0 P,0,53550,54111,A C,0,53550,,111,111,111 M,0,53550,53603,505,121,488.8443,107.9313 M,0,53603,53657,488.8443,107.9313,469.3248,100.8055 M,0,53657,53710,469.3248,100.8055,488.8443,107.9313 M,0,53710,53764,488.8443,107.9313,505,121 M,0,53764,53817,505,121,488.8443,107.9313 M,0,53817,53871,488.8443,107.9313,469.3248,100.8055
Sprite,Foreground,Centre,"sb/highlight.png",429,115 S,2,53978,54218,0.5,0.1 F,2,53978,54218,1,0 P,0,53978,54218,A C,0,53978,,111,111,111
Sprite,Foreground,Centre,"sb/highlight.png",382,185 S,2,54193,54433,0.5,0.1 F,2,54193,54433,1,0 P,0,54193,54433,A C,0,54193,,111,111,111
Sprite,Foreground,Centre,"sb/highlight.png",385,206 S,2,54300,54540,0.5,0.1 F,2,54300,54540,1,0 P,0,54300,54540,A C,0,54300,,111,111,111
Sprite,Foreground,Centre,"sb/highlight.png",0,0 S,2,54407,54861,0.5,0.1 F,2,54407,54861,1,0 P,0,54407,54861,A C,0,54407,,111,111,111 M,0,54407,54460,387,226,389.6513,246.832 M,0,54460,54514,389.6513,246.832,392.3027,267.6639 M,0,54514,54567,392.3027,267.6639,389.6513,246.832 M,0,54567,54621,389.6513,246.832,387,226
Sprite,Foreground,Centre,"sb/highlight.png",0,0 S,2,54835,55289,0.5,0.1 F,2,54835,55289,1,0 P,0,54835,55289,A C,0,54835,,225,91,236 M,0,54835,54888,302,171,284.681,159.3893 M,0,54888,54942,284.681,159.3893,264.7895,153.3235 M,0,54942,54995,264.7895,153.3235,243.993,153.0197 M,0,54995,55049,243.993,153.0197,224.2014,159.4613
Sprite,Foreground,Centre,"sb/highlight.png",189.9936,184.9936 S,2,55157,55397,0.5,0.1 F,2,55157,55397,1,0 P,0,55157,55397,A C,0,55157,,225,91,236
Sprite,Foreground,Centre,"sb/highlight.png",0,0 S,2,55264,55718,0.5,0.1 F,2,55264,55718,1,0 P,0,55264,55718,A C,0,55264,,225,91,236 M,0,55264,55317,194,189,198.8493,209.4299 M,0,55317,55371,198.8493,209.4299,202.9828,230.0165 M,0,55371,55424,202.9828,230.0165,206.2323,250.7609 M,0,55424,55478,206.2323,250.7609,208.7413,271.6075
Sprite,Foreground,Centre,"sb/highlight.png",0,0 S,2,55693,56147,0.5,0.1 F,2,55693,56147,1,0 P,0,55693,56147,A C,0,55693,,188,46,185 M,0,55693,55746,228,370,243.0737,384.3983 M,0,55746,55800,243.0737,384.3983,261.5033,394.1401 M,0,55800,55853,261.5033,394.1401,282.1046,397.2207 M,0,55853,55907,282.1046,397.2207,302.7347,394.4497
Sprite,Foreground,Centre,"sb/highlight.png",332.9936,365.9936 S,2,56014,56254,0.5,0.1 F,2,56014,56254,1,0 P,0,56014,56254,A C,0,56014,,188,46,185
Sprite,Foreground,Centre,"sb/highlight.png",337,370 S,2,56121,56361,0.5,0.1 F,2,56121,56361,1,0 P,0,56121,56361,A C,0,56121,,188,46,185
Sprite,Foreground,Centre,"sb/highlight.png",405,418 S,2,56335,56575,0.5,0.1 F,2,56335,56575,1,0 P,0,56335,56575,A C,0,56335,,188,46,185
Sprite,Foreground,Centre,"sb/highlight.png",476,374 S,2,56550,56790,0.5,0.1 F,2,56550,56790,1,0 P,0,56550,56790,A C,0,56550,,188,46,185
Sprite,Foreground,Centre,"sb/highlight.png",0,0 S,2,58264,58718,0.5,0.1 F,2,58264,58718,1,0 P,0,58264,58718,A C,0,58264,,167,167,167 M,0,58264,58317,320,382,302.6214,379.942 M,0,58317,58371,302.6214,379.942,285.2429,377.884 M,0,58371,58424,285.2429,377.884,267.8643,375.826 M,0,58424,58478,267.8643,375.826,250.4857,373.768
Sprite,Foreground,Centre,"sb/highlight.png",157.9936,392.9936 S,2,58693,58933,0.5,0.1 F,2,58693,58933,1,0 P,0,58693,58933,A C,0,58693,,167,167,167
Sprite,Foreground,Centre,"sb/highlight.png",0,0 S,2,58800,59361,0.5,0.1 F,2,58800,59361,1,0 P,0,58800,59361,A C,0,58800,,167,167,167 M,0,58800,58853,162,397,161.2789,379.5209 M,0,58853,58907,161.2789,379.5209,159.2363,362.1485 M,0,58907,58960,159.2363,362.1485,155.8843,344.9824 M,0,58960,59014,155.8843,344.9824,151.2423,328.1209 M,0,59014,59067,151.2423,328.1209,145.337,311.6606 M,0,59067,59121,145.337,311.6606,138.2885,295.6519
Sprite,Foreground,Centre,"sb/highlight.png",0,0 S,2,59550,60004,0.5,0.1 F,2,59550,60004,1,0 P,0,59550,60004,A C,0,59550,,167,167,167 M,0,59550,59603,289,225,272.3998,230.3398 M,0,59603,59657,272.3998,230.3398,258.3438,240.6246 M,0,59657,59710,258.3438,240.6246,261.7205,244.2255 M,0,59710,59764,261.7205,244.2255,279.1422,243.9869
Sprite,Foreground,Centre,"sb/highlight.png",356,307 S,2,59978,60218,0.5,0.1 F,2,59978,60218,1,0 P,0,59978,60218,A C,0,59978,,111,111,111
Sprite,Foreground,Centre,"sb/highlight.png",0,0 S,2,60193,60647,0.5,0.1 F,2,60193,60647,1,0 P,0,60193,60647,A C,0,60193,,111,111,111 M,0,60193,60246,422,244,439.1786,247.3349 M,0,60246,60300,439.1786,247.3349,456.445,250.179 M,0,60300,60353,456.445,250.179,473.7854,252.53 M,0,60353,60407,473.7854,252.53,491.1845,254.3979
Sprite,Foreground,Centre,"sb/highlight.png",535,246 S,2,60514,60754,0.5,0.1 F,2,60514,60754,1,0 P,0,60514,60754,A C,0,60514,,111,111,111
Sprite,Foreground,Centre,"sb/highlight.png",486,102 S,2,60835,61075,0.5,0.1 F,2,60835,61075,1,0 P,0,60835,61075,A C,0,60835,,225,91,236
Sprite,Foreground,Centre,"sb/highlight.png",402,139 S,2,61050,61290,0.5,0.1 F,2,61050,61290,1,0 P,0,61050,61290,A C,0,61050,,225,91,236
Sprite,Foreground,Centre,"sb/highlight.png",320,99 S,2,61264,61504,0.5,0.1 F,2,61264,61504,1,0 P,0,61264,61504,A C,0,61264,,225,91,236
Sprite,Foreground,Centre,"sb/highlight.png",234,129 S,2,61478,61718,0.5,0.1 F,2,61478,61718,1,0 P,0,61478,61718,A C,0,61478,,225,91,236
Sprite,Foreground,Centre,"sb/highlight.png",0,0 S,2,61693,62147,0.5,0.1 F,2,61693,62147,1,0 P,0,61693,62147,A C,0,61693,,188,46,185 M,0,61693,61746,137,89,121.0556,96.04362 M,0,61746,61800,121.0556,96.04362,107.4208,106.8653 M,0,61800,61853,107.4208,106.8653,96.96794,120.7593 M,0,61853,61907,96.96794,120.7593,90.13384,136.7774
Sprite,Foreground,Centre,"sb/highlight.png",67.9936,221.9936 S,2,62121,62361,0.5,0.1 F,2,62121,62361,1,0 P,0,62121,62361,A C,0,62121,,188,46,185
Sprite,Foreground,Centre,"sb/highlight.png",0,0 S,2,62228,62789,0.5,0.1 F,2,62228,62789,1,0 P,0,62228,62789,A C,0,62228,,188,46,185 M,0,62228,62281,72,226,75.65451,243.1139 M,0,62281,62335,75.65451,243.1139,79.01255,260.2883 M,0,62335,62388,79.01255,260.2883,82.07322,277.5181 M,0,62388,62442,82.07322,277.5181,84.83553,294.7982 M,0,62442,62495,84.83553,294.7982,87.29868,312.1234 M,0,62495,62549,87.29868,312.1234,89.47807,329.4868
Sprite,Foreground,Centre,"sb/highlight.png",0,0 S,2,62978,63432,0.5,0.1 F,2,62978,63432,1,0 P,0,62978,63432,A C,0,62978,,188,46,185 M,0,62978,63031,218,403,201.6329,408.5627 M,0,63031,63085,201.6329,408.5627,184.5068,409.0023 M,0,63085,63138,184.5068,409.0023,168.2522,403.5807 M,0,63138,63192,168.2522,403.5807,154.3245,393.3448
Sprite,Foreground,Centre,"sb/highlight.png",202,291 S,2,63407,63647,0.5,0.1 F,2,63407,63647,1,0 P,0,63407,63647,A C,0,63407,,167,167,167
Sprite,Foreground,Centre,"sb/highlight.png",286,257 S,2,63621,63861,0.5,0.1 F,2,63621,63861,1,0 P,0,63621,63861,A C,0,63621,,167,167,167
Sprite,Foreground,Centre,"sb/highlight.png",348.9872,312.9872 S,2,63835,64075,0.5,0.1 F,2,63835,64075,1,0 P,0,63835,64075,A C,0,63835,,167,167,167
Sprite,Foreground,Centre,"sb/highlight.png",352.9936,316.9936 S,2,63943,64183,0.5,0.1 F,2,63943,64183,1,0 P,0,63943,64183,A C,0,63943,,167,167,167
Sprite,Foreground,Centre,"sb/highlight.png",357,321 S,2,64050,64290,0.5,0.1 F,2,64050,64290,1,0 P,0,64050,64290,A C,0,64050,,167,167,167
Sprite,Foreground,Centre,"sb/highlight.png",437,252 S,2,64264,64504,0.5,0.1 F,2,64264,64504,1,0 P,0,64264,64504,A C,0,64264,,111,111,111
Sprite,Foreground,Centre,"sb/highlight.png",518,294 S,2,64478,64718,0.5,0.1 F,2,64478,64718,1,0 P,0,64478,64718,A C,0,64478,,111,111,111
Sprite,Foreground,Centre,"sb/highlight.png",560,213 S,2,64693,64933,0.5,0.1 F,2,64693,64933,1,0 P,0,64693,64933,A C,0,64693,,111,111,111
Sprite,Foreground,Centre,"sb/highlight.png",479,171 S,2,64907,65147,0.5,0.1 F,2,64907,65147,1,0 P,0,64907,65147,A C,0,64907,,111,111,111
Sprite,Foreground,Centre,"sb/highlight.png",0,0 S,2,65121,65575,0.5,0.1 F,2,65121,65575,1,0 P,0,65121,65575,A C,0,65121,,225,91,236 M,0,65121,65174,437,252,435.3409,269.4212 M,0,65174,65228,435.3409,269.4212,433.6817,286.8423 M,0,65228,65281,433.6817,286.8423,432.0225,304.2635 M,0,65281,65335,432.0225,304.2635,430.3634,321.6847
Sprite,Foreground,Centre,"sb/highlight.png",386.9936,399.9936 S,2,65550,65790,0.5,0.1 F,2,65550,65790,1,0 P,0,65550,65790,A C,0,65550,,225,91,236
Sprite,Foreground,Centre,"sb/highlight.png",0,0 S,2,65657,66218,0.5,0.1 F,2,65657,66218,1,0 P,0,65657,66218,A C,0,65657,,225,91,236 M,0,65657,65710,391,404,375.9156,412.7249 M,0,65710,65764,375.9156,412.7249,358.9765,416.7532 M,0,65764,65817,358.9765,416.7532,341.6074,415.7542 M,0,65817,65871,341.6074,415.7542,325.267,409.8192 M,0,65871,65924,325.267,409.8192,311.3258,399.4537 M,0,65924,65978,311.3258,399.4537,300.8004,385.5964
Sprite,Foreground,Centre,"sb/highlight.png",0,0 S,2,66407,66861,0.5,0.1 F,2,66407,66861,1,0 P,0,66407,66861,A C,0,66407,,188,46,185 M,0,66407,66460,224,219,220.7797,236.2003 M,0,66460,66514,220.7797,236.2003,216.7578,253.2287 M,0,66514,66567,216.7578,253.2287,210.1536,264.7451 M,0,66567,66621,210.1536,264.7451,197.0067,253.2635
Sprite,Foreground,Centre,"sb/highlight.png",101,277 S,2,66835,67075,0.5,0.1 F,2,66835,67075,1,0 P,0,66835,67075,A C,0,66835,,167,167,167
Sprite,Foreground,Centre,"sb/highlight.png",0,0 S,2,67050,67504,0.5,0.1 F,2,67050,67504,1,0 P,0,67050,67504,A C,0,67050,,167,167,167 M,0,67050,67103,116,359,133.3424,356.6564 M,0,67103,67157,133.3424,356.6564,150.6847,354.3129 M,0,67157,67210,150.6847,354.3129,168.0271,351.9693 M,0,67210,67264,168.0271,351.9693,185.3695,349.6257
Sprite,Foreground,Centre,"sb/highlight.png",227,352 S,2,67371,67611,0.5,0.1 F,2,67371,67611,1,0 P,0,67371,67611,A C,0,67371,,167,167,167
Sprite,Foreground,Centre,"sb/highlight.png",368,310 S,2,67693,67933,0.5,0.1 F,2,67693,67933,1,0 P,0,67693,67933,A C,0,67693,,111,111,111
Sprite,Foreground,Centre,"sb/highlight.png",311,247 S,2,67907,68147,0.5,0.1 F,2,67907,68147,1,0 P,0,67907,68147,A C,0,67907,,111,111,111
Sprite,Foreground,Centre,"sb/highlight.png",369,186 S,2,68121,68361,0.5,0.1 F,2,68121,68361,1,0 P,0,68121,68361,A C,0,68121,,111,111,111
Sprite,Foreground,Centre,"sb/highlight.png",300,137 S,2,68335,68575,0.5,0.1 F,2,68335,68575,1,0 P,0,68335,68575,A C,0,68335,,111,111,111
Sprite,Foreground,Centre,"sb/highlight.png",0,0 S,2,68550,69004,0.5,0.1 F,2,68550,69004,1,0 P,0,68550,69004,A C,0,68550,,225,91,236 M,0,68550,68603,363,81,379.237,74.71243 M,0,68603,68657,379.237,74.71243,396.334,71.77435 M,0,68657,68710,396.334,71.77435,413.6526,72.77559 M,0,68710,68764,413.6526,72.77559,430.2972,77.66438
Sprite,Foreground,Centre,"sb/highlight.png",508.9936,59.9936 S,2,68978,69218,0.5,0.1 F,2,68978,69218,1,0 P,0,68978,69218,A C,0,68978,,225,91,236
Sprite,Foreground,Centre,"sb/highlight.png",0,0 S,2,69085,69646,0.5,0.1 F,2,69085,69646,1,0 P,0,69085,69646,A C,0,69085,,225,91,236 M,0,69085,69138,513,64,509.6441,81.17517 M,0,69138,69192,509.6441,81.17517,506.3988,98.37157 M,0,69192,69245,506.3988,98.37157,503.2643,115.5885 M,0,69245,69299,503.2643,115.5885,500.2409,132.8252 M,0,69299,69352,500.2409,132.8252,497.3284,150.0811 M,0,69352,69406,497.3284,150.0811,494.5269,167.3553
Sprite,Foreground,Centre,"sb/highlight.png",0,0 S,2,69835,70289,0.5,0.1 F,2,69835,70289,1,0 P,0,69835,70289,A C,0,69835,,188,46,185 M,0,69835,69888,501,335,517.6483,329.8973 M,0,69888,69942,517.6483,329.8973,532.244,320.4618 M,0,69942,69995,532.244,320.4618,543.6914,307.4199 M,0,69995,70049,543.6914,307.4199,551.1333,291.7664
Sprite,Foreground,Centre,"sb/highlight.png",0,0 S,2,70264,70825,0.5,0.1 F,2,70264,70825,1,0 P,0,70264,70825,A C,0,70264,,167,167,167 M,0,70264,70317,504,222,486.696,224.6119 M,0,70317,70371,486.696,224.6119,469.392,227.2238 M,0,70371,70424,469.392,227.2238,486.696,224.6119 M,0,70424,70478,486.696,224.6119,504,222 M,0,70478,70531,504,222,486.696,224.6119 M,0,70531,70585,486.696,224.6119,469.392,227.2238
Sprite,Foreground,Centre,"sb/highlight.png",0,0 S,2,70693,71254,0.5,0.1 F,2,70693,71254,1,0 P,0,70693,71254,A C,0,70693,,167,167,167 M,0,70693,70746,432,248,414.696,245.3881 M,0,70746,70800,414.696,245.3881,397.392,242.7762 M,0,70800,70853,397.392,242.7762,414.696,245.3881 M,0,70853,70907,414.696,245.3881,432,248 M,0,70907,70960,432,248,414.696,245.3881 M,0,70960,71014,414.696,245.3881,397.392,242.7762
Sprite,Foreground,Centre,"sb/highlight.png",374,222 S,2,71121,71361,0.5,0.1 F,2,71121,71361,1,0 P,0,71121,71361,A C,0,71121,,167,167,167
Sprite,Foreground,Centre,"sb/highlight.png",350,229 S,2,71228,71468,0.5,0.1 F,2,71228,71468,1,0 P,0,71228,71468,A C,0,71228,,167,167,167
Sprite,Foreground,Centre,"sb/highlight.png",326,235 S,2,71335,71575,0.5,0.1 F,2,71335,71575,1,0 P,0,71335,71575,A C,0,71335,,167,167,167
Sprite,Foreground,Centre,"sb/highlight.png",289,310 S,2,71550,71790,0.5,0.1 F,2,71550,71790,1,0 P,0,71550,71790,A C,0,71550,,167,167,167
Sprite,Foreground,Centre,"sb/highlight.png",0,0 S,2,71978,72432,0.5,0.1 F,2,71978,72432,1,0 P,0,71978,72432,A C,0,71978,,111,111,111 M,0,71978,72031,140,182,140.3485,164.5075 M,0,72031,72085,140.3485,164.5075,141.7187,147.0667 M,0,72085,72138,141.7187,147.0667,144.1057,129.7371 M,0,72138,72192,144.1057,129.7371,147.4296,112.5605
Sprite,Foreground,Centre,"sb/highlight.png",0,0 S,2,72407,72861,0.5,0.1 F,2,72407,72861,1,0 P,0,72407,72861,A C,0,72407,,111,111,111 M,0,72407,72460,239,76,255.8347,80.76597 M,0,72460,72514,255.8347,80.76597,272.8426,84.85962 M,0,72514,72567,272.8426,84.85962,290.0198,88.17238 M,0,72567,72621,290.0198,88.17238,307.3204,90.78181
Sprite,Foreground,Centre,"sb/highlight.png",0,0 S,2,72835,73182,0.5,0.1 F,2,72835,73182,1,0 P,0,72835,73182,A C,0,72835,,111,111,111 M,0,72835,72888,405,62,422.3321,59.58157 M,0,72888,72942,422.3321,59.58157,439.6642,57.16314
Sprite,Foreground,Centre,"sb/highlight.png",489,57 S,2,73050,73290,0.5,0.1 F,2,73050,73290,1,0 P,0,73050,73290,A C,0,73050,,111,111,111
Sprite,Foreground,Centre,"sb/highlight.png",0,0 S,2,73264,73718,0.5,0.1 F,2,73264,73718,1,0 P,0,73264,73718,A C,0,73264,,111,111,111 M,0,73264,73317,555,128,553.9298,145.4636 M,0,73317,73371,553.9298,145.4636,552.1666,162.8681 M,0,73371,73424,552.1666,162.8681,549.609,180.1738 M,0,73424,73478,549.609,180.1738,546.3457,197.363
Sprite,Foreground,Centre,"sb/highlight.png",475,275 S,2,73693,73933,0.5,0.1 F,2,73693,73933,1,0 P,0,73693,73933,A C,0,73693,,225,91,236
Sprite,Foreground,Centre,"sb/highlight.png",537.9872,333.9872 S,2,73907,74147,0.5,0.1 F,2,73907,74147,1,0 P,0,73907,74147,A C,0,73907,,225,91,236
Sprite,Foreground,Centre,"sb/highlight.png",541.9936,337.9936 S,2,74014,74254,0.5,0.1 F,2,74014,74254,1,0 P,0,74014,74254,A C,0,74014,,225,91,236
Sprite,Foreground,Centre,"sb/highlight.png",546,342 S,2,74121,74361,0.5,0.1 F,2,74121,74361,1,0 P,0,74121,74361,A C,0,74121,,225,91,236
Sprite,Foreground,Centre,"sb/highlight.png",494,417 S,2,74335,74575,0.5,0.1 F,2,74335,74575,1,0 P,0,74335,74575,A C,0,74335,,225,91,236
Sprite,Foreground,Centre,"sb/highlight.png",398,367 S,2,74550,74790,0.5,0.1 F,2,74550,74790,1,0 P,0,74550,74790,A C,0,74550,,188,46,185
Sprite,Foreground,Centre,"sb/highlight.png",307,375 S,2,74764,75004,0.5,0.1 F,2,74764,75004,1,0 P,0,74764,75004,A C,0,74764,,188,46,185
Sprite,Foreground,Centre,"sb/highlight.png",0,0 S,2,74978,75432,0.5,0.1 F,2,74978,75432,1,0 P,0,74978,75432,A C,0,74978,,188,46,185 M,0,74978,75031,216,383,198.5738,384.605 M,0,75031,75085,198.5738,384.605,181.1475,386.2101 M,0,75085,75138,181.1475,386.2101,163.7213,387.8152 M,0,75138,75192,163.7213,387.8152,146.295,389.4202
Sprite,Foreground,Centre,"sb/highlight.png",71,316 S,2,75407,75647,0.5,0.1 F,2,75407,75647,1,0 P,0,75407,75647,A C,0,75407,,167,167,167
Sprite,Foreground,Centre,"sb/highlight.png",111,242 S,2,75621,75861,0.5,0.1 F,2,75621,75861,1,0 P,0,75621,75861,A C,0,75621,,167,167,167
Sprite,Foreground,Centre,"sb/highlight.png",193,289 S,2,75835,76075,0.5,0.1 F,2,75835,76075,1,0 P,0,75835,76075,A C,0,75835,,167,167,167
Sprite,Foreground,Centre,"sb/highlight.png",233,215 S,2,76049,76289,0.5,0.1 F,2,76049,76289,1,0 P,0,76049,76289,A C,0,76049,,167,167,167
Sprite,Foreground,Centre,"sb/highlight.png",0,0 S,2,76264,76718,0.5,0.1 F,2,76264,76718,1,0 P,0,76264,76718,A C,0,76264,,111,111,111 M,0,76264,76317,316,251,333.4405,252.1927 M,0,76317,76371,333.4405,252.1927,350.6886,254.9534 M,0,76371,76424,350.6886,254.9534,367.5577,259.4868 M,0,76424,76478,367.5577,259.4868,383.9507,265.5579
Sprite,Foreground,Centre,"sb/highlight.png",414.9936,288.9936 S,2,76585,76825,0.5,0.1 F,2,76585,76825,1,0 P,0,76585,76825,A C,0,76585,,111,111,111
Sprite,Foreground,Centre,"sb/highlight.png",0,0 S,2,76693,77147,0.5,0.1 F,2,76693,77147,1,0 P,0,76693,77147,A C,0,76693,,111,111,111 M,0,76693,76746,419,293,421.5524,310.2357 M,0,76746,76800,421.5524,310.2357,419.6714,327.5277 M,0,76800,76853,419.6714,327.5277,413.4907,343.7617 M,0,76853,76907,413.4907,343.7617,403.6515,358.1239
Sprite,Foreground,Centre,"sb/highlight.png",479,430 S,2,77121,77361,0.5,0.1 F,2,77121,77361,1,0 P,0,77121,77361,A C,0,77121,,225,91,236
Sprite,Foreground,Centre,"sb/highlight.png",542.9872,364.9872 S,2,77335,77575,0.5,0.1 F,2,77335,77575,1,0 P,0,77335,77575,A C,0,77335,,225,91,236
Sprite,Foreground,Centre,"sb/highlight.png",546.9936,368.9936 S,2,77443,77683,0.5,0.1 F,2,77443,77683,1,0 P,0,77443,77683,A C,0,77443,,225,91,236
Sprite,Foreground,Centre,"sb/highlight.png",0,0 S,2,77550,78004,0.5,0.1 F,2,77550,78004,1,0 P,0,77550,78004,A C,0,77550,,225,91,236 M,0,77550,77603,551,373,553.2531,355.6489 M,0,77603,77657,553.2531,355.6489,556.6516,338.4855 M,0,77657,77710,556.6516,338.4855,561.1809,321.5853 M,0,77710,77764,561.1809,321.5853,566.8192,305.0219
Sprite,Foreground,Centre,"sb/highlight.png",452,196 S,2,77978,78218,0.5,0.1 F,2,77978,78218,1,0 P,0,77978,78218,A C,0,77978,,188,46,185
Sprite,Foreground,Centre,"sb/highlight.png",374,135 S,2,78193,78433,0.5,0.1 F,2,78193,78433,1,0 P,0,78193,78433,A C,0,78193,,188,46,185
Sprite,Foreground,Centre,"sb/highlight.png",0,0 S,2,78407,78861,0.5,0.1 F,2,78407,78861,1,0 P,0,78407,78861,A C,0,78407,,188,46,185 M,0,78407,78460,431,56,448.4589,55.41808 M,0,78460,78514,448.4589,55.41808,465.7676,57.68352 M,0,78514,78567,465.7676,57.68352,482.4677,62.73299 M,0,78567,78621,482.4677,62.73299,498.1169,70.43018
Sprite,Foreground,Centre,"sb/highlight.png",570,147 S,2,78835,79075,0.5,0.1 F,2,78835,79075,1,0 P,0,78835,79075,A C,0,78835,,167,167,167
Sprite,Foreground,Centre,"sb/highlight.png",524,234 S,2,79050,79290,0.5,0.1 F,2,79050,79290,1,0 P,0,79050,79290,A C,0,79050,,167,167,167
Sprite,Foreground,Centre,"sb/highlight.png",0,0 S,2,79264,79718,0.5,0.1 F,2,79264,79718,1,0 P,0,79264,79718,A C,0,79264,,167,167,167 M,0,79264,79317,427,219,409.5515,220.3422 M,0,79317,79371,409.5515,220.3422,392.1031,221.6844 M,0,79371,79424,392.1031,221.6844,374.6546,223.0266 M,0,79424,79478,374.6546,223.0266,357.2062,224.3688
Sprite,Foreground,Centre,"sb/highlight.png",0,0 S,2,79693,80147,0.5,0.1 F,2,79693,80147,1,0 P,0,79693,80147,A C,0,79693,,111,111,111 M,0,79693,79746,259,279,243.4702,286.9385 M,0,79746,79800,243.4702,286.9385,226.571,291.1633 M,0,79800,79853,226.571,291.1633,209.1725,291.4656 M,0,79853,79907,209.1725,291.4656,192.1683,287.8367
Sprite,Foreground,Centre,"sb/highlight.png",154.9936,256.9936 S,2,80014,80254,0.5,0.1 F,2,80014,80254,1,0 P,0,80014,80254,A C,0,80014,,111,111,111
Sprite,Foreground,Centre,"sb/highlight.png",159,261 S,2,80121,80361,0.5,0.1 F,2,80121,80361,1,0 P,0,80121,80361,A C,0,80121,,111,111,111
Sprite,Foreground,Centre,"sb/highlight.png",221,74 S,2,80550,80790,0.5,0.1 F,2,80550,80790,1,0 P,0,80550,80790,A C,0,80550,,225,91,236
Sprite,Foreground,Centre,"sb/highlight.png",283.9872,127.9872 S,2,80764,81004,0.5,0.1 F,2,80764,81004,1,0 P,0,80764,81004,A C,0,80764,,225,91,236
Sprite,Foreground,Centre,"sb/highlight.png",287.9936,131.9936 S,2,80871,81111,0.5,0.1 F,2,80871,81111,1,0 P,0,80871,81111,A C,0,80871,,225,91,236
Sprite,Foreground,Centre,"sb/highlight.png",0,0 S,2,80978,81432,0.5,0.1 F,2,80978,81432,1,0 P,0,80978,81432,A C,0,80978,,225,91,236 M,0,80978,81031,292,136,290.1993,153.4071 M,0,81031,81085,290.1993,153.4071,288.3985,170.8142 M,0,81085,81138,288.3985,170.8142,286.5978,188.2213 M,0,81138,81192,286.5978,188.2213,284.7971,205.6284
Sprite,Foreground,Centre,"sb/highlight.png",234,290 S,2,81407,81647,0.5,0.1 F,2,81407,81647,1,0 P,0,81407,81647,A C,0,81407,,188,46,185
Sprite,Foreground,Centre,"sb/highlight.png",289,353 S,2,81621,81861,0.5,0.1 F,2,81621,81861,1,0 P,0,81621,81861,A C,0,81621,,188,46,185
Sprite,Foreground,Centre,"sb/highlight.png",349,295 S,2,81835,82075,0.5,0.1 F,2,81835,82075,1,0 P,0,81835,82075,A C,0,81835,,188,46,185
Sprite,Foreground,Centre,"sb/highlight.png",408,354 S,2,82050,82290,0.5,0.1 F,2,82050,82290,1,0 P,0,82050,82290,A C,0,82050,,188,46,185
Sprite,Foreground,Centre,"sb/highlight.png",0,0 S,2,82264,82718,0.5,0.1 F,2,82264,82718,1,0 P,0,82264,82718,A C,0,82264,,188,46,185 M,0,82264,82317,468,296,469.6263,278.5757 M,0,82317,82371,469.6263,278.5757,471.2525,261.1515 M,0,82371,82424,471.2525,261.1515,472.8788,243.7272 M,0,82424,82478,472.8788,243.7272,474.5051,226.3029
Sprite,Foreground,Centre,"sb/highlight.png",0,0 S,2,82693,83147,0.5,0.1 F,2,82693,83147,1,0 P,0,82693,83147,A C,0,82693,,188,46,185 M,0,82693,82746,553,254,551.2337,271.4106 M,0,82746,82800,551.2337,271.4106,549.4674,288.8213 M,0,82800,82853,549.4674,288.8213,547.7011,306.2319 M,0,82853,82907,547.7011,306.2319,546,323
Sprite,Foreground,Centre,"sb/highlight.png",0,0 S,2,83121,83575,0.5,0.1 F,2,83121,83575,1,0 P,0,83121,83575,A C,0,83121,,167,167,167 M,0,83121,83174,499,409,484.7878,398.9138 M,0,83174,83228,484.7878,398.9138,468.4623,392.8836 M,0,83228,83281,468.4623,392.8836,451.1507,391.314 M,0,83281,83335,451.1507,391.314,434.0454,394.3034
Sprite,Foreground,Centre,"sb/highlight.png",401.9936,421.9936 S,2,83443,83683,0.5,0.1 F,2,83443,83683,1,0 P,0,83443,83683,A C,0,83443,,167,167,167
Sprite,Foreground,Centre,"sb/highlight.png",406,426 S,2,83550,83790,0.5,0.1 F,2,83550,83790,1,0 P,0,83550,83790,A C,0,83550,,167,167,167
Sprite,Foreground,Centre,"sb/highlight.png",0,0 S,2,83978,84539,0.5,0.1 F,2,83978,84539,1,0 P,0,83978,84539,A C,0,83978,,111,111,111 M,0,83978,84031,238,436,235.0015,418.7588 M,0,84031,84085,235.0015,418.7588,232.0031,401.5176 M,0,84085,84138,232.0031,401.5176,235.0015,418.7588 M,0,84138,84192,235.0015,418.7588,238,436 M,0,84192,84245,238,436,235.0015,418.7588 M,0,84245,84299,235.0015,418.7588,232.0031,401.5176
Sprite,Foreground,Centre,"sb/highlight.png",0,0 S,2,84407,84968,0.5,0.1 F,2,84407,84968,1,0 P,0,84407,84968,A C,0,84407,,111,111,111 M,0,84407,84460,254,365,256.9985,347.7588 M,0,84460,84514,256.9985,347.7588,259.9969,330.5176 M,0,84514,84567,259.9969,330.5176,256.9985,347.7588 M,0,84567,84621,256.9985,347.7588,254,365 M,0,84621,84674,254,365,256.9985,347.7588 M,0,84674,84728,256.9985,347.7588,259.9969,330.5176
Sprite,Foreground,Centre,"sb/highlight.png",236,295 S,2,84835,85075,0.5,0.1 F,2,84835,85075,1,0 P,0,84835,85075,A C,0,84835,,111,111,111
Sprite,Foreground,Centre,"sb/highlight.png",233,277 S,2,84943,85183,0.5,0.1 F,2,84943,85183,1,0 P,0,84943,85183,A C,0,84943,,111,111,111
Sprite,Foreground,Centre,"sb/highlight.png",230,259 S,2,85050,85290,0.5,0.1 F,2,85050,85290,1,0 P,0,85050,85290,A C,0,85050,,111,111,111
Sprite,Foreground,Centre,"sb/highlight.png",299,211 S,2,85264,85504,0.5,0.1 F,2,85264,85504,1,0 P,0,85264,85504,A C,0,85264,,111,111,111
Sprite,Foreground,Centre,"sb/highlight.png",0,0 S,2,85693,86254,0.5,0.1 F,2,85693,86254,1,0 P,0,85693,86254,A C,0,85693,,225,91,236 M,0,85693,85746,419,375,398.1096,372.8574 M,0,85746,85800,398.1096,372.8574,378.5184,373.3705 M,0,85800,85853,378.5184,373.3705,369.82,374.36 M,0,85853,85907,369.82,374.36,351.1375,376.4867 M,0,85907,85960,351.1375,376.4867,330.2215,374.6096 M,0,85960,86014,330.2215,374.6096,309.3055,372.7325
Sprite,Foreground,Centre,"sb/highlight.png",270,369 S,2,86121,86361,0.5,0.1 F,2,86121,86361,1,0 P,0,86121,86361,A C,0,86121,,225,91,236
Sprite,Foreground,Centre,"sb/highlight.png",226.9872,280.9872 S,2,86335,86575,0.5,0.1 F,2,86335,86575,1,0 P,0,86335,86575,A C,0,86335,,225,91,236
Sprite,Foreground,Centre,"sb/highlight.png",230.9936,284.9936 S,2,86443,86683,0.5,0.1 F,2,86443,86683,1,0 P,0,86443,86683,A C,0,86443,,225,91,236
Sprite,Foreground,Centre,"sb/highlight.png",235,289 S,2,86550,86790,0.5,0.1 F,2,86550,86790,1,0 P,0,86550,86790,A C,0,86550,,225,91,236
Sprite,Foreground,Centre,"sb/highlight.png",156,330 S,2,86764,87004,0.5,0.1 F,2,86764,87004,1,0 P,0,86764,87004,A C,0,86764,,225,91,236
Sprite,Foreground,Centre,"sb/highlight.png",0,0 S,2,86978,87432,0.5,0.1 F,2,86978,87432,1,0 P,0,86978,87432,A C,0,86978,,225,91,236 M,0,86978,87031,103,254,98.14758,233.5766 M,0,87031,87085,98.14758,233.5766,94.69033,212.8742 M,0,87085,87138,94.69033,212.8742,92.62219,191.9884 M,0,87138,87192,92.62219,191.9884,92.00209,171.004
Sprite,Foreground,Centre,"sb/highlight.png",99.9936,125.9936 S,2,87300,87540,0.5,0.1 F,2,87300,87540,1,0 P,0,87300,87540,A C,0,87300,,188,46,185
Sprite,Foreground,Centre,"sb/highlight.png",0,0 S,2,87407,87968,0.5,0.1 F,2,87407,87968,1,0 P,0,87407,87968,A C,0,87407,,188,46,185 M,0,87407,87460,104,130,118.7508,115.3259 M,0,87460,87514,118.7508,115.3259,137.2898,105.9363 M,0,87514,87567,137.2898,105.9363,157.9704,103.9288 M,0,87567,87621,157.9704,103.9288,178.1591,108.6338 M,0,87621,87674,178.1591,108.6338,195.7136,119.8429 M,0,87674,87728,195.7136,119.8429,207.8477,136.7307
Sprite,Foreground,Centre,"sb/highlight.png",200,177 S,2,87835,88075,0.5,0.1 F,2,87835,88075,1,0 P,0,87835,88075,A C,0,87835,,188,46,185
Sprite,Foreground,Centre,"sb/highlight.png",284,221 S,2,88050,88290,0.5,0.1 F,2,88050,88290,1,0 P,0,88050,88290,A C,0,88050,,188,46,185
Sprite,Foreground,Centre,"sb/highlight.png",304,219 S,2,88157,88397,0.5,0.1 F,2,88157,88397,1,0 P,0,88157,88397,A C,0,88157,,188,46,185
Sprite,Foreground,Centre,"sb/highlight.png",0,0 S,2,88264,88825,0.5,0.1 F,2,88264,88825,1,0 P,0,88264,88825,A C,0,88264,,188,46,185 M,0,88264,88317,324,217,344.925,215.2267 M,0,88317,88371,344.925,215.2267,365.85,213.4534 M,0,88371,88424,365.85,213.4534,344.925,215.2267 M,0,88424,88478,344.925,215.2267,324,217 M,0,88478,88531,324,217,344.925,215.2267 M,0,88531,88585,344.925,215.2267,365.85,213.4534
Sprite,Foreground,Centre,"sb/highlight.png",0,0 S,2,88693,89147,0.5,0.1 F,2,88693,89147,1,0 P,0,88693,89147,A C,0,88693,,188,46,185 M,0,88693,88746,401,184,421.8316,186.6426 M,0,88746,88800,421.8316,186.6426,442.7302,188.6836 M,0,88800,88853,442.7302,188.6836,463.6779,190.1336 M,0,88853,88907,463.6779,190.1336,484.6604,190.9631
Sprite,Foreground,Centre,"sb/highlight.png",0,0 S,2,89121,89575,0.5,0.1 F,2,89121,89575,1,0 P,0,89121,89575,A C,0,89121,,167,167,167 M,0,89121,89174,552,288,533.846,298.1841 M,0,89174,89228,533.846,298.1841,519.949,313.5931 M,0,89228,89281,519.949,313.5931,511.563,332.5537 M,0,89281,89335,511.563,332.5537,509.9024,353.3394
Sprite,Foreground,Centre,"sb/highlight.png",522.9936,391.9936 S,2,89443,89683,0.5,0.1 F,2,89443,89683,1,0 P,0,89443,89683,A C,0,89443,,167,167,167
Sprite,Foreground,Centre,"sb/highlight.png",0,0 S,2,89550,90004,0.5,0.1 F,2,89550,90004,1,0 P,0,89550,90004,A C,0,89550,,167,167,167 M,0,89550,89603,527,396,506.0143,395.2431 M,0,89603,89657,506.0143,395.2431,485.0446,394.1254 M,0,89657,89710,485.0446,394.1254,464.1032,392.5662 M,0,89710,89764,464.1032,392.5662,443.1917,390.6471
Sprite,Foreground,Centre,"sb/highlight.png",0,0 S,2,89978,90432,0.5,0.1 F,2,89978,90432,1,0 P,0,89978,90432,A C,0,89978,,167,167,167 M,0,89978,90031,385,329,378.677,309.0566 M,0,90031,90085,378.677,309.0566,376.7251,288.2554 M,0,90085,90138,376.7251,288.2554,378.677,309.0566 M,0,90138,90192,378.677,309.0566,385,329
Sprite,Foreground,Centre,"sb/highlight.png",0,0 S,2,90407,90861,0.5,0.1 F,2,90407,90861,1,0 P,0,90407,90861,A C,0,90407,,167,167,167 M,0,90407,90460,321,384,303.4502,395.5327 M,0,90460,90514,303.4502,395.5327,285.8835,406.9749 M,0,90514,90567,285.8835,406.9749,265.3555,402.5473 M,0,90567,90621,265.3555,402.5473,244.8276,398.1197
Sprite,Foreground,Centre,"sb/highlight.png",216,286 S,2,90835,91075,0.5,0.1 F,2,90835,91075,1,0 P,0,90835,91075,A C,0,90835,,111,111,111
Sprite,Foreground,Centre,"sb/highlight.png",140,261 S,2,91050,91290,0.5,0.1 F,2,91050,91290,1,0 P,0,91050,91290,A C,0,91050,,111,111,111
Sprite,Foreground,Centre,"sb/highlight.png",140,181 S,2,91264,91504,0.5,0.1 F,2,91264,91504,1,0 P,0,91264,91504,A C,0,91264,,111,111,111
Sprite,Foreground,Centre,"sb/highlight.png",214.9872,150.9872 S,2,91478,91718,0.5,0.1 F,2,91478,91718,1,0 P,0,91478,91718,A C,0,91478,,111,111,111
Sprite,Foreground,Centre,"sb/highlight.png",218.9936,154.9936 S,2,91585,91825,0.5,0.1 F,2,91585,91825,1,0 P,0,91585,91825,A C,0,91585,,111,111,111
Sprite,Foreground,Centre,"sb/highlight.png",0,0 S,2,91693,92254,0.5,0.1 F,2,91693,92254,1,0 P,0,91693,92254,A C,0,91693,,111,111,111 M,0,91693,91746,223,159,236.726,174.8933 M,0,91746,91800,236.726,174.8933,250.452,190.7866 M,0,91800,91853,250.452,190.7866,261.6876,207.8134 M,0,91853,91907,261.6876,207.8134,274.2046,224.2883 M,0,91907,91960,274.2046,224.2883,287.8438,240.2561 M,0,91960,92014,287.8438,240.2561,301.483,256.224
Sprite,Foreground,Centre,"sb/highlight.png",0,0 S,2,92121,92575,0.5,0.1 F,2,92121,92575,1,0 P,0,92121,92575,A C,0,92121,,111,111,111 M,0,92121,92174,326,294,346.2675,298.7277 M,0,92174,92228,346.2675,298.7277,367.064,297.2539 M,0,92228,92281,367.064,297.2539,385.7922,288.1793 M,0,92281,92335,385.7922,288.1793,401,274
Sprite,Foreground,Centre,"sb/highlight.png",410.9936,220.9936 S,2,92443,92683,0.5,0.1 F,2,92443,92683,1,0 P,0,92443,92683,A C,0,92443,,111,111,111
Sprite,Foreground,Centre,"sb/highlight.png",0,0 S,2,92550,93111,0.5,0.1 F,2,92550,93111,1,0 P,0,92550,93111,A C,0,92550,,225,91,236 M,0,92550,92603,415,225,417.389,204.1363 M,0,92603,92657,417.389,204.1363,419.778,183.2727 M,0,92657,92710,419.778,183.2727,422.1669,162.409 M,0,92710,92764,422.1669,162.409,424.5559,141.5453 M,0,92764,92817,424.5559,141.5453,426.9449,120.6816 M,0,92817,92871,426.9449,120.6816,429.3338,99.81798
Sprite,Foreground,Centre,"sb/highlight.png",465,64 S,2,92978,93218,0.5,0.1 F,2,92978,93218,1,0 P,0,92978,93218,A C,0,92978,,225,91,236
Sprite,Foreground,Centre,"sb/highlight.png",543.9872,106.9872 S,2,93193,93433,0.5,0.1 F,2,93193,93433,1,0 P,0,93193,93433,A C,0,93193,,225,91,236
Sprite,Foreground,Centre,"sb/highlight.png",547.9936,110.9936 S,2,93300,93540,0.5,0.1 F,2,93300,93540,1,0 P,0,93300,93540,A C,0,93300,,225,91,236
Sprite,Foreground,Centre,"sb/highlight.png",0,0 S,2,93407,93861,0.5,0.1 F,2,93407,93861,1,0 P,0,93407,93861,A C,0,93407,,225,91,236 M,0,93407,93460,552,115,549.5698,135.8589 M,0,93460,93514,549.5698,135.8589,547.1396,156.7178 M,0,93514,93567,547.1396,156.7178,544.7095,177.5768 M,0,93567,93621,544.7095,177.5768,542.2793,198.4357
Sprite,Foreground,Centre,"sb/highlight.png",481,279 S,2,93835,94075,0.5,0.1 F,2,93835,94075,1,0 P,0,93835,94075,A C,0,93835,,225,91,236
Sprite,Foreground,Centre,"sb/highlight.png",406,210 S,2,94050,94290,0.5,0.1 F,2,94050,94290,1,0 P,0,94050,94290,A C,0,94050,,225,91,236
Sprite,Foreground,Centre,"sb/highlight.png",0,0 S,2,94264,94718,0.5,0.1 F,2,94264,94718,1,0 P,0,94264,94718,A C,0,94264,,188,46,185 M,0,94264,94317,329,275,309.3547,282.1907 M,0,94317,94371,309.3547,282.1907,288.675,285.4028 M,0,94371,94424,288.675,285.4028,267.8465,283.496 M,0,94424,94478,267.8465,283.496,247.8025,277.5109
Sprite,Foreground,Centre,"sb/highlight.png",194,191 S,2,94693,94933,0.5,0.1 F,2,94693,94933,1,0 P,0,94693,94933,A C,0,94693,,188,46,185
Sprite,Foreground,Centre,"sb/highlight.png",99,225 S,2,94907,95147,0.5,0.1 F,2,94907,95147,1,0 P,0,94907,95147,A C,0,94907,,188,46,185
Sprite,Foreground,Centre,"sb/highlight.png",103,245 S,2,95014,95254,0.5,0.1 F,2,95014,95254,1,0 P,0,95014,95254,A C,0,95014,,188,46,185
Sprite,Foreground,Centre,"sb/highlight.png",0,0 S,2,95121,95682,0.5,0.1 F,2,95121,95682,1,0 P,0,95121,95682,A C,0,95121,,188,46,185 M,0,95121,95174,107,265,110.5157,285.7036 M,0,95174,95228,110.5157,285.7036,114.0314,306.4072 M,0,95228,95281,114.0314,306.4072,110.5157,285.7036 M,0,95281,95335,110.5157,285.7036,107,265 M,0,95335,95388,107,265,110.5157,285.7036 M,0,95388,95442,110.5157,285.7036,114.0314,306.4072
Sprite,Foreground,Centre,"sb/highlight.png",0,0 S,2,95550,96004,0.5,0.1 F,2,95550,96004,1,0 P,0,95550,96004,A C,0,95550,,188,46,185 M,0,95550,95603,147,332,150.8847,352.6376 M,0,95603,95657,150.8847,352.6376,154.7694,373.2751 M,0,95657,95710,154.7694,373.2751,158.6541,393.9127 M,0,95710,95764,158.6541,393.9127,162.5389,414.5502
Sprite,Foreground,Centre,"sb/highlight.png",285,439 S,2,95978,96218,0.5,0.1 F,2,95978,96218,1,0 P,0,95978,96218,A C,0,95978,,167,167,167
Sprite,Foreground,Centre,"sb/highlight.png",333,370 S,2,96193,96433,0.5,0.1 F,2,96193,96433,1,0 P,0,96193,96433,A C,0,96193,,167,167,167
Sprite,Foreground,Centre,"sb/highlight.png",0,0 S,2,96407,96861,0.5,0.1 F,2,96407,96861,1,0 P,0,96407,96861,A C,0,96407,,167,167,167 M,0,96407,96460,283,302,266.2675,289.6125 M,0,96460,96514,266.2675,289.6125,254.3214,272.6351 M,0,96514,96567,254.3214,272.6351,248.3338,252.7963 M,0,96567,96621,248.3338,252.7963,249.4517,232.0672
Sprite,Foreground,Centre,"sb/highlight.png",0,0 S,2,96835,97289,0.5,0.1 F,2,96835,97289,1,0 P,0,96835,97289,A C,0,96835,,167,167,167 M,0,96835,96888,303,168,323.7533,171.2093 M,0,96888,96942,323.7533,171.2093,344.5067,174.4185 M,0,96942,96995,344.5067,174.4185,365.26,177.6278 M,0,96995,97049,365.26,177.6278,386.0133,180.8371
Sprite,Foreground,Centre,"sb/highlight.png",417.9936,153.9936 S,2,97157,97397,0.5,0.1 F,2,97157,97397,1,0 P,0,97157,97397,A C,0,97157,,167,167,167
Sprite,Foreground,Centre,"sb/highlight.png",422,158 S,2,97264,97504,0.5,0.1 F,2,97264,97504,1,0 P,0,97264,97504,A C,0,97264,,167,167,167
Sprite,Foreground,Centre,"sb/highlight.png",490,206 S,2,97478,97718,0.5,0.1 F,2,97478,97718,1,0 P,0,97478,97718,A C,0,97478,,167,167,167
Sprite,Foreground,Centre,"sb/highlight.png",0,0 S,2,97693,98254,0.5,0.1 F,2,97693,98254,1,0 P,0,97693,98254,A C,0,97693,,111,111,111 M,0,97693,97746,556,153,546.7454,134.4022 M,0,97746,97800,546.7454,134.4022,531.9329,119.7891 M,0,97800,97853,531.9329,119.7891,546.7454,134.4022 M,0,97853,97907,546.7454,134.4022,556,153 M,0,97907,97960,556,153,546.7454,134.4022 M,0,97960,98014,546.7454,134.4022,531.9329,119.7891
Sprite,Foreground,Centre,"sb/highlight.png",0,0 S,2,98121,98682,0.5,0.1 F,2,98121,98682,1,0 P,0,98121,98682,A C,0,98121,,111,111,111 M,0,98121,98174,509,83,488.3071,81.19171 M,0,98174,98228,488.3071,81.19171,468.3825,86.78302 M,0,98228,98281,468.3825,86.78302,488.3071,81.19171 M,0,98281,98335,488.3071,81.19171,509,83 M,0,98335,98388,509,83,488.3071,81.19171 M,0,98388,98442,488.3071,81.19171,468.3825,86.78302
Sprite,Foreground,Centre,"sb/highlight.png",0,0 S,2,98550,99111,0.5,0.1 F,2,98550,99111,1,0 P,0,98550,99111,A C,0,98550,,111,111,111 M,0,98550,98603,424,88,412.1932,105.0828 M,0,98603,98657,412.1932,105.0828,406.7087,125.1312 M,0,98657,98710,406.7087,125.1312,412.1932,105.0828 M,0,98710,98764,412.1932,105.0828,424,88 M,0,98764,98817,424,88,412.1932,105.0828 M,0,98817,98871,412.1932,105.0828,406.7087,125.1312
Sprite,Foreground,Centre,"sb/highlight.png",370,145 S,2,98978,99218,0.5,0.1 F,2,98978,99218,1,0 P,0,98978,99218,A C,0,98978,,111,111,111
Sprite,Foreground,Centre,"sb/highlight.png",0,0 S,2,99407,99861,0.5,0.1 F,2,99407,99861,1,0 P,0,99407,99861,A C,0,99407,,225,91,236 M,0,99407,99460,397,344,401.2256,324.832 M,0,99460,99514,401.2256,324.832,397.2351,304.2147 M,0,99514,99567,397.2351,304.2147,393.2446,283.5973 M,0,99567,99621,393.2446,283.5973,395.8694,264.209
Sprite,Foreground,Centre,"sb/highlight.png",469,195 S,2,99835,100075,0.5,0.1 F,2,99835,100075,1,0 P,0,99835,100075,A C,0,99835,,225,91,236
Sprite,Foreground,Centre,"sb/highlight.png",535.9872,261.9872 S,2,100050,100290,0.5,0.1 F,2,100050,100290,1,0 P,0,100050,100290,A C,0,100050,,225,91,236
Sprite,Foreground,Centre,"sb/highlight.png",539.9936,265.9936 S,2,100157,100397,0.5,0.1 F,2,100157,100397,1,0 P,0,100157,100397,A C,0,100157,,225,91,236
Sprite,Foreground,Centre,"sb/highlight.png",0,0 S,2,100264,100825,0.5,0.1 F,2,100264,100825,1,0 P,0,100264,100825,A C,0,100264,,225,91,236 M,0,100264,100317,544,270,540.2434,290.6613 M,0,100317,100371,540.2434,290.6613,536.4868,311.3225 M,0,100371,100424,536.4868,311.3225,540.2434,290.6613 M,0,100424,100478,540.2434,290.6613,544,270 M,0,100478,100531,544,270,540.2434,290.6613 M,0,100531,100585,540.2434,290.6613,536.4868,311.3225
Sprite,Foreground,Centre,"sb/highlight.png",0,0 S,2,100693,101147,0.5,0.1 F,2,100693,101147,1,0 P,0,100693,101147,A C,0,100693,,225,91,236 M,0,100693,100746,550,360,529.2949,363.3997 M,0,100746,100800,529.2949,363.3997,509.0385,368.8481 M,0,100800,100853,509.0385,368.8481,489.4217,376.2689 M,0,100853,100907,489.4217,376.2689,470.6465,385.6444
Sprite,Foreground,Centre,"sb/highlight.png",437.9936,419.9936 S,2,101014,101254,0.5,0.1 F,2,101014,101254,1,0 P,0,101014,101254,A C,0,101014,,188,46,185
Sprite,Foreground,Centre,"sb/highlight.png",0,0 S,2,101121,101682,0.5,0.1 F,2,101121,101682,1,0 P,0,101121,101682,A C,0,101121,,188,46,185 M,0,101121,101174,442,424,421.3489,420.1973 M,0,101174,101228,421.3489,420.1973,400.5905,417.0356 M,0,101228,101281,400.5905,417.0356,379.745,414.515 M,0,101281,101335,379.745,414.515,358.8261,412.6968 M,0,101335,101388,358.8261,412.6968,337.8615,411.5222 M,0,101388,101442,337.8615,411.5222,316.869,411.0552
Sprite,Foreground,Centre,"sb/highlight.png",267,422 S,2,101550,101790,0.5,0.1 F,2,101550,101790,1,0 P,0,101550,101790,A C,0,101550,,188,46,185
Sprite,Foreground,Centre,"sb/highlight.png",185,356 S,2,101764,102004,0.5,0.1 F,2,101764,102004,1,0 P,0,101764,102004,A C,0,101764,,188,46,185
Sprite,Foreground,Centre,"sb/highlight.png",178,336 S,2,101871,102111,0.5,0.1 F,2,101871,102111,1,0 P,0,101871,102111,A C,0,101871,,188,46,185
Sprite,Foreground,Centre,"sb/highlight.png",181,315 S,2,101978,102218,0.5,0.1 F,2,101978,102218,1,0 P,0,101978,102218,A C,0,101978,,188,46,185
Sprite,Foreground,Centre,"sb/highlight.png",189,295 S,2,102085,102325,0.5,0.1 F,2,102085,102325,1,0 P,0,102085,102325,A C,0,102085,,188,46,185
Sprite,Foreground,Centre,"sb/highlight.png",205,281 S,2,102193,102433,0.5,0.1 F,2,102193,102433,1,0 P,0,102193,102433,A C,0,102193,,188,46,185
Sprite,Foreground,Centre,"sb/highlight.png",0,0 S,2,102407,102968,0.5,0.1 F,2,102407,102968,1,0 P,0,102407,102968,A C,0,102407,,188,46,185 M,0,102407,102460,303,262,299.6258,241.2728 M,0,102460,102514,299.6258,241.2728,296.2516,220.5457 M,0,102514,102567,296.2516,220.5457,299.6258,241.2729 M,0,102567,102621,299.6258,241.2729,303,262 M,0,102621,102674,303,262,299.6258,241.2728 M,0,102674,102728,299.6258,241.2728,296.2516,220.5457
Sprite,Foreground,Centre,"sb/highlight.png",0,0 S,2,102835,103289,0.5,0.1 F,2,102835,103289,1,0 P,0,102835,103289,A C,0,102835,,167,167,167 M,0,102835,102888,317,174,320.8411,153.3543 M,0,102888,102942,320.8411,153.3543,324.6821,132.7085 M,0,102942,102995,324.6821,132.7085,320.8411,153.3543 M,0,102995,103049,320.8411,153.3543,317,174
Sprite,Foreground,Centre,"sb/highlight.png",250,85 S,2,103264,103504,0.5,0.1 F,2,103264,103504,1,0 P,0,103264,103504,A C,0,103264,,167,167,167
Sprite,Foreground,Centre,"sb/highlight.png",148.9872,114.9872 S,2,103478,103718,0.5,0.1 F,2,103478,103718,1,0 P,0,103478,103718,A C,0,103478,,167,167,167
Sprite,Foreground,Centre,"sb/highlight.png",152.9936,118.9936 S,2,103585,103825,0.5,0.1 F,2,103585,103825,1,0 P,0,103585,103825,A C,0,103585,,167,167,167
Sprite,Foreground,Centre,"sb/highlight.png",0,0 S,2,103693,104254,0.5,0.1 F,2,103693,104254,1,0 P,0,103693,104254,A C,0,103693,,167,167,167 M,0,103693,103746,157,123,153.4658,143.7005 M,0,103746,103800,153.4658,143.7005,150,164 M,0,103800,103853,150,164,153.4658,143.7005 M,0,103853,103907,153.4658,143.7005,157,123 M,0,103907,103960,157,123,153.4658,143.7005 M,0,103960,104014,153.4658,143.7005,150,164
Sprite,Foreground,Centre,"sb/highlight.png",0,0 S,2,104121,104682,0.5,0.1 F,2,104121,104682,1,0 P,0,104121,104682,A C,0,104121,,167,167,167 M,0,104121,104174,117,203,120.5342,223.7005 M,0,104174,104228,120.5342,223.7005,124,244 M,0,104228,104281,124,244,120.5342,223.7005 M,0,104281,104335,120.5342,223.7005,117,203 M,0,104335,104388,117,203,120.5342,223.7005 M,0,104388,104442,120.5342,223.7005,124,244
Sprite,Foreground,Centre,"sb/highlight.png",107,292 S,2,104550,104790,0.5,0.1 F,2,104550,104790,1,0 P,0,104550,104790,A C,0,104550,,111,111,111
Sprite,Foreground,Centre,"sb/highlight.png",105,308 S,2,104657,104897,0.5,0.1 F,2,104657,104897,1,0 P,0,104657,104897,A C,0,104657,,111,111,111
Sprite,Foreground,Centre,"sb/highlight.png",102,324 S,2,104764,105004,0.5,0.1 F,2,104764,105004,1,0 P,0,104764,105004,A C,0,104764,,111,111,111
Sprite,Foreground,Centre,"sb/highlight.png",155,404 S,2,104978,105218,0.5,0.1 F,2,104978,105218,1,0 P,0,104978,105218,A C,0,104978,,111,111,111
Sprite,Foreground,Centre,"sb/highlight.png",234,342 S,2,105193,105433,0.5,0.1 F,2,105193,105433,1,0 P,0,105193,105433,A C,0,105193,,111,111,111
Sprite,Foreground,Centre,"sb/highlight.png",254,340 S,2,105300,105540,0.5,0.1 F,2,105300,105540,1,0 P,0,105300,105540,A C,0,105300,,111,111,111
Sprite,Foreground,Centre,"sb/highlight.png",0,0 S,2,105407,105968,0.5,0.1 F,2,105407,105968,1,0 P,0,105407,105968,A C,0,105407,,111,111,111 M,0,105407,105460,274,338,294.8236,335.2839 M,0,105460,105514,294.8236,335.2839,315.6472,332.5677 M,0,105514,105567,315.6472,332.5677,294.8236,335.2839 M,0,105567,105621,294.8236,335.2839,274,338 M,0,105621,105674,274,338,294.8236,335.2839 M,0,105674,105728,294.8236,335.2839,315.6472,332.5677
Sprite,Foreground,Centre,"sb/highlight.png",355,302 S,2,105835,106075,0.5,0.1 F,2,105835,106075,1,0 P,0,105835,106075,A C,0,105835,,111,111,111
Sprite,Foreground,Centre,"sb/highlight.png",376,304 S,2,105943,106183,0.5,0.1 F,2,105943,106183,1,0 P,0,105943,106183,A C,0,105943,,111,111,111
Sprite,Foreground,Centre,"sb/highlight.png",396,307 S,2,106050,106290,0.5,0.1 F,2,106050,106290,1,0 P,0,106050,106290,A C,0,106050,,111,111,111
Sprite,Foreground,Centre,"sb/highlight.png",0,0 S,2,106264,106718,0.5,0.1 F,2,106264,106718,1,0 P,0,106264,106718,A C,0,106264,,225,91,236 M,0,106264,106317,486,246,495.2355,229.1851 M,0,106317,106371,495.2355,229.1851,491.854,208.4644 M,0,106371,106424,491.854,208.4644,486.8315,188.0801 M,0,106424,106478,486.8315,188.0801,473.0199,175.6215
Sprite,Foreground,Centre,"sb/highlight.png",432.9936,162.9936 S,2,106585,106825,0.5,0.1 F,2,106585,106825,1,0 P,0,106585,106825,A C,0,106585,,225,91,236
Sprite,Foreground,Centre,"sb/highlight.png",437,167 S,2,106693,106933,0.5,0.1 F,2,106693,106933,1,0 P,0,106693,106933,A C,0,106693,,225,91,236
Sprite,Foreground,Centre,"sb/highlight.png",351.9872,92.9872 S,2,106907,107147,0.5,0.1 F,2,106907,107147,1,0 P,0,106907,107147,A C,0,106907,,225,91,236
Sprite,Foreground,Centre,"sb/highlight.png",355.9936,96.9936 S,2,107014,107254,0.5,0.1 F,2,107014,107254,1,0 P,0,107014,107254,A C,0,107014,,225,91,236
Sprite,Foreground,Centre,"sb/highlight.png",0,0 S,2,107121,107682,0.5,0.1 F,2,107121,107682,1,0 P,0,107121,107682,A C,0,107121,,225,91,236 M,0,107121,107174,360,101,339.0928,102.9724 M,0,107174,107228,339.0928,102.9724,318.1857,104.9447 M,0,107228,107281,318.1857,104.9447,339.0928,102.9724 M,0,107281,107335,339.0928,102.9724,360,101 M,0,107335,107388,360,101,339.0928,102.9724 M,0,107388,107442,339.0928,102.9724,318.1857,104.9447
Sprite,Foreground,Centre,"sb/highlight.png",0,0 S,2,107550,108111,0.5,0.1 F,2,107550,108111,1,0 P,0,107550,108111,A C,0,107550,,225,91,236 M,0,107550,107603,280,136,259.0928,134.0276 M,0,107603,107657,259.0928,134.0276,238.1857,132.0553 M,0,107657,107710,238.1857,132.0553,259.0928,134.0276 M,0,107710,107764,259.0928,134.0276,280,136 M,0,107764,107817,280,136,259.0928,134.0276 M,0,107817,107871,259.0928,134.0276,238.1857,132.0553
Sprite,Foreground,Centre,"sb/highlight.png",0,0 S,2,107978,108432,0.5,0.1 F,2,107978,108432,1,0 P,0,107978,108432,A C,0,107978,,188,46,185 M,0,107978,108031,194,106,173.1013,107.8196 M,0,108031,108085,173.1013,107.8196,152.5059,111.8076 M,0,108085,108138,152.5059,111.8076,132.5896,118.3895 M,0,108138,108192,132.5896,118.3895,113.4658,127.0126
Sprite,Foreground,Centre,"sb/highlight.png",82.9936,165.9936 S,2,108300,108540,0.5,0.1 F,2,108300,108540,1,0 P,0,108300,108540,A C,0,108300,,188,46,185
Sprite,Foreground,Centre,"sb/highlight.png",87,170 S,2,108407,108647,0.5,0.1 F,2,108407,108647,1,0 P,0,108407,108647,A C,0,108407,,188,46,185
Sprite,Foreground,Centre,"sb/highlight.png",155,247 S,2,108621,108861,0.5,0.1 F,2,108621,108861,1,0 P,0,108621,108861,A C,0,108621,,188,46,185
Sprite,Foreground,Centre,"sb/highlight.png",156,267 S,2,108728,108968,0.5,0.1 F,2,108728,108968,1,0 P,0,108728,108968,A C,0,108728,,188,46,185
Sprite,Foreground,Centre,"sb/highlight.png",158,288 S,2,108835,109075,0.5,0.1 F,2,108835,109075,1,0 P,0,108835,109075,A C,0,108835,,188,46,185
Sprite,Foreground,Centre,"sb/highlight.png",160,309 S,2,108942,109182,0.5,0.1 F,2,108942,109182,1,0 P,0,108942,109182,A C,0,108942,,188,46,185
Sprite,Foreground,Centre,"sb/highlight.png",161,330 S,2,109049,109289,0.5,0.1 F,2,109049,109289,1,0 P,0,109049,109289,A C,0,109049,,188,46,185
Sprite,Foreground,Centre,"sb/highlight.png",0,0 S,2,109264,109825,0.5,0.1 F,2,109264,109825,1,0 P,0,109264,109825,A C,0,109264,,188,46,185 M,0,109264,109317,250,391,252.9021,370.2015 M,0,109317,109371,252.9021,370.2015,255.8042,349.403 M,0,109371,109424,255.8042,349.403,252.9021,370.2015 M,0,109424,109478,252.9021,370.2015,250,391 M,0,109478,109531,250,391,252.9021,370.2015 M,0,109531,109585,252.9021,370.2015,255.8042,349.403
Sprite,Foreground,Centre,"sb/highlight.png",283,306 S,2,109693,109933,0.5,0.1 F,2,109693,109933,1,0 P,0,109693,109933,A C,0,109693,,167,167,167
Sprite,Foreground,Centre,"sb/highlight.png",307,301 S,2,109800,110040,0.5,0.1 F,2,109800,110040,1,0 P,0,109800,110040,A C,0,109800,,167,167,167
Sprite,Foreground,Centre,"sb/highlight.png",0,0 S,2,109907,110361,0.5,0.1 F,2,109907,110361,1,0 P,0,109907,110361,A C,0,109907,,167,167,167 M,0,109907,109960,329,312,349.7505,308.7722 M,0,109960,110014,349.7505,308.7722,370.5009,305.5443 M,0,110014,110067,370.5009,305.5443,349.7504,308.7722 M,0,110067,110121,349.7504,308.7722,329,312
Sprite,Foreground,Centre,"sb/highlight.png",395.9872,387.9872 S,2,110335,110575,0.5,0.1 F,2,110335,110575,1,0 P,0,110335,110575,A C,0,110335,,167,167,167
Sprite,Foreground,Centre,"sb/highlight.png",399.9936,391.9936 S,2,110443,110683,0.5,0.1 F,2,110443,110683,1,0 P,0,110443,110683,A C,0,110443,,167,167,167
Sprite,Foreground,Centre,"sb/highlight.png",0,0 S,2,110550,111111,0.5,0.1 F,2,110550,111111,1,0 P,0,110550,111111,A C,0,110550,,167,167,167 M,0,110550,110603,404,396,424.7985,398.9021 M,0,110603,110657,424.7985,398.9021,445.597,401.8042 M,0,110657,110710,445.597,401.8042,424.7985,398.9021 M,0,110710,110764,424.7985,398.9021,404,396 M,0,110764,110817,404,396,424.7985,398.9021 M,0,110817,110871,424.7985,398.9021,445.597,401.8042
Sprite,Foreground,Centre,"sb/highlight.png",0,0 S,2,110978,111432,0.5,0.1 F,2,110978,111432,1,0 P,0,110978,111432,A C,0,110978,,167,167,167 M,0,110978,111031,490,424,484.5521,403.7355 M,0,111031,111085,484.5521,403.7355,481.0511,383.051 M,0,111085,111138,481.0511,383.051,479.5229,362.1311 M,0,111138,111192,479.5229,362.1311,479.9913,341.1491
Sprite,Foreground,Centre,"sb/highlight.png",493.9936,293.9936 S,2,111300,111540,0.5,0.1 F,2,111300,111540,1,0 P,0,111300,111540,A C,0,111300,,111,111,111
Sprite,Foreground,Centre,"sb/highlight.png",498,298 S,2,111407,111647,0.5,0.1 F,2,111407,111647,1,0 P,0,111407,111647,A C,0,111407,,111,111,111
Sprite,Foreground,Centre,"sb/highlight.png",568,238 S,2,111621,111861,0.5,0.1 F,2,111621,111861,1,0 P,0,111621,111861,A C,0,111621,,111,111,111
Sprite,Foreground,Centre,"sb/highlight.png",490,188 S,2,111835,112075,0.5,0.1 F,2,111835,112075,1,0 P,0,111835,112075,A C,0,111835,,111,111,111
Sprite,Foreground,Centre,"sb/highlight.png",555.9872,123.9872 S,2,112050,112290,0.5,0.1 F,2,112050,112290,1,0 P,0,112050,112290,A C,0,112050,,111,111,111
Sprite,Foreground,Centre,"sb/highlight.png",559.9936,127.9936 S,2,112157,112397,0.5,0.1 F,2,112157,112397,1,0 P,0,112157,112397,A C,0,112157,,111,111,111
Sprite,Foreground,Centre,"sb/highlight.png",0,0 S,2,112264,112825,0.5,0.1 F,2,112264,112825,1,0 P,0,112264,112825,A C,0,112264,,111,111,111 M,0,112264,112317,564,132,559.37,111.5579 M,0,112317,112371,559.37,111.5579,552,92 M,0,112371,112424,552,92,559.37,111.5579 M,0,112424,112478,559.37,111.5579,564,132 M,0,112478,112531,564,132,559.37,111.5579 M,0,112531,112585,559.37,111.5579,552,92
Sprite,Foreground,Centre,"sb/highlight.png",0,0 S,2,112693,113254,0.5,0.1 F,2,112693,113254,1,0 P,0,112693,113254,A C,0,112693,,111,111,111 M,0,112693,112746,514,73,493.2705,70.27218 M,0,112746,112800,493.2705,70.27218,472.4104,71.93047 M,0,112800,112853,472.4104,71.93047,493.2705,70.27218 M,0,112853,112907,493.2705,70.27218,514,73 M,0,112907,112960,514,73,493.2705,70.27218 M,0,112960,113014,493.2705,70.27218,472.4104,71.93047
//Storyboard Sound Samples

[TimingPoints]
1693,428.571428571429,4,2,1,30,1,0
1907,-100,4,2,1,35,0,0
2121,-100,4,2,1,40,0,0
2335,-100,4,2,1,45,0,0
2550,-100,4,2,1,50,0,0
2764,-100,4,2,1,55,0,0
2978,-100,4,2,1,60,0,0
3407,-111.111111111111,4,2,1,60,0,0
10264,-133.333333333333,4,2,1,70,0,0
13264,-133.333333333333,4,2,1,20,0,0
13371,-133.333333333333,4,2,1,22,0,0
13478,-133.333333333333,4,2,1,25,0,0
13585,-133.333333333333,4,2,1,27,0,0
13693,-133.333333333333,4,2,1,30,0,0
13800,-133.333333333333,4,2,1,32,0,0
13907,-133.333333333333,4,2,1,35,0,0
14014,-133.333333333333,4,2,1,37,0,0
14121,-133.333333333333,4,2,1,40,0,0
14228,-133.333333333333,4,2,1,42,0,0
14335,-133.333333333333,4,2,1,45,0,0
14443,-133.333333333333,4,2,1,47,0,0
14550,-133.333333333333,4,2,1,50,0,0
14657,-133.333333333333,4,2,1,52,0,0
14764,-133.333333333333,4,2,1,55,0,0
14871,-133.333333333333,4,2,1,57,0,0
14978,-133.333333333333,4,2,1,60,0,0
15085,-133.333333333333,4,2,1,62,0,0
15193,-133.333333333333,4,2,1,65,0,0
15300,-133.333333333333,4,2,1,67,0,0
15407,-133.333333333333,4,2,1,70,0,0
17121,-100,4,2,1,80,0,0
29121,-100,4,2,1,70,0,0
30835,-100,4,2,1,80,0,0
42835,-100,4,2,1,50,0,0
43050,-100,4,2,1,60,0,0
43264,-100,4,2,1,50,0,0
43478,-100,4,2,1,60,0,0
43693,-100,4,2,1,80,0,0
44550,-83.3333333333333,4,2,1,90,0,1
56550,-100,4,2,1,60,0,0
58264,-100,4,2,1,80,0,0
70264,-100,4,2,1,70,0,0
71978,-100,4,2,1,80,0,0
83978,-100,4,2,1,50,0,0
84193,-100,4,2,1,60,0,0
84407,-100,4,2,1,50,0,0
84621,-100,4,2,1,60,0,0
84836,-100,4,2,1,80,0,0
85693,-83.3333333333333,4,2,1,90,0,1
97693,-83.3333333333333,4,2,1,70,0,0
99407,-83.3333333333333,4,2,1,90,0,1
113121,-100,4,2,2,100,0,0
113550,-100,4,2,2,90,0,0
113978,-100,4,2,2,80,0,0
114407,-100,4,2,2,70,0,0
114835,-100,4,2,2,60,0,0
115264,-100,4,2,2,50,0,0
115693,-100,4,2,2,40,0,0
116121,-100,4,2,2,20,0,0
116550,-100,4,2,2,5,0,0

[Colours]
Combo1 : 188,46,185
Combo2 : 167,167,167
Combo3 : 111,111,111
Combo4 : 225,91,236

[HitObjects]
446,73,3407,6,0,P|409:66|368:78,1,62.9999980773926,4|0,3:2|0:0,0:0:0:0:
322,141,3835,1,2,3:2:0:0:
171,26,4264,6,0,L|175:102,1,62.9999980773926,2|2,3:2|0:0,0:0:0:0:
181,183,4693,1,2,3:2:0:0:
70,335,5121,6,0,P|31:329|4:327,2,62.9999980773926,2|0|2,3:2|0:0|3:2,0:0:0:0:
151,383,5764,1,0,0:0:0:0:
231,333,5978,2,0,P|270:327|297:325,2,62.9999980773926,2|2|2,3:2|0:0|3:2,0:0:0:0:
88,208,6835,6,0,L|93:145,1,62.9999980773926,2|0,3:2|0:0,0:0:0:0:
186,120,7264,2,0,L|180:182,1,62.9999980773926,2|0,3:2|0:0,0:0:0:0:
251,245,7693,1,2,3:2:0:0:
331,195,7907,2,0,L|333:157,2,31.4999990386963,0|2|2,0:0|0:0|3:2,0:0:0:0:
394,264,8335,1,2,0:2:0:0:
325,329,8550,2,0,L|278:320,2,31.4999990386963,2|0|2,3:2|0:0|0:0,0:0:0:0:
225,263,8978,1,2,3:2:0:0:
161,333,9193,1,0,0:0:0:0:
72,300,9407,2,0,L|1:284,2,62.9999980773926,2|2|2,3:2|0:0|3:2,0:0:0:0:
142,160,10264,5,2,3:2:0:0:
125,77,10478,1,2,0:3:0:0:
43,54,10693,1,2,3:2:0:0:
67,220,11121,5,2,3:2:0:0:
145,250,11335,1,2,0:3:0:0:
219,209,11550,1,2,3:2:0:0:
284,80,11978,6,0,L|355:73,1,52.5000020027161,2|2,3:2|0:3,0:0:0:0:
375,69,12300,1,2,0:0:0:0:
375,69,12407,2,0,B|396:95|396:95|388:130,1,52.5000020027161,2|2,3:2|0:3,0:0:0:0:
323,163,12835,1,2,3:2:0:0:
373,231,13050,1,2,0:0:0:0:
454,205,13264,2,0,P|497:220|509:240,1,52.5000020027161,10|10,3:2|0:2,0:0:0:0:
488,308,13693,6,0,P|470:324|459:327,3,26.2500010013581,10|8|8|8,3:2|0:2|0:2|0:2,0:0:0:0:
426,322,14121,2,0,P|404:311|392:311,3,26.2500010013581,10|8|10|8,3:2|0:2|0:2|0:2,0:0:0:0:
360,310,14550,2,0,P|350:318|338:323,3,26.2500010013581,10|10|10|8,3:2|0:2|0:2|0:2,0:0:0:0:
298,310,14978,2,0,P|273:309|262:315,3,26.2500010013581,10|10|10|10,3:2|0:2|0:2|0:2,0:0:0:0:
238,335,15407,1,2,3:2:0:0:
112,335,17121,6,0,L|105:265,1,70,6|2,1:2|0:0,0:0:0:0:
155,192,17550,1,8,3:2:0:0:
155,192,17657,2,0,P|184:143|230:106,1,105,2|2,0:0|3:2,0:0:0:0:
372,184,18407,2,0,B|369:215|387:232|387:232|384:220|387:208,1,70,10|0,3:1|0:0,0:0:0:0:
463,151,18835,5,0,3:0:0:0:
422,69,19050,2,0,P|383:66|342:60,1,70,2|8,0:0|3:2,0:0:0:0:
310,45,19371,1,2,0:0:0:0:
192,136,19693,5,2,1:1:0:0:
206,225,19907,1,2,1:1:0:0:
291,256,20121,1,10,1:1:0:0:
277,345,20335,1,10,1:1:0:0:
368,301,20550,6,0,P|408:304|443:327,1,70,2|2,3:2|0:0,0:0:0:0:
512,372,20978,1,8,3:2:0:0:
512,372,21085,2,0,P|518:314|512:265,1,105,2|2,0:0|3:2,0:0:0:0:
403,174,21835,2,0,P|424:157|433:117,1,70,10|0,3:1|0:0,0:0:0:0:
469,24,22264,5,0,3:0:0:0:
379,40,22478,2,0,P|340:37|299:31,1,70,2|8,0:0|3:2,0:0:0:0:
267,16,22800,1,2,0:0:0:0:
188,149,23121,5,2,1:1:0:0:
282,142,23335,1,2,1:1:0:0:
317,228,23550,1,10,1:1:0:0:
245,288,23764,1,10,1:1:0:0:
166,240,23978,6,0,P|110:227|71:239,1,70,2|2,3:2|0:0,0:0:0:0:
33,281,24407,1,8,3:2:0:0:
33,281,24514,2,0,P|42:324|51:388,1,105,2|2,0:0|3:2,0:0:0:0:
246,380,25264,6,0,B|237:351|229:340|229:340|224:322|246:303,1,70,10|0,3:1|0:0,0:0:0:0:
326,246,25693,5,0,3:0:0:0:
275,178,25907,2,0,L|271:100,1,70,2|8,0:0|3:2,0:0:0:0:
292,71,26228,1,2,0:0:0:0:
168,12,26550,5,2,1:1:0:0:
107,70,26764,1,2,1:1:0:0:
164,131,26978,1,10,1:1:0:0:
99,184,27193,1,10,1:1:0:0:
164,257,27407,6,0,L|238:245,1,70,2|2,3:2|0:0,0:0:0:0:
301,175,27835,5,8,3:2:0:0:
301,175,27943,2,0,P|357:166|398:222,1,105,2|2,0:0|3:2,0:0:0:0:
489,364,28693,2,0,L|394:374,1,70,8|0,3:2|0:0,0:0:0:0:
335,320,29121,6,0,P|307:291|266:288,1,70,2|2,3:1|0:1,0:0:0:0:
233,304,29443,1,10,0:1:0:0:
233,304,29550,2,0,P|181:334|151:330,1,70,0|10,0:0|0:1,0:0:0:0:
85,289,29978,2,0,L|81:243,3,35,8|8|8|8,0:0|0:0|0:0|0:0,0:0:0:0:
116,219,30407,1,0,3:0:0:0:
10,69,30835,6,0,L|81:60,1,70,6|2,1:2|0:0,0:0:0:0:
160,5,31264,2,0,P|198:8|233:22,1,70,8|0,3:2|0:0,0:0:0:0:
299,97,31693,2,0,L|291:135,1,35,2|0,3:2|0:0,0:0:0:0:
283,179,31907,1,0,0:0:0:0:
187,155,32121,2,0,P|157:172|138:203,1,70,8|0,3:2|0:0,0:0:0:0:
192,298,32550,5,0,3:0:0:0:
289,271,32764,1,2,0:0:0:0:
289,271,32871,1,0,0:0:0:0:
289,271,32978,1,8,3:2:0:0:
336,348,33193,1,0,0:0:0:0:
438,296,33407,5,2,1:1:0:0:
450,205,33621,1,2,1:1:0:0:
462,114,33835,2,0,L|447:39,1,70,10|10,1:1|1:1,0:0:0:0:
346,66,34264,5,2,3:2:0:0:
271,30,34478,1,2,0:0:0:0:
201,92,34693,1,8,3:2:0:0:
125,56,34907,1,0,0:0:0:0:
53,115,35121,6,0,L|45:189,1,70,2|0,3:2|0:0,0:0:0:0:
35,231,35443,1,0,0:0:0:0:
35,231,35550,2,0,P|59:260|88:271,1,70,10|0,3:2|0:0,0:0:0:0:
187,239,35978,5,0,3:0:0:0:
249,321,36193,1,2,0:0:0:0:
249,321,36300,1,0,0:0:0:0:
249,321,36407,2,0,P|283:315|324:313,1,70,8|0,3:2|0:0,0:0:0:0:
415,270,36835,5,2,1:1:0:0:
442,364,37050,1,2,1:1:0:0:
511,295,37264,2,0,P|507:259|502:226,1,70,10|10,1:1|1:1,0:0:0:0:
444,140,37693,6,0,P|396:116|362:125,1,70,2|2,3:2|0:0,0:0:0:0:
348,142,38014,1,0,0:0:0:0:
348,142,38121,2,0,P|300:166|266:157,1,70,8|0,3:2|0:0,0:0:0:0:
211,90,38550,6,0,P|163:66|129:75,1,70,2|0,3:2|0:0,0:0:0:0:
115,92,38871,1,0,0:0:0:0:
115,92,38978,2,0,P|67:116|33:107,1,70,8|0,3:2|0:0,0:0:0:0:
5,208,39407,6,0,P|15:252|20:283,1,70,0|2,3:0|0:0,0:0:0:0:
7,324,39728,1,0,0:0:0:0:
7,324,39835,2,0,P|37:335|65:364,1,70,8|0,3:2|0:0,0:0:0:0:
196,376,40264,5,2,1:1:0:0:
279,324,40478,1,2,1:1:0:0:
263,226,40693,1,10,1:1:0:0:
165,216,40907,1,10,1:1:0:0:
122,304,41121,6,0,L|216:297,1,70,2|2,3:2|0:0,0:0:0:0:
263,226,41550,2,0,L|357:233,1,70,8|0,3:2|0:0,0:0:0:0:
393,307,41978,1,2,3:2:0:0:
484,271,42193,1,0,0:0:0:0:
478,173,42407,1,8,3:2:0:0:
309,74,42835,6,0,L|315:120,3,35,10|8|8|8,0:0|0:0|0:0|0:0,0:0:0:0:
291,145,43264,2,0,L|286:179,3,35,10|8|8|8,0:0|0:0|0:0|0:0,0:0:0:0:
309,216,43693,2,0,L|313:250,3,35,10|8|4|4,0:3|0:3|0:3|0:3,0:0:0:0:
294,288,44121,1,8,3:2:0:0:
102,351,44550,6,0,B|100:317|100:317|106:310|106:310|99:304|99:304|96:269,1,83.9999974365235,6|2,1:2|0:1,0:0:0:0:
150,189,44978,2,0,L|192:198,2,41.9999987182618,10|0|2,3:1|0:0|0:1,0:0:0:0:
107,184,45300,1,2,0:1:0:0:
107,184,45407,1,2,3:2:0:0:
66,110,45621,1,2,0:1:0:0:
106,36,45835,2,0,P|150:24|187:35,1,83.9999974365235,10|2,0:1|0:1,0:0:0:0:
301,48,46264,6,0,P|324:104|272:157,1,125.999996154785,2|0,3:2|0:0,0:0:0:0:
263,148,46693,1,10,3:2:0:0:
235,240,46907,1,0,0:0:0:0:
241,264,47014,1,0,0:0:0:0:
247,288,47121,2,0,P|272:286|294:285,3,41.9999987182618,2|0|0|2,3:2|0:0|0:0|0:0,0:0:0:0:
333,301,47550,1,10,3:2:0:0:
358,299,47657,1,0,0:0:0:0:
383,297,47764,1,2,0:0:0:0:
482,251,47978,6,0,L|493:158,1,83.9999974365235,6|2,3:2|0:1,0:0:0:0:
508,131,48300,1,2,0:1:0:0:
508,131,48407,2,0,P|487:89|456:72,1,83.9999974365235,10|2,3:1|0:1,0:0:0:0:
335,90,48835,5,2,3:2:0:0:
335,90,48943,1,2,0:1:0:0:
335,90,49050,2,0,P|330:111|326:134,3,41.9999987182618,2|2|10|0,0:1|0:1|0:1|0:0,0:0:0:0:
330,177,49478,1,2,0:1:0:0:
259,263,49693,6,0,P|213:269|176:255,1,83.9999974365235,2|2,3:2|0:0,0:0:0:0:
136,174,50121,1,10,3:2:0:0:
198,107,50335,1,0,0:0:0:0:
198,107,50443,1,0,0:0:0:0:
198,107,50550,1,2,3:2:0:0:
140,34,50764,1,0,0:0:0:0:
53,66,50978,2,0,B|50:107|50:107|46:110|46:110|42:150,1,83.9999974365235,10|2,3:2|0:0,0:0:0:0:
77,242,51407,6,0,L|173:235,1,83.9999974365235,6|2,0:2|0:1,0:0:0:0:
192,208,51728,1,2,0:1:0:0:
192,208,51835,2,0,L|288:215,1,83.9999974365235,10|2,3:1|0:1,0:0:0:0:
339,269,52264,6,0,L|332:326,2,41.9999987182618,2|2|2,3:2|0:1|0:1,0:0:0:0:
370,241,52585,1,2,0:1:0:0:
370,241,52693,1,10,0:1:0:0:
445,276,52907,1,2,0:1:0:0:
502,215,53121,2,0,L|492:115,1,83.9999974365235,2|2,3:2|0:0,0:0:0:0:
441,65,53550,6,0,P|415:47|382:46,3,41.9999987182618,10|2|0|0,3:2|0:0|0:0|0:0,0:0:0:0:
365,59,53978,1,2,3:2:0:0:
318,129,54193,1,0,0:0:0:0:
321,150,54300,1,2,0:0:0:0:
323,170,54407,2,0,L|330:225,2,41.9999987182618,10|0|2,3:2|0:0|0:0,0:0:0:0:
238,115,54835,6,0,P|190:96|150:109,1,83.9999974365235,6|2,3:2|0:1,0:0:0:0:
130,133,55157,1,2,0:1:0:0:
130,133,55264,2,0,P|141:186|146:230,1,83.9999974365235,10|2,3:1|0:1,0:0:0:0:
164,314,55693,6,0,P|194:337|252:333,1,83.9999974365235,2|2,3:2|0:1,0:0:0:0:
273,314,56014,1,2,0:1:0:0:
273,314,56121,1,10,0:1:0:0:
341,362,56335,1,2,0:1:0:0:
412,318,56550,1,2,3:2:0:0:
256,326,58264,6,0,L|180:317,1,70,6|2,1:2|0:0,0:0:0:0:
98,341,58693,1,8,3:2:0:0:
98,341,58800,2,0,P|91:285|73:237,1,105,2|2,0:0|3:2,0:0:0:0:
225,169,59550,2,0,B|202:173|189:191|189:191|202:185|221:189,1,70,10|0,3:1|0:0,0:0:0:0:
292,251,59978,5,0,3:0:0:0:
358,188,60193,2,0,P|398:195|434:199,1,70,2|8,0:0|3:2,0:0:0:0:
471,190,60514,1,2,0:0:0:0:
422,46,60835,5,2,1:1:0:0:
338,83,61050,1,2,1:1:0:0:
256,43,61264,1,10,1:1:0:0:
170,73,61478,1,10,1:1:0:0:
73,33,61693,6,0,P|43:51|25:85,1,70,2|2,3:2|0:0,0:0:0:0:
8,170,62121,1,8,3:2:0:0:
8,170,62228,2,0,P|18:221|26:278,1,105,2|2,0:0|3:2,0:0:0:0:
154,347,62978,2,0,P|122:354|89:336,1,70,10|0,3:1|0:0,0:0:0:0:
138,235,63407,5,0,3:0:0:0:
222,201,63621,1,2,0:0:0:0:
293,265,63835,1,8,3:2:0:0:
293,265,63943,1,2,0:0:0:0:
293,265,64050,1,0,0:0:0:0:
373,196,64264,5,2,1:1:0:0:
454,238,64478,1,2,1:1:0:0:
496,157,64693,1,10,1:1:0:0:
415,115,64907,1,10,1:1:0:0:
373,196,65121,6,0,L|365:280,1,70,2|2,3:2|0:0,0:0:0:0:
327,348,65550,1,8,3:2:0:0:
327,348,65657,2,0,P|286:361|234:324,1,105,2|2,0:0|3:2,0:0:0:0:
160,163,66407,6,0,B|154:198|148:211|148:211|138:198|115:187,1,70,10|0,3:1|0:0,0:0:0:0:
37,221,66835,5,0,3:0:0:0:
52,303,67050,2,0,L|126:293,1,70,2|8,0:0|3:2,0:0:0:0:
163,296,67371,1,2,0:0:0:0:
304,254,67693,5,2,1:1:0:0:
247,191,67907,1,2,1:1:0:0:
305,130,68121,1,10,1:1:0:0:
236,81,68335,1,10,1:1:0:0:
299,25,68550,6,0,P|348:16|382:30,1,70,2|2,3:2|0:0,0:0:0:0:
449,8,68978,1,8,3:2:0:0:
449,8,69085,2,0,P|433:96|429:121,1,105,2|2,0:0|3:2,0:0:0:0:
437,279,69835,6,0,P|476:257|490:225,1,70,8|0,3:2|0:0,0:0:0:0:
440,166,70264,6,0,L|387:174,3,35,8|8|8|8,0:0|0:0|0:0|0:0,0:0:0:0:
368,192,70693,2,0,L|315:184,3,35,8|8|8|8,0:0|0:0|0:0|0:0,0:0:0:0:
310,166,71121,1,8,0:3:0:0:
286,173,71228,1,8,0:3:0:0:
262,179,71335,1,12,0:3:0:0:
225,254,71550,1,8,3:2:0:0:
76,126,71978,6,0,P|78:88|84:54,1,70,6|2,1:2|0:0,0:0:0:0:
175,20,72407,2,0,P|209:29|245:35,1,70,8|0,3:2|0:0,0:0:0:0:
341,6,72835,2,0,L|384:0,1,35,2|0,3:2|0:0,0:0:0:0:
425,1,73050,1,0,0:0:0:0:
491,72,73264,2,0,P|488:109|482:143,1,70,8|0,3:2|0:0,0:0:0:0:
411,219,73693,5,0,3:0:0:0:
482,286,73907,1,2,0:0:0:0:
482,286,74014,1,0,0:0:0:0:
482,286,74121,1,8,3:2:0:0:
430,361,74335,1,0,0:0:0:0:
334,311,74550,5,2,1:1:0:0:
243,319,74764,1,2,1:1:0:0:
152,327,74978,2,0,L|76:334,1,70,10|10,1:1|1:1,0:0:0:0:
7,260,75407,5,2,3:2:0:0:
47,186,75621,1,2,0:0:0:0:
129,233,75835,1,8,3:2:0:0:
169,159,76049,1,0,0:0:0:0:
252,195,76264,6,0,P|288:199|321:210,1,70,2|0,3:2|0:0,0:0:0:0:
355,237,76585,1,0,0:0:0:0:
355,237,76693,2,0,P|353:281|338:304,1,70,10|0,3:2|0:0,0:0:0:0:
415,374,77121,5,0,3:0:0:0:
487,317,77335,1,2,0:0:0:0:
487,317,77443,1,0,0:0:0:0:
487,317,77550,2,0,P|493:281|506:241,1,70,8|0,3:2|0:0,0:0:0:0:
388,140,77978,5,2,1:1:0:0:
310,79,78193,1,2,1:1:0:0:
367,0,78407,2,0,P|404:2|443:20,1,70,10|10,1:1|1:1,0:0:0:0:
506,91,78835,5,2,3:2:0:0:
460,178,79050,1,2,0:0:0:0:
363,163,79264,2,0,L|272:170,1,70,8|0,3:2|0:0,0:0:0:0:
195,223,79693,6,0,P|156:236|104:219,1,70,2|0,3:2|0:0,0:0:0:0:
95,205,80014,1,0,0:0:0:0:
95,205,80121,1,8,3:2:0:0:
157,18,80550,5,0,3:0:0:0:
228,80,80764,1,2,0:0:0:0:
228,80,80871,1,0,0:0:0:0:
228,80,80978,2,0,L|219:167,1,70,8|0,3:2|0:0,0:0:0:0:
170,234,81407,5,2,1:1:0:0:
225,297,81621,1,2,1:1:0:0:
285,239,81835,1,10,1:1:0:0:
344,298,82050,1,10,1:1:0:0:
404,240,82264,2,0,L|411:165,1,70,2|2,3:2|0:0,0:0:0:0:
489,198,82693,2,0,L|482:267,1,70,8|0,3:2|0:0,0:0:0:0:
435,353,83121,6,0,P|391:335|358:343,1,70,2|0,3:2|0:0,0:0:0:0:
342,370,83443,1,0,0:0:0:0:
342,370,83550,1,8,3:2:0:0:
174,380,83978,6,0,L|166:334,3,35,10|8|8|8,0:0|0:0|0:0|0:0,0:0:0:0:
190,309,84407,2,0,L|198:263,3,35,10|8|8|8,0:0|0:0|0:0|0:0,0:0:0:0:
172,239,84835,1,10,0:3:0:0:
169,221,84943,1,8,0:3:0:0:
166,203,85050,1,4,0:3:0:0:
235,155,85264,1,8,3:2:0:0:
355,319,85693,6,0,B|316:315|316:315|311:323|311:323|308:314|308:314|304:322|304:322|226:315,1,125.999996154785,6|2,1:2|0:1,0:0:0:0:
206,313,86121,1,10,3:1:0:0:
171,233,86335,1,2,0:1:0:0:
171,233,86443,1,2,0:1:0:0:
171,233,86550,1,2,3:2:0:0:
92,274,86764,1,2,0:1:0:0:
39,198,86978,2,0,P|31:160|28:114,1,83.9999974365235,10|2,0:1|0:1,0:0:0:0:
40,74,87300,5,0,0:0:0:0:
40,74,87407,2,0,P|81:48|150:98,1,125.999996154785,2|0,3:2|0:0,0:0:0:0:
136,121,87835,1,10,3:2:0:0:
220,165,88050,1,0,0:0:0:0:
240,163,88157,1,0,0:0:0:0:
260,161,88264,2,0,L|319:156,3,41.9999987182618,2|0|0|2,3:2|0:0|0:0|0:0,0:0:0:0:
337,128,88693,2,0,P|382:133|422:135,1,83.9999974365235,10|2,3:2|0:0,0:0:0:0:
488,232,89121,6,0,P|455:258|446:299,1,83.9999974365235,2|2,3:2|0:1,0:0:0:0:
463,340,89443,1,2,0:1:0:0:
463,340,89550,2,0,P|419:338|373:334,1,83.9999974365235,10|2,3:1|0:1,0:0:0:0:
321,273,89978,2,0,P|314:251|313:222,2,41.9999987182618,2|2|2,3:2|0:1|0:1,0:0:0:0:
257,328,90407,2,0,B|222:351|222:351|171:340,1,83.9999974365235,10|2,0:1|0:1,0:0:0:0:
152,230,90835,5,2,3:2:0:0:
76,205,91050,1,2,0:0:0:0:
76,125,91264,1,10,3:2:0:0:
159,103,91478,1,0,0:0:0:0:
159,103,91585,1,0,0:0:0:0:
159,103,91693,2,0,B|197:147|197:147|198:154|198:154|239:202,1,125.999996154785,2|2,3:2|0:0,0:0:0:0:
262,238,92121,2,0,P|304:241|337:218,1,83.9999974365235,10|2,3:2|0:0,0:0:0:0:
351,169,92443,1,0,0:0:0:0:
351,169,92550,6,0,L|366:38,1,125.999996154785,2|2,3:2|0:1,0:0:0:0:
401,8,92978,1,10,3:1:0:0:
488,59,93193,1,2,0:1:0:0:
488,59,93300,1,2,0:1:0:0:
488,59,93407,2,0,L|476:162,1,83.9999974365235,2|2,3:2|0:1,0:0:0:0:
417,223,93835,1,10,0:1:0:0:
342,154,94050,1,2,0:1:0:0:
265,219,94264,6,0,P|212:229|157:204,1,83.9999974365235,2|2,3:2|0:0,0:0:0:0:
130,135,94693,1,10,3:2:0:0:
35,169,94907,1,0,0:0:0:0:
39,189,95014,1,0,0:0:0:0:
43,209,95121,2,0,L|52:262,3,41.9999987182618,2|0|0|2,3:2|0:0|0:0|0:0,0:0:0:0:
83,276,95550,2,0,L|99:361,1,83.9999974365235,10|2,3:2|0:0,0:0:0:0:
221,383,95978,5,2,3:2:0:0:
269,314,96193,1,2,0:1:0:0:
219,246,96407,2,0,P|186:207|195:153,1,83.9999974365235,10|2,3:1|0:1,0:0:0:0:
239,112,96835,2,0,L|336:127,1,83.9999974365235,2|2,3:2|0:1,0:0:0:0:
358,102,97157,1,2,0:1:0:0:
358,102,97264,1,10,0:1:0:0:
426,150,97478,1,2,0:1:0:0:
492,97,97693,6,0,P|478:72|453:57,3,41.9999987182618,2|0|2|8,3:2|0:0|0:0|0:0,0:0:0:0:
445,27,98121,2,0,P|416:26|390:40,3,41.9999987182618,10|0|10|2,0:2|0:0|0:0|0:0,0:0:0:0:
360,32,98550,2,0,P|345:56|344:85,3,41.9999987182618,10|8|8|8,0:2|0:0|0:0|0:0,0:0:0:0:
306,89,98978,1,14,0:2:0:0:
333,288,99407,6,0,B|339:278|339:278|327:216|327:216|332:208,1,83.9999974365235,6|2,1:2|0:1,0:0:0:0:
405,139,99835,1,10,3:1:0:0:
480,214,100050,1,2,0:1:0:0:
480,214,100157,1,2,0:1:0:0:
480,214,100264,2,0,L|472:258,3,41.9999987182618,2|2|2|2,3:2|0:1|0:1|0:1,0:0:0:0:
486,304,100693,2,0,P|444:313|406:330,1,83.9999974365235,10|2,0:1|0:1,0:0:0:0:
378,368,101014,5,0,0:0:0:0:
378,368,101121,2,0,P|311:358|244:355,1,125.999996154785,2|0,3:2|0:0,0:0:0:0:
203,366,101550,1,10,3:2:0:0:
121,300,101764,1,0,0:0:0:0:
114,280,101871,1,0,0:0:0:0:
117,259,101978,1,2,3:2:0:0:
125,239,102085,1,0,0:0:0:0:
141,225,102193,1,0,0:0:0:0:
239,206,102407,2,0,L|232:163,3,41.9999987182618,10|0|2|0,3:2|0:0|0:0|0:0,0:0:0:0:
253,118,102835,6,0,L|261:75,2,41.9999987182618,2|2|2,3:2|0:1|0:1,0:0:0:0:
186,29,103264,1,10,3:1:0:0:
93,67,103478,1,2,0:1:0:0:
93,67,103585,1,2,0:1:0:0:
93,67,103693,2,0,L|86:108,3,41.9999987182618,2|2|2|2,3:2|0:1|0:1|0:1,0:0:0:0:
53,147,104121,2,0,L|60:188,3,41.9999987182618,10|0|2|0,0:1|0:0|0:1|0:0,0:0:0:0:
43,236,104550,5,2,3:2:0:0:
41,252,104657,1,0,0:0:0:0:
38,268,104764,1,2,0:0:0:0:
91,348,104978,1,10,3:2:0:0:
170,286,105193,1,0,0:0:0:0:
190,284,105300,1,0,0:0:0:0:
210,282,105407,2,0,L|256:276,3,41.9999987182618,2|0|0|2,3:2|0:0|0:0|0:0,0:0:0:0:
291,246,105835,1,10,3:2:0:0:
312,248,105943,1,0,0:0:0:0:
332,251,106050,1,2,0:0:0:0:
422,190,106264,6,0,B|432:180|432:180|429:150|420:123|420:123|407:119,1,83.9999974365235,2|2,3:2|0:1,0:0:0:0:
373,111,106585,1,2,0:1:0:0:
373,111,106693,1,10,3:1:0:0:
296,45,106907,1,2,0:1:0:0:
296,45,107014,1,2,0:1:0:0:
296,45,107121,2,0,L|243:50,3,41.9999987182618,2|2|2|2,3:2|0:1|0:1|0:1,0:0:0:0:
216,80,107550,2,0,L|163:75,3,41.9999987182618,10|0|2|0,0:1|0:0|0:1|0:0,0:0:0:0:
130,50,107978,6,0,P|84:57|44:74,1,83.9999974365235,2|2,3:2|0:0,0:0:0:0:
23,114,108300,1,0,0:0:0:0:
23,114,108407,1,10,3:2:0:0:
91,191,108621,1,0,0:0:0:0:
92,211,108728,1,0,0:0:0:0:
94,232,108835,1,2,3:2:0:0:
96,253,108942,1,0,0:0:0:0:
97,274,109049,1,0,0:0:0:0:
186,335,109264,2,0,L|192:292,3,41.9999987182618,10|0|2|0,3:2|0:0|0:0|0:0,0:0:0:0:
219,250,109693,5,2,3:2:0:0:
243,245,109800,1,2,0:1:0:0:
265,256,109907,2,0,L|310:249,2,41.9999987182618,2|2|10,0:1|0:1|3:1,0:0:0:0:
340,340,110335,1,2,0:1:0:0:
340,340,110443,1,2,0:1:0:0:
340,340,110550,2,0,L|383:346,3,41.9999987182618,2|2|2|2,3:2|0:1|0:1|0:1,0:0:0:0:
426,368,110978,2,0,P|417:328|416:285,1,83.9999974365235,10|2,0:1|0:1,0:0:0:0:
434,242,111300,5,0,0:0:0:0:
434,242,111407,1,2,3:2:0:0:
504,182,111621,1,2,0:0:0:0:
426,132,111835,1,10,0:2:0:0:
500,76,112050,1,10,0:0:0:0:
500,76,112157,1,2,0:0:0:0:
500,76,112264,2,0,P|496:57|488:36,3,41.9999987182618,10|8|8|8,0:2|0:0|0:0|0:0,0:0:0:0:
450,17,112693,2,0,P|430:14|408:16,3,41.9999987182618,10|8|10|8,0:2|0:0|0:0|0:0,0:0:0:0:
375,46,113121,5,4,3:2:0:0:
