osu file format v14

[General]
AudioFilename: audio.ogg
AudioLeadIn: 0
PreviewTime: 83979
Countdown: 0
SampleSet: Soft
StackLeniency: 0.3
Mode: 0
LetterboxInBreaks: 0
WidescreenStoryboard: 1
EpilepsyWarning: 1

[Editor]
DistanceSpacing: 1.3
BeatDivisor: 4
GridSize: 16
TimelineZoom: 1.3

[Metadata]
Title:MURDER PLOT
TitleUnicode:MURDER PLOT
Artist:KORDHELL
ArtistUnicode:KORDHELL
Creator:Sayuka
Version:AMATS' NORMAL
Source:
Tags:tiktok electronic instrumental hip hop hip-hop phonk english julie daycore ryxliee dabbe_01 stompy_ amats kord hell
BeatmapID:4165453
BeatmapSetID:1972480

[Difficulty]
HPDrainRate:3
CircleSize:3
OverallDifficulty:4
ApproachRate:5
SliderMultiplier:1.1
SliderTickRate:1

[Events]
//Background and Video events
0,0,"kordhell.jpg",0,0
//Break Periods
//Storyboard Layer 0 (Background)
//Storyboard Layer 1 (Fail)
//Storyboard Layer 2 (Pass)
//Storyboard Layer 3 (Foreground)
Sprite,Foreground,Centre,"sb/highlight.png",0,0 S,2,3407,4075,0.5,0.1 F,2,3407,4075,1,0 P,0,3407,4075,A C,0,3407,,167,167,167 M,0,3407,3460,175,133,166.0121,143.3459 M,0,3460,3514,166.0121,143.3459,158.4576,154.7545 M,0,3514,3567,158.4576,154.7545,152.782,167.2349 M,0,3567,3621,152.782,167.2349,149.6129,180.5646 M,0,3621,3674,149.6129,180.5646,148.3161,194.1775 M,0,3674,3728,148.3161,194.1775,149.1791,207.845 M,0,3728,3781,149.1791,207.845,152.1913,221.239 M,0,3781,3835,152.1913,221.239,157.8072,233.74
Sprite,Foreground,Centre,"sb/highlight.png",242,304 S,2,4264,4504,0.5,0.1 F,2,4264,4504,1,0 P,0,4264,4504,A C,0,4264,,167,167,167
Sprite,Foreground,Centre,"sb/highlight.png",329,237 S,2,4693,4933,0.5,0.1 F,2,4693,4933,1,0 P,0,4693,4933,A C,0,4693,,167,167,167
Sprite,Foreground,Centre,"sb/highlight.png",0,0 S,2,5121,6218,0.5,0.1 F,2,5121,6218,1,0 P,0,5121,6218,A C,0,5121,,167,167,167 M,0,5121,5174,431,276,439.9879,265.6541 M,0,5174,5228,439.9879,265.6541,447.5424,254.2455 M,0,5228,5281,447.5424,254.2455,453.218,241.7651 M,0,5281,5335,453.218,241.7651,456.3871,228.4354 M,0,5335,5388,456.3871,228.4354,457.6839,214.8225 M,0,5388,5442,457.6839,214.8225,456.8209,201.155 M,0,5442,5495,456.8209,201.155,453.8087,187.761 M,0,5495,5549,453.8087,187.761,448.1928,175.26 M,0,5549,5603,448.1928,175.26,453.8087,187.761 M,0,5603,5656,453.8087,187.761,456.8209,201.155 M,0,5656,5710,456.8209,201.155,457.6839,214.8225 M,0,5710,5763,457.6839,214.8225,456.3871,228.4354 M,0,5763,5817,456.3871,228.4354,453.218,241.7651 M,0,5817,5870,453.218,241.7651,447.5424,254.2455 M,0,5870,5924,447.5424,254.2455,439.9879,265.6541 M,0,5924,5978,439.9879,265.6541,431,276
Sprite,Foreground,Centre,"sb/highlight.png",370,367 S,2,6407,6647,0.5,0.1 F,2,6407,6647,1,0 P,0,6407,6647,A C,0,6407,,167,167,167
Sprite,Foreground,Centre,"sb/highlight.png",0,0 S,2,6835,7503,0.5,0.1 F,2,6835,7503,1,0 P,0,6835,7503,A C,0,6835,,111,111,111 M,0,6835,6888,275,310,261.4499,312.3362 M,0,6888,6942,261.4499,312.3362,247.8998,314.6725 M,0,6942,6995,247.8998,314.6725,234.3498,317.0087 M,0,6995,7049,234.3498,317.0087,220.7997,319.3449 M,0,7049,7102,220.7997,319.3449,207.2496,321.6811 M,0,7102,7156,207.2496,321.6811,193.6995,324.0173 M,0,7156,7209,193.6995,324.0173,180.1495,326.3535 M,0,7209,7263,180.1495,326.3535,166.5994,328.6898
Sprite,Foreground,Centre,"sb/highlight.png",112.904,343.904 S,2,7478,7718,0.5,0.1 F,2,7478,7718,1,0 P,0,7478,7718,A C,0,7478,,111,111,111
Sprite,Foreground,Centre,"sb/highlight.png",0,0 S,2,7693,8361,0.5,0.1 F,2,7693,8361,1,0 P,0,7693,8361,A C,0,7693,,111,111,111 M,0,7693,7746,117,348,108.0122,337.6541 M,0,7746,7800,108.0122,337.6541,100.4576,326.2455 M,0,7800,7853,100.4576,326.2455,94.78198,313.7651 M,0,7853,7907,94.78198,313.7651,91.6129,300.4354 M,0,7907,7960,91.6129,300.4354,90.31612,286.8225 M,0,7960,8014,90.31612,286.8225,91.17908,273.155 M,0,8014,8067,91.17908,273.155,94.19126,259.761 M,0,8067,8121,94.19126,259.761,99.80716,247.26
Sprite,Foreground,Centre,"sb/highlight.png",0,0 S,2,8550,9218,0.5,0.1 F,2,8550,9218,1,0 P,0,8550,9218,A C,0,8550,,111,111,111 M,0,8550,8603,155,152,168.5467,154.3559 M,0,8603,8657,168.5467,154.3559,182.0933,156.7119 M,0,8657,8710,182.0933,156.7119,195.64,159.0678 M,0,8710,8764,195.64,159.0678,209.1866,161.4238 M,0,8764,8817,209.1866,161.4238,222.7333,163.7797 M,0,8817,8871,222.7333,163.7797,236.28,166.1357 M,0,8871,8925,236.28,166.1357,249.8266,168.4916 M,0,8925,8978,249.8266,168.4916,263.3733,170.8475
Sprite,Foreground,Centre,"sb/highlight.png",352,236 S,2,9407,9647,0.5,0.1 F,2,9407,9647,1,0 P,0,9407,9647,A C,0,9407,,111,111,111
Sprite,Foreground,Centre,"sb/highlight.png",434,163 S,2,9835,10075,0.5,0.1 F,2,9835,10075,1,0 P,0,9835,10075,A C,0,9835,,111,111,111
Sprite,Foreground,Centre,"sb/highlight.png",0,0 S,2,10264,10932,0.5,0.1 F,2,10264,10932,1,0 P,0,10264,10932,A C,0,10264,,225,91,236 M,0,10264,10317,519,232,532.483,229.3034 M,0,10317,10371,532.483,229.3034,545.9659,226.6068 M,0,10371,10424,545.9659,226.6068,559.449,223.9102 M,0,10424,10478,559.449,223.9102,572.9319,221.2136 M,0,10478,10531,572.9319,221.2136,559.449,223.9102 M,0,10531,10585,559.449,223.9102,545.9659,226.6068 M,0,10585,10639,545.9659,226.6068,532.483,229.3034 M,0,10639,10692,532.483,229.3034,519,232
Sprite,Foreground,Centre,"sb/highlight.png",0,0 S,2,11121,11575,0.5,0.1 F,2,11121,11575,1,0 P,0,11121,11575,A C,0,11121,,225,91,236 M,0,11121,11174,476,333,462.5102,330.3376 M,0,11174,11228,462.5102,330.3376,449.0204,327.6751 M,0,11228,11281,449.0204,327.6751,435.5307,325.0126 M,0,11281,11335,435.5307,325.0126,422.0409,322.3502
Sprite,Foreground,Centre,"sb/highlight.png",370,342 S,2,11550,11790,0.5,0.1 F,2,11550,11790,1,0 P,0,11550,11790,A C,0,11550,,225,91,236
Sprite,Foreground,Centre,"sb/highlight.png",0,0 S,2,11978,12646,0.5,0.1 F,2,11978,12646,1,0 P,0,11978,12646,A C,0,11978,,225,91,236 M,0,11978,12031,262,321,253.0121,310.6541 M,0,12031,12085,253.0121,310.6541,245.4576,299.2455 M,0,12085,12138,245.4576,299.2455,239.782,286.7651 M,0,12138,12192,239.782,286.7651,236.6129,273.4354 M,0,12192,12245,236.6129,273.4354,235.3161,259.8225 M,0,12245,12299,235.3161,259.8225,236.1791,246.155 M,0,12299,12353,236.1791,246.155,239.1913,232.761 M,0,12353,12406,239.1913,232.761,244.8072,220.26
Sprite,Foreground,Centre,"sb/highlight.png",274.904,173.904 S,2,12621,12861,0.5,0.1 F,2,12621,12861,1,0 P,0,12621,12861,A C,0,12621,,225,91,236
Sprite,Foreground,Centre,"sb/highlight.png",279,178 S,2,12835,13075,0.5,0.1 F,2,12835,13075,1,0 P,0,12835,13075,A C,0,12835,,225,91,236
Sprite,Foreground,Centre,"sb/highlight.png",376,229 S,2,13264,13504,0.5,0.1 F,2,13264,13504,1,0 P,0,13264,13504,A C,0,13264,,225,91,236
Sprite,Foreground,Centre,"sb/highlight.png",0,0 S,2,13693,14361,0.5,0.1 F,2,13693,14361,1,0 P,0,13693,14361,A C,0,13693,,188,46,185 M,0,13693,13746,482,201,479.5506,187.4699 M,0,13746,13800,479.5506,187.4699,477.1012,173.9398 M,0,13800,13853,477.1012,173.9398,474.6518,160.4098 M,0,13853,13907,474.6518,160.4098,472.2024,146.8797 M,0,13907,13960,472.2024,146.8797,469.753,133.3496 M,0,13960,14014,469.753,133.3496,467.3035,119.8196 M,0,14014,14068,467.3035,119.8196,464.8541,106.2895 M,0,14068,14121,464.8541,106.2895,462.4047,92.75941
Sprite,Foreground,Centre,"sb/highlight.png",415.904,62.904 S,2,14335,14575,0.5,0.1 F,2,14335,14575,1,0 P,0,14335,14575,A C,0,14335,,188,46,185
Sprite,Foreground,Centre,"sb/highlight.png",0,0 S,2,14550,15218,0.5,0.1 F,2,14550,15218,1,0 P,0,14550,15218,A C,0,14550,,188,46,185 M,0,14550,14603,420,67,406.4499,69.33622 M,0,14603,14657,406.4499,69.33622,392.8998,71.67244 M,0,14657,14710,392.8998,71.67244,379.3498,74.00866 M,0,14710,14764,379.3498,74.00866,365.7997,76.34488 M,0,14764,14817,365.7997,76.34488,352.2496,78.6811 M,0,14817,14871,352.2496,78.6811,338.6995,81.01732 M,0,14871,14925,338.6995,81.01732,325.1495,83.35354 M,0,14925,14978,325.1495,83.35354,311.5994,85.68976
Sprite,Foreground,Centre,"sb/highlight.png",228,157 S,2,15407,15647,0.5,0.1 F,2,15407,15647,1,0 P,0,15407,15647,A C,0,15407,,188,46,185
Sprite,Foreground,Centre,"sb/highlight.png",0,0 S,2,17121,17789,0.5,0.1 F,2,17121,17789,1,0 P,0,17121,17789,A C,0,17121,,167,167,167 M,0,17121,17174,228,157,217.1748,167.476 M,0,17174,17228,217.1748,167.476,208.2449,179.5551 M,0,17228,17281,208.2449,179.5551,201.7886,193.1242 M,0,17281,17335,201.7886,193.1242,198.0455,207.6853 M,0,17335,17388,198.0455,207.6853,197.1571,222.7039 M,0,17388,17442,197.1571,222.7039,199.1606,237.6279 M,0,17442,17495,199.1606,237.6279,203.9883,251.9072 M,0,17495,17549,203.9883,251.9072,211.4688,265.0143
Sprite,Foreground,Centre,"sb/highlight.png",253.904,306.904 S,2,17764,18004,0.5,0.1 F,2,17764,18004,1,0 P,0,17764,18004,A C,0,17764,,167,167,167
Sprite,Foreground,Centre,"sb/highlight.png",0,0 S,2,17978,18646,0.5,0.1 F,2,17978,18646,1,0 P,0,17978,18646,A C,0,17978,,167,167,167 M,0,17978,18031,258,311,272.8685,308.226 M,0,18031,18085,272.8685,308.226,287.7369,305.4521 M,0,18085,18138,287.7369,305.4521,302.6053,302.6781 M,0,18138,18192,302.6053,302.6781,317.4738,299.9041 M,0,18192,18245,317.4738,299.9041,332.3422,297.1302 M,0,18245,18299,332.3422,297.1302,347.2107,294.3562 M,0,18299,18352,347.2107,294.3562,362.0791,291.5822 M,0,18352,18406,362.0791,291.5822,376.9476,288.8083
Sprite,Foreground,Centre,"sb/highlight.png",0,0 S,2,18835,19503,0.5,0.1 F,2,18835,19503,1,0 P,0,18835,19503,A C,0,18835,,167,167,167 M,0,18835,18888,491,250,501.8252,260.476 M,0,18888,18942,501.8252,260.476,510.7551,272.5551 M,0,18942,18995,510.7551,272.5551,517.2114,286.1241 M,0,18995,19049,517.2114,286.1241,520.9545,300.6853 M,0,19049,19102,520.9545,300.6853,521.8429,315.7039 M,0,19102,19156,521.8429,315.7039,519.8394,330.6279 M,0,19156,19209,519.8394,330.6279,515.0117,344.9073 M,0,19209,19263,515.0117,344.9073,507.5313,358.0143
Sprite,Foreground,Centre,"sb/highlight.png",466.904,402.904 S,2,19478,19718,0.5,0.1 F,2,19478,19718,1,0 P,0,19478,19718,A C,0,19478,,167,167,167
Sprite,Foreground,Centre,"sb/highlight.png",0,0 S,2,19693,20147,0.5,0.1 F,2,19693,20147,1,0 P,0,19693,20147,A C,0,19693,,167,167,167 M,0,19693,19746,471,407,456.0936,404.438 M,0,19746,19800,456.0936,404.438,441.1871,401.8759 M,0,19800,19853,441.1871,401.8759,426.2807,399.3139 M,0,19853,19907,426.2807,399.3139,411.3743,396.7518
Sprite,Foreground,Centre,"sb/highlight.png",354,416 S,2,20121,20361,0.5,0.1 F,2,20121,20361,1,0 P,0,20121,20361,A C,0,20121,,167,167,167
Sprite,Foreground,Centre,"sb/highlight.png",0,0 S,2,20550,21218,0.5,0.1 F,2,20550,21218,1,0 P,0,20550,21218,A C,0,20550,,111,111,111 M,0,20550,20603,239,374,228.1748,363.524 M,0,20603,20657,228.1748,363.524,219.2449,351.4449 M,0,20657,20710,219.2449,351.4449,212.7886,337.8759 M,0,20710,20764,212.7886,337.8759,209.0455,323.3147 M,0,20764,20817,209.0455,323.3147,208.1571,308.2961 M,0,20817,20871,208.1571,308.2961,210.1606,293.3721 M,0,20871,20924,210.1606,293.3721,214.9883,279.0928 M,0,20924,20978,214.9883,279.0928,222.4688,265.9857
Sprite,Foreground,Centre,"sb/highlight.png",241.904,207.904 S,2,21193,21433,0.5,0.1 F,2,21193,21433,1,0 P,0,21193,21433,A C,0,21193,,111,111,111
Sprite,Foreground,Centre,"sb/highlight.png",0,0 S,2,21407,22075,0.5,0.1 F,2,21407,22075,1,0 P,0,21407,22075,A C,0,21407,,111,111,111 M,0,21407,21460,246,212,260.8685,214.774 M,0,21460,21514,260.8685,214.774,275.7369,217.5479 M,0,21514,21567,275.7369,217.5479,290.6053,220.3219 M,0,21567,21621,290.6053,220.3219,305.4738,223.0959 M,0,21621,21674,305.4738,223.0959,320.3422,225.8698 M,0,21674,21728,320.3422,225.8698,335.2107,228.6438 M,0,21728,21781,335.2107,228.6438,350.0791,231.4178 M,0,21781,21835,350.0791,231.4178,364.9476,234.1917
Sprite,Foreground,Centre,"sb/highlight.png",0,0 S,2,22264,22932,0.5,0.1 F,2,22264,22932,1,0 P,0,22264,22932,A C,0,22264,,111,111,111 M,0,22264,22317,479,272,489.8252,261.524 M,0,22317,22371,489.8252,261.524,498.7551,249.4449 M,0,22371,22424,498.7551,249.4449,505.2114,235.8758 M,0,22424,22478,505.2114,235.8758,508.9544,221.3147 M,0,22478,22531,508.9544,221.3147,509.8429,206.2961 M,0,22531,22585,509.8429,206.2961,507.8393,191.3721 M,0,22585,22638,507.8393,191.3721,503.0117,177.0927 M,0,22638,22692,503.0117,177.0927,495.5313,163.9857
Sprite,Foreground,Centre,"sb/highlight.png",468.904,108.904 S,2,22907,23147,0.5,0.1 F,2,22907,23147,1,0 P,0,22907,23147,A C,0,22907,,111,111,111
Sprite,Foreground,Centre,"sb/highlight.png",0,0 S,2,23121,23789,0.5,0.1 F,2,23121,23789,1,0 P,0,23121,23789,A C,0,23121,,111,111,111 M,0,23121,23174,473,113,458.1316,115.774 M,0,23174,23228,458.1316,115.774,443.2631,118.5479 M,0,23228,23281,443.2631,118.5479,428.3947,121.3219 M,0,23281,23335,428.3947,121.3219,413.5262,124.0959 M,0,23335,23388,413.5262,124.0959,398.6578,126.8698 M,0,23388,23442,398.6578,126.8698,383.7893,129.6438 M,0,23442,23495,383.7893,129.6438,368.9209,132.4178 M,0,23495,23549,368.9209,132.4178,354.0524,135.1917
Sprite,Foreground,Centre,"sb/highlight.png",299.904,163.904 S,2,23764,24004,0.5,0.1 F,2,23764,24004,1,0 P,0,23764,24004,A C,0,23764,,111,111,111
Sprite,Foreground,Centre,"sb/highlight.png",304,168 S,2,23978,24218,0.5,0.1 F,2,23978,24218,1,0 P,0,23978,24218,A C,0,23978,,225,91,236
Sprite,Foreground,Centre,"sb/highlight.png",0,0 S,2,24407,24861,0.5,0.1 F,2,24407,24861,1,0 P,0,24407,24861,A C,0,24407,,225,91,236 M,0,24407,24460,192,120,177.0936,122.562 M,0,24460,24514,177.0936,122.562,162.1871,125.1241 M,0,24514,24567,162.1871,125.1241,147.2807,127.6861 M,0,24567,24621,147.2807,127.6861,132.3743,130.2482
Sprite,Foreground,Centre,"sb/highlight.png",0,0 S,2,24835,25503,0.5,0.1 F,2,24835,25503,1,0 P,0,24835,25503,A C,0,24835,,225,91,236 M,0,24835,24888,79,101,68.17478,111.476 M,0,24888,24942,68.17478,111.476,59.24492,123.5551 M,0,24942,24995,59.24492,123.5551,52.78857,137.1241 M,0,24995,25049,52.78857,137.1241,49.04554,151.6853 M,0,25049,25102,49.04554,151.6853,48.15709,166.7039 M,0,25102,25156,48.15709,166.7039,50.16065,181.6279 M,0,25156,25209,50.16065,181.6279,54.98826,195.9072 M,0,25209,25263,54.98826,195.9072,62.46875,209.0143
Sprite,Foreground,Centre,"sb/highlight.png",0,0 S,2,25693,26361,0.5,0.1 F,2,25693,26361,1,0 P,0,25693,26361,A C,0,25693,,225,91,236 M,0,25693,25746,137,304,151.8456,301.1064 M,0,25746,25800,151.8456,301.1064,166.6913,298.2127 M,0,25800,25853,166.6913,298.2127,181.5369,295.3191 M,0,25853,25907,181.5369,295.3191,196.3825,292.4254 M,0,25907,25960,196.3825,292.4254,211.2281,289.5318 M,0,25960,26014,211.2281,289.5318,226.0737,286.6382 M,0,26014,26067,226.0737,286.6382,240.9194,283.7445 M,0,26067,26121,240.9194,283.7445,255,281
Sprite,Foreground,Centre,"sb/highlight.png",305.904,248.904 S,2,26335,26575,0.5,0.1 F,2,26335,26575,1,0 P,0,26335,26575,A C,0,26335,,225,91,236
Sprite,Foreground,Centre,"sb/highlight.png",310,253 S,2,26550,26790,0.5,0.1 F,2,26550,26790,1,0 P,0,26550,26790,A C,0,26550,,225,91,236
Sprite,Foreground,Centre,"sb/highlight.png",0,0 S,2,26978,27432,0.5,0.1 F,2,26978,27432,1,0 P,0,26978,27432,A C,0,26978,,225,91,236 M,0,26978,27031,428,274,425.1699,288.8578 M,0,27031,27085,425.1699,288.8578,422.3398,303.7158 M,0,27085,27138,422.3398,303.7158,419.5098,318.5736 M,0,27138,27192,419.5098,318.5736,416.6797,333.4315
Sprite,Foreground,Centre,"sb/highlight.png",0,0 S,2,27407,28075,0.5,0.1 F,2,27407,28075,1,0 P,0,27407,28075,A C,0,27407,,188,46,185 M,0,27407,27460,405,393,390.1498,390.1298 M,0,27460,27514,390.1498,390.1298,375.2997,387.2596 M,0,27514,27567,375.2997,387.2596,360.4495,384.3894 M,0,27567,27621,360.4495,384.3894,345.5993,381.5192 M,0,27621,27674,345.5993,381.5192,330.7491,378.649 M,0,27674,27728,330.7491,378.649,315.899,375.7788 M,0,27728,27781,315.899,375.7788,301.0488,372.9086 M,0,27781,27835,301.0488,372.9086,286.1986,370.0384
Sprite,Foreground,Centre,"sb/highlight.png",224.904,377.904 S,2,28050,28290,0.5,0.1 F,2,28050,28290,1,0 P,0,28050,28290,A C,0,28050,,188,46,185
Sprite,Foreground,Centre,"sb/highlight.png",0,0 S,2,28264,28932,0.5,0.1 F,2,28264,28932,1,0 P,0,28264,28932,A C,0,28264,,188,46,185 M,0,28264,28317,229,382,218.0538,371.6528 M,0,28317,28371,218.0538,371.6528,208.9699,359.691 M,0,28371,28424,208.9699,359.691,202.334,346.2072 M,0,28424,28478,202.334,346.2072,198.3926,331.6919 M,0,28478,28531,198.3926,331.6919,197.2956,316.6745 M,0,28531,28585,197.2956,316.6745,199.0908,301.7036 M,0,28585,28638,199.0908,301.7036,204.1341,287.5133 M,0,28638,28692,204.1341,287.5133,211.2091,274.2176
Sprite,Foreground,Centre,"sb/highlight.png",0,0 S,2,29121,30003,0.5,0.1 F,2,29121,30003,1,0 P,0,29121,30003,A C,0,29121,,188,46,185 M,0,29121,29174,294,184,291.2803,169.1215 M,0,29174,29228,291.2803,169.1215,288.5605,154.2431 M,0,29228,29281,288.5605,154.2431,285.8408,139.3646 M,0,29281,29335,285.8408,139.3646,283.1211,124.4861 M,0,29335,29388,283.1211,124.4861,280.4014,109.6077 M,0,29388,29442,280.4014,109.6077,277.6817,94.72919 M,0,29442,29495,277.6817,94.72919,280.4014,109.6077 M,0,29495,29549,280.4014,109.6077,283.1211,124.4861 M,0,29549,29603,283.1211,124.4861,285.8408,139.3646 M,0,29603,29656,285.8408,139.3646,288.5605,154.2431 M,0,29656,29710,288.5605,154.2431,291.2803,169.1215 M,0,29710,29763,291.2803,169.1215,294,184
Sprite,Foreground,Centre,"sb/highlight.png",328,234 S,2,29978,30218,0.5,0.1 F,2,29978,30218,1,0 P,0,29978,30218,A C,0,29978,,188,46,185
Sprite,Foreground,Centre,"sb/highlight.png",431,171 S,2,30407,30647,0.5,0.1 F,2,30407,30647,1,0 P,0,30407,30647,A C,0,30407,,188,46,185
Sprite,Foreground,Centre,"sb/highlight.png",0,0 S,2,30835,31503,0.5,0.1 F,2,30835,31503,1,0 P,0,30835,31503,A C,0,30835,,167,167,167 M,0,30835,30888,549,196,559.9462,206.3472 M,0,30888,30942,559.9462,206.3472,569.0302,218.3089 M,0,30942,30995,569.0302,218.3089,575.666,231.7929 M,0,30995,31049,575.666,231.7929,579.6074,246.3081 M,0,31049,31102,579.6074,246.3081,580.7045,261.3255 M,0,31102,31156,580.7045,261.3255,578.9092,276.2964 M,0,31156,31209,578.9092,276.2964,573.8659,290.4867 M,0,31209,31263,573.8659,290.4867,566.7909,303.7824
Sprite,Foreground,Centre,"sb/highlight.png",516.904,337.904 S,2,31478,31718,0.5,0.1 F,2,31478,31718,1,0 P,0,31478,31718,A C,0,31478,,167,167,167
Sprite,Foreground,Centre,"sb/highlight.png",0,0 S,2,31693,32361,0.5,0.1 F,2,31693,32361,1,0 P,0,31693,32361,A C,0,31693,,167,167,167 M,0,31693,31746,521,342,506.1498,339.1298 M,0,31746,31800,506.1498,339.1298,491.2997,336.2596 M,0,31800,31853,491.2997,336.2596,476.4495,333.3894 M,0,31853,31907,476.4495,333.3894,461.5993,330.5192 M,0,31907,31960,461.5993,330.5192,446.7491,327.649 M,0,31960,32014,446.7491,327.649,431.899,324.7788 M,0,32014,32067,431.899,324.7788,417.0488,321.9086 M,0,32067,32121,417.0488,321.9086,402.1986,319.0384
Sprite,Foreground,Centre,"sb/highlight.png",0,0 S,2,32550,33218,0.5,0.1 F,2,32550,33218,1,0 P,0,32550,33218,A C,0,32550,,167,167,167 M,0,32550,32603,284,348,269.1498,345.1298 M,0,32603,32657,269.1498,345.1298,254.2997,342.2596 M,0,32657,32710,254.2997,342.2596,239.4495,339.3894 M,0,32710,32764,239.4495,339.3894,224.5993,336.5192 M,0,32764,32817,224.5993,336.5192,209.7491,333.649 M,0,32817,32871,209.7491,333.649,194.899,330.7788 M,0,32871,32924,194.899,330.7788,180.0488,327.9086 M,0,32924,32978,180.0488,327.9086,165.1986,325.0384
Sprite,Foreground,Centre,"sb/highlight.png",105.904,338.904 S,2,33193,33433,0.5,0.1 F,2,33193,33433,1,0 P,0,33193,33433,A C,0,33193,,167,167,167
Sprite,Foreground,Centre,"sb/highlight.png",110,343 S,2,33407,33647,0.5,0.1 F,2,33407,33647,1,0 P,0,33407,33647,A C,0,33407,,167,167,167
Sprite,Foreground,Centre,"sb/highlight.png",0,0 S,2,33835,34289,0.5,0.1 F,2,33835,34289,1,0 P,0,33835,34289,A C,0,33835,,167,167,167 M,0,33835,33888,69,229,71.83007,214.1421 M,0,33888,33942,71.83007,214.1421,74.66014,199.2843 M,0,33942,33995,74.66014,199.2843,77.49021,184.4264 M,0,33995,34049,77.49021,184.4264,80.32028,169.5685
Sprite,Foreground,Centre,"sb/highlight.png",0,0 S,2,34264,34932,0.5,0.1 F,2,34264,34932,1,0 P,0,34264,34932,A C,0,34264,,111,111,111 M,0,34264,34317,101,112,110.9146,100.6676 M,0,34317,34371,110.9146,100.6676,122.5932,91.2382 M,0,34371,34424,122.5932,91.2382,135.9319,84.33861 M,0,34424,34478,135.9319,84.33861,150.3937,80.25097 M,0,34478,34531,150.3937,80.25097,165.3959,79.14566 M,0,34531,34585,165.3959,79.14566,180.3329,81.07439 M,0,34585,34638,180.3329,81.07439,194.5999,85.9677 M,0,34638,34692,194.5999,85.9677,207.562,93.70397
Sprite,Foreground,Centre,"sb/highlight.png",255.904,130.904 S,2,34907,35147,0.5,0.1 F,2,34907,35147,1,0 P,0,34907,35147,A C,0,34907,,111,111,111
Sprite,Foreground,Centre,"sb/highlight.png",0,0 S,2,35121,35789,0.5,0.1 F,2,35121,35789,1,0 P,0,35121,35789,A C,0,35121,,111,111,111 M,0,35121,35174,260,135,257.1298,149.8502 M,0,35174,35228,257.1298,149.8502,254.2596,164.7003 M,0,35228,35281,254.2596,164.7003,251.3894,179.5505 M,0,35281,35335,251.3894,179.5505,248.5192,194.4007 M,0,35335,35388,248.5192,194.4007,245.649,209.2509 M,0,35388,35442,245.649,209.2509,242.7788,224.101 M,0,35442,35495,242.7788,224.101,239.9086,238.9512 M,0,35495,35549,239.9086,238.9512,237.0384,253.8014
Sprite,Foreground,Centre,"sb/highlight.png",0,0 S,2,35978,36646,0.5,0.1 F,2,35978,36646,1,0 P,0,35978,36646,A C,0,35978,,111,111,111 M,0,35978,36031,191,365,205.8502,362.1298 M,0,36031,36085,205.8502,362.1298,220.7003,359.2596 M,0,36085,36138,220.7003,359.2596,235.5505,356.3894 M,0,36138,36192,235.5505,356.3894,250.4007,353.5192 M,0,36192,36245,250.4007,353.5192,265.2509,350.649 M,0,36245,36299,265.2509,350.649,280.101,347.7788 M,0,36299,36352,280.101,347.7788,294.9512,344.9086 M,0,36352,36406,294.9512,344.9086,309.8014,342.0384
Sprite,Foreground,Centre,"sb/highlight.png",363.904,367.904 S,2,36621,36861,0.5,0.1 F,2,36621,36861,1,0 P,0,36621,36861,A C,0,36621,,111,111,111
Sprite,Foreground,Centre,"sb/highlight.png",0,0 S,2,36835,37503,0.5,0.1 F,2,36835,37503,1,0 P,0,36835,37503,A C,0,36835,,111,111,111 M,0,36835,36888,368,372,382.8502,369.1298 M,0,36888,36942,382.8502,369.1298,397.7003,366.2596 M,0,36942,36995,397.7003,366.2596,412.5505,363.3894 M,0,36995,37049,412.5505,363.3894,427.4007,360.5192 M,0,37049,37102,427.4007,360.5192,442.2509,357.649 M,0,37102,37156,442.2509,357.649,457.101,354.7788 M,0,37156,37209,457.101,354.7788,471.9512,351.9086 M,0,37209,37263,471.9512,351.9086,486.8014,349.0384
Sprite,Foreground,Centre,"sb/highlight.png",543.904,367.904 S,2,37478,37718,0.5,0.1 F,2,37478,37718,1,0 P,0,37478,37718,A C,0,37478,,111,111,111
Sprite,Foreground,Centre,"sb/highlight.png",548,372 S,2,37693,37933,0.5,0.1 F,2,37693,37933,1,0 P,0,37693,37933,A C,0,37693,,225,91,236
Sprite,Foreground,Centre,"sb/highlight.png",0,0 S,2,38121,38575,0.5,0.1 F,2,38121,38575,1,0 P,0,38121,38575,A C,0,38121,,225,91,236 M,0,38121,38174,576,255,573.438,240.0936 M,0,38174,38228,573.438,240.0936,570.8759,225.1871 M,0,38228,38281,570.8759,225.1871,568.3138,210.2807 M,0,38281,38335,568.3138,210.2807,565.7518,195.3743
Sprite,Foreground,Centre,"sb/highlight.png",0,0 S,2,38550,39218,0.5,0.1 F,2,38550,39218,1,0 P,0,38550,39218,A C,0,38550,,225,91,236 M,0,38550,38603,550,136,537.6775,127.338 M,0,38603,38657,537.6775,127.338,524.1267,120.8624 M,0,38657,38710,524.1267,120.8624,509.5729,117.1304 M,0,38710,38764,509.5729,117.1304,494.5629,116.2854 M,0,38764,38817,494.5629,116.2854,479.6612,118.3636 M,0,38817,38871,479.6612,118.3636,465.4294,123.2924 M,0,38871,38924,465.4294,123.2924,452.4056,130.8929 M,0,38924,38978,452.4056,130.8929,441.1013,140.9003
Sprite,Foreground,Centre,"sb/highlight.png",0,0 S,2,39407,40075,0.5,0.1 F,2,39407,40075,1,0 P,0,39407,40075,A C,0,39407,,225,91,236 M,0,39407,39460,368,238,353.1498,235.1298 M,0,39460,39514,353.1498,235.1298,338.2997,232.2596 M,0,39514,39567,338.2997,232.2596,323.4495,229.3894 M,0,39567,39621,323.4495,229.3894,308.5993,226.5192 M,0,39621,39674,308.5993,226.5192,293.7491,223.649 M,0,39674,39728,293.7491,223.649,278.899,220.7788 M,0,39728,39781,278.899,220.7788,264.0488,217.9086 M,0,39781,39835,264.0488,217.9086,249.1986,215.0384
Sprite,Foreground,Centre,"sb/highlight.png",192.904,238.904 S,2,40050,40290,0.5,0.1 F,2,40050,40290,1,0 P,0,40050,40290,A C,0,40050,,225,91,236
Sprite,Foreground,Centre,"sb/highlight.png",197,243 S,2,40264,40504,0.5,0.1 F,2,40264,40504,1,0 P,0,40264,40504,A C,0,40264,,225,91,236
Sprite,Foreground,Centre,"sb/highlight.png",0,0 S,2,40693,41147,0.5,0.1 F,2,40693,41147,1,0 P,0,40693,41147,A C,0,40693,,225,91,236 M,0,40693,40746,84,197,86.56204,182.0936 M,0,40746,40800,86.56204,182.0936,89.12408,167.1871 M,0,40800,40853,89.12408,167.1871,91.68613,152.2807 M,0,40853,40907,91.68613,152.2807,94.24817,137.3743
Sprite,Foreground,Centre,"sb/highlight.png",0,0 S,2,41121,41789,0.5,0.1 F,2,41121,41789,1,0 P,0,41121,41789,A C,0,41121,,188,46,185 M,0,41121,41174,106,78,117.5355,68.31271 M,0,41174,41228,117.5355,68.31271,130.4583,60.65486 M,0,41228,41281,130.4583,60.65486,144.6087,55.59265 M,0,41281,41335,144.6087,55.59265,159.4748,53.31334 M,0,41335,41388,159.4748,53.31334,174.5178,53.90492 M,0,41388,41442,174.5178,53.90492,189.1913,57.35276 M,0,41442,41495,189.1913,57.35276,202.9603,63.53974 M,0,41495,41549,202.9603,63.53974,215.2117,72.36333
Sprite,Foreground,Centre,"sb/highlight.png",0,0 S,2,41978,42432,0.5,0.1 F,2,41978,42432,1,0 P,0,41978,42432,A C,0,41978,,188,46,185 M,0,41978,42031,308,149,305.438,163.9064 M,0,42031,42085,305.438,163.9064,302.8759,178.8129 M,0,42085,42138,302.8759,178.8129,300.3139,193.7193 M,0,42138,42192,300.3139,193.7193,297.7518,208.6257
Sprite,Foreground,Centre,"sb/highlight.png",285,268 S,2,42407,42647,0.5,0.1 F,2,42407,42647,1,0 P,0,42407,42647,A C,0,42407,,188,46,185
Sprite,Foreground,Centre,"sb/highlight.png",396,313 S,2,42835,43075,0.5,0.1 F,2,42835,43075,1,0 P,0,42835,43075,A C,0,42835,,188,46,185
Sprite,Foreground,Centre,"sb/highlight.png",396,313 S,2,44121,44361,0.5,0.1 F,2,44121,44361,1,0 P,0,44121,44361,A C,0,44121,,167,167,167
Sprite,Foreground,Centre,"sb/highlight.png",0,0 S,2,44550,45218,0.5,0.1 F,2,44550,45218,1,0 P,0,44550,45218,A C,0,44550,,111,111,111 M,0,44550,44603,417,182,400.5078,181.9543 M,0,44603,44657,400.5078,181.9543,384.1696,184.1084 M,0,44657,44710,384.1696,184.1084,368.6413,189.5659 M,0,44710,44764,368.6413,189.5659,354.6783,198.3183 M,0,44764,44817,354.6783,198.3183,341.2127,207.8479 M,0,44817,44871,341.2127,207.8479,326.5619,215.3793 M,0,44871,44924,326.5619,215.3793,310.7534,220.0305 M,0,44924,44978,310.7534,220.0305,294.4276,222.349
Sprite,Foreground,Centre,"sb/highlight.png",217.904,180.904 S,2,45193,45433,0.5,0.1 F,2,45193,45433,1,0 P,0,45193,45433,A C,0,45193,,111,111,111
Sprite,Foreground,Centre,"sb/highlight.png",0,0 S,2,45407,45861,0.5,0.1 F,2,45407,45861,1,0 P,0,45407,45861,A C,0,45407,,111,111,111 M,0,45407,45460,222,185,219.4765,168.6941 M,0,45460,45514,219.4765,168.6941,216.9529,152.3882 M,0,45514,45567,216.9529,152.3882,214.4294,136.0824 M,0,45567,45621,214.4294,136.0824,211.9059,119.7765
Sprite,Foreground,Centre,"sb/highlight.png",139,74 S,2,45835,46075,0.5,0.1 F,2,45835,46075,1,0 P,0,45835,46075,A C,0,45835,,111,111,111
Sprite,Foreground,Centre,"sb/highlight.png",0,0 S,2,46264,46932,0.5,0.1 F,2,46264,46932,1,0 P,0,46264,46932,A C,0,46264,,111,111,111 M,0,46264,46317,64,220,66.96204,236.2319 M,0,46317,46371,66.96204,236.2319,69.92407,252.4639 M,0,46371,46424,69.92407,252.4639,72.88611,268.6959 M,0,46424,46478,72.88611,268.6959,75.84814,284.9278 M,0,46478,46531,75.84814,284.9278,78.81018,301.1598 M,0,46531,46585,78.81018,301.1598,81.77222,317.3917 M,0,46585,46638,81.77222,317.3917,84.73425,333.6237 M,0,46638,46692,84.73425,333.6237,87.69628,349.8556
Sprite,Foreground,Centre,"sb/highlight.png",171.904,365.904 S,2,46907,47147,0.5,0.1 F,2,46907,47147,1,0 P,0,46907,47147,A C,0,46907,,111,111,111
Sprite,Foreground,Centre,"sb/highlight.png",0,0 S,2,47121,47789,0.5,0.1 F,2,47121,47789,1,0 P,0,47121,47789,A C,0,47121,,111,111,111 M,0,47121,47174,176,370,178.5235,386.3059 M,0,47174,47228,178.5235,386.3059,181.0471,402.6118 M,0,47228,47281,181.0471,402.6118,183.5706,418.9177 M,0,47281,47335,183.5706,418.9177,186.0941,435.2235 M,0,47335,47388,186.0941,435.2235,183.5706,418.9176 M,0,47388,47442,183.5706,418.9176,181.0471,402.6118 M,0,47442,47495,181.0471,402.6118,178.5235,386.3059 M,0,47495,47549,178.5235,386.3059,176,370
Sprite,Foreground,Centre,"sb/highlight.png",0,0 S,2,47978,48646,0.5,0.1 F,2,47978,48646,1,0 P,0,47978,48646,A C,0,47978,,225,91,236 M,0,47978,48031,267,224,281.8558,216.8197 M,0,48031,48085,281.8558,216.8197,296.7115,209.6394 M,0,48085,48138,296.7115,209.6394,311.5673,202.4592 M,0,48138,48192,311.5673,202.4592,326.423,195.2789 M,0,48192,48245,326.423,195.2789,341.6646,201.0384 M,0,48245,48299,341.6646,201.0384,356.9218,207.3207 M,0,48299,48352,356.9218,207.3207,372.179,213.6031 M,0,48352,48406,372.179,213.6031,387.4362,219.8855
Sprite,Foreground,Centre,"sb/highlight.png",461.904,261.904 S,2,48621,48861,0.5,0.1 F,2,48621,48861,1,0 P,0,48621,48861,A C,0,48621,,225,91,236
Sprite,Foreground,Centre,"sb/highlight.png",0,0 S,2,48835,49503,0.5,0.1 F,2,48835,49503,1,0 P,0,48835,49503,A C,0,48835,,225,91,236 M,0,48835,48888,466,266,477.6127,277.6876 M,0,48888,48942,477.6127,277.6876,486.9899,291.2309 M,0,48942,48995,486.9899,291.2309,493.841,306.208 M,0,48995,49049,493.841,306.208,497.9538,322.1529 M,0,49049,49102,497.9538,322.1529,499.2014,338.5695 M,0,49102,49156,499.2014,338.5695,497.546,354.9471 M,0,49156,49209,497.546,354.9471,493.04,370.7767 M,0,49209,49263,493.04,370.7767,485.8245,385.5662
Sprite,Foreground,Centre,"sb/highlight.png",0,0 S,2,49693,50361,0.5,0.1 F,2,49693,50361,1,0 P,0,49693,50361,A C,0,49693,,225,91,236 M,0,49693,49746,318,426,301.7681,423.038 M,0,49746,49800,301.7681,423.038,285.5361,420.0759 M,0,49800,49853,285.5361,420.0759,269.3041,417.1139 M,0,49853,49907,269.3041,417.1139,253.0722,414.1519 M,0,49907,49960,253.0722,414.1519,236.8402,411.1898 M,0,49960,50014,236.8402,411.1898,220.6083,408.2278 M,0,50014,50067,220.6083,408.2278,204.3763,405.2657 M,0,50067,50121,204.3763,405.2657,188.1444,402.3037
Sprite,Foreground,Centre,"sb/highlight.png",102.904,410.904 S,2,50335,50575,0.5,0.1 F,2,50335,50575,1,0 P,0,50335,50575,A C,0,50335,,225,91,236
Sprite,Foreground,Centre,"sb/highlight.png",0,0 S,2,50550,51218,0.5,0.1 F,2,50550,51218,1,0 P,0,50550,51218,A C,0,50550,,225,91,236 M,0,50550,50603,107,415,95.42988,403.3103 M,0,50603,50657,95.42988,403.3103,85.86041,389.9805 M,0,50657,50710,85.86041,389.9805,78.83981,375.1491 M,0,50710,50764,78.83981,375.1491,74.59626,359.2981 M,0,50764,50817,74.59626,359.2981,73.26774,342.9426 M,0,50817,50871,73.26774,342.9426,74.89749,326.6142 M,0,50871,50924,74.89749,326.6142,79.43263,310.8435 M,0,50924,50978,79.43263,310.8435,86.44871,295.9682
Sprite,Foreground,Centre,"sb/highlight.png",0,0 S,2,51407,52075,0.5,0.1 F,2,51407,52075,1,0 P,0,51407,52075,A C,0,51407,,188,46,185 M,0,51407,51460,239,216,255.2652,218.7739 M,0,51460,51514,255.2652,218.7739,271.5303,221.5478 M,0,51514,51567,271.5303,221.5478,287.7955,224.3217 M,0,51567,51621,287.7955,224.3217,304.0606,227.0956 M,0,51621,51674,304.0606,227.0956,320.3258,229.8695 M,0,51674,51728,320.3258,229.8695,336.591,232.6434 M,0,51728,51781,336.591,232.6434,352.8561,235.4173 M,0,51781,51835,352.8561,235.4173,368,238
Sprite,Foreground,Centre,"sb/highlight.png",450.904,261.904 S,2,52050,52290,0.5,0.1 F,2,52050,52290,1,0 P,0,52050,52290,A C,0,52050,,188,46,185
Sprite,Foreground,Centre,"sb/highlight.png",0,0 S,2,52264,52718,0.5,0.1 F,2,52264,52718,1,0 P,0,52264,52718,A C,0,52264,,188,46,185 M,0,52264,52317,455,266,457.5235,249.6941 M,0,52317,52371,457.5235,249.6941,460.0471,233.3882 M,0,52371,52424,460.0471,233.3882,462.5706,217.0824 M,0,52424,52478,462.5706,217.0824,465.0941,200.7765
Sprite,Foreground,Centre,"sb/highlight.png",483,116 S,2,52693,52933,0.5,0.1 F,2,52693,52933,1,0 P,0,52693,52933,A C,0,52693,,188,46,185
Sprite,Foreground,Centre,"sb/highlight.png",0,0 S,2,53121,53789,0.5,0.1 F,2,53121,53789,1,0 P,0,53121,53789,A C,0,53121,,188,46,185 M,0,53121,53174,319,66,302.5078,65.95428 M,0,53174,53228,302.5078,65.95428,286.1696,68.10838 M,0,53228,53281,286.1696,68.10838,270.6413,73.5659 M,0,53281,53335,270.6413,73.5659,256.6783,82.31828 M,0,53335,53388,256.6783,82.31828,243.2127,91.84787 M,0,53388,53442,243.2127,91.84787,228.5619,99.37932 M,0,53442,53495,228.5619,99.37932,212.7534,104.0305 M,0,53495,53549,212.7534,104.0305,196.4276,106.349
Sprite,Foreground,Centre,"sb/highlight.png",110.904,119.904 S,2,53764,54004,0.5,0.1 F,2,53764,54004,1,0 P,0,53764,54004,A C,0,53764,,188,46,185
Sprite,Foreground,Centre,"sb/highlight.png",0,0 S,2,53978,54646,0.5,0.1 F,2,53978,54646,1,0 P,0,53978,54646,A C,0,53978,,188,46,185 M,0,53978,54031,115,124,112.4765,107.6941 M,0,54031,54085,112.4765,107.6941,109.9529,91.38823 M,0,54085,54138,109.9529,91.38823,107.4294,75.08235 M,0,54138,54192,107.4294,75.08235,104.9059,58.77647 M,0,54192,54245,104.9059,58.77647,107.4294,75.08236 M,0,54245,54299,107.4294,75.08236,109.9529,91.38824 M,0,54299,54352,109.9529,91.38824,112.4765,107.6941 M,0,54352,54406,112.4765,107.6941,115,124
Sprite,Foreground,Centre,"sb/highlight.png",0,0 S,2,54835,55503,0.5,0.1 F,2,54835,55503,1,0 P,0,54835,55503,A C,0,54835,,167,167,167 M,0,54835,54888,147,292,158.6876,280.3873 M,0,54888,54942,158.6876,280.3873,172.2309,271.0101 M,0,54942,54995,172.2309,271.0101,187.208,264.159 M,0,54995,55049,187.208,264.159,203.1529,260.0462 M,0,55049,55102,203.1529,260.0462,219.5695,258.7986 M,0,55102,55156,219.5695,258.7986,235.9471,260.454 M,0,55156,55209,235.9471,260.454,251.7767,264.96 M,0,55209,55263,251.7767,264.96,266.5662,272.1755
Sprite,Foreground,Centre,"sb/highlight.png",346.904,300.904 S,2,55478,55718,0.5,0.1 F,2,55478,55718,1,0 P,0,55478,55718,A C,0,55478,,167,167,167
Sprite,Foreground,Centre,"sb/highlight.png",0,0 S,2,55693,56361,0.5,0.1 F,2,55693,56361,1,0 P,0,55693,56361,A C,0,55693,,167,167,167 M,0,55693,55746,351,305,362.3399,293.0842 M,0,55746,55800,362.3399,293.0842,371.674,279.5847 M,0,55800,55853,371.674,279.5847,378.4691,264.6452 M,0,55853,55907,378.4691,264.6452,382.5103,248.7382 M,0,55907,55960,382.5103,248.7382,383.6699,232.3669 M,0,55960,56014,383.6699,232.3669,381.911,216.049 M,0,56014,56067,381.911,216.049,377.2894,200.3007 M,0,56067,56121,377.2894,200.3007,370.2459,185.4362
Sprite,Foreground,Centre,"sb/highlight.png",212,119 S,2,56550,56790,0.5,0.1 F,2,56550,56790,1,0 P,0,56550,56790,A C,0,56550,,167,167,167
Sprite,Foreground,Centre,"sb/highlight.png",0,0 S,2,58264,58932,0.5,0.1 F,2,58264,58932,1,0 P,0,58264,58932,A C,0,58264,,111,111,111 M,0,58264,58317,408,400,418.8252,389.524 M,0,58317,58371,418.8252,389.524,427.7551,377.4449 M,0,58371,58424,427.7551,377.4449,434.2114,363.8759 M,0,58424,58478,434.2114,363.8759,437.9544,349.3147 M,0,58478,58531,437.9544,349.3147,438.8429,334.2961 M,0,58531,58585,438.8429,334.2961,436.8393,319.3721 M,0,58585,58638,436.8393,319.3721,432.0117,305.0928 M,0,58638,58692,432.0117,305.0928,424.5313,291.9857
Sprite,Foreground,Centre,"sb/highlight.png",401.904,234.904 S,2,58907,59147,0.5,0.1 F,2,58907,59147,1,0 P,0,58907,59147,A C,0,58907,,111,111,111
Sprite,Foreground,Centre,"sb/highlight.png",0,0 S,2,59121,59789,0.5,0.1 F,2,59121,59789,1,0 P,0,59121,59789,A C,0,59121,,111,111,111 M,0,59121,59174,406,239,391.127,241.7496 M,0,59174,59228,391.127,241.7496,376.2541,244.4993 M,0,59228,59281,376.2541,244.4993,361.3811,247.2489 M,0,59281,59335,361.3811,247.2489,346.5081,249.9985 M,0,59335,59388,346.5081,249.9985,331.6352,252.7481 M,0,59388,59442,331.6352,252.7481,316.7622,255.4977 M,0,59442,59495,316.7622,255.4977,301.8892,258.2474 M,0,59495,59549,301.8892,258.2474,287.0162,260.997
Sprite,Foreground,Centre,"sb/highlight.png",0,0 S,2,59978,60646,0.5,0.1 F,2,59978,60646,1,0 P,0,59978,60646,A C,0,59978,,111,111,111 M,0,59978,60031,168,292,157.1748,281.524 M,0,60031,60085,157.1748,281.524,148.2449,269.4449 M,0,60085,60138,148.2449,269.4449,141.7886,255.8758 M,0,60138,60192,141.7886,255.8758,138.0455,241.3147 M,0,60192,60245,138.0455,241.3147,137.1571,226.2961 M,0,60245,60299,137.1571,226.2961,139.1606,211.3721 M,0,60299,60352,139.1606,211.3721,143.9883,197.0928 M,0,60352,60406,143.9883,197.0928,151.4688,183.9857
Sprite,Foreground,Centre,"sb/highlight.png",187.904,135.904 S,2,60621,60861,0.5,0.1 F,2,60621,60861,1,0 P,0,60621,60861,A C,0,60621,,111,111,111
Sprite,Foreground,Centre,"sb/highlight.png",192,140 S,2,60835,61075,0.5,0.1 F,2,60835,61075,1,0 P,0,60835,61075,A C,0,60835,,111,111,111
Sprite,Foreground,Centre,"sb/highlight.png",0,0 S,2,61264,61718,0.5,0.1 F,2,61264,61718,1,0 P,0,61264,61718,A C,0,61264,,111,111,111 M,0,61264,61317,292,76,306.8578,78.83007 M,0,61317,61371,306.8578,78.83007,321.7157,81.66014 M,0,61371,61424,321.7157,81.66014,336.5736,84.49021 M,0,61424,61478,336.5736,84.49021,351.4315,87.32028
Sprite,Foreground,Centre,"sb/highlight.png",0,0 S,2,61693,62361,0.5,0.1 F,2,61693,62361,1,0 P,0,61693,62361,A C,0,61693,,225,91,236 M,0,61693,61746,396,128,410.8456,125.1064 M,0,61746,61800,410.8456,125.1064,425.6913,122.2127 M,0,61800,61853,425.6913,122.2127,440.5369,119.3191 M,0,61853,61907,440.5369,119.3191,455.3825,116.4254 M,0,61907,61960,455.3825,116.4254,470.2281,113.5318 M,0,61960,62014,470.2281,113.5318,485.0737,110.6382 M,0,62014,62067,485.0737,110.6382,499.9194,107.7445 M,0,62067,62121,499.9194,107.7445,514,105
Sprite,Foreground,Centre,"sb/highlight.png",554.904,59.904 S,2,62335,62575,0.5,0.1 F,2,62335,62575,1,0 P,0,62335,62575,A C,0,62335,,225,91,236
Sprite,Foreground,Centre,"sb/highlight.png",0,0 S,2,62549,63217,0.5,0.1 F,2,62549,63217,1,0 P,0,62549,63217,A C,0,62549,,225,91,236 M,0,62549,62602,559,64,569.9462,74.34723 M,0,62602,62656,569.9462,74.34723,579.0301,86.30894 M,0,62656,62709,579.0301,86.30894,585.666,99.79286 M,0,62709,62763,585.666,99.79286,589.6074,114.3081 M,0,62763,62816,589.6074,114.3081,590.7045,129.3255 M,0,62816,62870,590.7045,129.3255,588.9092,144.2964 M,0,62870,62923,588.9092,144.2964,583.8659,158.4867 M,0,62923,62977,583.8659,158.4867,576.7909,171.7824
Sprite,Foreground,Centre,"sb/highlight.png",0,0 S,2,63407,64075,0.5,0.1 F,2,63407,64075,1,0 P,0,63407,64075,A C,0,63407,,225,91,236 M,0,63407,63460,496,263,481.1498,260.1298 M,0,63460,63514,481.1498,260.1298,466.2997,257.2596 M,0,63514,63567,466.2997,257.2596,451.4495,254.3894 M,0,63567,63621,451.4495,254.3894,436.5993,251.5192 M,0,63621,63674,436.5993,251.5192,421.7491,248.649 M,0,63674,63728,421.7491,248.649,406.899,245.7788 M,0,63728,63781,406.899,245.7788,392.0488,242.9086 M,0,63781,63835,392.0488,242.9086,377.1986,240.0384
Sprite,Foreground,Centre,"sb/highlight.png",326.904,204.904 S,2,64050,64290,0.5,0.1 F,2,64050,64290,1,0 P,0,64050,64290,A C,0,64050,,225,91,236
Sprite,Foreground,Centre,"sb/highlight.png",0,0 S,2,64264,64932,0.5,0.1 F,2,64264,64932,1,0 P,0,64264,64932,A C,0,64264,,225,91,236 M,0,64264,64317,331,209,316.127,211.7496 M,0,64317,64371,316.127,211.7496,301.2541,214.4993 M,0,64371,64424,301.2541,214.4993,286.3811,217.2489 M,0,64424,64478,286.3811,217.2489,271.5081,219.9985 M,0,64478,64531,271.5081,219.9985,256.6352,222.7481 M,0,64531,64585,256.6352,222.7481,241.7622,225.4977 M,0,64585,64638,241.7622,225.4977,226.8892,228.2474 M,0,64638,64692,226.8892,228.2474,212.0162,230.997
Sprite,Foreground,Centre,"sb/highlight.png",156.904,204.904 S,2,64907,65147,0.5,0.1 F,2,64907,65147,1,0 P,0,64907,65147,A C,0,64907,,225,91,236
Sprite,Foreground,Centre,"sb/highlight.png",161,209 S,2,65121,65361,0.5,0.1 F,2,65121,65361,1,0 P,0,65121,65361,A C,0,65121,,188,46,185
Sprite,Foreground,Centre,"sb/highlight.png",0,0 S,2,65550,66004,0.5,0.1 F,2,65550,66004,1,0 P,0,65550,66004,A C,0,65550,,188,46,185 M,0,65550,65603,68,287,70.83007,301.8578 M,0,65603,65657,70.83007,301.8578,73.66014,316.7157 M,0,65657,65710,73.66014,316.7157,76.49021,331.5736 M,0,65710,65764,76.49021,331.5736,79.32028,346.4315
Sprite,Foreground,Centre,"sb/highlight.png",0,0 S,2,65978,66646,0.5,0.1 F,2,65978,66646,1,0 P,0,65978,66646,A C,0,65978,,188,46,185 M,0,65978,66031,87,406,100.3083,413.0555 M,0,66031,66085,100.3083,413.0555,114.5658,417.7777 M,0,66085,66138,114.5658,417.7777,129.473,419.646 M,0,66138,66192,129.473,419.646,144.4668,418.5873 M,0,66192,66245,144.4668,418.5873,158.9798,414.6382 M,0,66245,66299,158.9798,414.6382,172.4619,407.9438 M,0,66299,66353,172.4619,407.9438,184.4006,398.7525 M,0,66353,66406,184.4006,398.7525,194,388
Sprite,Foreground,Centre,"sb/highlight.png",0,0 S,2,66835,67503,0.5,0.1 F,2,66835,67503,1,0 P,0,66835,67503,A C,0,66835,,188,46,185 M,0,66835,66888,298,325,311.138,317.6375 M,0,66888,66942,311.138,317.6375,325.2915,312.6252 M,0,66942,66995,325.2915,312.6252,340.1613,310.5035 M,0,66995,67049,340.1613,310.5035,355.1657,311.3584 M,0,67049,67102,355.1657,311.3584,369.7171,315.1604 M,0,67102,67156,369.7171,315.1604,383.2442,321.7657 M,0,67156,67210,383.2442,321.7657,395.2145,330.9215 M,0,67210,67263,395.2145,330.9215,405,342
Sprite,Foreground,Centre,"sb/highlight.png",444.904,388.904 S,2,67478,67718,0.5,0.1 F,2,67478,67718,1,0 P,0,67478,67718,A C,0,67478,,188,46,185
Sprite,Foreground,Centre,"sb/highlight.png",449,393 S,2,67693,67933,0.5,0.1 F,2,67693,67933,1,0 P,0,67693,67933,A C,0,67693,,188,46,185
Sprite,Foreground,Centre,"sb/highlight.png",0,0 S,2,68121,68575,0.5,0.1 F,2,68121,68575,1,0 P,0,68121,68575,A C,0,68121,,188,46,185 M,0,68121,68174,552,331,549.1699,316.1421 M,0,68174,68228,549.1699,316.1421,546.3398,301.2842 M,0,68228,68281,546.3398,301.2842,543.5098,286.4264 M,0,68281,68335,543.5098,286.4264,540.6797,271.5685
Sprite,Foreground,Centre,"sb/highlight.png",0,0 S,2,68550,69218,0.5,0.1 F,2,68550,69218,1,0 P,0,68550,69218,A C,0,68550,,167,167,167 M,0,68550,68603,481,258,478.1298,243.1498 M,0,68603,68657,478.1298,243.1498,475.2596,228.2997 M,0,68657,68710,475.2596,228.2997,472.3894,213.4495 M,0,68710,68764,472.3894,213.4495,469.5192,198.5993 M,0,68764,68817,469.5192,198.5993,466.649,183.7491 M,0,68817,68871,466.649,183.7491,463.7788,168.899 M,0,68871,68925,463.7788,168.899,460.9086,154.0488 M,0,68925,68978,460.9086,154.0488,458.0384,139.1986
Sprite,Foreground,Centre,"sb/highlight.png",440.904,80.904 S,2,69193,69433,0.5,0.1 F,2,69193,69433,1,0 P,0,69193,69433,A C,0,69193,,167,167,167
Sprite,Foreground,Centre,"sb/highlight.png",0,0 S,2,69407,70075,0.5,0.1 F,2,69407,70075,1,0 P,0,69407,70075,A C,0,69407,,167,167,167 M,0,69407,69460,445,85,433.455,75.32577 M,0,69460,69514,433.455,75.32577,420.5324,67.66956 M,0,69514,69567,420.5324,67.66956,406.3814,62.60323 M,0,69567,69621,406.3814,62.60323,391.5108,60.31448 M,0,69621,69674,391.5108,60.31448,376.4558,60.89321 M,0,69674,69728,376.4558,60.89321,361.7605,64.32799 M,0,69728,69782,361.7605,64.32799,348.2405,70.96568 M,0,69782,69835,348.2405,70.96568,335.8164,79.47929
Sprite,Foreground,Centre,"sb/highlight.png",0,0 S,2,70264,71146,0.5,0.1 F,2,70264,71146,1,0 P,0,70264,71146,A C,0,70264,,167,167,167 M,0,70264,70317,235,147,220.1215,144.2803 M,0,70317,70371,220.1215,144.2803,205.2431,141.5606 M,0,70371,70424,205.2431,141.5606,190.3646,138.8409 M,0,70424,70478,190.3646,138.8409,175.4861,136.1211 M,0,70478,70531,175.4861,136.1211,160.6077,133.4014 M,0,70531,70585,160.6077,133.4014,145.7292,130.6817 M,0,70585,70639,145.7292,130.6817,160.6077,133.4014 M,0,70639,70692,160.6077,133.4014,175.4861,136.1211 M,0,70692,70746,175.4861,136.1211,190.3646,138.8408 M,0,70746,70799,190.3646,138.8408,205.2431,141.5606 M,0,70799,70853,205.2431,141.5606,220.1215,144.2803 M,0,70853,70906,220.1215,144.2803,235,147
Sprite,Foreground,Centre,"sb/highlight.png",276,191 S,2,71121,71361,0.5,0.1 F,2,71121,71361,1,0 P,0,71121,71361,A C,0,71121,,167,167,167
Sprite,Foreground,Centre,"sb/highlight.png",390,152 S,2,71550,71790,0.5,0.1 F,2,71550,71790,1,0 P,0,71550,71790,A C,0,71550,,167,167,167
Sprite,Foreground,Centre,"sb/highlight.png",0,0 S,2,71978,72646,0.5,0.1 F,2,71978,72646,1,0 P,0,71978,72646,A C,0,71978,,111,111,111 M,0,71978,72031,507,178,517.3709,188.9234 M,0,72031,72085,517.3709,188.9234,525.7714,201.3734 M,0,72085,72138,525.7714,201.3734,531.6185,215.2149 M,0,72138,72192,531.6185,215.2149,534.6913,229.9338 M,0,72192,72245,534.6913,229.9338,534.8702,244.9827 M,0,72245,72299,534.8702,244.9827,532.1422,259.8008 M,0,72299,72353,532.1422,259.8008,526.6014,273.8344 M,0,72353,72406,526.6014,273.8344,518.3715,286.4915
Sprite,Foreground,Centre,"sb/highlight.png",479.904,332.904 S,2,72621,72861,0.5,0.1 F,2,72621,72861,1,0 P,0,72621,72861,A C,0,72621,,111,111,111
Sprite,Foreground,Centre,"sb/highlight.png",484,337 S,2,72835,73075,0.5,0.1 F,2,72835,73075,1,0 P,0,72835,73075,A C,0,72835,,111,111,111
Sprite,Foreground,Centre,"sb/highlight.png",386,264 S,2,73264,73504,0.5,0.1 F,2,73264,73504,1,0 P,0,73264,73504,A C,0,73264,,111,111,111
Sprite,Foreground,Centre,"sb/highlight.png",0,0 S,2,73693,74361,0.5,0.1 F,2,73693,74361,1,0 P,0,73693,74361,A C,0,73693,,111,111,111 M,0,73693,73746,276,315,261.1498,312.1298 M,0,73746,73800,261.1498,312.1298,246.2997,309.2596 M,0,73800,73853,246.2997,309.2596,231.4495,306.3894 M,0,73853,73907,231.4495,306.3894,216.5993,303.5192 M,0,73907,73960,216.5993,303.5192,201.7491,300.649 M,0,73960,74014,201.7491,300.649,186.899,297.7788 M,0,74014,74068,186.899,297.7788,172.0488,294.9086 M,0,74068,74121,172.0488,294.9086,157.1986,292.0384
Sprite,Foreground,Centre,"sb/highlight.png",99.904,311.904 S,2,74335,74575,0.5,0.1 F,2,74335,74575,1,0 P,0,74335,74575,A C,0,74335,,111,111,111
Sprite,Foreground,Centre,"sb/highlight.png",104,316 S,2,74550,74790,0.5,0.1 F,2,74550,74790,1,0 P,0,74550,74790,A C,0,74550,,111,111,111
Sprite,Foreground,Centre,"sb/highlight.png",0,0 S,2,74978,75432,0.5,0.1 F,2,74978,75432,1,0 P,0,74978,75432,A C,0,74978,,111,111,111 M,0,74978,75031,65,201,67.83007,186.1421 M,0,75031,75085,67.83007,186.1421,70.66014,171.2843 M,0,75085,75138,70.66014,171.2843,73.49021,156.4264 M,0,75138,75192,73.49021,156.4264,76.32028,141.5685
Sprite,Foreground,Centre,"sb/highlight.png",0,0 S,2,75407,76075,0.5,0.1 F,2,75407,76075,1,0 P,0,75407,76075,A C,0,75407,,225,91,236 M,0,75407,75460,82,81,92.97504,70.68012 M,0,75460,75514,92.97504,70.68012,105.447,62.30527 M,0,75514,75567,105.447,62.30527,119.2854,56.4428 M,0,75567,75621,119.2854,56.4428,133.9926,53.30677 M,0,75621,75674,133.9926,53.30677,149.0395,53.01434 M,0,75674,75728,149.0395,53.01434,163.8838,55.58149 M,0,75728,75782,163.8838,55.58149,177.989,60.92219 M,0,75782,75835,177.989,60.92219,190.8223,68.87665
Sprite,Foreground,Centre,"sb/highlight.png",231.904,111.904 S,2,76050,76290,0.5,0.1 F,2,76050,76290,1,0 P,0,76050,76290,A C,0,76050,,225,91,236
Sprite,Foreground,Centre,"sb/highlight.png",236,116 S,2,76264,76504,0.5,0.1 F,2,76264,76504,1,0 P,0,76264,76504,A C,0,76264,,225,91,236
Sprite,Foreground,Centre,"sb/highlight.png",0,0 S,2,76693,77147,0.5,0.1 F,2,76693,77147,1,0 P,0,76693,77147,A C,0,76693,,225,91,236 M,0,76693,76746,346,66,360.8579,68.83007 M,0,76746,76800,360.8579,68.83007,375.7157,71.66014 M,0,76800,76853,375.7157,71.66014,390.5736,74.49021 M,0,76853,76907,390.5736,74.49021,405.4315,77.32028
Sprite,Foreground,Centre,"sb/highlight.png",0,0 S,2,77121,77789,0.5,0.1 F,2,77121,77789,1,0 P,0,77121,77789,A C,0,77121,,225,91,236 M,0,77121,77174,463,62,473.3709,72.92339 M,0,77174,77228,473.3709,72.92339,481.7714,85.37337 M,0,77228,77281,481.7714,85.37337,487.6186,99.21489 M,0,77281,77335,487.6186,99.21489,490.6913,113.9338 M,0,77335,77388,490.6913,113.9338,490.8702,128.9827 M,0,77388,77442,490.8702,128.9827,488.1422,143.8008 M,0,77442,77496,488.1422,143.8008,482.6014,157.8344 M,0,77496,77549,482.6014,157.8344,474.3715,170.4915
Sprite,Foreground,Centre,"sb/highlight.png",0,0 S,2,77978,78432,0.5,0.1 F,2,77978,78432,1,0 P,0,77978,78432,A C,0,77978,,225,91,236 M,0,77978,78031,380,246,365.1421,243.1699 M,0,78031,78085,365.1421,243.1699,350.2843,240.3399 M,0,78085,78138,350.2843,240.3399,335.4264,237.5098 M,0,78138,78192,335.4264,237.5098,320.5685,234.6797
Sprite,Foreground,Centre,"sb/highlight.png",0,0 S,2,78407,78861,0.5,0.1 F,2,78407,78861,1,0 P,0,78407,78861,A C,0,78407,,225,91,236 M,0,78407,78460,277,191,262.1422,193.8301 M,0,78460,78514,262.1422,193.8301,247.2843,196.6601 M,0,78514,78567,247.2843,196.6601,232.4264,199.4902 M,0,78567,78621,232.4264,199.4902,217.5685,202.3203
Sprite,Foreground,Centre,"sb/highlight.png",0,0 S,2,78835,79503,0.5,0.1 F,2,78835,79503,1,0 P,0,78835,79503,A C,0,78835,,188,46,185 M,0,78835,78888,157,207,146.3936,217.6916 M,0,78888,78942,146.3936,217.6916,137.7464,229.9674 M,0,78942,78995,137.7464,229.9674,131.6572,243.702 M,0,78995,79049,131.6572,243.702,128.3627,258.3728 M,0,79049,79102,128.3627,258.3728,127.9944,273.421 M,0,79102,79156,127.9944,273.421,130.5743,288.2719 M,0,79156,79210,130.5743,288.2719,136.4048,302.1539 M,0,79210,79263,136.4048,302.1539,144.2621,314.9999
Sprite,Foreground,Centre,"sb/highlight.png",189.904,355.904 S,2,79478,79718,0.5,0.1 F,2,79478,79718,1,0 P,0,79478,79718,A C,0,79478,,188,46,185
Sprite,Foreground,Centre,"sb/highlight.png",0,0 S,2,79693,80361,0.5,0.1 F,2,79693,80361,1,0 P,0,79693,80361,A C,0,79693,,188,46,185 M,0,79693,79746,194,360,208.8456,357.1064 M,0,79746,79800,208.8456,357.1064,223.6912,354.2127 M,0,79800,79853,223.6912,354.2127,238.5369,351.3191 M,0,79853,79907,238.5369,351.3191,253.3825,348.4254 M,0,79907,79960,253.3825,348.4254,268.2281,345.5318 M,0,79960,80014,268.2281,345.5318,283.0737,342.6382 M,0,80014,80068,283.0737,342.6382,297.9194,339.7445 M,0,80068,80121,297.9194,339.7445,312,337
Sprite,Foreground,Centre,"sb/highlight.png",0,0 S,2,80550,81218,0.5,0.1 F,2,80550,81218,1,0 P,0,80550,81218,A C,0,80550,,188,46,185 M,0,80550,80603,432,359,442.2953,348.0034 M,0,80603,80657,442.2953,348.0034,450.6529,335.5211 M,0,80657,80710,450.6529,335.5211,456.5006,321.6751 M,0,80710,80764,456.5006,321.6751,459.6247,306.9607 M,0,80764,80817,459.6247,306.9607,459.9073,291.9045 M,0,80817,80871,459.9073,291.9045,457.3308,277.0469 M,0,80871,80925,457.3308,277.0469,451.5784,263.1278 M,0,80925,80978,451.5784,263.1278,443.8601,250.1935
Sprite,Foreground,Centre,"sb/highlight.png",391.904,216.904 S,2,81193,81433,0.5,0.1 F,2,81193,81433,1,0 P,0,81193,81433,A C,0,81193,,188,46,185
Sprite,Foreground,Centre,"sb/highlight.png",396,221 S,2,81407,81647,0.5,0.1 F,2,81407,81647,1,0 P,0,81407,81647,A C,0,81407,,188,46,185
Sprite,Foreground,Centre,"sb/highlight.png",0,0 S,2,81835,82289,0.5,0.1 F,2,81835,82289,1,0 P,0,81835,82289,A C,0,81835,,188,46,185 M,0,81835,81888,441,109,455.8579,111.8301 M,0,81888,81942,455.8579,111.8301,470.7157,114.6601 M,0,81942,81995,470.7157,114.6601,485.5736,117.4902 M,0,81995,82049,485.5736,117.4902,500.4315,120.3203
Sprite,Foreground,Centre,"sb/highlight.png",0,0 S,2,82264,82932,0.5,0.1 F,2,82264,82932,1,0 P,0,82264,82932,A C,0,82264,,167,167,167 M,0,82264,82317,559,106,569.3709,116.9234 M,0,82317,82371,569.3709,116.9234,577.7714,129.3734 M,0,82371,82424,577.7714,129.3734,583.6185,143.2149 M,0,82424,82478,583.6185,143.2149,586.6913,157.9338 M,0,82478,82531,586.6913,157.9338,586.8702,172.9827 M,0,82531,82585,586.8702,172.9827,584.1422,187.8008 M,0,82585,82639,584.1422,187.8008,578.6014,201.8343 M,0,82639,82692,578.6014,201.8343,570.3715,214.4915
Sprite,Foreground,Centre,"sb/highlight.png",472,285 S,2,83121,83361,0.5,0.1 F,2,83121,83361,1,0 P,0,83121,83361,A C,0,83121,,167,167,167
Sprite,Foreground,Centre,"sb/highlight.png",556,372 S,2,83550,83790,0.5,0.1 F,2,83550,83790,1,0 P,0,83550,83790,A C,0,83550,,167,167,167
Sprite,Foreground,Centre,"sb/highlight.png",449,428 S,2,83978,84218,0.5,0.1 F,2,83978,84218,1,0 P,0,83978,84218,A C,0,83978,,167,167,167
Sprite,Foreground,Centre,"sb/highlight.png",0,0 S,2,85693,86361,0.5,0.1 F,2,85693,86361,1,0 P,0,85693,86361,A C,0,85693,,111,111,111 M,0,85693,85746,449,428,432.5078,428.0457 M,0,85746,85800,432.5078,428.0457,416.1696,425.8916 M,0,85800,85853,416.1696,425.8916,400.6413,420.4341 M,0,85853,85907,400.6413,420.4341,386.6783,411.6817 M,0,85907,85960,386.6783,411.6817,373.2126,402.1521 M,0,85960,86014,373.2126,402.1521,358.5619,394.6206 M,0,86014,86068,358.5619,394.6206,342.7534,389.9695 M,0,86068,86121,342.7534,389.9695,326.4276,387.651
Sprite,Foreground,Centre,"sb/highlight.png",241.904,401.904 S,2,86335,86575,0.5,0.1 F,2,86335,86575,1,0 P,0,86335,86575,A C,0,86335,,111,111,111
Sprite,Foreground,Centre,"sb/highlight.png",0,0 S,2,86550,87004,0.5,0.1 F,2,86550,87004,1,0 P,0,86550,87004,A C,0,86550,,111,111,111 M,0,86550,86603,246,406,243.2503,389.7307 M,0,86603,86657,243.2503,389.7307,240.5005,373.4615 M,0,86657,86710,240.5005,373.4615,237.7508,357.1922 M,0,86710,86764,237.7508,357.1922,235.0011,340.9229
Sprite,Foreground,Centre,"sb/highlight.png",187,269 S,2,86978,87218,0.5,0.1 F,2,86978,87218,1,0 P,0,86978,87218,A C,0,86978,,111,111,111
Sprite,Foreground,Centre,"sb/highlight.png",0,0 S,2,87407,88075,0.5,0.1 F,2,87407,88075,1,0 P,0,87407,88075,A C,0,87407,,111,111,111 M,0,87407,87460,300,139,314.6638,131.486 M,0,87460,87514,314.6638,131.486,330.4406,126.7362 M,0,87514,87567,330.4406,126.7362,346.8142,124.9059 M,0,87567,87621,346.8142,124.9059,363.249,126.0547 M,0,87621,87674,363.249,126.0547,379.2075,130.1447 M,0,87674,87728,379.2075,130.1447,394.1677,137.042 M,0,87728,87782,394.1677,137.042,407.6404,146.5207 M,0,87782,87835,407.6404,146.5207,419,158
Sprite,Foreground,Centre,"sb/highlight.png",486.904,210.904 S,2,88050,88290,0.5,0.1 F,2,88050,88290,1,0 P,0,88050,88290,A C,0,88050,,111,111,111
Sprite,Foreground,Centre,"sb/highlight.png",0,0 S,2,88264,88718,0.5,0.1 F,2,88264,88718,1,0 P,0,88264,88718,A C,0,88264,,111,111,111 M,0,88264,88317,491,215,488.2121,231.2628 M,0,88317,88371,488.2121,231.2628,485.4242,247.5255 M,0,88371,88424,485.4242,247.5255,482.6363,263.7883 M,0,88424,88478,482.6363,263.7883,479.8484,280.0511
Sprite,Foreground,Centre,"sb/highlight.png",0,0 S,2,88693,89147,0.5,0.1 F,2,88693,89147,1,0 P,0,88693,89147,A C,0,88693,,111,111,111 M,0,88693,88746,394,288,396.5614,304.3 M,0,88746,88800,396.5614,304.3,399.1229,320.5999 M,0,88800,88853,399.1229,320.5999,401.6843,336.8999 M,0,88853,88907,401.6843,336.8999,404.2457,353.1999
Sprite,Foreground,Centre,"sb/highlight.png",0,0 S,2,89121,89789,0.5,0.1 F,2,89121,89789,1,0 P,0,89121,89789,A C,0,89121,,225,91,236 M,0,89121,89174,347,417,332.0432,423.8499 M,0,89174,89228,332.0432,423.8499,316.2488,428.3203 M,0,89228,89281,316.2488,428.3203,299.9163,429.9616 M,0,89281,89335,299.9163,429.9616,283.5482,428.723 M,0,89335,89388,283.5482,428.723,267.6485,424.6427 M,0,89388,89442,267.6485,424.6427,252.7067,417.8464 M,0,89442,89496,252.7067,417.8464,239.1827,408.5432 M,0,89496,89549,239.1827,408.5432,227.2259,397.2448
Sprite,Foreground,Centre,"sb/highlight.png",0,0 S,2,89978,90432,0.5,0.1 F,2,89978,90432,1,0 P,0,89978,90432,A C,0,89978,,225,91,236 M,0,89978,90031,114,267,116.5262,250.6945 M,0,90031,90085,116.5262,250.6945,119.0524,234.3891 M,0,90085,90138,119.0524,234.3891,121.5786,218.0836 M,0,90138,90192,121.5786,218.0836,124.1048,201.7781
Sprite,Foreground,Centre,"sb/highlight.png",136,116 S,2,90407,90647,0.5,0.1 F,2,90407,90647,1,0 P,0,90407,90647,A C,0,90407,,225,91,236
Sprite,Foreground,Centre,"sb/highlight.png",0,0 S,2,90835,91503,0.5,0.1 F,2,90835,91503,1,0 P,0,90835,91503,A C,0,90835,,225,91,236 M,0,90835,90888,296,176,312.2319,173.038 M,0,90888,90942,312.2319,173.038,328.4639,170.0759 M,0,90942,90995,328.4639,170.0759,344.6959,167.1139 M,0,90995,91049,344.6959,167.1139,360.9278,164.1519 M,0,91049,91102,360.9278,164.1519,377.1598,161.1898 M,0,91102,91156,377.1598,161.1898,393.3917,158.2278 M,0,91156,91210,393.3917,158.2278,409.6237,155.2657 M,0,91210,91263,409.6237,155.2657,425.8556,152.3037
Sprite,Foreground,Centre,"sb/highlight.png",502.904,113.904 S,2,91478,91718,0.5,0.1 F,2,91478,91718,1,0 P,0,91478,91718,A C,0,91478,,225,91,236
Sprite,Foreground,Centre,"sb/highlight.png",0,0 S,2,91693,92361,0.5,0.1 F,2,91693,92361,1,0 P,0,91693,92361,A C,0,91693,,225,91,236 M,0,91693,91746,507,118,518.7067,129.595 M,0,91746,91800,518.7067,129.595,528.1329,143.1083 M,0,91800,91853,528.1329,143.1083,534.9708,158.0979 M,0,91853,91907,534.9708,158.0979,538.9968,174.0734 M,0,91907,91960,538.9968,174.0734,540.0794,190.5121 M,0,91960,92014,540.0794,190.5121,538.1835,206.8762 M,0,92014,92068,538.1835,206.8762,533.3713,222.6306 M,0,92068,92121,533.3713,222.6306,526,237
Sprite,Foreground,Centre,"sb/highlight.png",0,0 S,2,92550,93218,0.5,0.1 F,2,92550,93218,1,0 P,0,92550,93218,A C,0,92550,,188,46,185 M,0,92550,92603,425,376,408.768,373.038 M,0,92603,92657,408.768,373.038,392.5361,370.0759 M,0,92657,92710,392.5361,370.0759,376.3041,367.1139 M,0,92710,92764,376.3041,367.1139,360.0722,364.1519 M,0,92764,92817,360.0722,364.1519,343.8402,361.1898 M,0,92817,92871,343.8402,361.1898,327.6083,358.2278 M,0,92871,92925,327.6083,358.2278,311.3763,355.2657 M,0,92925,92978,311.3763,355.2657,295.1444,352.3037
Sprite,Foreground,Centre,"sb/highlight.png",211.904,363.904 S,2,93193,93433,0.5,0.1 F,2,93193,93433,1,0 P,0,93193,93433,A C,0,93193,,188,46,185
Sprite,Foreground,Centre,"sb/highlight.png",0,0 S,2,93407,93861,0.5,0.1 F,2,93407,93861,1,0 P,0,93407,93861,A C,0,93407,,188,46,185 M,0,93407,93460,216,368,213.4738,351.6945 M,0,93460,93514,213.4738,351.6945,210.9476,335.3891 M,0,93514,93567,210.9476,335.3891,208.4214,319.0836 M,0,93567,93621,208.4214,319.0836,205.8952,302.7781
Sprite,Foreground,Centre,"sb/highlight.png",192,218 S,2,93835,94075,0.5,0.1 F,2,93835,94075,1,0 P,0,93835,94075,A C,0,93835,,188,46,185
Sprite,Foreground,Centre,"sb/highlight.png",0,0 S,2,94264,94932,0.5,0.1 F,2,94264,94932,1,0 P,0,94264,94932,A C,0,94264,,188,46,185 M,0,94264,94317,308,91,319.5447,79.28995 M,0,94317,94371,319.5447,79.28995,332.807,69.63714 M,0,94371,94424,332.807,69.63714,347.6319,62.61659 M,0,94424,94478,347.6319,62.61659,363.5032,58.47279 M,0,94478,94531,363.5032,58.47279,379.868,57.35009 M,0,94531,94585,379.868,57.35009,396.1566,59.28759 M,0,94585,94639,396.1566,59.28759,411.8016,64.21785 M,0,94639,94692,411.8016,64.21785,426.4589,71.6713
Sprite,Foreground,Centre,"sb/highlight.png",500.904,114.904 S,2,94907,95147,0.5,0.1 F,2,94907,95147,1,0 P,0,94907,95147,A C,0,94907,,188,46,185
Sprite,Foreground,Centre,"sb/highlight.png",0,0 S,2,95121,95789,0.5,0.1 F,2,95121,95789,1,0 P,0,95121,95789,A C,0,95121,,188,46,185 M,0,95121,95174,505,119,507.7497,135.2693 M,0,95174,95228,507.7497,135.2693,510.4995,151.5385 M,0,95228,95281,510.4995,151.5385,513.2492,167.8078 M,0,95281,95335,513.2492,167.8078,515.9989,184.0771 M,0,95335,95388,515.9989,184.0771,513.2492,167.8078 M,0,95388,95442,513.2492,167.8078,510.4995,151.5385 M,0,95442,95496,510.4995,151.5385,507.7497,135.2693 M,0,95496,95549,507.7497,135.2693,505,119
Sprite,Foreground,Centre,"sb/highlight.png",0,0 S,2,95978,96646,0.5,0.1 F,2,95978,96646,1,0 P,0,95978,96646,A C,0,95978,,167,167,167 M,0,95978,96031,342,175,344.962,191.2319 M,0,96031,96085,344.962,191.2319,347.9241,207.4639 M,0,96085,96138,347.9241,207.4639,350.8861,223.6959 M,0,96138,96192,350.8861,223.6959,353.8481,239.9278 M,0,96192,96245,353.8481,239.9278,356.8102,256.1598 M,0,96245,96299,356.8102,256.1598,359.7722,272.3917 M,0,96299,96353,359.7722,272.3917,362.7343,288.6237 M,0,96353,96406,362.7343,288.6237,365.6963,304.8556
Sprite,Foreground,Centre,"sb/highlight.png",445.904,333.904 S,2,96621,96861,0.5,0.1 F,2,96621,96861,1,0 P,0,96621,96861,A C,0,96621,,167,167,167
Sprite,Foreground,Centre,"sb/highlight.png",0,0 S,2,96835,97289,0.5,0.1 F,2,96835,97289,1,0 P,0,96835,97289,A C,0,96835,,167,167,167 M,0,96835,96888,450,338,447.2121,354.2628 M,0,96888,96942,447.2121,354.2628,444.4242,370.5255 M,0,96942,96995,444.4242,370.5255,441.6363,386.7883 M,0,96995,97049,441.6363,386.7883,438.8484,403.0511
Sprite,Foreground,Centre,"sb/highlight.png",357,430 S,2,97264,97504,0.5,0.1 F,2,97264,97504,1,0 P,0,97264,97504,A C,0,97264,,167,167,167
Sprite,Foreground,Centre,"sb/highlight.png",0,0 S,2,97693,98575,0.5,0.1 F,2,97693,98575,1,0 P,0,97693,98575,A C,0,97693,,167,167,167 M,0,97693,97746,192,376,175.7144,378.6512 M,0,97746,97800,175.7144,378.6512,159.4288,381.3023 M,0,97800,97853,159.4288,381.3023,144.4074,386.7576 M,0,97853,97907,144.4074,386.7576,129.9135,393.4825 M,0,97907,97960,129.9135,393.4825,113.684,396.4579 M,0,97960,98014,113.684,396.4579,97.45448,399.4333 M,0,98014,98068,97.45448,399.4333,113.684,396.4579 M,0,98068,98121,113.684,396.4579,129.9135,393.4825 M,0,98121,98175,129.9135,393.4825,144.4074,386.7576 M,0,98175,98228,144.4074,386.7576,159.4288,381.3023 M,0,98228,98282,159.4288,381.3023,175.7144,378.6512 M,0,98282,98335,175.7144,378.6512,192,376
Sprite,Foreground,Centre,"sb/highlight.png",277,383 S,2,98550,98790,0.5,0.1 F,2,98550,98790,1,0 P,0,98550,98790,A C,0,98550,,167,167,167
Sprite,Foreground,Centre,"sb/highlight.png",327,218 S,2,98978,99218,0.5,0.1 F,2,98978,99218,1,0 P,0,98978,99218,A C,0,98978,,167,167,167
Sprite,Foreground,Centre,"sb/highlight.png",0,0 S,2,99407,100075,0.5,0.1 F,2,99407,100075,1,0 P,0,99407,100075,A C,0,99407,,111,111,111 M,0,99407,99460,493,259,504.7066,247.405 M,0,99460,99514,504.7066,247.405,514.1329,233.8917 M,0,99514,99567,514.1329,233.8917,520.9708,218.9021 M,0,99567,99621,520.9708,218.9021,524.9968,202.9266 M,0,99621,99674,524.9968,202.9266,526.0794,186.4879 M,0,99674,99728,526.0794,186.4879,524.1835,170.1238 M,0,99728,99782,524.1835,170.1238,519.3713,154.3694 M,0,99782,99835,519.3713,154.3694,512,140
Sprite,Foreground,Centre,"sb/highlight.png",448.904,79.904 S,2,100050,100290,0.5,0.1 F,2,100050,100290,1,0 P,0,100050,100290,A C,0,100050,,111,111,111
Sprite,Foreground,Centre,"sb/highlight.png",0,0 S,2,100264,100718,0.5,0.1 F,2,100264,100718,1,0 P,0,100264,100718,A C,0,100264,,111,111,111 M,0,100264,100317,453,84,436.7372,86.7879 M,0,100317,100371,436.7372,86.7879,420.4745,89.57581 M,0,100371,100424,420.4745,89.57581,404.2117,92.36371 M,0,100424,100478,404.2117,92.36371,387.9489,95.15161
Sprite,Foreground,Centre,"sb/highlight.png",311,135 S,2,100693,100933,0.5,0.1 F,2,100693,100933,1,0 P,0,100693,100933,A C,0,100693,,111,111,111
Sprite,Foreground,Centre,"sb/highlight.png",0,0 S,2,101121,101789,0.5,0.1 F,2,101121,101789,1,0 P,0,101121,101789,A C,0,101121,,111,111,111 M,0,101121,101174,141,108,129.2934,119.595 M,0,101174,101228,129.2934,119.595,119.8671,133.1083 M,0,101228,101281,119.8671,133.1083,113.0292,148.0979 M,0,101281,101335,113.0292,148.0979,109.0032,164.0734 M,0,101335,101388,109.0032,164.0734,107.9206,180.5121 M,0,101388,101442,107.9206,180.5121,109.8165,196.8762 M,0,101442,101496,109.8165,196.8762,114.6287,212.6306 M,0,101496,101549,114.6287,212.6306,122,227
Sprite,Foreground,Centre,"sb/highlight.png",179.904,290.904 S,2,101764,102004,0.5,0.1 F,2,101764,102004,1,0 P,0,101764,102004,A C,0,101764,,111,111,111
Sprite,Foreground,Centre,"sb/highlight.png",184,295 S,2,101978,102218,0.5,0.1 F,2,101978,102218,1,0 P,0,101978,102218,A C,0,101978,,111,111,111
Sprite,Foreground,Centre,"sb/highlight.png",0,0 S,2,102407,102861,0.5,0.1 F,2,102407,102861,1,0 P,0,102407,102861,A C,0,102407,,111,111,111 M,0,102407,102460,344,236,360.2628,238.7879 M,0,102460,102514,360.2628,238.7879,376.5255,241.5758 M,0,102514,102567,376.5255,241.5758,392.7883,244.3637 M,0,102567,102621,392.7883,244.3637,409.0511,247.1516
Sprite,Foreground,Centre,"sb/highlight.png",0,0 S,2,102835,103503,0.5,0.1 F,2,102835,103503,1,0 P,0,102835,103503,A C,0,102835,,225,91,236 M,0,102835,102888,493,225,504.7066,236.595 M,0,102888,102942,504.7066,236.595,514.1329,250.1083 M,0,102942,102995,514.1329,250.1083,520.9708,265.098 M,0,102995,103049,520.9708,265.098,524.9968,281.0734 M,0,103049,103102,524.9968,281.0734,526.0794,297.5121 M,0,103102,103156,526.0794,297.5121,524.1835,313.8762 M,0,103156,103210,524.1835,313.8762,519.3713,329.6306 M,0,103210,103263,519.3713,329.6306,512,344
Sprite,Foreground,Centre,"sb/highlight.png",447.904,403.904 S,2,103478,103718,0.5,0.1 F,2,103478,103718,1,0 P,0,103478,103718,A C,0,103478,,225,91,236
Sprite,Foreground,Centre,"sb/highlight.png",0,0 S,2,103693,104147,0.5,0.1 F,2,103693,104147,1,0 P,0,103693,104147,A C,0,103693,,225,91,236 M,0,103693,103746,452,408,435.7372,405.2121 M,0,103746,103800,435.7372,405.2121,419.4745,402.4242 M,0,103800,103853,419.4745,402.4242,403.2117,399.6363 M,0,103853,103907,403.2117,399.6363,386.9489,396.8484
Sprite,Foreground,Centre,"sb/highlight.png",316,348 S,2,104121,104361,0.5,0.1 F,2,104121,104361,1,0 P,0,104121,104361,A C,0,104121,,225,91,236
Sprite,Foreground,Centre,"sb/highlight.png",0,0 S,2,104550,105218,0.5,0.1 F,2,104550,105218,1,0 P,0,104550,105218,A C,0,104550,,225,91,236 M,0,104550,104603,152,402,140.2934,390.405 M,0,104603,104657,140.2934,390.405,130.8671,376.8917 M,0,104657,104710,130.8671,376.8917,124.0292,361.902 M,0,104710,104764,124.0292,361.902,120.0032,345.9266 M,0,104764,104817,120.0032,345.9266,118.9206,329.4879 M,0,104817,104871,118.9206,329.4879,120.8165,313.1238 M,0,104871,104925,120.8165,313.1238,125.6287,297.3694 M,0,104925,104978,125.6287,297.3694,133,283
Sprite,Foreground,Centre,"sb/highlight.png",189.904,217.904 S,2,105193,105433,0.5,0.1 F,2,105193,105433,1,0 P,0,105193,105433,A C,0,105193,,225,91,236
Sprite,Foreground,Centre,"sb/highlight.png",0,0 S,2,105407,105861,0.5,0.1 F,2,105407,105861,1,0 P,0,105407,105861,A C,0,105407,,225,91,236 M,0,105407,105460,194,222,210.2628,224.7879 M,0,105460,105514,210.2628,224.7879,226.5255,227.5758 M,0,105514,105567,226.5255,227.5758,242.7883,230.3637 M,0,105567,105621,242.7883,230.3637,259.0511,233.1516
Sprite,Foreground,Centre,"sb/highlight.png",0,0 S,2,105835,106289,0.5,0.1 F,2,105835,106289,1,0 P,0,105835,106289,A C,0,105835,,225,91,236 M,0,105835,105888,337,268,353.2628,265.2121 M,0,105888,105942,353.2628,265.2121,369.5255,262.4242 M,0,105942,105995,369.5255,262.4242,385.7883,259.6363 M,0,105995,106049,385.7883,259.6363,402.0511,256.8484
Sprite,Foreground,Centre,"sb/highlight.png",0,0 S,2,106264,106932,0.5,0.1 F,2,106264,106932,1,0 P,0,106264,106932,A C,0,106264,,188,46,185 M,0,106264,106317,485,277,496.7066,265.405 M,0,106317,106371,496.7066,265.405,506.1329,251.8917 M,0,106371,106424,506.1329,251.8917,512.9708,236.9021 M,0,106424,106478,512.9708,236.9021,516.9968,220.9266 M,0,106478,106531,516.9968,220.9266,518.0794,204.4879 M,0,106531,106585,518.0794,204.4879,516.1835,188.1238 M,0,106585,106639,516.1835,188.1238,511.3713,172.3694 M,0,106639,106692,511.3713,172.3694,504,158
Sprite,Foreground,Centre,"sb/highlight.png",438.904,99.904 S,2,106907,107147,0.5,0.1 F,2,106907,107147,1,0 P,0,106907,107147,A C,0,106907,,188,46,185
Sprite,Foreground,Centre,"sb/highlight.png",443,104 S,2,107121,107361,0.5,0.1 F,2,107121,107361,1,0 P,0,107121,107361,A C,0,107121,,188,46,185
Sprite,Foreground,Centre,"sb/highlight.png",0,0 S,2,107550,108004,0.5,0.1 F,2,107550,108004,1,0 P,0,107550,108004,A C,0,107550,,188,46,185 M,0,107550,107603,277,148,260.7372,145.2121 M,0,107603,107657,260.7372,145.2121,244.4745,142.4242 M,0,107657,107710,244.4745,142.4242,228.2117,139.6363 M,0,107710,107764,228.2117,139.6363,211.9489,136.8484
Sprite,Foreground,Centre,"sb/highlight.png",0,0 S,2,107978,108646,0.5,0.1 F,2,107978,108646,1,0 P,0,107978,108646,A C,0,107978,,188,46,185 M,0,107978,108031,129,113,117.2934,124.595 M,0,108031,108085,117.2934,124.595,107.8671,138.1083 M,0,108085,108138,107.8671,138.1083,101.0292,153.0979 M,0,108138,108192,101.0292,153.0979,97.0032,169.0734 M,0,108192,108245,97.0032,169.0734,95.92059,185.5121 M,0,108245,108299,95.92059,185.5121,97.81651,201.8762 M,0,108299,108353,97.81651,201.8762,102.6287,217.6306 M,0,108353,108406,102.6287,217.6306,110,232
Sprite,Foreground,Centre,"sb/highlight.png",158.904,301.904 S,2,108621,108861,0.5,0.1 F,2,108621,108861,1,0 P,0,108621,108861,A C,0,108621,,188,46,185
Sprite,Foreground,Centre,"sb/highlight.png",163,306 S,2,108835,109075,0.5,0.1 F,2,108835,109075,1,0 P,0,108835,109075,A C,0,108835,,188,46,185
Sprite,Foreground,Centre,"sb/highlight.png",0,0 S,2,109264,109718,0.5,0.1 F,2,109264,109718,1,0 P,0,109264,109718,A C,0,109264,,188,46,185 M,0,109264,109317,318,233,334.2628,235.7879 M,0,109317,109371,334.2628,235.7879,350.5255,238.5758 M,0,109371,109424,350.5255,238.5758,366.7883,241.3637 M,0,109424,109478,366.7883,241.3637,383.0511,244.1516
Sprite,Foreground,Centre,"sb/highlight.png",0,0 S,2,109693,110361,0.5,0.1 F,2,109693,110361,1,0 P,0,109693,110361,A C,0,109693,,167,167,167 M,0,109693,109746,461,207,472.7066,218.595 M,0,109746,109800,472.7066,218.595,482.1329,232.1083 M,0,109800,109853,482.1329,232.1083,488.9708,247.0979 M,0,109853,109907,488.9708,247.0979,492.9968,263.0734 M,0,109907,109960,492.9968,263.0734,494.0794,279.5121 M,0,109960,110014,494.0794,279.5121,492.1835,295.8762 M,0,110014,110068,492.1835,295.8762,487.3713,311.6306 M,0,110068,110121,487.3713,311.6306,480,326
Sprite,Foreground,Centre,"sb/highlight.png",428.904,394.904 S,2,110335,110575,0.5,0.1 F,2,110335,110575,1,0 P,0,110335,110575,A C,0,110335,,167,167,167
Sprite,Foreground,Centre,"sb/highlight.png",0,0 S,2,110550,111218,0.5,0.1 F,2,110550,111218,1,0 P,0,110550,111218,A C,0,110550,,167,167,167 M,0,110550,110603,433,399,416.5078,399.0457 M,0,110603,110657,416.5078,399.0457,400.1696,396.8916 M,0,110657,110710,400.1696,396.8916,384.6413,391.4341 M,0,110710,110764,384.6413,391.4341,370.6783,382.6817 M,0,110764,110817,370.6783,382.6817,357.2126,373.1521 M,0,110817,110871,357.2126,373.1521,342.5619,365.6207 M,0,110871,110925,342.5619,365.6207,326.7534,360.9695 M,0,110925,110978,326.7534,360.9695,310.4276,358.6509
Sprite,Foreground,Centre,"sb/highlight.png",0,0 S,2,111407,112289,0.5,0.1 F,2,111407,112289,1,0 P,0,111407,112289,A C,0,111407,,167,167,167 M,0,111407,111460,139,337,141.6512,353.2856 M,0,111460,111514,141.6512,353.2856,144.3023,369.5712 M,0,111514,111567,144.3023,369.5712,149.7576,384.5926 M,0,111567,111621,149.7576,384.5926,156.4825,399.0865 M,0,111621,111674,156.4825,399.0865,159.4579,415.316 M,0,111674,111728,159.4579,415.316,162.4333,431.5455 M,0,111728,111782,162.4333,431.5455,159.4579,415.316 M,0,111782,111835,159.4579,415.316,156.4825,399.0865 M,0,111835,111889,156.4825,399.0865,149.7576,384.5926 M,0,111889,111942,149.7576,384.5926,144.3023,369.5712 M,0,111942,111996,144.3023,369.5712,141.6512,353.2856 M,0,111996,112049,141.6512,353.2856,139,337
Sprite,Foreground,Centre,"sb/highlight.png",125,251 S,2,112264,112504,0.5,0.1 F,2,112264,112504,1,0 P,0,112264,112504,A C,0,112264,,167,167,167
Sprite,Foreground,Centre,"sb/highlight.png",0,0 S,2,112693,113361,0.5,0.1 F,2,112693,113361,1,0 P,0,112693,113361,A C,0,112693,,167,167,167 M,0,112693,112746,292,287,308.2628,284.2121 M,0,112746,112800,308.2628,284.2121,324.5255,281.4242 M,0,112800,112853,324.5255,281.4242,340.7883,278.6363 M,0,112853,112907,340.7883,278.6363,357.0511,275.8484 M,0,112907,112960,357.0511,275.8484,340.7883,278.6363 M,0,112960,113014,340.7883,278.6363,324.5255,281.4242 M,0,113014,113068,324.5255,281.4242,308.2628,284.2121 M,0,113068,113121,308.2628,284.2121,292,287
//Storyboard Sound Samples

[TimingPoints]
1693,428.571428571429,4,2,1,30,1,0
1907,-100,4,2,1,35,0,0
2121,-100,4,2,1,40,0,0
2335,-100,4,2,1,45,0,0
2550,-100,4,2,1,50,0,0
2764,-100,4,2,1,55,0,0
2978,-100,4,2,1,60,0,0
10264,-100,4,2,1,70,0,0
13264,-100,4,2,1,20,0,0
13371,-100,4,2,1,22,0,0
13478,-100,4,2,1,25,0,0
13585,-100,4,2,1,27,0,0
13693,-100,4,2,1,30,0,0
13800,-100,4,2,1,32,0,0
13907,-100,4,2,1,35,0,0
14014,-100,4,2,1,37,0,0
14121,-100,4,2,1,40,0,0
14228,-100,4,2,1,42,0,0
14335,-100,4,2,1,45,0,0
14443,-100,4,2,1,47,0,0
14550,-100,4,2,1,50,0,0
14657,-100,4,2,1,52,0,0
14764,-100,4,2,1,55,0,0
14871,-100,4,2,1,57,0,0
14978,-100,4,2,1,60,0,0
15085,-100,4,2,1,62,0,0
15193,-100,4,2,1,65,0,0
15300,-100,4,2,1,67,0,0
15407,-100,4,2,1,70,0,0
17121,-90.9090909090909,4,2,1,80,0,0
29121,-90.9090909090909,4,2,1,70,0,0
30835,-90.9090909090909,4,2,1,80,0,0
42835,-90.9090909090909,4,2,1,50,0,0
43050,-90.9090909090909,4,2,1,60,0,0
43264,-90.9090909090909,4,2,1,50,0,0
43478,-90.9090909090909,4,2,1,60,0,0
43693,-90.9090909090909,4,2,1,80,0,0
44550,-83.3333333333333,4,2,1,90,0,1
51407,-83.3333333333333,4,2,1,90,0,1
56550,-83.3333333333333,4,2,1,60,0,0
58264,-90.9090909090909,4,2,1,80,0,0
70264,-90.9090909090909,4,2,1,70,0,0
71978,-90.9090909090909,4,2,1,80,0,0
83978,-90.9090909090909,4,2,1,50,0,0
84193,-90.9090909090909,4,2,1,60,0,0
84407,-90.9090909090909,4,2,1,50,0,0
84621,-90.9090909090909,4,2,1,60,0,0
84836,-90.9090909090909,4,2,1,80,0,0
85693,-83.3333333333333,4,2,1,90,0,1
97693,-83.3333333333333,4,2,1,70,0,0
99407,-83.3333333333333,4,2,1,90,0,1
111407,-83.3333333333333,4,2,1,90,0,0
113121,-83.3333333333333,4,2,2,100,0,0
113550,-83.3333333333333,4,2,2,90,0,0
113978,-83.3333333333333,4,2,2,80,0,0
114407,-83.3333333333333,4,2,2,70,0,0
114835,-83.3333333333333,4,2,2,60,0,0
115264,-83.3333333333333,4,2,2,50,0,0
115693,-83.3333333333333,4,2,2,40,0,0
116121,-83.3333333333333,4,2,2,20,0,0
116550,-83.3333333333333,4,2,2,5,0,0

[Colours]
Combo1 : 188,46,185
Combo2 : 167,167,167
Combo3 : 111,111,111
Combo4 : 225,91,236

[HitObjects]
111,77,3407,6,0,P|85:126|109:199,1,110,4|2,3:2|3:2,0:0:0:0:
178,248,4264,1,2,3:2:0:0:
265,181,4693,1,2,3:2:0:0:
367,220,5121,2,0,P|393:171|369:98,2,110,2|2|2,3:2|3:2|3:2,0:0:0:0:
306,311,6407,1,2,3:2:0:0:
211,254,6835,6,0,L|95:274,1,110,2|2,3:2|3:2,0:0:0:0:
53,292,7478,1,0,0:0:0:0:
53,292,7693,2,0,P|27:243|51:170,1,110,2|2,3:2|3:2,0:0:0:0:
91,96,8550,2,0,L|206:116,1,110,2|2,3:2|3:2,0:0:0:0:
288,180,9407,1,2,3:2:0:0:
370,107,9835,1,2,3:2:0:0:
455,176,10264,6,0,L|530:161,2,55,2|2|2,3:2|0:3|3:2,0:0:0:0:
412,277,11121,2,0,L|336:262,1,55,2|2,3:2|0:3,0:0:0:0:
306,286,11550,1,2,3:2:0:0:
198,265,11978,2,0,P|172:216|196:143,1,110,2|2,3:2|3:2,0:0:0:0:
215,122,12621,1,2,0:3:0:0:
215,122,12835,1,2,3:2:0:0:
312,173,13264,1,10,3:2:0:0:
418,145,13693,6,0,L|397:29,1,110,10|10,3:2|3:2,0:0:0:0:
356,11,14335,1,10,0:2:0:0:
356,11,14550,2,0,L|240:31,1,110,10|10,3:2|3:2,0:0:0:0:
164,101,15407,1,2,3:2:0:0:
164,101,17121,6,0,P|134:150|164:226,1,121.000003692627,6|8,1:2|3:2,0:0:0:0:
194,255,17764,1,0,0:0:0:0:
194,255,17978,2,0,L|328:230,1,121.000003692627,2|10,3:2|3:1,0:0:0:0:
427,194,18835,2,0,P|457:243|427:319,1,121.000003692627,0|8,3:0|3:2,0:0:0:0:
407,351,19478,1,0,0:0:0:0:
407,351,19693,2,0,L|343:340,1,60.5000018463135,2|2,1:1|1:1,0:0:0:0:
290,360,20121,1,10,1:1:0:0:
175,318,20550,6,0,P|145:269|175:193,1,121.000003692627,2|8,3:2|3:2,0:0:0:0:
182,156,21193,1,0,0:0:0:0:
182,156,21407,2,0,L|316:181,1,121.000003692627,2|10,3:2|3:1,0:0:0:0:
415,216,22264,2,0,P|445:167|415:91,1,121.000003692627,0|8,3:0|3:2,0:0:0:0:
409,57,22907,1,0,0:0:0:0:
409,57,23121,2,0,L|275:82,1,121.000003692627,2|10,1:1|1:1,0:0:0:0:
240,112,23764,1,10,1:1:0:0:
240,112,23978,5,2,3:2:0:0:
128,64,24407,2,0,L|64:75,1,60.5000018463135,8|0,3:2|0:0,0:0:0:0:
15,45,24835,2,0,P|-15:94|15:170,1,121.000003692627,2|10,3:2|3:1,0:0:0:0:
73,248,25693,2,0,L|191:225,1,121.000003692627,0|8,3:0|3:2,0:0:0:0:
246,197,26335,1,0,0:0:0:0:
246,197,26550,1,2,1:1:0:0:
364,218,26978,2,0,L|352:281,1,60.5000018463135,10|10,1:1|1:1,0:0:0:0:
341,337,27407,6,0,L|222:314,1,121.000003692627,2|8,3:2|3:2,0:0:0:0:
165,326,28050,1,0,0:0:0:0:
165,326,28264,2,0,P|134:275|148:217,1,121.000003692627,2|8,3:2|3:2,0:0:0:0:
230,128,29121,2,0,L|213:35,2,90.7500027694703,2|10|10,3:1|0:1|0:1,0:0:0:0:
264,178,29978,1,8,0:0:0:0:
367,115,30407,1,0,3:0:0:0:
485,140,30835,6,0,P|516:191|502:249,1,121.000003692627,6|8,1:2|3:2,0:0:0:0:
457,286,31478,1,0,0:0:0:0:
457,286,31693,2,0,L|338:263,1,121.000003692627,2|8,3:2|3:2,0:0:0:0:
220,292,32550,2,0,L|101:269,1,121.000003692627,0|8,3:0|3:2,0:0:0:0:
46,287,33193,1,0,0:0:0:0:
46,287,33407,1,2,1:1:0:0:
5,173,33835,2,0,L|17:110,1,60.5000018463135,10|10,1:1|1:1,0:0:0:0:
37,56,34264,6,0,P|86:24|144:38,1,121.000003692627,2|8,3:2|3:2,0:0:0:0:
196,79,34907,1,0,0:0:0:0:
196,79,35121,2,0,L|173:198,1,121.000003692627,2|10,3:2|3:2,0:0:0:0:
127,309,35978,2,0,L|246:286,1,121.000003692627,0|8,3:0|3:2,0:0:0:0:
304,316,36621,1,0,0:0:0:0:
304,316,36835,2,0,L|423:293,1,121.000003692627,2|10,1:1|1:1,0:0:0:0:
484,316,37478,1,10,1:1:0:0:
484,316,37693,5,2,3:2:0:0:
512,199,38121,2,0,L|501:135,1,60.5000018463135,8|0,3:2|0:0,0:0:0:0:
486,80,38550,2,0,P|430:60|377:85,1,121.000003692627,2|8,3:2|3:2,0:0:0:0:
304,182,39407,2,0,L|185:159,1,121.000003692627,0|8,3:0|3:2,0:0:0:0:
133,187,40050,1,0,0:0:0:0:
133,187,40264,1,2,1:1:0:0:
20,141,40693,2,0,L|31:77,1,60.5000018463135,10|10,1:1|1:1,0:0:0:0:
42,22,41121,6,0,P|96:-3|152:17,1,121.000003692627,2|8,3:2|3:2,0:0:0:0:
244,93,41978,2,0,L|233:157,1,60.5000018463135,2|0,3:2|0:0,0:0:0:0:
221,212,42407,1,8,3:2:0:0:
332,257,42835,1,10,0:0:0:0:
332,257,44121,5,8,3:2:0:0:
353,126,44550,6,0,B|275:122|301:169|207:167,1,131.99999597168,6|10,1:2|3:1,0:0:0:0:
158,129,45193,1,2,0:1:0:0:
158,129,45407,2,0,L|145:45,1,65.9999979858399,2|2,3:2|0:1,0:0:0:0:
75,18,45835,1,10,0:1:0:0:
0,164,46264,2,0,L|25:301,1,131.99999597168,2|10,3:2|3:2,0:0:0:0:
112,314,46907,1,0,0:0:0:0:
112,314,47121,2,0,L|125:398,2,65.9999979858399,2|0|10,3:2|0:0|3:2,0:0:0:0:
203,168,47978,6,0,B|263:139|263:139|348:174,1,131.99999597168,6|10,3:2|3:1,0:0:0:0:
402,210,48621,1,2,0:1:0:0:
402,210,48835,2,0,P|434:266|402:353,1,131.99999597168,2|10,3:2|0:1,0:0:0:0:
254,370,49693,2,0,L|117:345,1,131.99999597168,2|10,3:2|3:2,0:0:0:0:
43,359,50335,1,0,0:0:0:0:
43,359,50550,2,0,P|10:302|23:239,1,131.99999597168,2|10,3:2|3:2,0:0:0:0:
175,160,51407,6,0,L|304:182,1,131.99999597168,6|10,0:2|3:1,0:0:0:0:
391,210,52050,1,2,0:1:0:0:
391,210,52264,2,0,L|404:126,1,65.9999979858399,2|2,3:2|0:1,0:0:0:0:
419,60,52693,1,10,0:1:0:0:
255,10,53121,2,0,B|177:6|203:53|109:51,1,131.99999597168,2|10,3:2|3:2,0:0:0:0:
51,68,53764,1,0,0:0:0:0:
51,68,53978,2,0,L|38:-16,2,65.9999979858399,2|0|10,3:2|0:0|3:2,0:0:0:0:
83,236,54835,6,0,P|139:204|226:236,1,131.99999597168,6|10,3:2|3:1,0:0:0:0:
287,249,55478,1,2,0:1:0:0:
287,249,55693,2,0,P|319:192|306:129,1,131.99999597168,2|10,3:2|0:1,0:0:0:0:
148,63,56550,1,2,3:2:0:0:
344,344,58264,6,0,P|374:295|344:219,1,121.000003692627,6|8,1:2|3:2,0:0:0:0:
342,183,58907,1,0,0:0:0:0:
342,183,59121,2,0,L|223:205,1,121.000003692627,2|10,3:2|3:1,0:0:0:0:
104,236,59978,2,0,P|74:187|104:111,1,121.000003692627,0|8,3:0|3:2,0:0:0:0:
128,84,60621,1,0,0:0:0:0:
128,84,60835,1,2,1:1:0:0:
228,20,61264,2,0,L|291:32,1,60.5000018463135,10|10,1:1|1:1,0:0:0:0:
332,72,61693,6,0,L|450:49,1,121.000003692627,2|8,3:2|3:2,0:0:0:0:
495,8,62335,1,0,0:0:0:0:
495,8,62549,2,0,P|526:59|512:117,1,121.000003692627,2|10,3:2|3:1,0:0:0:0:
432,207,63407,2,0,L|313:184,1,121.000003692627,0|8,3:0|3:2,0:0:0:0:
267,153,64050,1,0,0:0:0:0:
267,153,64264,2,0,L|148:175,1,121.000003692627,2|10,1:1|1:1,0:0:0:0:
97,153,64907,1,10,1:1:0:0:
97,153,65121,5,2,3:2:0:0:
4,231,65550,2,0,L|16:294,1,60.5000018463135,8|0,3:2|0:0,0:0:0:0:
23,350,65978,2,0,P|80:363|130:332,1,121.000003692627,2|10,3:2|3:1,0:0:0:0:
234,269,66835,2,0,P|291:255|341:286,1,121.000003692627,0|8,3:0|3:2,0:0:0:0:
385,337,67478,1,0,0:0:0:0:
385,337,67693,1,2,1:1:0:0:
488,275,68121,2,0,L|476:212,1,60.5000018463135,10|10,1:1|1:1,0:0:0:0:
417,202,68550,6,0,L|394:83,1,121.000003692627,2|8,3:2|3:2,0:0:0:0:
381,29,69193,1,0,0:0:0:0:
381,29,69407,2,0,P|326:4|270:25,1,121.000003692627,2|8,3:2|3:2,0:0:0:0:
171,91,70264,2,0,L|78:74,2,90.7500027694703,8|8|8,0:0|0:0|0:0,0:0:0:0:
212,135,71121,1,8,0:3:0:0:
326,96,71550,1,8,3:2:0:0:
443,122,71978,6,0,P|471:174|454:231,1,121.000003692627,6|8,1:2|3:2,0:0:0:0:
420,281,72621,1,0,0:0:0:0:
420,281,72835,1,2,3:2:0:0:
322,208,73264,1,8,3:2:0:0:
212,259,73693,2,0,L|93:236,1,121.000003692627,0|8,3:0|3:2,0:0:0:0:
40,260,74335,1,0,0:0:0:0:
40,260,74550,1,2,1:1:0:0:
1,145,74978,2,0,L|13:82,1,60.5000018463135,10|10,1:1|1:1,0:0:0:0:
18,25,75407,6,0,P|70:-3|127:13,1,121.000003692627,2|8,3:2|3:2,0:0:0:0:
172,60,76050,1,0,0:0:0:0:
172,60,76264,1,2,3:2:0:0:
282,10,76693,2,0,L|345:22,1,60.5000018463135,10|0,3:2|0:0,0:0:0:0:
399,6,77121,2,0,P|427:58|410:115,1,121.000003692627,0|8,3:0|3:2,0:0:0:0:
316,190,77978,2,0,L|253:178,1,60.5000018463135,2|2,1:1|1:1,0:0:0:0:
213,135,78407,2,0,L|150:147,1,60.5000018463135,10|10,1:1|1:1,0:0:0:0:
93,151,78835,6,0,P|64:203|81:260,1,121.000003692627,2|8,3:2|3:2,0:0:0:0:
130,304,79478,1,0,0:0:0:0:
130,304,79693,2,0,L|248:281,1,121.000003692627,2|8,3:2|3:2,0:0:0:0:
368,303,80550,2,0,P|396:250|379:193,1,121.000003692627,0|8,3:0|3:2,0:0:0:0:
332,165,81193,1,0,0:0:0:0:
332,165,81407,1,2,1:1:0:0:
377,53,81835,2,0,L|440:65,1,60.5000018463135,10|10,1:1|1:1,0:0:0:0:
495,50,82264,6,0,P|523:102|506:159,1,121.000003692627,2|8,3:2|3:2,0:0:0:0:
408,229,83121,1,2,3:2:0:0:
492,316,83550,1,8,3:2:0:0:
385,372,83978,1,10,0:0:0:0:
385,372,85693,6,0,B|307:376|333:329|239:331,1,131.99999597168,6|10,1:2|3:1,0:0:0:0:
182,350,86335,1,2,0:1:0:0:
182,350,86550,2,0,L|170:279,1,65.9999979858399,2|2,3:2|0:1,0:0:0:0:
123,213,86978,1,10,0:1:0:0:
236,83,87407,2,0,P|299:70|355:102,1,131.99999597168,2|10,3:2|3:2,0:0:0:0:
427,159,88050,1,0,0:0:0:0:
427,159,88264,2,0,L|415:229,1,65.9999979858399,2|0,3:2|0:0,0:0:0:0:
330,232,88693,2,0,L|341:302,1,65.9999979858399,10|2,3:2|0:0,0:0:0:0:
283,361,89121,6,0,P|219:373|163:341,1,131.99999597168,2|10,3:2|3:1,0:0:0:0:
50,211,89978,2,0,L|61:140,1,65.9999979858399,2|2,3:2|0:1,0:0:0:0:
72,60,90407,1,10,0:1:0:0:
232,120,90835,2,0,L|369:95,1,131.99999597168,2|10,3:2|3:2,0:0:0:0:
443,62,91478,1,0,0:0:0:0:
443,62,91693,2,0,P|475:118|462:181,1,131.99999597168,2|10,3:2|3:2,0:0:0:0:
361,320,92550,6,0,L|224:295,1,131.99999597168,2|10,3:2|3:1,0:0:0:0:
152,312,93193,1,2,0:1:0:0:
152,312,93407,2,0,L|141:241,1,65.9999979858399,2|2,3:2|0:1,0:0:0:0:
128,162,93835,1,10,0:1:0:0:
244,35,94264,2,0,P|300:2|363:16,1,131.99999597168,2|10,3:2|3:2,0:0:0:0:
441,63,94907,1,0,0:0:0:0:
441,63,95121,2,0,L|453:134,2,65.9999979858399,2|0|10,3:2|0:0|3:2,0:0:0:0:
278,119,95978,6,0,L|303:256,1,131.99999597168,2|10,3:2|3:1,0:0:0:0:
386,282,96621,1,2,0:1:0:0:
386,282,96835,2,0,L|374:352,1,65.9999979858399,2|2,3:2|0:1,0:0:0:0:
293,374,97264,1,10,0:1:0:0:
128,320,97693,2,0,B|85:327|85:327|74:336|74:336|14:347,2,98.9999969787599,2|8|10,3:2|0:0|0:0,0:0:0:0:
213,327,98550,1,10,0:2:0:0:
263,162,98978,1,14,0:2:0:0:
429,203,99407,6,0,P|461:147|448:84,1,131.99999597168,6|10,1:2|3:1,0:0:0:0:
389,28,100050,1,2,0:1:0:0:
389,28,100264,2,0,L|319:40,1,65.9999979858399,2|2,3:2|0:1,0:0:0:0:
247,79,100693,1,10,0:1:0:0:
77,52,101121,2,0,P|45:108|58:171,1,131.99999597168,2|10,3:2|3:2,0:0:0:0:
120,239,101764,1,0,0:0:0:0:
120,239,101978,1,2,3:2:0:0:
280,180,102407,2,0,L|350:192,1,65.9999979858399,10|2,3:2|0:0,0:0:0:0:
429,169,102835,6,0,P|461:225|448:288,1,131.99999597168,2|10,3:2|3:1,0:0:0:0:
388,352,103478,1,2,0:1:0:0:
388,352,103693,2,0,L|318:340,1,65.9999979858399,2|2,3:2|0:1,0:0:0:0:
252,292,104121,1,10,0:1:0:0:
88,346,104550,2,0,P|56:290|69:227,1,131.99999597168,2|10,3:2|3:2,0:0:0:0:
130,166,105193,1,0,0:0:0:0:
130,166,105407,2,0,L|200:178,1,65.9999979858399,2|0,3:2|0:0,0:0:0:0:
273,212,105835,2,0,L|343:200,1,65.9999979858399,10|2,3:2|0:0,0:0:0:0:
421,221,106264,6,0,P|453:165|440:102,1,131.99999597168,2|10,3:2|3:1,0:0:0:0:
379,48,106907,1,2,0:1:0:0:
379,48,107121,1,2,3:2:0:0:
213,92,107550,2,0,L|143:80,1,65.9999979858399,10|2,0:1|0:1,0:0:0:0:
65,57,107978,2,0,P|33:113|46:176,1,131.99999597168,2|10,3:2|3:2,0:0:0:0:
99,250,108621,1,0,0:0:0:0:
99,250,108835,1,2,3:2:0:0:
254,177,109264,2,0,L|324:189,1,65.9999979858399,10|2,3:2|0:0,0:0:0:0:
397,151,109693,6,0,P|429:207|416:270,1,131.99999597168,2|10,3:2|3:1,0:0:0:0:
369,343,110335,1,2,0:1:0:0:
369,343,110550,2,0,B|291:347|317:300|223:302,1,131.99999597168,2|10,3:2|0:1,0:0:0:0:
75,281,111407,2,0,B|82:324|82:324|91:335|91:335|102:395,2,98.9999969787599,2|8|10,3:2|0:0|0:0,0:0:0:0:
61,195,112264,1,10,0:2:0:0:
228,231,112693,2,0,L|298:219,2,65.9999979858399,10|10|4,0:2|0:0|3:2,0:0:0:0:
