osu file format v14

[General]
AudioFilename: audio.mp3
AudioLeadIn: 0
PreviewTime: 43607
Countdown: 0
SampleSet: Normal
StackLeniency: 0.7
Mode: 3
LetterboxInBreaks: 0
SpecialStyle: 0
WidescreenStoryboard: 1

[Editor]
DistanceSpacing: 0.4
BeatDivisor: 4
GridSize: 32
TimelineZoom: 2

[Metadata]
Title:MURDER PLOT
TitleUnicode:MURDER PLOT
Artist:KORDHELL
ArtistUnicode:KORDHELL
Creator:Hydria
Version:INSANE
Source:
Tags:Drift Phonk English Electronic Instrumental Hip Hop Hip-Hop Hartnett Media
BeatmapID:4254742
BeatmapSetID:2039455

[Difficulty]
HPDrainRate:8
CircleSize:4
OverallDifficulty:8.5
ApproachRate:9.3
SliderMultiplier:2.44
SliderTickRate:1

[Events]
//Background and Video events
0,0,"BG.jpg",0,0
//Break Periods
//Storyboard Layer 0 (Background)
//Storyboard Layer 1 (Fail)
//Storyboard Layer 2 (Pass)
//Storyboard Layer 3 (Foreground)
//Storyboard Layer 4 (Overlay)
//Storyboard Sound Samples

[TimingPoints]
0,428.571428571429,4,1,1,35,1,0
44571,-100,4,1,1,35,0,1
56571,-100,4,1,1,35,0,0
85714,-100,4,1,1,35,0,1
97714,-100,4,1,1,35,0,0
99428,-100,4,1,1,35,0,1
111428,-100,4,1,1,35,0,0

[HitObjects]
320,192,3428,5,0,0:0:0:0:
448,192,3428,1,0,0:0:0:0:
192,192,3535,1,0,0:0:0:0:
64,192,3642,1,0,0:0:0:0:
320,192,3750,1,0,0:0:0:0:
192,192,3857,1,0,0:0:0:0:
64,192,3857,1,0,0:0:0:0:
320,192,3964,1,0,0:0:0:0:
448,192,3964,1,0,0:0:0:0:
192,192,4071,1,0,0:0:0:0:
64,192,4178,1,0,0:0:0:0:
320,192,4285,1,0,0:0:0:0:
448,192,4285,1,0,0:0:0:0:
192,192,4392,1,0,0:0:0:0:
64,192,4500,1,0,0:0:0:0:
320,192,4500,1,0,0:0:0:0:
448,192,4607,1,0,0:0:0:0:
64,192,4714,1,0,0:0:0:0:
192,192,4714,1,0,0:0:0:0:
320,192,4821,1,0,0:0:0:0:
192,192,4928,1,0,0:0:0:0:
64,192,5035,1,0,0:0:0:0:
320,192,5142,1,0,0:0:0:0:
448,192,5142,1,0,0:0:0:0:
192,192,5250,1,0,0:0:0:0:
448,192,5357,1,0,0:0:0:0:
320,192,5464,1,0,0:0:0:0:
192,192,5571,1,0,0:0:0:0:
64,192,5571,1,0,0:0:0:0:
448,192,5678,1,0,0:0:0:0:
320,192,5678,1,0,0:0:0:0:
64,192,5785,1,0,0:0:0:0:
448,192,5892,1,0,0:0:0:0:
192,192,6000,1,0,0:0:0:0:
64,192,6000,1,0,0:0:0:0:
64,192,6107,1,0,0:0:0:0:
320,192,6214,1,0,0:0:0:0:
448,192,6214,1,0,0:0:0:0:
448,192,6321,1,0,0:0:0:0:
192,192,6428,1,0,0:0:0:0:
64,192,6428,1,0,0:0:0:0:
192,192,6535,1,0,0:0:0:0:
448,192,6642,1,0,0:0:0:0:
320,192,6642,1,0,0:0:0:0:
320,192,6750,1,0,0:0:0:0:
192,192,6857,1,0,0:0:0:0:
64,192,6857,1,0,0:0:0:0:
448,192,6964,1,0,0:0:0:0:
320,192,7071,1,0,0:0:0:0:
192,192,7178,1,0,0:0:0:0:
320,192,7285,1,0,0:0:0:0:
448,192,7285,1,0,0:0:0:0:
64,192,7392,1,0,0:0:0:0:
192,192,7392,1,0,0:0:0:0:
448,192,7500,1,0,0:0:0:0:
64,192,7607,1,0,0:0:0:0:
320,192,7714,1,0,0:0:0:0:
448,192,7714,1,0,0:0:0:0:
192,192,7821,1,0,0:0:0:0:
64,192,7928,1,0,0:0:0:0:
320,192,7928,1,0,0:0:0:0:
448,192,8035,1,0,0:0:0:0:
192,192,8142,1,0,0:0:0:0:
64,192,8142,1,0,0:0:0:0:
320,192,8250,1,0,0:0:0:0:
192,192,8357,1,0,0:0:0:0:
64,192,8464,1,0,0:0:0:0:
320,192,8571,1,0,0:0:0:0:
448,192,8571,1,0,0:0:0:0:
192,192,8678,1,0,0:0:0:0:
64,192,8785,1,0,0:0:0:0:
320,192,8785,1,0,0:0:0:0:
192,192,8892,1,0,0:0:0:0:
320,192,9000,1,0,0:0:0:0:
448,192,9000,1,0,0:0:0:0:
192,192,9107,1,0,0:0:0:0:
64,192,9107,1,0,0:0:0:0:
320,192,9214,1,0,0:0:0:0:
448,192,9321,1,0,0:0:0:0:
64,192,9428,1,0,0:0:0:0:
192,192,9428,1,0,0:0:0:0:
192,192,9535,1,0,0:0:0:0:
320,192,9642,1,0,0:0:0:0:
448,192,9642,1,0,0:0:0:0:
320,192,9750,1,0,0:0:0:0:
192,192,9857,1,0,0:0:0:0:
64,192,9857,1,0,0:0:0:0:
64,192,9964,1,0,0:0:0:0:
448,192,10071,1,0,0:0:0:0:
320,192,10071,1,0,0:0:0:0:
448,192,10178,1,0,0:0:0:0:
64,192,10285,1,0,0:0:0:0:
192,192,10285,1,0,0:0:0:0:
448,192,10392,1,0,0:0:0:0:
320,192,10500,1,0,0:0:0:0:
64,192,10500,1,0,0:0:0:0:
192,192,10607,1,0,0:0:0:0:
320,192,10714,1,0,0:0:0:0:
448,192,10714,1,0,0:0:0:0:
192,192,10821,1,0,0:0:0:0:
64,192,10821,1,0,0:0:0:0:
320,192,10928,1,0,0:0:0:0:
448,192,10928,1,0,0:0:0:0:
192,192,11035,1,0,0:0:0:0:
64,192,11142,1,0,0:0:0:0:
448,192,11142,1,0,0:0:0:0:
320,192,11250,1,0,0:0:0:0:
192,192,11357,1,0,0:0:0:0:
64,192,11357,1,0,0:0:0:0:
320,192,11464,1,0,0:0:0:0:
192,192,11571,1,0,0:0:0:0:
448,192,11571,1,0,0:0:0:0:
64,192,11678,1,0,0:0:0:0:
320,192,11785,1,0,0:0:0:0:
448,192,11785,1,0,0:0:0:0:
192,192,11892,1,0,0:0:0:0:
320,192,12000,1,0,0:0:0:0:
448,192,12000,1,0,0:0:0:0:
192,192,12107,1,0,0:0:0:0:
64,192,12214,1,0,0:0:0:0:
448,192,12214,1,0,0:0:0:0:
320,192,12321,1,0,0:0:0:0:
192,192,12428,1,0,0:0:0:0:
64,192,12428,1,0,0:0:0:0:
320,192,12535,1,0,0:0:0:0:
448,192,12535,1,0,0:0:0:0:
192,192,12642,1,0,0:0:0:0:
64,192,12642,1,0,0:0:0:0:
320,192,12750,1,0,0:0:0:0:
192,192,12857,1,0,0:0:0:0:
64,192,12857,1,0,0:0:0:0:
64,192,12964,1,0,0:0:0:0:
320,192,13071,1,0,0:0:0:0:
448,192,13071,1,0,0:0:0:0:
448,192,13178,1,0,0:0:0:0:
192,192,13285,1,0,0:0:0:0:
64,192,13285,1,0,0:0:0:0:
192,192,13392,1,0,0:0:0:0:
448,192,13500,1,0,0:0:0:0:
320,192,13500,1,0,0:0:0:0:
320,192,13607,1,0,0:0:0:0:
64,192,13714,1,0,0:0:0:0:
192,192,13714,1,0,0:0:0:0:
448,192,13821,1,0,0:0:0:0:
320,192,13928,1,0,0:0:0:0:
192,192,13928,1,0,0:0:0:0:
64,192,14035,1,0,0:0:0:0:
320,192,14142,1,0,0:0:0:0:
448,192,14142,1,0,0:0:0:0:
192,192,14250,1,0,0:0:0:0:
64,192,14250,1,0,0:0:0:0:
448,192,14357,1,0,0:0:0:0:
320,192,14357,1,0,0:0:0:0:
192,192,14464,1,0,0:0:0:0:
64,192,14571,1,0,0:0:0:0:
448,192,14571,1,0,0:0:0:0:
320,192,14678,1,0,0:0:0:0:
192,192,14678,1,0,0:0:0:0:
64,192,14785,1,0,0:0:0:0:
448,192,14785,1,0,0:0:0:0:
320,192,14892,1,0,0:0:0:0:
192,192,15000,1,0,0:0:0:0:
64,192,15000,1,0,0:0:0:0:
320,192,15107,1,0,0:0:0:0:
448,192,15107,1,0,0:0:0:0:
192,192,15214,1,0,0:0:0:0:
64,192,15214,1,0,0:0:0:0:
320,192,15321,1,0,0:0:0:0:
448,192,15321,1,0,0:0:0:0:
192,192,15428,1,0,0:0:0:0:
64,192,15428,128,0,15535:0:0:0:0:
64,192,15642,1,0,0:0:0:0:
64,192,15857,128,0,15964:0:0:0:0:
64,192,16071,128,0,16178:0:0:0:0:
64,192,16285,128,0,16392:0:0:0:0:
64,192,16500,1,0,0:0:0:0:
64,192,16714,128,0,16821:0:0:0:0:
64,192,16928,128,0,16982:0:0:0:0:
320,192,17142,1,0,0:0:0:0:
448,192,17142,1,0,0:0:0:0:
192,192,17142,1,0,0:0:0:0:
64,192,17250,1,0,0:0:0:0:
320,192,17357,1,0,0:0:0:0:
448,192,17357,1,0,0:0:0:0:
192,192,17464,1,0,0:0:0:0:
64,192,17571,1,0,0:0:0:0:
448,192,17571,1,0,0:0:0:0:
320,192,17678,1,0,0:0:0:0:
192,192,17678,1,0,0:0:0:0:
64,192,17785,1,0,0:0:0:0:
448,192,17785,1,0,0:0:0:0:
320,192,17892,1,0,0:0:0:0:
192,192,18000,1,0,0:0:0:0:
64,192,18000,1,0,0:0:0:0:
448,192,18107,1,0,0:0:0:0:
320,192,18214,1,0,0:0:0:0:
192,192,18214,1,0,0:0:0:0:
64,192,18321,1,0,0:0:0:0:
320,192,18428,1,0,0:0:0:0:
448,192,18428,1,0,0:0:0:0:
64,192,18535,1,0,0:0:0:0:
192,192,18642,1,0,0:0:0:0:
448,192,18642,1,0,0:0:0:0:
320,192,18750,1,0,0:0:0:0:
64,192,18857,1,0,0:0:0:0:
448,192,18857,1,0,0:0:0:0:
192,192,18964,1,0,0:0:0:0:
320,192,19071,1,0,0:0:0:0:
448,192,19071,1,0,0:0:0:0:
64,192,19178,1,0,0:0:0:0:
192,192,19285,1,0,0:0:0:0:
320,192,19285,1,0,0:0:0:0:
448,192,19392,1,0,0:0:0:0:
64,192,19392,1,0,0:0:0:0:
192,192,19500,1,0,0:0:0:0:
320,192,19500,1,0,0:0:0:0:
448,192,19607,1,0,0:0:0:0:
192,192,19714,1,0,0:0:0:0:
64,192,19714,1,0,0:0:0:0:
192,192,19821,1,0,0:0:0:0:
320,192,19928,1,0,0:0:0:0:
448,192,19928,1,0,0:0:0:0:
320,192,20035,1,0,0:0:0:0:
64,192,20142,1,0,0:0:0:0:
192,192,20142,1,0,0:0:0:0:
64,192,20250,1,0,0:0:0:0:
448,192,20357,1,0,0:0:0:0:
320,192,20357,1,0,0:0:0:0:
448,192,20464,1,0,0:0:0:0:
64,192,20571,1,0,0:0:0:0:
192,192,20571,1,0,0:0:0:0:
448,192,20678,1,0,0:0:0:0:
320,192,20785,1,0,0:0:0:0:
192,192,20785,1,0,0:0:0:0:
64,192,20892,1,0,0:0:0:0:
320,192,21000,1,0,0:0:0:0:
448,192,21000,1,0,0:0:0:0:
192,192,21107,1,0,0:0:0:0:
64,192,21107,1,0,0:0:0:0:
448,192,21214,1,0,0:0:0:0:
320,192,21214,1,0,0:0:0:0:
192,192,21321,1,0,0:0:0:0:
64,192,21428,1,0,0:0:0:0:
448,192,21428,1,0,0:0:0:0:
320,192,21535,1,0,0:0:0:0:
192,192,21642,1,0,0:0:0:0:
64,192,21642,1,0,0:0:0:0:
448,192,21750,1,0,0:0:0:0:
320,192,21857,1,0,0:0:0:0:
192,192,21857,1,0,0:0:0:0:
64,192,21964,1,0,0:0:0:0:
320,192,22071,1,0,0:0:0:0:
448,192,22071,1,0,0:0:0:0:
192,192,22178,1,0,0:0:0:0:
64,192,22285,1,0,0:0:0:0:
448,192,22285,1,0,0:0:0:0:
320,192,22392,1,0,0:0:0:0:
192,192,22500,1,0,0:0:0:0:
64,192,22500,1,0,0:0:0:0:
320,192,22607,1,0,0:0:0:0:
448,192,22714,1,0,0:0:0:0:
64,192,22714,1,0,0:0:0:0:
192,192,22821,1,0,0:0:0:0:
320,192,22821,1,0,0:0:0:0:
64,192,22928,1,0,0:0:0:0:
448,192,22928,1,0,0:0:0:0:
320,192,23035,1,0,0:0:0:0:
192,192,23142,1,0,0:0:0:0:
64,192,23142,1,0,0:0:0:0:
64,192,23250,1,0,0:0:0:0:
448,192,23357,1,0,0:0:0:0:
320,192,23357,1,0,0:0:0:0:
448,192,23464,1,0,0:0:0:0:
192,192,23571,1,0,0:0:0:0:
64,192,23571,1,0,0:0:0:0:
192,192,23678,1,0,0:0:0:0:
320,192,23785,1,0,0:0:0:0:
448,192,23785,1,0,0:0:0:0:
320,192,23892,1,0,0:0:0:0:
64,192,24000,1,0,0:0:0:0:
192,192,24000,1,0,0:0:0:0:
448,192,24107,1,0,0:0:0:0:
192,192,24214,1,0,0:0:0:0:
64,192,24214,1,0,0:0:0:0:
320,192,24321,1,0,0:0:0:0:
64,192,24428,1,0,0:0:0:0:
448,192,24428,1,0,0:0:0:0:
192,192,24535,1,0,0:0:0:0:
320,192,24535,1,0,0:0:0:0:
64,192,24642,1,0,0:0:0:0:
448,192,24642,1,0,0:0:0:0:
320,192,24750,1,0,0:0:0:0:
64,192,24857,1,0,0:0:0:0:
192,192,24857,1,0,0:0:0:0:
320,192,24964,1,0,0:0:0:0:
192,192,25071,1,0,0:0:0:0:
448,192,25071,1,0,0:0:0:0:
64,192,25178,1,0,0:0:0:0:
320,192,25285,1,0,0:0:0:0:
448,192,25285,1,0,0:0:0:0:
192,192,25392,1,0,0:0:0:0:
64,192,25500,1,0,0:0:0:0:
320,192,25500,1,0,0:0:0:0:
448,192,25607,1,0,0:0:0:0:
192,192,25714,1,0,0:0:0:0:
64,192,25714,1,0,0:0:0:0:
320,192,25821,1,0,0:0:0:0:
192,192,25928,1,0,0:0:0:0:
448,192,25928,1,0,0:0:0:0:
64,192,26035,1,0,0:0:0:0:
192,192,26142,1,0,0:0:0:0:
320,192,26142,1,0,0:0:0:0:
64,192,26250,1,0,0:0:0:0:
448,192,26250,1,0,0:0:0:0:
320,192,26357,1,0,0:0:0:0:
192,192,26357,1,0,0:0:0:0:
448,192,26464,1,0,0:0:0:0:
192,192,26571,1,0,0:0:0:0:
64,192,26571,1,0,0:0:0:0:
192,192,26678,1,0,0:0:0:0:
448,192,26785,1,0,0:0:0:0:
320,192,26785,1,0,0:0:0:0:
320,192,26892,1,0,0:0:0:0:
192,192,27000,1,0,0:0:0:0:
64,192,27000,1,0,0:0:0:0:
64,192,27107,1,0,0:0:0:0:
320,192,27214,1,0,0:0:0:0:
448,192,27214,1,0,0:0:0:0:
448,192,27321,1,0,0:0:0:0:
64,192,27428,1,0,0:0:0:0:
192,192,27428,1,0,0:0:0:0:
320,192,27535,1,0,0:0:0:0:
192,192,27642,1,0,0:0:0:0:
448,192,27642,1,0,0:0:0:0:
64,192,27750,1,0,0:0:0:0:
320,192,27857,1,0,0:0:0:0:
448,192,27857,1,0,0:0:0:0:
64,192,27964,1,0,0:0:0:0:
192,192,27964,1,0,0:0:0:0:
320,192,28071,1,0,0:0:0:0:
448,192,28071,1,0,0:0:0:0:
192,192,28178,1,0,0:0:0:0:
64,192,28285,1,0,0:0:0:0:
448,192,28285,1,0,0:0:0:0:
320,192,28392,1,0,0:0:0:0:
192,192,28500,1,0,0:0:0:0:
64,192,28500,1,0,0:0:0:0:
320,192,28607,1,0,0:0:0:0:
192,192,28714,1,0,0:0:0:0:
448,192,28714,1,0,0:0:0:0:
64,192,28821,1,0,0:0:0:0:
320,192,28928,1,0,0:0:0:0:
448,192,28928,1,0,0:0:0:0:
192,192,29035,1,0,0:0:0:0:
64,192,29142,1,0,0:0:0:0:
320,192,29142,1,0,0:0:0:0:
64,192,29357,1,0,0:0:0:0:
192,192,29357,1,0,0:0:0:0:
320,192,29464,1,0,0:0:0:0:
448,192,29464,1,0,0:0:0:0:
320,192,29678,1,0,0:0:0:0:
448,192,29678,1,0,0:0:0:0:
192,192,29785,1,0,0:0:0:0:
64,192,29785,1,0,0:0:0:0:
64,192,30000,1,0,0:0:0:0:
192,192,30000,1,0,0:0:0:0:
192,192,30107,1,0,0:0:0:0:
64,192,30107,1,0,0:0:0:0:
320,192,30214,1,0,0:0:0:0:
448,192,30214,1,0,0:0:0:0:
448,192,30321,1,0,0:0:0:0:
320,192,30321,1,0,0:0:0:0:
64,192,30428,1,0,0:0:0:0:
448,192,30428,1,0,0:0:0:0:
320,192,30428,1,0,0:0:0:0:
192,192,30642,128,0,30857:0:0:0:0:
320,192,30857,1,0,0:0:0:0:
448,192,30857,1,0,0:0:0:0:
64,192,30964,1,0,0:0:0:0:
192,192,31071,1,0,0:0:0:0:
448,192,31071,1,0,0:0:0:0:
64,192,31178,1,0,0:0:0:0:
320,192,31285,1,0,0:0:0:0:
448,192,31285,1,0,0:0:0:0:
192,192,31392,1,0,0:0:0:0:
64,192,31500,1,0,0:0:0:0:
320,192,31500,1,0,0:0:0:0:
448,192,31607,1,0,0:0:0:0:
192,192,31714,1,0,0:0:0:0:
64,192,31714,1,0,0:0:0:0:
192,192,31821,1,0,0:0:0:0:
320,192,31928,1,0,0:0:0:0:
448,192,31928,1,0,0:0:0:0:
192,192,32035,1,0,0:0:0:0:
64,192,32142,1,0,0:0:0:0:
448,192,32142,1,0,0:0:0:0:
320,192,32250,1,0,0:0:0:0:
192,192,32357,1,0,0:0:0:0:
64,192,32357,1,0,0:0:0:0:
320,192,32464,1,0,0:0:0:0:
192,192,32571,1,0,0:0:0:0:
448,192,32571,1,0,0:0:0:0:
64,192,32678,1,0,0:0:0:0:
320,192,32785,1,0,0:0:0:0:
448,192,32785,1,0,0:0:0:0:
64,192,32892,1,0,0:0:0:0:
192,192,33000,1,0,0:0:0:0:
448,192,33000,1,0,0:0:0:0:
320,192,33107,1,0,0:0:0:0:
64,192,33214,1,0,0:0:0:0:
192,192,33214,1,0,0:0:0:0:
320,192,33321,1,0,0:0:0:0:
64,192,33428,1,0,0:0:0:0:
192,192,33428,1,0,0:0:0:0:
192,192,33535,1,0,0:0:0:0:
448,192,33642,1,0,0:0:0:0:
320,192,33642,1,0,0:0:0:0:
320,192,33750,1,0,0:0:0:0:
192,192,33857,1,0,0:0:0:0:
64,192,33857,1,0,0:0:0:0:
64,192,33964,1,0,0:0:0:0:
320,192,34071,1,0,0:0:0:0:
448,192,34071,1,0,0:0:0:0:
448,192,34178,1,0,0:0:0:0:
64,192,34285,1,0,0:0:0:0:
192,192,34285,1,0,0:0:0:0:
320,192,34392,1,0,0:0:0:0:
64,192,34500,1,0,0:0:0:0:
448,192,34500,1,0,0:0:0:0:
192,192,34607,1,0,0:0:0:0:
320,192,34714,1,0,0:0:0:0:
448,192,34714,1,0,0:0:0:0:
320,192,34821,1,0,0:0:0:0:
192,192,34928,1,0,0:0:0:0:
64,192,34928,1,0,0:0:0:0:
448,192,35035,1,0,0:0:0:0:
320,192,35142,1,0,0:0:0:0:
64,192,35142,1,0,0:0:0:0:
192,192,35250,1,0,0:0:0:0:
320,192,35357,1,0,0:0:0:0:
448,192,35357,1,0,0:0:0:0:
448,192,35464,1,0,0:0:0:0:
192,192,35571,1,0,0:0:0:0:
64,192,35571,1,0,0:0:0:0:
320,192,35678,1,0,0:0:0:0:
448,192,35785,1,0,0:0:0:0:
192,192,35785,1,0,0:0:0:0:
192,192,35892,1,0,0:0:0:0:
64,192,36000,1,0,0:0:0:0:
448,192,36000,1,0,0:0:0:0:
448,192,36107,1,0,0:0:0:0:
192,192,36214,1,0,0:0:0:0:
64,192,36214,1,0,0:0:0:0:
64,192,36321,1,0,0:0:0:0:
320,192,36428,1,0,0:0:0:0:
448,192,36428,1,0,0:0:0:0:
192,192,36535,1,0,0:0:0:0:
64,192,36642,1,0,0:0:0:0:
448,192,36642,1,0,0:0:0:0:
320,192,36750,1,0,0:0:0:0:
192,192,36857,1,0,0:0:0:0:
64,192,36857,1,0,0:0:0:0:
64,192,36964,1,0,0:0:0:0:
320,192,37071,1,0,0:0:0:0:
448,192,37071,1,0,0:0:0:0:
448,192,37178,1,0,0:0:0:0:
192,192,37285,1,0,0:0:0:0:
64,192,37285,1,0,0:0:0:0:
192,192,37392,1,0,0:0:0:0:
320,192,37500,1,0,0:0:0:0:
448,192,37500,1,0,0:0:0:0:
320,192,37607,1,0,0:0:0:0:
64,192,37714,1,0,0:0:0:0:
192,192,37714,1,0,0:0:0:0:
448,192,37821,1,0,0:0:0:0:
64,192,37928,1,0,0:0:0:0:
320,192,37928,1,0,0:0:0:0:
448,192,38035,1,0,0:0:0:0:
192,192,38142,1,0,0:0:0:0:
64,192,38142,1,0,0:0:0:0:
320,192,38250,1,0,0:0:0:0:
448,192,38357,1,0,0:0:0:0:
192,192,38357,1,0,0:0:0:0:
64,192,38464,1,0,0:0:0:0:
320,192,38571,1,0,0:0:0:0:
448,192,38571,1,0,0:0:0:0:
192,192,38678,1,0,0:0:0:0:
320,192,38785,1,0,0:0:0:0:
64,192,38785,1,0,0:0:0:0:
192,192,38892,1,0,0:0:0:0:
64,192,39000,1,0,0:0:0:0:
448,192,39000,1,0,0:0:0:0:
320,192,39107,1,0,0:0:0:0:
192,192,39214,1,0,0:0:0:0:
64,192,39214,1,0,0:0:0:0:
448,192,39321,1,0,0:0:0:0:
320,192,39428,1,0,0:0:0:0:
192,192,39428,1,0,0:0:0:0:
64,192,39535,1,0,0:0:0:0:
320,192,39642,1,0,0:0:0:0:
448,192,39642,1,0,0:0:0:0:
448,192,39750,1,0,0:0:0:0:
192,192,39857,1,0,0:0:0:0:
64,192,39857,1,0,0:0:0:0:
320,192,39964,1,0,0:0:0:0:
448,192,40071,1,0,0:0:0:0:
64,192,40071,1,0,0:0:0:0:
320,192,40178,1,0,0:0:0:0:
192,192,40285,1,0,0:0:0:0:
64,192,40285,1,0,0:0:0:0:
192,192,40392,1,0,0:0:0:0:
448,192,40500,1,0,0:0:0:0:
320,192,40500,1,0,0:0:0:0:
320,192,40607,1,0,0:0:0:0:
192,192,40714,1,0,0:0:0:0:
64,192,40714,1,0,0:0:0:0:
64,192,40821,1,0,0:0:0:0:
320,192,40928,1,0,0:0:0:0:
448,192,40928,1,0,0:0:0:0:
448,192,41035,1,0,0:0:0:0:
192,192,41142,1,0,0:0:0:0:
64,192,41142,1,0,0:0:0:0:
320,192,41250,1,0,0:0:0:0:
64,192,41357,1,0,0:0:0:0:
192,192,41357,1,0,0:0:0:0:
192,192,41464,1,0,0:0:0:0:
320,192,41571,1,0,0:0:0:0:
448,192,41571,1,0,0:0:0:0:
64,192,41678,1,0,0:0:0:0:
192,192,41785,1,0,0:0:0:0:
448,192,41785,1,0,0:0:0:0:
64,192,41892,1,0,0:0:0:0:
320,192,42000,1,0,0:0:0:0:
448,192,42000,1,0,0:0:0:0:
448,192,42107,1,0,0:0:0:0:
192,192,42214,1,0,0:0:0:0:
64,192,42214,1,0,0:0:0:0:
320,192,42321,1,0,0:0:0:0:
192,192,42428,1,0,0:0:0:0:
448,192,42428,1,0,0:0:0:0:
64,192,42535,1,0,0:0:0:0:
320,192,42642,1,0,0:0:0:0:
192,192,42750,1,0,0:0:0:0:
320,192,42857,1,0,0:0:0:0:
448,192,42857,1,0,0:0:0:0:
448,192,42964,1,0,0:0:0:0:
192,192,43071,1,0,0:0:0:0:
192,192,43178,1,0,0:0:0:0:
320,192,43285,1,0,0:0:0:0:
320,192,43392,1,0,0:0:0:0:
64,192,43500,1,0,0:0:0:0:
64,192,43607,1,0,0:0:0:0:
448,192,43714,1,0,0:0:0:0:
448,192,43821,1,0,0:0:0:0:
320,192,43821,1,0,0:0:0:0:
192,192,43928,1,0,0:0:0:0:
64,192,43928,1,0,0:0:0:0:
64,192,44035,1,0,0:0:0:0:
192,192,44035,1,0,0:0:0:0:
320,192,44142,1,0,0:0:0:0:
448,192,44142,1,0,0:0:0:0:
192,192,44571,1,0,0:0:0:0:
448,192,44571,1,0,0:0:0:0:
64,192,44571,1,0,0:0:0:0:
320,192,44678,1,0,0:0:0:0:
320,192,44785,1,0,0:0:0:0:
320,192,44892,1,0,0:0:0:0:
64,192,45000,1,0,0:0:0:0:
192,192,45000,1,0,0:0:0:0:
320,192,45107,1,0,0:0:0:0:
448,192,45214,1,0,0:0:0:0:
448,192,45321,1,0,0:0:0:0:
192,192,45428,1,0,0:0:0:0:
64,192,45428,1,0,0:0:0:0:
448,192,45535,1,0,0:0:0:0:
448,192,45642,1,0,0:0:0:0:
448,192,45750,1,0,0:0:0:0:
320,192,45857,1,0,0:0:0:0:
64,192,45857,1,0,0:0:0:0:
320,192,45964,1,0,0:0:0:0:
192,192,46071,1,0,0:0:0:0:
192,192,46178,1,0,0:0:0:0:
64,192,46285,1,0,0:0:0:0:
320,192,46285,1,0,0:0:0:0:
448,192,46285,1,0,0:0:0:0:
192,192,46392,1,0,0:0:0:0:
192,192,46500,1,0,0:0:0:0:
192,192,46607,1,0,0:0:0:0:
320,192,46714,1,0,0:0:0:0:
448,192,46714,1,0,0:0:0:0:
64,192,46821,1,0,0:0:0:0:
192,192,46928,1,0,0:0:0:0:
192,192,47035,1,0,0:0:0:0:
64,192,47142,1,0,0:0:0:0:
320,192,47142,1,0,0:0:0:0:
448,192,47250,1,0,0:0:0:0:
448,192,47357,1,0,0:0:0:0:
448,192,47464,1,0,0:0:0:0:
192,192,47571,1,0,0:0:0:0:
64,192,47571,1,0,0:0:0:0:
192,192,47678,1,0,0:0:0:0:
320,192,47785,1,0,0:0:0:0:
320,192,47892,1,0,0:0:0:0:
448,192,48000,1,0,0:0:0:0:
64,192,48000,1,0,0:0:0:0:
192,192,48107,1,0,0:0:0:0:
192,192,48214,1,0,0:0:0:0:
192,192,48321,1,0,0:0:0:0:
64,192,48428,1,0,0:0:0:0:
448,192,48428,1,0,0:0:0:0:
192,192,48535,1,0,0:0:0:0:
320,192,48642,1,0,0:0:0:0:
320,192,48750,1,0,0:0:0:0:
192,192,48857,1,0,0:0:0:0:
64,192,48857,1,0,0:0:0:0:
320,192,48964,1,0,0:0:0:0:
320,192,49071,1,0,0:0:0:0:
320,192,49178,1,0,0:0:0:0:
192,192,49285,1,0,0:0:0:0:
448,192,49285,1,0,0:0:0:0:
448,192,49392,1,0,0:0:0:0:
64,192,49500,1,0,0:0:0:0:
64,192,49607,1,0,0:0:0:0:
192,192,49714,1,0,0:0:0:0:
320,192,49714,1,0,0:0:0:0:
448,192,49714,1,0,0:0:0:0:
64,192,49821,1,0,0:0:0:0:
64,192,49928,1,0,0:0:0:0:
64,192,50035,1,0,0:0:0:0:
320,192,50142,1,0,0:0:0:0:
448,192,50142,1,0,0:0:0:0:
64,192,50250,1,0,0:0:0:0:
192,192,50357,1,0,0:0:0:0:
192,192,50464,1,0,0:0:0:0:
64,192,50571,1,0,0:0:0:0:
448,192,50571,1,0,0:0:0:0:
320,192,50678,1,0,0:0:0:0:
320,192,50785,1,0,0:0:0:0:
320,192,50892,1,0,0:0:0:0:
192,192,51000,1,0,0:0:0:0:
64,192,51000,1,0,0:0:0:0:
64,192,51107,1,0,0:0:0:0:
448,192,51214,1,0,0:0:0:0:
448,192,51321,1,0,0:0:0:0:
64,192,51428,1,0,0:0:0:0:
192,192,51428,1,0,0:0:0:0:
448,192,51428,1,0,0:0:0:0:
320,192,51535,1,0,0:0:0:0:
320,192,51642,1,0,0:0:0:0:
320,192,51750,1,0,0:0:0:0:
64,192,51857,1,0,0:0:0:0:
192,192,51857,1,0,0:0:0:0:
320,192,51964,1,0,0:0:0:0:
448,192,52071,1,0,0:0:0:0:
448,192,52178,1,0,0:0:0:0:
192,192,52285,1,0,0:0:0:0:
64,192,52285,1,0,0:0:0:0:
448,192,52392,1,0,0:0:0:0:
448,192,52500,1,0,0:0:0:0:
448,192,52607,1,0,0:0:0:0:
320,192,52714,1,0,0:0:0:0:
64,192,52714,1,0,0:0:0:0:
320,192,52821,1,0,0:0:0:0:
192,192,52928,1,0,0:0:0:0:
192,192,53035,1,0,0:0:0:0:
64,192,53142,1,0,0:0:0:0:
320,192,53142,1,0,0:0:0:0:
448,192,53142,1,0,0:0:0:0:
192,192,53250,1,0,0:0:0:0:
192,192,53357,1,0,0:0:0:0:
192,192,53464,1,0,0:0:0:0:
320,192,53571,1,0,0:0:0:0:
448,192,53571,1,0,0:0:0:0:
64,192,53678,1,0,0:0:0:0:
192,192,53785,1,0,0:0:0:0:
192,192,53892,1,0,0:0:0:0:
64,192,54000,1,0,0:0:0:0:
320,192,54000,1,0,0:0:0:0:
448,192,54107,1,0,0:0:0:0:
448,192,54214,1,0,0:0:0:0:
448,192,54321,1,0,0:0:0:0:
192,192,54428,1,0,0:0:0:0:
64,192,54428,1,0,0:0:0:0:
192,192,54535,1,0,0:0:0:0:
320,192,54642,1,0,0:0:0:0:
320,192,54750,1,0,0:0:0:0:
448,192,54857,1,0,0:0:0:0:
64,192,54857,1,0,0:0:0:0:
192,192,54964,1,0,0:0:0:0:
192,192,55071,1,0,0:0:0:0:
192,192,55178,1,0,0:0:0:0:
64,192,55285,1,0,0:0:0:0:
448,192,55285,1,0,0:0:0:0:
192,192,55392,1,0,0:0:0:0:
320,192,55500,1,0,0:0:0:0:
320,192,55607,1,0,0:0:0:0:
192,192,55714,1,0,0:0:0:0:
64,192,55714,1,0,0:0:0:0:
320,192,55821,1,0,0:0:0:0:
320,192,55928,1,0,0:0:0:0:
320,192,56035,1,0,0:0:0:0:
192,192,56142,1,0,0:0:0:0:
448,192,56142,1,0,0:0:0:0:
448,192,56250,1,0,0:0:0:0:
64,192,56357,1,0,0:0:0:0:
64,192,56464,1,0,0:0:0:0:
320,192,56571,1,0,0:0:0:0:
64,192,56571,128,0,56678:0:0:0:0:
64,192,56785,1,0,0:0:0:0:
64,192,57000,128,0,57107:0:0:0:0:
64,192,57214,128,0,57321:0:0:0:0:
64,192,57428,1,0,0:0:0:0:
320,192,57535,1,0,0:0:0:0:
320,192,57642,1,0,0:0:0:0:
320,192,57750,1,0,0:0:0:0:
192,192,57857,1,0,0:0:0:0:
64,192,57857,1,0,0:0:0:0:
192,192,57964,1,0,0:0:0:0:
448,192,58071,1,0,0:0:0:0:
448,192,58178,1,0,0:0:0:0:
320,192,58285,1,0,0:0:0:0:
64,192,58285,1,0,0:0:0:0:
192,192,58285,1,0,0:0:0:0:
448,192,58392,1,0,0:0:0:0:
192,192,58500,1,0,0:0:0:0:
64,192,58500,1,0,0:0:0:0:
320,192,58607,1,0,0:0:0:0:
64,192,58714,1,0,0:0:0:0:
448,192,58714,1,0,0:0:0:0:
320,192,58821,1,0,0:0:0:0:
192,192,58821,1,0,0:0:0:0:
64,192,58928,1,0,0:0:0:0:
448,192,58928,1,0,0:0:0:0:
320,192,59035,1,0,0:0:0:0:
192,192,59142,1,0,0:0:0:0:
64,192,59142,1,0,0:0:0:0:
448,192,59250,1,0,0:0:0:0:
320,192,59357,1,0,0:0:0:0:
192,192,59357,1,0,0:0:0:0:
64,192,59464,1,0,0:0:0:0:
320,192,59571,1,0,0:0:0:0:
448,192,59571,1,0,0:0:0:0:
64,192,59678,1,0,0:0:0:0:
192,192,59785,1,0,0:0:0:0:
448,192,59785,1,0,0:0:0:0:
320,192,59892,1,0,0:0:0:0:
64,192,60000,1,0,0:0:0:0:
448,192,60000,1,0,0:0:0:0:
192,192,60107,1,0,0:0:0:0:
320,192,60214,1,0,0:0:0:0:
448,192,60214,1,0,0:0:0:0:
64,192,60321,1,0,0:0:0:0:
192,192,60428,1,0,0:0:0:0:
320,192,60428,1,0,0:0:0:0:
448,192,60535,1,0,0:0:0:0:
64,192,60535,1,0,0:0:0:0:
192,192,60642,1,0,0:0:0:0:
320,192,60642,1,0,0:0:0:0:
448,192,60750,1,0,0:0:0:0:
192,192,60857,1,0,0:0:0:0:
64,192,60857,1,0,0:0:0:0:
192,192,60964,1,0,0:0:0:0:
320,192,61071,1,0,0:0:0:0:
448,192,61071,1,0,0:0:0:0:
320,192,61178,1,0,0:0:0:0:
64,192,61285,1,0,0:0:0:0:
192,192,61285,1,0,0:0:0:0:
64,192,61392,1,0,0:0:0:0:
448,192,61500,1,0,0:0:0:0:
320,192,61500,1,0,0:0:0:0:
448,192,61607,1,0,0:0:0:0:
64,192,61714,1,0,0:0:0:0:
192,192,61714,1,0,0:0:0:0:
448,192,61821,1,0,0:0:0:0:
320,192,61928,1,0,0:0:0:0:
192,192,61928,1,0,0:0:0:0:
64,192,62035,1,0,0:0:0:0:
320,192,62142,1,0,0:0:0:0:
448,192,62142,1,0,0:0:0:0:
192,192,62250,1,0,0:0:0:0:
64,192,62250,1,0,0:0:0:0:
448,192,62357,1,0,0:0:0:0:
320,192,62357,1,0,0:0:0:0:
192,192,62464,1,0,0:0:0:0:
64,192,62571,1,0,0:0:0:0:
448,192,62571,1,0,0:0:0:0:
320,192,62678,1,0,0:0:0:0:
192,192,62785,1,0,0:0:0:0:
64,192,62785,1,0,0:0:0:0:
448,192,62892,1,0,0:0:0:0:
320,192,63000,1,0,0:0:0:0:
192,192,63000,1,0,0:0:0:0:
64,192,63107,1,0,0:0:0:0:
320,192,63214,1,0,0:0:0:0:
448,192,63214,1,0,0:0:0:0:
192,192,63321,1,0,0:0:0:0:
64,192,63428,1,0,0:0:0:0:
448,192,63428,1,0,0:0:0:0:
320,192,63535,1,0,0:0:0:0:
192,192,63642,1,0,0:0:0:0:
64,192,63642,1,0,0:0:0:0:
320,192,63750,1,0,0:0:0:0:
448,192,63857,1,0,0:0:0:0:
64,192,63857,1,0,0:0:0:0:
192,192,63964,1,0,0:0:0:0:
320,192,63964,1,0,0:0:0:0:
64,192,64071,1,0,0:0:0:0:
448,192,64071,1,0,0:0:0:0:
320,192,64178,1,0,0:0:0:0:
192,192,64285,1,0,0:0:0:0:
64,192,64285,1,0,0:0:0:0:
64,192,64392,1,0,0:0:0:0:
448,192,64500,1,0,0:0:0:0:
320,192,64500,1,0,0:0:0:0:
448,192,64607,1,0,0:0:0:0:
192,192,64714,1,0,0:0:0:0:
64,192,64714,1,0,0:0:0:0:
192,192,64821,1,0,0:0:0:0:
320,192,64928,1,0,0:0:0:0:
448,192,64928,1,0,0:0:0:0:
320,192,65035,1,0,0:0:0:0:
64,192,65142,1,0,0:0:0:0:
192,192,65142,1,0,0:0:0:0:
448,192,65250,1,0,0:0:0:0:
192,192,65357,1,0,0:0:0:0:
64,192,65357,1,0,0:0:0:0:
320,192,65464,1,0,0:0:0:0:
64,192,65571,1,0,0:0:0:0:
448,192,65571,1,0,0:0:0:0:
192,192,65678,1,0,0:0:0:0:
320,192,65678,1,0,0:0:0:0:
64,192,65785,1,0,0:0:0:0:
448,192,65785,1,0,0:0:0:0:
320,192,65892,1,0,0:0:0:0:
64,192,66000,1,0,0:0:0:0:
192,192,66000,1,0,0:0:0:0:
320,192,66107,1,0,0:0:0:0:
192,192,66214,1,0,0:0:0:0:
448,192,66214,1,0,0:0:0:0:
64,192,66321,1,0,0:0:0:0:
320,192,66428,1,0,0:0:0:0:
448,192,66428,1,0,0:0:0:0:
192,192,66535,1,0,0:0:0:0:
64,192,66642,1,0,0:0:0:0:
320,192,66642,1,0,0:0:0:0:
448,192,66750,1,0,0:0:0:0:
192,192,66857,1,0,0:0:0:0:
64,192,66857,1,0,0:0:0:0:
320,192,66964,1,0,0:0:0:0:
192,192,67071,1,0,0:0:0:0:
448,192,67071,1,0,0:0:0:0:
64,192,67178,1,0,0:0:0:0:
192,192,67285,1,0,0:0:0:0:
320,192,67285,1,0,0:0:0:0:
64,192,67392,1,0,0:0:0:0:
448,192,67392,1,0,0:0:0:0:
320,192,67500,1,0,0:0:0:0:
192,192,67500,1,0,0:0:0:0:
448,192,67607,1,0,0:0:0:0:
192,192,67714,1,0,0:0:0:0:
64,192,67714,1,0,0:0:0:0:
192,192,67821,1,0,0:0:0:0:
448,192,67928,1,0,0:0:0:0:
320,192,67928,1,0,0:0:0:0:
320,192,68035,1,0,0:0:0:0:
192,192,68142,1,0,0:0:0:0:
64,192,68142,1,0,0:0:0:0:
64,192,68250,1,0,0:0:0:0:
320,192,68357,1,0,0:0:0:0:
448,192,68357,1,0,0:0:0:0:
448,192,68464,1,0,0:0:0:0:
64,192,68571,1,0,0:0:0:0:
192,192,68571,1,0,0:0:0:0:
320,192,68678,1,0,0:0:0:0:
192,192,68785,1,0,0:0:0:0:
448,192,68785,1,0,0:0:0:0:
64,192,68892,1,0,0:0:0:0:
320,192,69000,1,0,0:0:0:0:
448,192,69000,1,0,0:0:0:0:
64,192,69107,1,0,0:0:0:0:
192,192,69107,1,0,0:0:0:0:
320,192,69214,1,0,0:0:0:0:
448,192,69214,1,0,0:0:0:0:
192,192,69321,1,0,0:0:0:0:
64,192,69428,1,0,0:0:0:0:
448,192,69428,1,0,0:0:0:0:
320,192,69535,1,0,0:0:0:0:
192,192,69642,1,0,0:0:0:0:
64,192,69642,1,0,0:0:0:0:
320,192,69750,1,0,0:0:0:0:
192,192,69857,1,0,0:0:0:0:
448,192,69857,1,0,0:0:0:0:
64,192,69964,1,0,0:0:0:0:
320,192,70071,1,0,0:0:0:0:
448,192,70071,1,0,0:0:0:0:
192,192,70178,1,0,0:0:0:0:
64,192,70285,1,0,0:0:0:0:
320,192,70285,1,0,0:0:0:0:
64,192,70500,1,0,0:0:0:0:
192,192,70500,1,0,0:0:0:0:
320,192,70607,1,0,0:0:0:0:
448,192,70607,1,0,0:0:0:0:
320,192,70821,1,0,0:0:0:0:
448,192,70821,1,0,0:0:0:0:
192,192,70928,1,0,0:0:0:0:
64,192,70928,1,0,0:0:0:0:
64,192,71142,1,0,0:0:0:0:
192,192,71142,1,0,0:0:0:0:
192,192,71250,1,0,0:0:0:0:
64,192,71250,1,0,0:0:0:0:
320,192,71357,1,0,0:0:0:0:
448,192,71357,1,0,0:0:0:0:
448,192,71464,1,0,0:0:0:0:
320,192,71464,1,0,0:0:0:0:
64,192,71571,1,0,0:0:0:0:
448,192,71571,1,0,0:0:0:0:
320,192,71571,1,0,0:0:0:0:
192,192,71785,128,0,72000:0:0:0:0:
448,192,72000,1,0,0:0:0:0:
320,192,72000,1,0,0:0:0:0:
64,192,72107,1,0,0:0:0:0:
448,192,72214,1,0,0:0:0:0:
192,192,72214,1,0,0:0:0:0:
64,192,72321,1,0,0:0:0:0:
448,192,72428,1,0,0:0:0:0:
320,192,72428,1,0,0:0:0:0:
192,192,72535,1,0,0:0:0:0:
320,192,72642,1,0,0:0:0:0:
64,192,72642,1,0,0:0:0:0:
448,192,72750,1,0,0:0:0:0:
64,192,72857,1,0,0:0:0:0:
192,192,72857,1,0,0:0:0:0:
192,192,72964,1,0,0:0:0:0:
448,192,73071,1,0,0:0:0:0:
320,192,73071,1,0,0:0:0:0:
192,192,73178,1,0,0:0:0:0:
448,192,73285,1,0,0:0:0:0:
64,192,73285,1,0,0:0:0:0:
320,192,73392,1,0,0:0:0:0:
64,192,73500,1,0,0:0:0:0:
192,192,73500,1,0,0:0:0:0:
320,192,73607,1,0,0:0:0:0:
448,192,73714,1,0,0:0:0:0:
192,192,73714,1,0,0:0:0:0:
64,192,73821,1,0,0:0:0:0:
448,192,73928,1,0,0:0:0:0:
320,192,73928,1,0,0:0:0:0:
64,192,74035,1,0,0:0:0:0:
448,192,74142,1,0,0:0:0:0:
192,192,74142,1,0,0:0:0:0:
320,192,74250,1,0,0:0:0:0:
192,192,74357,1,0,0:0:0:0:
64,192,74357,1,0,0:0:0:0:
320,192,74464,1,0,0:0:0:0:
192,192,74571,1,0,0:0:0:0:
64,192,74571,1,0,0:0:0:0:
192,192,74678,1,0,0:0:0:0:
320,192,74785,1,0,0:0:0:0:
448,192,74785,1,0,0:0:0:0:
320,192,74892,1,0,0:0:0:0:
64,192,75000,1,0,0:0:0:0:
192,192,75000,1,0,0:0:0:0:
64,192,75107,1,0,0:0:0:0:
448,192,75214,1,0,0:0:0:0:
320,192,75214,1,0,0:0:0:0:
448,192,75321,1,0,0:0:0:0:
192,192,75428,1,0,0:0:0:0:
64,192,75428,1,0,0:0:0:0:
320,192,75535,1,0,0:0:0:0:
448,192,75642,1,0,0:0:0:0:
64,192,75642,1,0,0:0:0:0:
192,192,75750,1,0,0:0:0:0:
448,192,75857,1,0,0:0:0:0:
320,192,75857,1,0,0:0:0:0:
320,192,75964,1,0,0:0:0:0:
64,192,76071,1,0,0:0:0:0:
192,192,76071,1,0,0:0:0:0:
448,192,76178,1,0,0:0:0:0:
64,192,76285,1,0,0:0:0:0:
320,192,76285,1,0,0:0:0:0:
192,192,76392,1,0,0:0:0:0:
448,192,76500,1,0,0:0:0:0:
320,192,76500,1,0,0:0:0:0:
448,192,76607,1,0,0:0:0:0:
64,192,76714,1,0,0:0:0:0:
192,192,76714,1,0,0:0:0:0:
320,192,76821,1,0,0:0:0:0:
192,192,76928,1,0,0:0:0:0:
448,192,76928,1,0,0:0:0:0:
192,192,77035,1,0,0:0:0:0:
448,192,77142,1,0,0:0:0:0:
64,192,77142,1,0,0:0:0:0:
448,192,77250,1,0,0:0:0:0:
64,192,77357,1,0,0:0:0:0:
192,192,77357,1,0,0:0:0:0:
64,192,77464,1,0,0:0:0:0:
448,192,77571,1,0,0:0:0:0:
320,192,77571,1,0,0:0:0:0:
192,192,77678,1,0,0:0:0:0:
448,192,77785,1,0,0:0:0:0:
64,192,77785,1,0,0:0:0:0:
320,192,77892,1,0,0:0:0:0:
64,192,78000,1,0,0:0:0:0:
192,192,78000,1,0,0:0:0:0:
64,192,78107,1,0,0:0:0:0:
448,192,78214,1,0,0:0:0:0:
320,192,78214,1,0,0:0:0:0:
448,192,78321,1,0,0:0:0:0:
64,192,78428,1,0,0:0:0:0:
192,192,78428,1,0,0:0:0:0:
192,192,78535,1,0,0:0:0:0:
448,192,78642,1,0,0:0:0:0:
320,192,78642,1,0,0:0:0:0:
320,192,78750,1,0,0:0:0:0:
192,192,78857,1,0,0:0:0:0:
64,192,78857,1,0,0:0:0:0:
448,192,78964,1,0,0:0:0:0:
320,192,79071,1,0,0:0:0:0:
64,192,79071,1,0,0:0:0:0:
448,192,79178,1,0,0:0:0:0:
64,192,79285,1,0,0:0:0:0:
192,192,79285,1,0,0:0:0:0:
320,192,79392,1,0,0:0:0:0:
192,192,79500,1,0,0:0:0:0:
448,192,79500,1,0,0:0:0:0:
64,192,79607,1,0,0:0:0:0:
448,192,79714,1,0,0:0:0:0:
320,192,79714,1,0,0:0:0:0:
192,192,79821,1,0,0:0:0:0:
64,192,79928,1,0,0:0:0:0:
320,192,79928,1,0,0:0:0:0:
192,192,80035,1,0,0:0:0:0:
448,192,80142,1,0,0:0:0:0:
64,192,80142,1,0,0:0:0:0:
320,192,80250,1,0,0:0:0:0:
64,192,80357,1,0,0:0:0:0:
192,192,80357,1,0,0:0:0:0:
448,192,80464,1,0,0:0:0:0:
192,192,80571,1,0,0:0:0:0:
320,192,80571,1,0,0:0:0:0:
64,192,80678,1,0,0:0:0:0:
448,192,80785,1,0,0:0:0:0:
320,192,80785,1,0,0:0:0:0:
448,192,80892,1,0,0:0:0:0:
64,192,81000,1,0,0:0:0:0:
192,192,81000,1,0,0:0:0:0:
320,192,81107,1,0,0:0:0:0:
64,192,81214,1,0,0:0:0:0:
448,192,81214,1,0,0:0:0:0:
320,192,81321,1,0,0:0:0:0:
64,192,81428,1,0,0:0:0:0:
192,192,81428,1,0,0:0:0:0:
192,192,81535,1,0,0:0:0:0:
320,192,81642,1,0,0:0:0:0:
448,192,81642,1,0,0:0:0:0:
320,192,81750,1,0,0:0:0:0:
64,192,81857,1,0,0:0:0:0:
192,192,81857,1,0,0:0:0:0:
64,192,81964,1,0,0:0:0:0:
448,192,82071,1,0,0:0:0:0:
320,192,82071,1,0,0:0:0:0:
448,192,82178,1,0,0:0:0:0:
64,192,82285,1,0,0:0:0:0:
192,192,82285,1,0,0:0:0:0:
320,192,82392,1,0,0:0:0:0:
192,192,82500,1,0,0:0:0:0:
64,192,82500,1,0,0:0:0:0:
192,192,82607,1,0,0:0:0:0:
448,192,82714,1,0,0:0:0:0:
320,192,82714,1,0,0:0:0:0:
64,192,82821,1,0,0:0:0:0:
448,192,82928,1,0,0:0:0:0:
192,192,82928,1,0,0:0:0:0:
64,192,83035,1,0,0:0:0:0:
448,192,83142,1,0,0:0:0:0:
320,192,83142,1,0,0:0:0:0:
448,192,83250,1,0,0:0:0:0:
64,192,83357,1,0,0:0:0:0:
192,192,83357,1,0,0:0:0:0:
320,192,83464,1,0,0:0:0:0:
448,192,83571,1,0,0:0:0:0:
192,192,83571,1,0,0:0:0:0:
64,192,83678,1,0,0:0:0:0:
320,192,83785,1,0,0:0:0:0:
192,192,83892,1,0,0:0:0:0:
320,192,84000,1,0,0:0:0:0:
448,192,84000,1,0,0:0:0:0:
448,192,84107,1,0,0:0:0:0:
192,192,84214,1,0,0:0:0:0:
192,192,84321,1,0,0:0:0:0:
320,192,84428,1,0,0:0:0:0:
320,192,84535,1,0,0:0:0:0:
64,192,84642,1,0,0:0:0:0:
64,192,84750,1,0,0:0:0:0:
448,192,84857,1,0,0:0:0:0:
448,192,84964,1,0,0:0:0:0:
320,192,84964,1,0,0:0:0:0:
192,192,85071,1,0,0:0:0:0:
64,192,85071,1,0,0:0:0:0:
64,192,85178,1,0,0:0:0:0:
192,192,85178,1,0,0:0:0:0:
320,192,85285,1,0,0:0:0:0:
448,192,85285,1,0,0:0:0:0:
192,192,85714,1,0,0:0:0:0:
448,192,85714,1,0,0:0:0:0:
64,192,85714,1,0,0:0:0:0:
320,192,85821,1,0,0:0:0:0:
320,192,85928,1,0,0:0:0:0:
320,192,86035,1,0,0:0:0:0:
64,192,86142,1,0,0:0:0:0:
192,192,86142,1,0,0:0:0:0:
320,192,86250,1,0,0:0:0:0:
448,192,86357,1,0,0:0:0:0:
448,192,86464,1,0,0:0:0:0:
192,192,86571,1,0,0:0:0:0:
64,192,86571,1,0,0:0:0:0:
448,192,86678,1,0,0:0:0:0:
448,192,86785,1,0,0:0:0:0:
448,192,86892,1,0,0:0:0:0:
320,192,87000,1,0,0:0:0:0:
64,192,87000,1,0,0:0:0:0:
320,192,87107,1,0,0:0:0:0:
192,192,87214,1,0,0:0:0:0:
192,192,87321,1,0,0:0:0:0:
64,192,87428,1,0,0:0:0:0:
320,192,87428,1,0,0:0:0:0:
448,192,87428,1,0,0:0:0:0:
192,192,87535,1,0,0:0:0:0:
192,192,87642,1,0,0:0:0:0:
192,192,87750,1,0,0:0:0:0:
320,192,87857,1,0,0:0:0:0:
448,192,87857,1,0,0:0:0:0:
64,192,87964,1,0,0:0:0:0:
192,192,88071,1,0,0:0:0:0:
192,192,88178,1,0,0:0:0:0:
64,192,88285,1,0,0:0:0:0:
320,192,88285,1,0,0:0:0:0:
448,192,88392,1,0,0:0:0:0:
448,192,88500,1,0,0:0:0:0:
448,192,88607,1,0,0:0:0:0:
192,192,88714,1,0,0:0:0:0:
64,192,88714,1,0,0:0:0:0:
192,192,88821,1,0,0:0:0:0:
320,192,88928,1,0,0:0:0:0:
320,192,89035,1,0,0:0:0:0:
448,192,89142,1,0,0:0:0:0:
64,192,89142,1,0,0:0:0:0:
192,192,89250,1,0,0:0:0:0:
192,192,89357,1,0,0:0:0:0:
192,192,89464,1,0,0:0:0:0:
64,192,89571,1,0,0:0:0:0:
448,192,89571,1,0,0:0:0:0:
192,192,89678,1,0,0:0:0:0:
320,192,89785,1,0,0:0:0:0:
320,192,89892,1,0,0:0:0:0:
192,192,90000,1,0,0:0:0:0:
64,192,90000,1,0,0:0:0:0:
320,192,90107,1,0,0:0:0:0:
320,192,90214,1,0,0:0:0:0:
320,192,90321,1,0,0:0:0:0:
192,192,90428,1,0,0:0:0:0:
448,192,90428,1,0,0:0:0:0:
448,192,90535,1,0,0:0:0:0:
64,192,90642,1,0,0:0:0:0:
64,192,90750,1,0,0:0:0:0:
192,192,90857,1,0,0:0:0:0:
320,192,90857,1,0,0:0:0:0:
448,192,90857,1,0,0:0:0:0:
64,192,90964,1,0,0:0:0:0:
64,192,91071,1,0,0:0:0:0:
64,192,91178,1,0,0:0:0:0:
320,192,91285,1,0,0:0:0:0:
448,192,91285,1,0,0:0:0:0:
64,192,91392,1,0,0:0:0:0:
192,192,91500,1,0,0:0:0:0:
192,192,91607,1,0,0:0:0:0:
64,192,91714,1,0,0:0:0:0:
448,192,91714,1,0,0:0:0:0:
320,192,91821,1,0,0:0:0:0:
320,192,91928,1,0,0:0:0:0:
320,192,92035,1,0,0:0:0:0:
192,192,92142,1,0,0:0:0:0:
64,192,92142,1,0,0:0:0:0:
64,192,92250,1,0,0:0:0:0:
448,192,92357,1,0,0:0:0:0:
448,192,92464,1,0,0:0:0:0:
64,192,92571,1,0,0:0:0:0:
192,192,92571,1,0,0:0:0:0:
448,192,92571,1,0,0:0:0:0:
320,192,92678,1,0,0:0:0:0:
320,192,92785,1,0,0:0:0:0:
320,192,92892,1,0,0:0:0:0:
64,192,93000,1,0,0:0:0:0:
192,192,93000,1,0,0:0:0:0:
320,192,93107,1,0,0:0:0:0:
448,192,93214,1,0,0:0:0:0:
448,192,93321,1,0,0:0:0:0:
192,192,93428,1,0,0:0:0:0:
64,192,93428,1,0,0:0:0:0:
448,192,93535,1,0,0:0:0:0:
448,192,93642,1,0,0:0:0:0:
448,192,93750,1,0,0:0:0:0:
320,192,93857,1,0,0:0:0:0:
64,192,93857,1,0,0:0:0:0:
320,192,93964,1,0,0:0:0:0:
192,192,94071,1,0,0:0:0:0:
192,192,94178,1,0,0:0:0:0:
64,192,94285,1,0,0:0:0:0:
320,192,94285,1,0,0:0:0:0:
448,192,94285,1,0,0:0:0:0:
192,192,94392,1,0,0:0:0:0:
192,192,94500,1,0,0:0:0:0:
192,192,94607,1,0,0:0:0:0:
320,192,94714,1,0,0:0:0:0:
448,192,94714,1,0,0:0:0:0:
64,192,94821,1,0,0:0:0:0:
192,192,94928,1,0,0:0:0:0:
192,192,95035,1,0,0:0:0:0:
64,192,95142,1,0,0:0:0:0:
320,192,95142,1,0,0:0:0:0:
448,192,95250,1,0,0:0:0:0:
448,192,95357,1,0,0:0:0:0:
448,192,95464,1,0,0:0:0:0:
192,192,95571,1,0,0:0:0:0:
64,192,95571,1,0,0:0:0:0:
192,192,95678,1,0,0:0:0:0:
320,192,95785,1,0,0:0:0:0:
320,192,95892,1,0,0:0:0:0:
448,192,96000,1,0,0:0:0:0:
64,192,96000,1,0,0:0:0:0:
192,192,96107,1,0,0:0:0:0:
192,192,96214,1,0,0:0:0:0:
192,192,96321,1,0,0:0:0:0:
64,192,96428,1,0,0:0:0:0:
448,192,96428,1,0,0:0:0:0:
192,192,96535,1,0,0:0:0:0:
320,192,96642,1,0,0:0:0:0:
320,192,96750,1,0,0:0:0:0:
192,192,96857,1,0,0:0:0:0:
64,192,96857,1,0,0:0:0:0:
320,192,96964,1,0,0:0:0:0:
320,192,97071,1,0,0:0:0:0:
320,192,97178,1,0,0:0:0:0:
192,192,97285,1,0,0:0:0:0:
448,192,97285,1,0,0:0:0:0:
448,192,97392,1,0,0:0:0:0:
64,192,97500,1,0,0:0:0:0:
64,192,97607,1,0,0:0:0:0:
192,192,97714,1,0,0:0:0:0:
64,192,97714,128,0,97821:0:0:0:0:
64,192,97928,1,0,0:0:0:0:
64,192,98142,128,0,98250:0:0:0:0:
64,192,98357,128,0,98464:0:0:0:0:
64,192,98571,1,0,0:0:0:0:
64,192,98678,1,0,0:0:0:0:
320,192,98785,1,0,0:0:0:0:
320,192,98892,1,0,0:0:0:0:
192,192,99000,128,0,99380:0:0:0:0:
448,192,99047,128,0,99428:0:0:0:0:
64,192,99428,1,0,0:0:0:0:
192,192,99428,1,0,0:0:0:0:
320,192,99535,1,0,0:0:0:0:
320,192,99642,1,0,0:0:0:0:
320,192,99750,1,0,0:0:0:0:
192,192,99857,1,0,0:0:0:0:
64,192,99857,1,0,0:0:0:0:
320,192,99964,1,0,0:0:0:0:
448,192,100071,1,0,0:0:0:0:
448,192,100178,1,0,0:0:0:0:
64,192,100285,1,0,0:0:0:0:
320,192,100285,1,0,0:0:0:0:
192,192,100392,1,0,0:0:0:0:
192,192,100500,1,0,0:0:0:0:
192,192,100607,1,0,0:0:0:0:
448,192,100714,1,0,0:0:0:0:
320,192,100714,1,0,0:0:0:0:
448,192,100821,1,0,0:0:0:0:
192,192,100928,1,0,0:0:0:0:
192,192,101035,1,0,0:0:0:0:
448,192,101142,1,0,0:0:0:0:
320,192,101142,1,0,0:0:0:0:
64,192,101142,1,0,0:0:0:0:
192,192,101250,1,0,0:0:0:0:
192,192,101357,1,0,0:0:0:0:
192,192,101464,1,0,0:0:0:0:
448,192,101571,1,0,0:0:0:0:
320,192,101571,1,0,0:0:0:0:
64,192,101678,1,0,0:0:0:0:
192,192,101785,1,0,0:0:0:0:
192,192,101892,1,0,0:0:0:0:
320,192,102000,1,0,0:0:0:0:
64,192,102000,1,0,0:0:0:0:
448,192,102107,1,0,0:0:0:0:
448,192,102214,1,0,0:0:0:0:
448,192,102321,1,0,0:0:0:0:
64,192,102428,1,0,0:0:0:0:
192,192,102428,1,0,0:0:0:0:
192,192,102535,1,0,0:0:0:0:
320,192,102642,1,0,0:0:0:0:
320,192,102750,1,0,0:0:0:0:
64,192,102857,1,0,0:0:0:0:
192,192,102857,1,0,0:0:0:0:
448,192,102964,1,0,0:0:0:0:
448,192,103071,1,0,0:0:0:0:
448,192,103178,1,0,0:0:0:0:
192,192,103285,1,0,0:0:0:0:
64,192,103285,1,0,0:0:0:0:
320,192,103392,1,0,0:0:0:0:
448,192,103500,1,0,0:0:0:0:
448,192,103607,1,0,0:0:0:0:
64,192,103714,1,0,0:0:0:0:
320,192,103714,1,0,0:0:0:0:
192,192,103821,1,0,0:0:0:0:
192,192,103928,1,0,0:0:0:0:
192,192,104035,1,0,0:0:0:0:
448,192,104142,1,0,0:0:0:0:
320,192,104142,1,0,0:0:0:0:
448,192,104250,1,0,0:0:0:0:
64,192,104357,1,0,0:0:0:0:
64,192,104464,1,0,0:0:0:0:
448,192,104571,1,0,0:0:0:0:
320,192,104571,1,0,0:0:0:0:
192,192,104571,1,0,0:0:0:0:
64,192,104678,1,0,0:0:0:0:
64,192,104785,1,0,0:0:0:0:
64,192,104892,1,0,0:0:0:0:
448,192,105000,1,0,0:0:0:0:
320,192,105000,1,0,0:0:0:0:
64,192,105107,1,0,0:0:0:0:
192,192,105214,1,0,0:0:0:0:
192,192,105321,1,0,0:0:0:0:
448,192,105428,1,0,0:0:0:0:
64,192,105428,1,0,0:0:0:0:
320,192,105535,1,0,0:0:0:0:
320,192,105642,1,0,0:0:0:0:
320,192,105750,1,0,0:0:0:0:
64,192,105857,1,0,0:0:0:0:
192,192,105857,1,0,0:0:0:0:
192,192,105964,1,0,0:0:0:0:
448,192,106071,1,0,0:0:0:0:
448,192,106178,1,0,0:0:0:0:
64,192,106285,1,0,0:0:0:0:
192,192,106285,1,0,0:0:0:0:
320,192,106392,1,0,0:0:0:0:
320,192,106500,1,0,0:0:0:0:
320,192,106607,1,0,0:0:0:0:
192,192,106714,1,0,0:0:0:0:
64,192,106714,1,0,0:0:0:0:
320,192,106821,1,0,0:0:0:0:
448,192,106928,1,0,0:0:0:0:
448,192,107035,1,0,0:0:0:0:
64,192,107142,1,0,0:0:0:0:
320,192,107142,1,0,0:0:0:0:
192,192,107250,1,0,0:0:0:0:
192,192,107357,1,0,0:0:0:0:
192,192,107464,1,0,0:0:0:0:
448,192,107571,1,0,0:0:0:0:
320,192,107571,1,0,0:0:0:0:
448,192,107678,1,0,0:0:0:0:
192,192,107785,1,0,0:0:0:0:
192,192,107892,1,0,0:0:0:0:
448,192,108000,1,0,0:0:0:0:
320,192,108000,1,0,0:0:0:0:
64,192,108000,1,0,0:0:0:0:
192,192,108107,1,0,0:0:0:0:
192,192,108214,1,0,0:0:0:0:
192,192,108321,1,0,0:0:0:0:
448,192,108428,1,0,0:0:0:0:
320,192,108428,1,0,0:0:0:0:
64,192,108535,1,0,0:0:0:0:
192,192,108642,1,0,0:0:0:0:
192,192,108750,1,0,0:0:0:0:
320,192,108857,1,0,0:0:0:0:
64,192,108857,1,0,0:0:0:0:
448,192,108964,1,0,0:0:0:0:
448,192,109071,1,0,0:0:0:0:
448,192,109178,1,0,0:0:0:0:
64,192,109285,1,0,0:0:0:0:
192,192,109285,1,0,0:0:0:0:
192,192,109392,1,0,0:0:0:0:
320,192,109500,1,0,0:0:0:0:
320,192,109607,1,0,0:0:0:0:
64,192,109714,1,0,0:0:0:0:
192,192,109714,1,0,0:0:0:0:
448,192,109821,1,0,0:0:0:0:
448,192,109928,1,0,0:0:0:0:
448,192,110035,1,0,0:0:0:0:
192,192,110142,1,0,0:0:0:0:
64,192,110142,1,0,0:0:0:0:
320,192,110250,1,0,0:0:0:0:
448,192,110357,1,0,0:0:0:0:
448,192,110464,1,0,0:0:0:0:
64,192,110571,1,0,0:0:0:0:
320,192,110571,1,0,0:0:0:0:
192,192,110678,1,0,0:0:0:0:
192,192,110785,1,0,0:0:0:0:
192,192,110892,5,0,0:0:0:0:
448,192,111000,1,0,0:0:0:0:
320,192,111000,1,0,0:0:0:0:
448,192,111107,1,0,0:0:0:0:
192,192,111214,1,0,0:0:0:0:
192,192,111321,1,0,0:0:0:0:
192,192,111428,1,0,0:0:0:0:
64,192,111428,128,0,111535:0:0:0:0:
64,192,111642,1,0,0:0:0:0:
64,192,111857,128,0,111964:0:0:0:0:
64,192,112071,128,0,112178:0:0:0:0:
64,192,112285,1,0,0:0:0:0:
320,192,112392,1,0,0:0:0:0:
320,192,112500,1,0,0:0:0:0:
320,192,112607,1,0,0:0:0:0:
192,192,112714,1,0,0:0:0:0:
64,192,112714,1,0,0:0:0:0:
64,192,112821,1,0,0:0:0:0:
192,192,112821,1,0,0:0:0:0:
320,192,112928,1,0,0:0:0:0:
448,192,112928,1,0,0:0:0:0:
448,192,113035,1,0,0:0:0:0:
320,192,113035,1,0,0:0:0:0:
192,192,113142,1,0,0:0:0:0:
64,192,113142,1,0,0:0:0:0:
