osu file format v14

[General]
AudioFilename: audio.mp3
AudioLeadIn: 0
PreviewTime: 46927
Countdown: 0
SampleSet: Soft
StackLeniency: 0.7
Mode: 0
LetterboxInBreaks: 0
EpilepsyWarning: 1
WidescreenStoryboard: 1

[Editor]
DistanceSpacing: 1.1
BeatDivisor: 8
GridSize: 32
TimelineZoom: 0.6999996

[Metadata]
Title:MURDER IN MY MIND
TitleUnicode:MURDER IN MY MIND
Artist:KORDHELL
ArtistUnicode:KORDHELL
Creator:SMOKELIND
Version:NORMAL
Source:
Tags:Drift Phonk English Electronic Instrumental Hip Hop Hip-Hop Hartnett Media Pepekcz Kujinn Reform Nymphe Kiyoshi Guarden Yooh Reywateil
BeatmapID:4039115
BeatmapSetID:1949684

[Difficulty]
HPDrainRate:4
CircleSize:3
OverallDifficulty:4
ApproachRate:5
SliderMultiplier:1.47
SliderTickRate:1

[Events]
//Background and Video events
0,0,"BG.jpg",0,0
Video,0,"vid.mp4"
//Break Periods
//Storyboard Layer 0 (Background)
//Storyboard Layer 1 (Fail)
//Storyboard Layer 2 (Pass)
//Storyboard Layer 3 (Foreground)
//Storyboard Layer 4 (Overlay)
//Storyboard Sound Samples

[TimingPoints]
990,500,4,2,77,47,1,0
16990,-93.4579439252336,4,2,77,87,0,0
32990,-103.092783505155,4,2,77,87,0,0
48990,-93.4579439252336,4,2,77,87,0,0
80990,-103.092783505155,4,2,77,87,0,0
96990,-93.4579439252336,4,2,77,87,0,0

[Colours]
Combo1 : 98,0,164
Combo2 : 81,81,81

[HitObjects]
0,69,16990,6,0,L|83:49,1,78.6449975999451,6|2,1:3|3:0,0:0:0:0:
160,29,17490,1,10,1:0:0:0:
223,88,17740,1,2,3:0:0:0:
174,159,17990,2,0,L|160:258,1,78.6449975999451,2|2,1:0|3:0,0:0:0:0:
148,322,18490,1,10,1:0:0:0:
317,356,18990,6,0,L|408:338,1,78.6449975999451,2|2,1:0|3:0,0:0:0:0:
456,280,19490,1,10,1:0:0:0:
475,195,19740,1,2,3:0:0:0:
499,111,19990,2,0,L|408:93,1,78.6449975999451,2|2,1:0|3:0,0:0:0:0:
376,21,20490,2,0,L|298:36,1,78.6449975999451,10|2,1:0|3:0,0:0:0:0:
266,116,20990,1,2,1:0:0:0:
117,27,21490,5,10,1:0:0:0:
153,105,21740,1,2,3:0:0:0:
103,176,21990,2,0,P|65:174|12:169,1,78.6449975999451,2|2,1:0|3:0,0:0:0:0:
45,86,22490,1,10,1:0:0:0:
189,180,22990,6,0,P|197:221|202:270,1,78.6449975999451,2|2,1:0|3:0,0:0:0:0:
159,333,23490,1,10,1:0:0:0:
243,352,23740,1,2,3:0:0:0:
312,298,23990,2,0,P|316:258|324:220,1,78.6449975999451,2|2,1:0|3:0,0:0:0:0:
267,154,24490,2,0,P|271:114|279:76,1,78.6449975999451,10|2,1:0|3:0,0:0:0:0:
203,34,24990,1,2,1:0:0:0:
105,177,25490,5,10,1:0:0:0:
155,247,25740,1,2,3:0:0:0:
241,250,25990,2,0,P|282:242|339:230,1,78.6449975999451,2|2,1:0|3:0,0:0:0:0:
351,154,26490,1,10,1:0:0:0:
416,314,26990,6,0,P|426:272|436:231,1,78.6449975999451,2|2,1:0|3:0,0:0:0:0:
456,154,27490,1,10,1:0:0:0:
480,71,27740,1,2,3:0:0:0:
416,12,27990,2,0,P|376:18|317:26,1,78.6449975999451,2|2,1:0|3:0,0:0:0:0:
281,88,28490,2,0,P|242:94|203:99,1,78.6449975999451,10|2,1:0|3:0,0:0:0:0:
142,38,28990,1,2,1:0:0:0:
21,162,29490,5,10,1:0:0:0:
86,218,29740,1,2,3:0:0:0:
28,282,29990,2,0,P|22:324|11:383,1,78.6449975999451,2|2,1:0|3:0,0:0:0:0:
101,373,30490,2,0,P|134:346|183:312,1,78.6449975999451,10|0,1:0|3:0,0:0:0:0:
172,237,30990,5,10,0:1:0:0:
322,322,31490,1,8,0:1:0:0:
403,169,31990,1,10,0:1:0:0:
253,84,32490,1,10,0:1:0:0:
408,61,32990,6,0,P|442:43|452:4,2,71.2950016862069,2|0|8,1:0|3:0|1:0,0:0:0:0:
336,28,33740,1,0,3:0:0:0:
336,28,33990,2,0,P|297:9|242:26,1,71.2950016862069,2|0,1:0|3:0,0:0:0:0:
208,60,34490,1,8,1:0:0:0:
80,151,34990,6,0,P|41:147|18:114,2,71.2950016862069,2|0|8,1:0|3:0|1:0,0:0:0:0:
127,88,35740,1,0,3:0:0:0:
127,88,35990,2,0,P|166:109|169:152,1,71.2950016862069,2|0,1:0|3:0,0:0:0:0:
148,207,36490,1,8,1:0:0:0:
93,353,36990,6,0,P|57:339|4:330,2,71.2950016862069,2|0|8,1:0|3:0|1:0,0:0:0:0:
167,328,37740,1,0,3:0:0:0:
167,328,37990,2,0,P|203:342|256:351,1,71.2950016862069,2|0,1:0|3:0,0:0:0:0:
301,308,38490,1,8,1:0:0:0:
386,176,38990,6,0,P|392:214|417:256,2,71.2950016862069,2|0|8,1:0|3:0|1:0,0:0:0:0:
385,101,39740,1,0,3:0:0:0:
385,101,39990,2,0,P|340:108|301:124,1,71.2950016862069,2|0,1:0|3:0,0:0:0:0:
288,190,40490,1,8,1:0:0:0:
154,107,40990,6,0,P|162:70|170:15,2,71.2950016862069,2|0|8,1:0|3:0|1:0,0:0:0:0:
98,160,41740,1,0,3:0:0:0:
98,160,41990,2,0,P|89:196|82:252,1,71.2950016862069,2|0,1:0|3:0,0:0:0:0:
132,291,42490,1,8,1:0:0:0:
265,374,42990,6,0,P|285:345|333:347,2,71.2950016862069,2|0|8,1:0|3:0|1:0,0:0:0:0:
216,303,43740,1,0,3:0:0:0:
216,303,43990,2,0,P|222:262|230:210,1,71.2950016862069,2|0,1:0|3:0,0:0:0:0:
243,155,44490,1,8,1:0:0:0:
397,130,44990,6,0,P|424:100|475:103,2,71.2950016862069,2|0|8,1:0|3:0|1:0,0:0:0:0:
378,206,45740,1,0,3:0:0:0:
378,206,45990,2,0,P|399:233|434:240,1,71.2950016862069,2|0,1:0|3:0,0:0:0:0:
492,187,46490,1,8,1:0:0:0:
87,10,48990,6,0,P|68:41|87:85,1,78.6449975999451,6|0,1:3|3:0,0:0:0:0:
148,133,49490,2,0,P|166:164|148:208,1,78.6449975999451,8|2,1:0|3:0,0:0:0:0:
82,249,49990,2,0,P|89:332|154:343,1,157.28999519989,2|10,1:0|1:0,0:0:0:0:
229,308,50740,1,0,3:0:0:0:
306,268,50990,6,0,P|391:285|473:310,1,157.28999519989,2|0,1:0|1:0,0:0:0:0:
503,230,51740,1,2,3:0:0:0:
464,152,51990,2,0,P|422:144|370:122,1,78.6449975999451,2|0,1:0|3:0,0:0:0:0:
345,56,52490,2,0,P|308:42|269:35,1,78.6449975999451,10|0,1:0|3:0,0:0:0:0:
209,98,52990,6,0,P|218:138|223:184,2,78.6449975999451,2|2|2,1:0|3:0|1:0,0:0:0:0:
142,41,53740,1,2,3:0:0:0:
59,16,53990,1,2,1:0:0:0:
6,180,54490,1,10,1:0:0:0:
47,347,54990,6,0,P|86:342|106:301,1,78.6449975999451,2|2,1:0|3:0,0:0:0:0:
120,225,55490,2,0,P|140:193|178:188,1,78.6449975999451,2|2,1:0|3:0,0:0:0:0:
247,240,55990,1,2,1:0:0:0:
235,325,56240,1,2,3:0:0:0:
315,357,56490,1,10,1:0:0:0:
465,271,56990,6,0,P|428:252|431:193,1,78.6449975999451,2|0,1:1|3:0,0:0:0:0:
458,141,57490,2,0,P|439:104|380:107,1,78.6449975999451,0|2,1:0|3:0,0:0:0:0:
336,148,57990,2,0,P|264:180|171:136,1,157.28999519989,2|10,1:0|1:0,0:0:0:0:
163,75,58740,1,0,3:0:0:0:
101,14,58990,6,0,P|47:88|57:158,1,157.28999519989,2|0,1:0|1:0,0:0:0:0:
119,205,59740,1,2,3:0:0:0:
193,249,59990,2,0,P|202:290|220:340,1,78.6449975999451,2|0,1:0|3:0,0:0:0:0:
296,301,60490,2,0,P|287:260|269:210,1,78.6449975999451,10|0,1:0|3:0,0:0:0:0:
216,161,60990,6,0,P|226:120|272:90,2,78.6449975999451,2|2|2,1:0|3:0|1:0,0:0:0:0:
275,225,61740,1,2,3:0:0:0:
356,196,61990,1,2,1:0:0:0:
441,45,62490,1,10,1:0:0:0:
36,364,64990,6,0,L|117:382,1,78.6449975999451,6|2,1:3|3:0,0:0:0:0:
174,319,65490,1,10,1:0:0:0:
190,234,65740,1,2,3:0:0:0:
144,160,65990,2,0,L|67:142,1,78.6449975999451,2|2,1:0|3:0,0:0:0:0:
28,65,66490,1,10,1:0:0:0:
197,29,66990,6,0,L|278:47,1,78.6449975999451,2|2,1:0|3:0,0:0:0:0:
355,17,67490,1,10,1:0:0:0:
403,88,67740,1,2,3:0:0:0:
439,166,67990,2,0,L|422:254,1,78.6449975999451,2|2,1:0|3:0,0:0:0:0:
338,258,68490,2,0,L|352:180,1,78.6449975999451,10|2,1:0|3:0,0:0:0:0:
281,131,68990,1,2,1:0:0:0:
169,263,69490,5,10,1:0:0:0:
201,343,69740,1,2,3:0:0:0:
285,363,69990,2,0,P|320:350|367:345,1,78.6449975999451,2|2,1:0|3:0,0:0:0:0:
443,370,70490,1,10,1:0:0:0:
501,207,70990,6,0,P|501:166|471:135,1,78.6449975999451,2|2,1:0|3:0,0:0:0:0:
393,159,71490,1,10,1:0:0:0:
310,186,71740,1,2,3:0:0:0:
225,203,71990,2,0,P|200:172|201:134,1,78.6449975999451,2|2,1:0|3:0,0:0:0:0:
276,90,72490,2,0,P|300:59|299:21,1,78.6449975999451,10|2,1:0|3:0,0:0:0:0:
214,3,72990,1,2,1:0:0:0:
109,140,73490,5,10,1:0:0:0:
60,68,73740,1,2,3:0:0:0:
8,137,73990,2,0,P|5:178|-7:236,1,78.6449975999451,2|2,1:0|3:0,0:0:0:0:
40,291,74490,1,10,1:0:0:0:
193,370,74990,6,0,P|229:356|267:346,1,78.6449975999451,2|2,1:0|3:0,0:0:0:0:
290,263,75490,1,10,1:0:0:0:
313,179,75740,1,2,3:0:0:0:
335,95,75990,2,0,P|310:64|316:11,1,78.6449975999451,2|2,1:0|3:0,0:0:0:0:
391,0,76490,2,0,P|416:31|410:84,1,78.6449975999451,10|2,1:0|3:0,0:0:0:0:
403,153,76990,1,2,1:0:0:0:
488,303,77490,5,10,1:0:0:0:
406,333,77740,1,2,3:0:0:0:
322,356,77990,2,0,P|319:318|309:278,1,78.6449975999451,2|2,1:0|3:0,0:0:0:0:
230,243,78490,2,0,P|191:252|152:255,1,78.6449975999451,10|0,1:0|3:0,0:0:0:0:
86,199,78990,5,10,0:1:0:0:
50,29,79490,1,10,0:1:0:0:
220,0,79990,1,10,0:1:0:0:
256,170,80490,1,10,0:1:0:0:
366,281,80990,6,0,P|401:276|448:301,2,71.2950016862069,6|0|8,1:3|3:0|1:0,0:0:0:0:
319,343,81740,1,0,3:0:0:0:
319,343,81990,2,0,P|284:348|237:323,1,71.2950016862069,2|0,1:0|3:0,0:0:0:0:
227,260,82490,1,8,1:0:0:0:
89,184,82990,6,0,P|68:217|74:278,2,71.2950016862069,2|0|8,1:0|3:0|1:0,0:0:0:0:
80,110,83740,1,0,3:0:0:0:
80,110,83990,2,0,P|84:74|104:45,1,71.2950016862069,2|0,1:0|3:0,0:0:0:0:
181,31,84490,1,8,1:0:0:0:
328,85,84990,6,0,P|362:75|396:64,2,71.2950016862069,2|0|8,1:0|3:0|1:0,0:0:0:0:
271,139,85740,1,0,3:0:0:0:
271,139,85990,2,0,P|278:177|291:229,1,71.2950016862069,2|0,1:0|3:0,0:0:0:0:
355,244,86490,1,8,1:0:0:0:
239,350,86990,6,0,P|203:346|165:336,2,71.2950016862069,2|0|8,1:0|3:0|1:0,0:0:0:0:
317,354,87740,1,0,3:0:0:0:
317,354,87990,2,0,P|353:358|391:368,1,71.2950016862069,2|0,1:0|3:0,0:0:0:0:
458,334,88490,1,8,1:0:0:0:
470,177,88990,6,0,P|462:134|456:86,2,71.2950016862069,2|0|8,1:0|3:0|1:0,0:0:0:0:
409,226,89740,1,0,3:0:0:0:
409,226,89990,2,0,P|380:204|351:183,1,71.2950016862069,2|0,1:0|3:0,0:0:0:0:
344,105,90490,1,8,1:0:0:0:
187,97,90990,6,0,P|156:83|140:20,2,71.2950016862069,2|0|8,1:0|3:0|1:0,0:0:0:0:
249,49,91740,1,0,3:0:0:0:
249,49,91990,2,0,P|279:62|295:125,1,71.2950016862069,2|0,1:0|3:0,0:0:0:0:
264,164,92490,1,8,1:0:0:0:
120,226,92990,6,0,L|106:319,2,71.2950016862069,2|0|8,1:0|3:0|1:0,0:0:0:0:
92,158,93740,1,0,3:0:0:0:
92,158,93990,2,0,L|21:168,1,71.2950016862069,2|0,1:0|3:0,0:0:0:0:
1,244,94490,1,8,1:0:0:0:
465,0,96990,6,0,P|456:35|412:54,1,78.6449975999451,6|0,1:3|3:0,0:0:0:0:
335,46,97490,2,0,P|299:55|282:100,1,78.6449975999451,8|2,1:0|3:0,0:0:0:0:
267,176,97990,2,0,P|354:174|423:233,1,157.28999519989,2|10,1:0|1:0,0:0:0:0:
434,295,98740,1,0,3:0:0:0:
373,357,98990,6,0,L|204:305,1,157.28999519989,2|0,1:0|1:0,0:0:0:0:
142,277,99740,1,2,3:0:0:0:
81,339,99990,2,0,P|39:322|39:262,1,78.6449975999451,2|0,1:0|3:0,0:0:0:0:
66,215,100490,2,0,P|84:173|42:130,1,78.6449975999451,10|0,1:0|3:0,0:0:0:0:
23,73,100990,6,0,L|0:-9,2,78.6449975999451,2|2|2,1:0|3:0|1:0,0:0:0:0:
109,65,101740,1,2,3:0:0:0:
189,33,101990,1,2,1:0:0:0:
344,108,102490,1,10,1:0:0:0:
484,209,102990,6,0,P|495:247|499:297,1,78.6449975999451,2|2,1:0|3:0,0:0:0:0:
413,302,103490,2,0,P|402:264|398:214,1,78.6449975999451,2|2,1:0|3:0,0:0:0:0:
427,143,103990,1,2,1:0:0:0:
408,58,104240,1,2,3:0:0:0:
331,18,104490,1,10,1:0:0:0:
223,153,104990,6,0,P|178:158|117:173,1,78.6449975999451,2|0,1:1|3:0,0:0:0:0:
132,79,105490,2,0,P|176:73|238:59,1,78.6449975999451,0|2,1:0|3:0,0:0:0:0:
288,100,105990,2,0,P|319:178|305:268,1,157.28999519989,2|10,1:0|1:0,0:0:0:0:
242,301,106740,1,0,3:0:0:0:
161,331,106990,6,0,L|1:304,1,157.28999519989,2|0,1:0|1:0,0:0:0:0:
15,218,107740,1,2,3:0:0:0:
30,132,107990,2,0,P|25:91|13:36,1,78.6449975999451,2|0,1:0|3:0,0:0:0:0:
103,40,108490,2,0,P|107:80|120:136,1,78.6449975999451,10|0,1:0|3:0,0:0:0:0:
184,170,108990,6,0,P|220:158|271:135,2,78.6449975999451,2|2|2,1:0|3:0|1:0,0:0:0:0:
161,253,109740,1,2,3:0:0:0:
239,289,109990,1,2,1:0:0:0:
401,229,110490,1,10,1:0:0:0:
118,28,111490,5,8,0:0:0:0:
313,313,112490,5,8,0:0:0:0:
146,266,112990,6,0,P|114:290|52:284,1,78.6449975999451,6|0,1:3|3:0,0:0:0:0:
48,210,113490,2,0,P|80:186|142:192,1,78.6449975999451,8|2,1:0|3:0,0:0:0:0:
202,196,113990,2,0,P|212:114|230:23,1,157.28999519989,2|10,1:0|1:0,0:0:0:0:
306,7,114740,1,0,3:0:0:0:
392,12,114990,6,0,P|476:54|446:101,1,157.28999519989,2|0,1:0|1:0,0:0:0:0:
386,136,115740,1,2,3:0:0:0:
306,169,115990,2,0,P|283:204|291:256,1,78.6449975999451,2|0,1:0|3:0,0:0:0:0:
352,291,116490,2,0,P|351:329|329:361,1,78.6449975999451,10|0,1:0|3:0,0:0:0:0:
242,358,116990,6,0,P|163:341|77:329,1,157.28999519989,2|2,1:0|1:0,0:0:0:0:
35,260,117740,1,2,3:0:0:0:
97,200,117990,2,0,P|176:217|262:229,1,157.28999519989,2|10,1:0|1:0,0:0:0:0:
379,110,118990,6,0,P|401:73|389:28,1,78.6449975999451,2|2,1:0|3:0,0:0:0:0:
312,18,119490,2,0,P|289:54|301:99,1,78.6449975999451,2|2,1:0|3:0,0:0:0:0:
317,171,119990,1,2,1:0:0:0:
293,254,120240,1,2,3:0:0:0:
264,335,120490,1,10,1:0:0:0:
435,358,120990,6,0,P|463:326|450:267,1,78.6449975999451,2|0,1:1|3:0,0:0:0:0:
403,230,121490,2,0,P|375:198|388:139,1,78.6449975999451,0|2,1:0|3:0,0:0:0:0:
436,103,121990,2,0,P|382:33|315:45,1,157.28999519989,2|10,1:0|1:0,0:0:0:0:
275,114,122740,1,0,3:0:0:0:
212,53,122990,6,0,L|50:28,1,157.28999519989,2|0,1:0|1:0,0:0:0:0:
8,101,123740,1,2,3:0:0:0:
76,153,123990,2,0,P|102:189|90:232,1,78.6449975999451,2|0,1:0|3:0,0:0:0:0:
27,271,124490,2,0,P|24:309|48:338,1,78.6449975999451,10|0,1:0|3:0,0:0:0:0:
131,362,124990,6,0,P|168:350|233:333,2,78.6449975999451,2|2|2,1:0|3:0|1:0,0:0:0:0:
113,276,125740,1,2,3:0:0:0:
170,211,125990,1,2,1:0:0:0:
289,85,126490,1,10,1:0:0:0:
431,302,128990,5,4,1:3:0:0:
