osu file format v14

[General]
AudioFilename: audio.mp3
AudioLeadIn: 0
PreviewTime: 104090
Countdown: 0
SampleSet: Soft
StackLeniency: 0.2
Mode: 0
LetterboxInBreaks: 0
WidescreenStoryboard: 0

[Editor]
Bookmarks: 6788,20999,46262,58894,74683,104682,170997,183628,204157,207707
DistanceSpacing: 1.3
BeatDivisor: 8
GridSize: 8
TimelineZoom: 1.9

[Metadata]
Title:EXEC_COSMOFLIPS/.
TitleUnicode:EXEC_COSMOFLIPS/.
Artist:KOKIA
ArtistUnicode:KOKIA
Creator:Yooh
Version:Meaningful
Source:アルトネリコ3 ~世界終焉の引鉄は少女の詩が弾く~
Tags:Ar Tonelico 3 Qoga Knell of ar Ciel Gust hymmnos folk instrumental jrpg j-rpg video game hymn Tilia Tyria ティリア sekai shuuen no hikigane wa shoujo uta ga hajiku
BeatmapID:2696527
BeatmapSetID:1299851

[Difficulty]
HPDrainRate:6
CircleSize:4
OverallDifficulty:9
ApproachRate:8.3
SliderMultiplier:1.8
SliderTickRate:1

[Events]
//Background and Video events
0,0,"thanks-arportal_ntny_wallpaper.jpg",0,0
//Break Periods
2,59094,73979
2,130146,145031
//Storyboard Layer 0 (Background)
//Storyboard Layer 1 (Fail)
//Storyboard Layer 2 (Pass)
//Storyboard Layer 3 (Foreground)
//Storyboard Layer 4 (Overlay)
//Storyboard Sound Samples

[TimingPoints]
473,789.473684210526,4,2,1,40,1,0
473,-142.857142857143,4,2,1,40,0,0
6394,-117.647058823529,4,2,1,40,0,0
6788,-74.0740740740741,4,2,1,60,0,0
7084,-144.927536231884,4,2,2,5,0,0
7183,-74.0740740740741,4,2,1,60,0,0
7874,-144.927536231884,4,2,2,5,0,0
7972,-74.0740740740741,4,2,1,60,0,0
8861,-144.927536231884,4,2,2,5,0,0
8959,-74.0740740740741,4,2,1,60,0,0
10242,-144.927536231884,4,2,2,5,0,0
10341,-64.5161290322581,4,2,1,60,0,0
10637,-144.927536231884,4,2,2,5,0,0
10736,-64.5161290322581,4,2,1,60,0,0
11130,-74.0740740740741,4,2,1,60,0,0
11426,-144.927536231884,4,2,2,5,0,0
11525,-74.0740740740741,4,2,1,60,0,0
13795,-144.927536231884,4,2,2,5,0,0
13894,-74.0740740740741,4,2,1,60,0,0
13992,-144.927536231884,4,2,2,5,0,0
14288,-74.0740740740741,4,2,1,60,0,0
14979,-144.927536231884,4,2,2,5,0,0
15078,-74.0740740740741,4,2,1,60,0,0
15374,-144.927536231884,4,2,2,5,0,0
15472,-74.0740740740741,4,2,1,60,0,0
16558,-144.927536231884,4,2,2,5,0,0
16657,-74.0740740740741,4,2,1,60,0,0
17347,-144.927536231884,4,2,2,5,0,0
17446,-74.0740740740741,4,2,1,60,0,0
17841,-64.5161290322581,4,2,1,60,0,0
18532,-144.927536231884,4,2,2,5,0,0
18630,-64.5161290322581,4,2,1,60,0,0
19321,-144.927536231884,4,2,2,5,0,0
19420,-74.0740740740741,4,2,1,60,0,0
20900,-144.927536231884,4,2,2,5,0,0
20999,-68.9655172413793,4,2,1,50,0,0
22084,-144.927536231884,4,2,2,5,0,0
22183,-68.9655172413793,4,2,1,50,0,0
24058,-144.927536231884,4,2,2,5,0,0
24157,-68.9655172413793,4,2,1,50,0,0
24453,-144.927536231884,4,2,2,5,0,0
24551,-68.9655172413793,4,2,1,50,0,0
25242,-144.927536231884,4,2,2,5,0,0
25341,-68.9655172413793,4,2,1,50,0,0
26032,-144.927536231884,4,2,2,5,0,0
26130,-68.9655172413793,4,2,1,50,0,0
26426,-144.927536231884,4,2,2,5,0,0
26525,-68.9655172413793,4,2,1,50,0,0
28400,-144.927536231884,4,2,2,5,0,0
28499,-68.9655172413793,4,2,1,50,0,0
29190,-144.927536231884,4,2,2,5,0,0
29288,-68.9655172413793,4,2,1,50,0,0
29979,-144.927536231884,4,2,2,5,0,0
30078,-68.9655172413793,4,2,1,50,0,0
30769,-144.927536231884,4,2,2,5,0,0
30867,-68.9655172413793,4,2,1,50,0,0
31558,-144.927536231884,4,2,2,5,0,0
31657,-68.9655172413793,4,2,1,50,0,0
33137,-144.927536231884,4,2,2,5,0,0
33236,-68.9655172413793,4,2,1,50,0,0
34124,-144.927536231884,4,2,2,5,0,0
34222,-68.9655172413793,4,2,1,50,0,0
36295,-144.927536231884,4,2,2,5,0,0
36394,-68.9655172413793,4,2,1,50,0,0
36788,-64.5161290322581,4,2,1,50,0,0
37479,-144.927536231884,4,2,2,5,0,0
37578,-64.5161290322581,4,2,1,50,0,0
38269,-144.927536231884,4,2,2,5,0,0
38367,-60.6060606060606,4,2,1,50,0,0
39058,-144.927536231884,4,2,2,5,0,0
39157,-60.6060606060606,4,2,1,50,0,0
39847,-144.927536231884,4,2,2,5,0,0
39946,-57.1428571428571,4,2,1,50,0,0
41032,-144.927536231884,4,2,2,5,0,0
41130,-57.1428571428571,4,2,1,50,0,0
41426,-144.927536231884,4,2,2,5,0,0
41525,-54.054054054054,4,2,1,50,0,0
42216,-144.927536231884,4,2,2,5,0,0
42315,-54.054054054054,4,2,1,50,0,0
42611,-144.927536231884,4,2,2,5,0,0
42709,-54.054054054054,4,2,1,50,0,0
43104,-48.780487804878,4,2,1,50,0,0
43597,-144.927536231884,4,2,2,5,0,0
43696,-48.780487804878,4,2,1,50,0,0
44683,-48.780487804878,4,2,1,50,0,0
45867,-74.0740740740741,4,2,1,50,0,0
46262,-46.5116279069767,4,2,1,60,0,0
46558,-144.927536231884,4,2,2,5,0,0
46657,-46.5116279069767,4,2,1,60,0,0
47347,-144.927536231884,4,2,2,5,0,0
47446,-46.5116279069767,4,2,1,60,0,0
48137,-144.927536231884,4,2,2,5,0,0
48236,-46.5116279069767,4,2,1,60,0,0
49716,-144.927536231884,4,2,2,5,0,0
49815,-46.5116279069767,4,2,1,60,0,0
50505,-144.927536231884,4,2,2,5,0,0
50604,-46.5116279069767,4,2,1,60,0,0
51690,-144.927536231884,4,2,2,5,0,0
51788,-46.5116279069767,4,2,1,60,0,0
52676,-144.927536231884,4,2,2,5,0,0
52972,-46.5116279069767,4,2,1,60,0,0
53269,-144.927536231884,4,2,2,5,0,0
53367,-46.5116279069767,4,2,1,60,0,0
53466,-144.927536231884,4,2,2,5,0,0
53762,-46.5116279069767,4,2,1,60,0,0
54453,-144.927536231884,4,2,2,5,0,0
54551,-46.5116279069767,4,2,1,60,0,0
54847,-144.927536231884,4,2,2,5,0,0
54946,-46.5116279069767,4,2,1,60,0,0
56032,-144.927536231884,4,2,2,5,0,0
56130,-46.5116279069767,4,2,1,60,0,0
56821,-144.927536231884,4,2,2,5,0,0
56920,-46.5116279069767,4,2,1,60,0,0
58005,-144.927536231884,4,2,2,5,0,0
58104,-46.5116279069767,4,2,1,60,0,0
58400,-144.927536231884,4,2,2,5,0,0
58499,-46.5116279069767,4,2,1,60,0,0
58795,-144.927536231884,4,2,2,5,0,0
58894,-46.5116279069767,4,2,1,60,0,0
74683,789.473684210526,4,2,1,50,1,0
74683,-68.9655172413793,4,2,1,50,0,0
75768,-144.927536231884,4,2,2,5,0,0
75867,-68.9655172413793,4,2,1,50,0,0
76558,-144.927536231884,4,2,2,5,0,0
76656,-68.9655172413793,4,2,1,50,0,0
77347,-144.927536231884,4,2,2,5,0,0
77446,-68.9655172413793,4,2,1,50,0,0
77742,-144.927536231884,4,2,2,5,0,0
77840,-68.9655172413793,4,2,1,50,0,0
78136,-144.927536231884,4,2,2,5,0,0
78235,-68.9655172413793,4,2,1,50,0,0
78926,-144.927536231884,4,2,2,5,0,0
79025,-68.9655172413793,4,2,1,50,0,0
79321,-144.927536231884,4,2,2,5,0,0
79419,-68.9655172413793,4,2,1,50,0,0
82084,-144.927536231884,4,2,2,5,0,0
82183,-68.9655172413793,4,2,1,50,0,0
83663,-144.927536231884,4,2,2,5,0,0
83761,-68.9655172413793,4,2,1,50,0,0
84452,-144.927536231884,4,2,2,5,0,0
84551,-68.9655172413793,4,2,1,50,0,0
85242,-144.927536231884,4,2,2,5,0,0
85340,-68.9655172413793,4,2,1,50,0,0
86031,-144.927536231884,4,2,2,5,0,0
86130,-68.9655172413793,4,2,1,50,0,0
86426,-144.927536231884,4,2,2,5,0,0
86525,-68.9655172413793,4,2,1,50,0,0
86821,-144.927536231884,4,2,2,5,0,0
86919,-68.9655172413793,4,2,1,50,0,0
87314,-80,4,2,1,50,0,0
91163,-144.927536231884,4,2,2,5,0,0
91261,-80,4,2,1,50,0,0
94715,-144.927536231884,4,2,2,5,0,0
94814,-80,4,2,1,50,0,0
96689,-144.927536231884,4,2,2,5,0,0
96788,-80,4,2,1,50,0,0
97479,-144.927536231884,4,2,2,5,0,0
97577,-74.0740740740741,4,2,1,50,0,0
98268,-144.927536231884,4,2,2,5,0,0
98367,-68.9655172413793,4,2,1,50,0,0
98860,-144.927536231884,4,2,2,5,0,0
98959,-68.9655172413793,4,2,1,50,0,0
99847,-144.927536231884,4,2,2,5,0,0
99946,-64.5161290322581,4,2,1,50,0,0
100439,-144.927536231884,4,2,2,5,0,0
100538,-64.5161290322581,4,2,1,50,0,0
101525,-60.6060606060606,4,2,1,50,0,0
103005,-144.927536231884,4,2,2,5,0,0
103104,-95.2380952380952,4,2,1,50,0,0
104288,-80,4,2,1,50,0,0
104682,-44.4444444444445,4,2,1,60,0,0
104979,-144.927536231884,4,2,2,5,0,0
105077,-44.4444444444445,4,2,1,60,0,0
105768,-144.927536231884,4,2,2,5,0,0
105867,-44.4444444444445,4,2,1,60,0,0
106557,-144.927536231884,4,2,2,5,0,0
106656,-44.4444444444445,4,2,1,60,0,0
108136,-144.927536231884,4,2,2,5,0,0
108235,-44.4444444444445,4,2,1,60,0,0
109321,-144.927536231884,4,2,2,5,0,0
109419,-44.4444444444445,4,2,1,60,0,0
111097,-144.927536231884,4,2,2,5,0,0
111393,-44.4444444444445,4,2,1,60,0,0
111689,-144.927536231884,4,2,2,5,0,0
111788,-44.4444444444445,4,2,1,60,0,0
111886,-144.927536231884,4,2,2,5,0,0
112182,-44.4444444444445,4,2,1,60,0,0
112873,-144.927536231884,4,2,2,5,0,0
112972,-44.4444444444445,4,2,1,60,0,0
113268,-144.927536231884,4,2,2,5,0,0
113367,-44.4444444444445,4,2,1,60,0,0
114156,-42.5531914893617,4,2,1,60,0,0
116426,-144.927536231884,4,2,2,5,0,0
116525,-42.5531914893617,4,2,1,60,0,0
116821,-144.927536231884,4,2,2,5,0,0
116919,-42.5531914893617,4,2,1,60,0,0
117314,-44.4444444444445,4,2,1,60,0,0
117610,-144.927536231884,4,2,2,5,0,0
117709,-44.4444444444445,4,2,1,60,0,0
118400,-144.927536231884,4,2,2,5,0,0
118498,-44.4444444444445,4,2,1,60,0,0
119189,-144.927536231884,4,2,2,5,0,0
119288,-44.4444444444445,4,2,1,60,0,0
120768,-144.927536231884,4,2,2,5,0,0
120867,-44.4444444444445,4,2,1,60,0,0
123729,-144.927536231884,4,2,2,5,0,0
124025,-44.4444444444445,4,2,1,60,0,0
124321,-144.927536231884,4,2,2,5,0,0
124419,-44.4444444444445,4,2,1,60,0,0
124518,-144.927536231884,4,2,2,5,0,0
124814,-44.4444444444445,4,2,1,60,0,0
125505,-144.927536231884,4,2,2,5,0,0
125604,-44.4444444444445,4,2,1,60,0,0
125900,-144.927536231884,4,2,2,5,0,0
125998,-44.4444444444445,4,2,1,60,0,0
126788,-42.5531914893617,4,2,1,60,0,0
128367,-40.8163265306122,4,2,1,60,0,0
129057,-144.927536231884,4,2,2,5,0,0
129156,-40.8163265306122,4,2,1,60,0,0
129452,-144.927536231884,4,2,2,5,0,0
129551,-40.8163265306122,4,2,1,60,0,0
145734,789.473684210526,4,2,1,60,1,1
145734,-51.2820512820513,4,2,1,60,0,1
146720,-39.2156862745098,4,2,1,60,0,1
147806,-144.927536231884,4,2,2,5,0,1
147905,-39.2156862745098,4,2,1,60,0,1
148398,-144.927536231884,4,2,2,5,0,1
148497,-39.2156862745098,4,2,1,60,0,1
148793,-144.927536231884,4,2,2,5,0,1
148891,-39.2156862745098,4,2,1,60,0,1
149385,-144.927536231884,4,2,2,5,0,1
149484,-39.2156862745098,4,2,1,60,0,1
150766,-144.927536231884,4,2,2,5,0,1
150865,-39.2156862745098,4,2,1,60,0,1
152049,-51.2820512820513,4,2,1,60,0,1
152740,-144.927536231884,4,2,2,5,0,1
152839,-51.2820512820513,4,2,1,60,0,1
153234,-39.2156862745098,4,2,1,60,0,1
154122,-144.927536231884,4,2,2,5,0,1
154220,-39.2156862745098,4,2,1,60,0,1
154714,-144.927536231884,4,2,2,5,0,1
154812,-39.2156862745098,4,2,1,60,0,1
155109,-144.927536231884,4,2,2,5,0,1
155207,-39.2156862745098,4,2,1,60,0,1
155701,-144.927536231884,4,2,2,5,0,1
155799,-39.2156862745098,4,2,1,60,0,1
157082,-144.927536231884,4,2,2,5,0,1
157181,-39.2156862745098,4,2,1,60,0,1
157872,-144.927536231884,4,2,2,5,0,1
157970,-39.2156862745098,4,2,1,60,0,1
158661,-144.927536231884,4,2,2,5,0,1
158760,-39.2156862745098,4,2,1,60,0,1
159845,-144.927536231884,4,2,2,5,0,1
159944,-39.2156862745098,4,2,1,60,0,1
161030,-144.927536231884,4,2,2,5,0,1
161128,-39.2156862745098,4,2,1,60,0,1
161424,-144.927536231884,4,2,2,5,0,1
161523,-39.2156862745098,4,2,1,60,0,1
162214,-144.927536231884,4,2,2,5,0,1
162312,-39.2156862745098,4,2,1,60,0,1
162609,-144.927536231884,4,2,2,5,0,1
162707,-39.2156862745098,4,2,1,60,0,1
164582,-144.927536231884,4,2,2,5,0,1
164681,-39.2156862745098,4,2,1,60,0,1
164977,-144.927536231884,4,2,2,5,0,1
165076,-39.2156862745098,4,2,1,60,0,1
165766,-144.927536231884,4,2,2,5,0,1
165865,-39.2156862745098,4,2,1,60,0,1
166951,-144.927536231884,4,2,2,5,0,1
167049,-39.2156862745098,4,2,1,60,0,1
167345,-144.927536231884,4,2,2,5,0,1
167444,-39.2156862745098,4,2,1,60,0,1
167839,-39.2156862745098,4,2,1,60,0,1
169418,-37.7358490566038,4,2,1,60,0,1
170207,-37.7358490566038,4,2,1,60,0,0
170602,-68.9655172413793,4,2,1,60,0,0
170997,-64.5161290322581,4,2,1,50,0,0
174451,-144.927536231884,4,2,2,5,0,0
174549,-64.5161290322581,4,2,1,50,0,0
177411,-144.927536231884,4,2,2,5,0,0
177707,-64.5161290322581,4,2,1,50,0,0
178003,-144.927536231884,4,2,2,5,0,0
178102,-64.5161290322581,4,2,1,50,0,0
178201,-144.927536231884,4,2,2,5,0,0
178891,-64.5161290322581,4,2,1,50,0,0
181161,-144.927536231884,4,2,2,5,0,0
181260,-64.5161290322581,4,2,1,50,0,0
181951,-144.927536231884,4,2,2,5,0,0
182049,-54.054054054054,4,2,1,50,0,0
183234,-64.5161290322581,4,2,1,50,0,0
183628,-44.4444444444445,4,2,1,60,0,0
183924,-144.927536231884,4,2,2,5,0,0
184023,-44.4444444444445,4,2,1,60,0,0
184714,-144.927536231884,4,2,2,5,0,0
184812,-44.4444444444445,4,2,1,60,0,0
185503,-144.927536231884,4,2,2,5,0,0
185602,-44.4444444444445,4,2,1,60,0,0
187082,-144.927536231884,4,2,2,5,0,0
187181,-44.4444444444445,4,2,1,60,0,0
188266,-144.927536231884,4,2,2,5,0,0
188365,-44.4444444444445,4,2,1,60,0,0
190043,-144.927536231884,4,2,2,5,0,0
190339,-44.4444444444445,4,2,1,60,0,0
190635,-144.927536231884,4,2,2,5,0,0
190734,-44.4444444444445,4,2,1,60,0,0
190832,-144.927536231884,4,2,2,5,0,0
191128,-44.4444444444445,4,2,1,60,0,0
191819,-144.927536231884,4,2,2,5,0,0
191918,-44.4444444444445,4,2,1,60,0,0
192214,-144.927536231884,4,2,2,5,0,0
192312,-44.4444444444445,4,2,1,60,0,0
195372,-144.927536231884,4,2,2,5,0,0
195470,-44.4444444444445,4,2,1,60,0,0
198530,-144.927536231884,4,2,2,5,0,0
198628,-44.4444444444445,4,2,1,60,0,0
199418,-40.8163265306122,4,2,1,65,0,0
200108,-144.927536231884,4,2,2,5,0,0
200207,-40.8163265306122,4,2,1,60,0,0
200997,-37.7358490566038,4,2,1,70,0,0
201687,-144.927536231884,4,2,2,5,0,0
201786,-37.7358490566038,4,2,1,60,0,0
202576,-36.3636363636364,4,2,1,75,0,0
203266,-144.927536231884,4,2,2,5,0,0
203365,-36.3636363636364,4,2,1,75,0,0
203661,-144.927536231884,4,2,2,5,0,0
203760,-36.3636363636364,4,2,1,75,0,0
204155,-44.4444444444445,4,2,1,60,0,0
207707,-44.4444444444445,4,2,1,30,0,0

[Colours]
Combo1 : 254,254,82
Combo2 : 20,200,255
Combo3 : 210,168,234
SliderBorder : 201,143,219

[HitObjects]
30,8,473,6,0,P|59:46|71:105,1,94.499997116089,8|0,0:0|0:0,0:0:0:0:
89,90,1262,1,0,0:0:0:0:
195,76,1657,1,0,0:0:0:0:
69,173,2051,6,0,P|54:194|46:219,1,31.4999990386963,8|0,0:0|0:0,0:0:0:0:
120,235,2446,2,0,P|135:214|143:189,1,31.4999990386963,2|0,0:0|0:0,0:0:0:0:
214,214,2841,2,0,P|182:283|152:312,1,94.499997116089
170,315,3630,6,0,P|223:312|291:318,1,94.499997116089,8|0,0:0|0:0,0:0:0:0:
268,332,4420,1,0,0:0:0:0:
374,348,4815,1,0,0:0:0:0:
498,248,5209,6,0,P|500:219|498:199,1,31.4999990386963,8|0,0:0|0:0,0:0:0:0:
437,172,5604,2,0,P|435:143|437:123,1,31.4999990386963,2|0,0:0|0:0,0:0:0:0:
480,78,5999,1,0,0:0:0:0:
352,8,6394,6,0,P|325:10|290:3,1,38.2500007295609,2|0,0:0|0:0,0:0:0:0:
171,71,6788,2,0,P|236:67|283:75,1,91.1250003476143,12|0,0:0|0:0,0:0:0:0:
332,89,7183,1,0,0:0:0:0:
114,143,7578,2,0,P|68:147|23:142,1,91.1250003476143
2,73,7972,1,2,0:0:0:0:
22,158,8170,1,0,0:0:0:0:
129,138,8367,2,0,P|107:187|85:292,1,151.875000579357,8|0,0:0|0:0,0:0:0:0:
93,355,8959,1,0,0:0:0:0:
58,275,9157,1,2,0:0:0:0:
211,381,9551,6,0,P|227:342|240:323,1,60.7500002317429
324,213,9946,2,0,P|336:256|354:298,1,91.1250003476143,8|0,0:0|0:0,0:0:0:0:
426,332,10341,2,0,P|444:267|474:213,1,104.625000798225,2|0,0:0|0:0,0:0:0:0:
508,171,10736,1,2,0:0:0:0:
441,225,10933,1,0,0:0:0:0:
418,104,11130,2,0,P|401:45|374:-3,1,91.1250003476143,2|0,0:0|0:0,0:0:0:0:
317,36,11525,2,0,B|270:64|228:35|236:35|193:-7|118:33,1,182.250000695229,8|0,0:0|0:0,0:0:0:0:
14,85,12315,1,2,0:0:0:0:
52,347,12709,6,0,P|56:332|63:317,5,20.2500000772476
47,367,13104,1,12,0:0:0:0:
0,222,13499,2,0,P|45:228|90:254,1,91.1250003476143,2|0,0:0|0:0,0:0:0:0:
120,185,13894,2,0,P|142:181|158:173,1,30.3750001158714
222,320,14288,6,0,P|253:317|287:319,1,60.7500002317429,2|0,0:0|0:0,0:0:0:0:
410,384,14683,2,0,P|426:325|450:283,1,91.1250003476143,8|0,0:0|0:0,0:0:0:0:
512,298,15078,2,0,P|496:239|472:197,1,91.1250003476143,2|0,0:0|0:0,0:0:0:0:
449,147,15472,1,2,0:0:0:0:
256,24,15867,6,0,P|243:47|236:69,1,30.3750001158714,2|0,0:0|0:0,0:0:0:0:
219,121,16065,1,0,0:0:0:0:
240,16,16262,2,0,P|191:13|139:18,1,91.1250003476143,8|0,0:0|0:0,0:0:0:0:
101,73,16657,2,0,P|60:73|28:69,1,60.7500002317429,2|0,0:0|0:0,0:0:0:0:
0,229,17051,2,0,P|48:226|100:231,1,91.1250003476143,8|0,0:0|0:0,0:0:0:0:
139,286,17446,2,0,P|180:286|212:282,1,60.7500002317429,2|0,0:0|0:0,0:0:0:0:
335,384,17841,6,0,B|276:326|272:229|358:200|391:256,1,244.125001862526,12|0,0:0|0:0,0:0:0:0:
421,326,18630,2,0,P|416:246|272:254,1,244.125001862526,12|0,0:0|0:0,0:0:0:0:
210,273,19420,6,0,B|211:208|179:94|98:76|98:76|108:152|180:202|275:146,1,455.625001738071
327,129,20999,6,0,P|322:63|328:0,1,130.500003982544,12|2,0:0|0:0,0:0:0:0:
506,38,21788,2,0,P|468:40|391:32,1,97.8750029869081,2|0,0:0|0:0,0:0:0:0:
344,0,22183,1,2,0:0:0:0:
411,54,22380,1,0,0:0:0:0:
429,177,22578,2,0,P|435:241|430:306,1,130.500003982544,8|0,0:0|0:0,0:0:0:0:
394,372,23170,1,0,0:0:0:0:
290,260,23367,2,0,P|329:256|361:259,1,65.250001991272,2|0,0:0|0:0,0:0:0:0:
250,330,23762,6,0,P|199:323|140:332,1,97.8750029869081,2|0,0:0|0:0,0:0:0:0:
108,384,24157,2,0,P|92:320|54:297,1,97.8750029869081,8|0,0:0|0:0,0:0:0:0:
0,275,24551,1,2,0:0:0:0:
102,144,24946,2,0,P|80:172|55:247,1,97.8750029869081
0,275,25341,1,2,0:0:0:0:
27,94,25736,6,0,P|65:120|119:127,1,97.8750029869081,8|0,0:0|0:0,0:0:0:0:
179,89,26130,2,0,P|217:62|271:55,1,97.8750029869081,2|0,0:0|0:0,0:0:0:0:
341,69,26525,1,2,0:0:0:0:
496,232,26920,6,0,P|493:246|487:262,5,21.7500006637573
504,216,27315,2,0,P|464:213|409:222,1,65.250001991272,12|0,0:0|0:0,0:0:0:0:
322,278,27709,2,0,P|354:280|386:277,1,65.250001991272,2|0,0:0|0:0,0:0:0:0:
273,207,28104,2,0,P|294:248|314:311,1,97.8750029869081,2|0,0:0|0:0,0:0:0:0:
330,369,28499,1,2,0:0:0:0:
246,351,28696,1,0,0:0:0:0:
126,383,28894,6,0,P|138:320|166:267,1,97.8750029869081,8|0,0:0|0:0,0:0:0:0:
185,222,29288,1,2,0:0:0:0:
41,183,29683,2,0,P|63:223|110:223,1,97.8750029869081
185,222,30078,2,0,P|176:179|178:145,1,65.250001991272,2|0,0:0|0:0,0:0:0:0:
279,78,30472,6,0,P|233:82|165:79,1,97.8750029869081,8|0,0:0|0:0,0:0:0:0:
177,5,30867,1,2,0:0:0:0:
281,161,31262,2,0,P|327:157|393:163,1,97.8750029869081
450,137,31657,2,0,P|446:169|447:202,1,65.250001991272,2|0,0:0|0:0,0:0:0:0:
407,317,32051,2,0,B|373:304|343:322|351:323|325:348|270:332,1,130.500003982544,8|2,0:0|0:0,0:0:0:0:
122,213,32841,6,0,P|143:239|162:306,1,97.8750029869081
160,375,33236,2,0,P|144:373|135:368,5,21.7500006637573
176,370,33630,2,0,P|196:286|241:209,1,163.12500497818,12|0,0:0|0:0,0:0:0:0:
281,161,34222,1,0,0:0:0:0:
217,214,34420,1,2,0:0:0:0:
1,159,34815,6,0,P|40:156|68:160,1,65.250001991272,2|0,0:0|0:0,0:0:0:0:
239,91,35209,2,0,P|171:96|106:91,1,130.500003982544,8|2,0:0|0:0,0:0:0:0:
311,12,35999,2,0,P|310:45|367:78,1,97.8750029869081
434,73,36394,2,0,P|448:44|475:25,1,65.250001991272,2|0,0:0|0:0,0:0:0:0:
509,165,36788,6,0,B|450:139|393:178|403:180|373:249|269:213,1,244.125001862526,8|0,0:0|0:0,0:0:0:0:
211,180,37578,1,2,0:0:0:0:
280,239,37775,1,0,0:0:0:0:
191,186,37972,2,0,P|176:120|144:71,1,104.625000798225,2|0,0:0|0:0,0:0:0:0:
102,23,38367,6,0,B|69:14|-9:28|-19:168|47:233,1,259.875002478361,8|0,0:0|0:0,0:0:0:0:
94,281,39157,1,2,0:0:0:0:
280,239,39551,6,0,P|261:286|243:361,1,111.375001062155,2|0,0:0|0:0,0:0:0:0:
326,384,39946,2,0,P|348:299|385:215,1,157.500001502037,12|2,0:0|0:0,0:0:0:0:
469,170,40637,1,0,0:0:0:0:
455,184,40736,2,0,P|401:136|399:71,1,118.125001126528
332,28,41130,2,0,P|314:91|245:128,1,118.125001126528,2|0,0:0|0:0,0:0:0:0:
178,136,41525,6,0,B|116:160|36:144|-2:40|93:3|140:18|162:76,1,291.374998888493,8|0,0:0|0:0,0:0:0:0:
198,148,42315,2,0,P|158:203|138:274,1,124.87499952364,2|0,0:0|0:0,0:0:0:0:
143,351,42709,1,2,0:0:0:0:
119,257,42907,1,0,0:0:0:0:
244,364,43104,6,0,B|255:385|316:402|381:346|334:231,1,230.625003519058,12|0,0:0|0:0,0:0:0:0:
304,128,43696,1,0,0:0:0:0:
451,167,43894,2,0,B|403:155|364:183|371:187|336:233|252:201,1,184.500002815247,2|0,0:0|0:0,0:0:0:0:
151,34,44683,2,0,B|259:-17|334:42|307:44|402:116|506:49,1,369.000005630493,12|0,0:0|0:0,0:0:0:0:
304,128,45867,6,0,P|269:130|228:125,1,60.7500002317429,2|0,0:0|0:0,0:0:0:0:
133,32,46262,2,0,P|151:71|172:197,1,145.125002214432,12|0,0:0|0:0,0:0:0:0:
166,248,46657,2,0,P|113:252|67:248,1,96.7500014762879,2|0,0:0|0:0,0:0:0:0:
208,371,47051,2,0,P|236:292|300:276,1,145.125002214432
366,282,47446,2,0,P|362:330|366:378,1,96.7500014762879,2|0,0:0|0:0,0:0:0:0:
430,225,47841,2,0,P|435:141|420:36,1,145.125002214432,8|0,0:0|0:0,0:0:0:0:
406,6,48236,1,0,0:0:0:0:
448,78,48433,1,0,0:0:0:0:
344,145,48630,1,2,3:2:0:0:
43,16,49025,6,0,P|92:21|147:41,1,96.7500014762879,2|0,0:0|0:0,0:0:0:0:
297,46,49420,2,0,P|256:82|130:106,1,145.125002214432,8|0,0:0|0:0,0:0:0:0:
127,173,49815,2,0,P|158:232|192:224,1,96.7500014762879,2|0,0:0|0:0,0:0:0:0:
80,384,50209,2,0,P|57:289|26:221,1,145.125002214432
0,177,50604,1,2,0:0:0:0:
57,237,50801,1,0,0:0:0:0:
180,251,50999,2,0,B|221:199|297:205|343:259|311:268|362:328|466:314|487:225,1,338.625005167008,8|0,0:0|0:0,0:0:0:0:
507,183,51788,1,2,3:2:0:0:
256,30,52183,6,0,P|250:9|245:-3,5,32.250000492096
260,45,52578,2,0,P|289:41|316:46,1,48.3750007381439,12|0,0:0|0:0,0:0:0:0:
179,151,52972,2,0,P|152:71|121:9,1,145.125002214432
52,42,53367,2,0,P|69:69|78:93,1,48.3750007381439,2|0,0:0|0:0,0:0:0:0:
130,244,53762,6,0,P|107:265|51:230,1,96.7500014762879,2|0,0:0|0:0,0:0:0:0:
162,376,54157,2,0,P|190:301|242:221,1,145.125002214432,8|0,0:0|0:0,0:0:0:0:
270,184,54551,2,0,P|327:202|285:265,1,145.125002214432,2|0,0:0|0:0,0:0:0:0:
223,245,54946,1,2,3:2:0:0:
422,166,55341,5,2,0:0:0:0:
445,275,55538,1,0,0:0:0:0:
441,168,55736,2,0,P|462:107|404:34,1,145.125002214432,8|0,0:0|0:0,0:0:0:0:
358,81,56130,2,0,P|298:85|247:80,1,96.7500014762879,2|0,0:0|0:0,0:0:0:0:
104,0,56525,2,0,P|106:76|100:169,1,145.125002214432,8|0,0:0|0:0,0:0:0:0:
27,166,56920,2,0,P|24:214|28:262,1,96.7500014762879,2|0,0:0|0:0,0:0:0:0:
150,382,57315,6,0,B|123:289|193:207|207:259|296:179|252:43,1,338.625005167008,12|0,0:0|0:0,0:0:0:0:
306,19,58104,2,0,P|382:29|359:98,1,145.125002214432,12|0,3:2|0:0,0:0:0:0:
356,157,58499,2,0,P|428:158|508:166,1,145.125002214432
500,242,58894,1,0,0:0:0:0:
64,376,74683,6,0,P|42:296|23:252,1,130.500003982544,12|2,0:0|0:0,0:0:0:0:
197,203,75472,2,0,P|111:209|71:201,1,97.8750029869081
39,247,75867,1,2,0:0:0:0:
102,191,76064,1,0,0:0:0:0:
196,284,76261,2,0,P|282:278|322:286,1,97.8750029869081,8|0,0:0|0:0,0:0:0:0:
364,291,76656,1,2,0:0:0:0:
383,373,76854,1,0,0:0:0:0:
376,277,77051,2,0,P|399:221|438:174,1,97.8750029869081
492,190,77446,6,0,P|469:134|430:87,1,97.8750029869081,2|0,0:0|0:0,0:0:0:0:
375,108,77840,2,0,P|326:113|293:65,1,97.8750029869081,8|0,0:0|0:0,0:0:0:0:
271,11,78235,1,2,0:0:0:0:
277,87,78433,1,0,0:0:0:0:
198,163,78630,2,0,P|150:155|91:164,1,97.8750029869081
30,175,79025,2,0,P|15:132|60:108,1,97.8750029869081,2|0,0:0|0:0,0:0:0:0:
101,160,79419,5,8,0:0:0:0:
62,288,79617,1,0,0:0:0:0:
163,364,79814,2,0,P|149:320|130:282,1,65.250001991272,2|0,0:0|0:0,0:0:0:0:
276,175,80209,2,0,P|263:205|254:236,1,65.250001991272
361,353,80604,2,0,P|356:334|348:315,5,21.7500006637573
364,368,80998,6,0,P|396:365|437:370,1,65.250001991272,12|0,0:0|0:0,0:0:0:0:
512,234,81393,1,2,0:0:0:0:
440,250,81590,1,0,0:0:0:0:
368,234,81788,2,0,P|373:185|367:135,1,97.8750029869081
425,94,82183,2,0,P|458:74|485:83,1,65.250001991272,2|0,0:0|0:0,0:0:0:0:
369,0,82577,2,0,B|383:44|345:81|268:55,1,130.500003982544,8|2,0:0|0:0,0:0:0:0:
125,0,83367,2,0,P|144:30|167:98,1,97.8750029869081
165,159,83761,2,0,P|133:164|108:145,1,65.250001991272,2|0,0:0|0:0,0:0:0:0:
8,263,84156,6,0,P|84:245|111:250,1,97.8750029869081,8|0,0:0|0:0,0:0:0:0:
167,279,84551,1,2,0:0:0:0:
108,232,84748,1,0,0:0:0:0:
184,271,84946,2,0,P|185:312|197:367,1,97.8750029869081
268,371,85340,2,0,P|278:330|289:305,1,65.250001991272,2|0,0:0|0:0,0:0:0:0:
368,153,85735,2,0,P|392:109|432:62,1,97.8750029869081,8|0,0:0|0:0,0:0:0:0:
491,94,86130,2,0,P|483:142|484:191,1,97.8750029869081,2|0,0:0|0:0,0:0:0:0:
443,250,86525,6,0,P|394:253|360:213,1,97.8750029869081
354,149,86919,2,0,P|359:134|374:120,5,21.7500006637573
337,149,87314,2,0,B|288:136|253:155|265:168|226:184|163:168,1,168.75,12|0,0:0|0:0,0:0:0:0:
166,58,88104,1,0,0:0:0:0:
142,260,88498,6,0,P|108:257|67:262,1,56.25
0,340,88893,2,0,P|56:344|123:339,1,112.5,8|2,0:0|0:0,0:0:0:0:
306,255,89683,2,0,P|301:311|305:367,1,112.5,0|2,0:0|0:0,0:0:0:0:
241,203,90472,2,0,B|218:148|249:100|252:109|290:77|272:1,1,196.875,8|0,0:0|0:0,0:0:0:0:
204,17,91261,2,0,P|189:71|213:121,1,112.5,0|2,0:0|0:0,0:0:0:0:
368,203,92051,6,0,P|427:200|480:204,1,112.5,0|2,0:0|0:0,0:0:0:0:
387,17,92840,2,0,P|328:20|275:16,1,112.5,0|2,0:0|0:0,0:0:0:0:
76,84,93630,1,8,0:0:0:0:
89,384,94419,6,0,B|121:373|130:338|112:292,1,84.375
94,247,94814,2,0,P|70:244|36:248,1,56.25,2|0,0:0|0:0,0:0:0:0:
118,313,95209,2,0,B|195:335|235:283|218:281|260:231|343:264,1,225,8|0,0:0|0:0,0:0:0:0:
501,384,96393,6,0,P|464:373|438:312,1,84.375
439,266,96788,2,0,P|461:173|501:78,1,196.875,8|0,0:0|0:0,0:0:0:0:
449,22,97577,2,0,P|363:89|288:169,1,212.6250008111,8|0,0:0|0:0,0:0:0:0:
235,224,98367,2,0,P|167:212|149:112,1,163.12500497818,8|0,0:0|0:0,0:0:0:0:
161,59,98959,1,0,0:0:0:0:
0,11,99156,2,0,P|23:78|45:250,1,228.375006969452,2|0,0:0|0:0,0:0:0:0:
107,296,99946,2,0,P|141:215|160:131,1,174.375001330376,8|0,0:0|0:0,0:0:0:0:
161,59,100538,1,0,0:0:0:0:
239,209,100735,2,0,B|285:207|307:235|297:236|321:269|387:250,1,139.500001064301,2|0,0:0|0:0,0:0:0:0:
444,116,101525,6,0,B|531:129|545:47|524:-32|405:-41|332:10|260:73|340:77|268:169|149:165|94:123,1,556.875005310774,8|0,0:0|0:0,0:0:0:0:
60,97,103104,2,0,P|87:158|115:298,1,188.999994232178,8|0,0:0|0:0,0:0:0:0:
273,383,104288,6,0,P|282:354|300:317,1,56.25,2|0,0:0|0:0,0:0:0:0:
384,172,104682,2,0,P|419:236|459:336,1,151.875005793572,12|0,0:0|0:0,0:0:0:0:
474,380,105077,2,0,P|496:318|504:260,1,101.250003862381,2|0,0:0|0:0,0:0:0:0:
512,169,105472,2,0,P|443:204|400:153,1,151.875005793572
417,82,105867,1,2,0:0:0:0:
384,172,106064,1,0,0:0:0:0:
248,183,106261,2,0,P|218:113|181:46,1,151.875005793572,8|0,0:0|0:0,0:0:0:0:
257,5,106656,2,0,P|242:71|235:130,1,101.250003862381,2|0,0:0|0:0,0:0:0:0:
216,258,107051,1,2,3:2:0:0:
23,119,107446,6,0,P|74:126|142:153,1,101.250003862381,2|0,0:0|0:0,0:0:0:0:
204,244,107840,2,0,P|140:255|43:302,1,151.875005793572,8|0,0:0|0:0,0:0:0:0:
11,347,108235,2,0,P|58:372|108:347,1,101.250003862381,2|0,0:0|0:0,0:0:0:0:
216,258,108630,2,0,P|193:317|183:369,1,101.250003862381,2|0,0:0|0:0,0:0:0:0:
317,384,109025,2,0,B|363:374|372:323|353:278|314:243,1,151.875005793572,2|0,0:0|0:0,0:0:0:0:
274,194,109419,2,0,B|224:141|191:53|235:-22|306:-6|342:25|328:78|309:88,1,303.750011587143,8|0,0:0|0:0,0:0:0:0:
205,123,110209,1,2,3:2:0:0:
396,46,110604,6,0,P|396:22|393:4,5,33.7500012874604
411,58,110998,2,0,P|410:94|415:147,1,50.6250019311906,12|0,0:0|0:0,0:0:0:0:
485,364,111393,2,0,P|489:314|480:192,1,151.875005793572
411,188,111788,2,0,P|410:224|415:277,1,50.6250019311906,2|0,0:0|0:0,0:0:0:0:
264,376,112182,6,0,P|215:374|187:330,1,101.250003862381,2|0,0:0|0:0,0:0:0:0:
156,168,112577,2,0,P|112:243|82:330,1,151.875005793572,8|0,0:0|0:0,0:0:0:0:
13,292,112972,2,0,P|1:216|3:141,1,151.875005793572,2|0,0:0|0:0,0:0:0:0:
15,65,113367,1,2,3:2:0:0:
240,28,113761,5,2,0:0:0:0:
259,135,113959,1,0,0:0:0:0:
255,39,114156,2,0,P|319:44|387:35,1,105.749998386383,8|0,0:0|0:0,0:0:0:0:
496,125,114551,2,0,P|432:120|364:129,1,105.749998386383,2|0,0:0|0:0,0:0:0:0:
245,147,114946,2,0,P|181:152|113:143,1,105.749998386383,8|0,0:0|0:0,0:0:0:0:
4,233,115341,2,0,P|68:228|136:237,1,105.749998386383,2|0,0:0|0:0,0:0:0:0:
231,371,115735,6,0,B|291:304|323:217|292:147|227:131|183:162|159:229|222:276,1,370.124994352341,12|0,0:0|0:0,0:0:0:0:
301,307,116525,2,0,P|350:244|427:211,1,158.624997579575,12|0,3:2|0:0,0:0:0:0:
495,165,116919,6,0,P|493:221|498:297,1,105.749998386383,2|0,0:0|0:0,0:0:0:0:
425,125,117314,2,0,P|404:57|308:72,1,151.875005793572,12|0,0:0|0:0,0:0:0:0:
269,93,117709,2,0,P|236:52|271:16,1,101.250003862381,2|0,0:0|0:0,0:0:0:0:
125,0,118104,2,0,P|151:76|167:168,1,151.875005793572
160,221,118498,1,2,0:0:0:0:
183,127,118696,1,0,0:0:0:0:
56,78,118893,2,0,P|30:154|14:246,1,151.875005793572,8|0,0:0|0:0,0:0:0:0:
41,306,119288,2,0,P|91:301|141:309,1,101.250003862381,2|0,0:0|0:0,0:0:0:0:
258,340,119682,5,2,3:2:0:0:
231,245,119880,1,0,0:0:0:0:
274,348,120077,6,0,P|289:299|313:255,1,101.250003862381,2|0,0:0|0:0,0:0:0:0:
427,281,120472,2,0,P|361:304|327:243,1,151.875005793572,8|0,0:0|0:0,0:0:0:0:
352,171,120867,2,0,P|337:122|313:78,1,101.250003862381,2|0,0:0|0:0,0:0:0:0:
470,29,121261,2,0,P|445:73|431:121,1,101.250003862381,2|0,0:0|0:0,0:0:0:0:
423,259,121656,2,0,B|446:298|489:292|535:243,1,101.250003862381,2|0,0:0|0:0,0:0:0:0:
451,126,122051,2,0,B|423:107|359:107|277:144|334:169|253:223|140:168,1,303.750011587143,8|0,0:0|0:0,0:0:0:0:
58,137,122840,1,2,3:2:0:0:
170,36,123235,6,0,P|174:19|180:4,5,33.7500012874604
150,34,123630,2,0,P|140:57|133:81,1,50.6250019311906,12|0,0:0|0:0,0:0:0:0:
60,324,124025,2,0,P|26:255|0:184,1,151.875005793572
58,137,124419,2,0,P|66:161|76:185,1,50.6250019311906,2|0,0:0|0:0,0:0:0:0:
179,371,124814,6,0,P|233:361|266:310,1,101.250003862381,2|0,0:0|0:0,0:0:0:0:
309,153,125209,2,0,P|349:223|378:317,1,151.875005793572,8|0,0:0|0:0,0:0:0:0:
383,365,125604,2,0,P|408:293|446:227,1,151.875005793572,2|0,0:0|0:0,0:0:0:0:
492,168,125998,1,2,3:2:0:0:
260,41,126393,5,2,0:0:0:0:
361,15,126590,1,0,0:0:0:0:
256,24,126788,2,0,P|236:81|226:152,1,105.749998386383,8|0,0:0|0:0,0:0:0:0:
162,0,127182,2,0,P|144:49|134:101,1,105.749998386383,2|0,0:0|0:0,0:0:0:0:
0,197,127577,2,0,P|9:249|27:299,1,105.749998386383,8|0,0:0|0:0,0:0:0:0:
93,173,127972,2,0,P|103:225|121:275,1,105.749998386383,2|0,0:0|0:0,0:0:0:0:
256,368,128367,6,0,B|249:266|287:182|376:132|431:169|462:216|436:257|382:289,1,385.875003679991,12|0,0:0|0:0,0:0:0:0:
333,302,129156,2,0,P|297:254|258:134,1,165.375001577139,12|0,3:2|0:0,0:0:0:0:
255,50,129551,2,0,P|271:26|293:11,5,36.7500003504753
253,66,129946,1,0,0:0:0:0:
18,21,145735,6,0,P|71:178|111:384,1,351.000001338959,12|2,0:0|0:0,0:0:0:0:
163,214,146720,1,0,0:0:0:0:
132,75,146918,1,2,0:0:0:0:
0,25,147115,1,0,0:0:0:0:
148,66,147312,2,0,B|227:99|288:52|275:46|342:-26|464:43,1,286.874996169806,12|0,0:0|0:0,0:0:0:0:
504,6,147905,1,2,0:0:0:0:
495,27,148003,1,2,0:0:0:0:
489,49,148102,2,0,P|465:120|445:252,1,172.124997701883,0|0,3:2|0:0,0:0:0:0:
371,189,148497,2,0,P|385:262|434:386,1,172.124997701883,2|0,3:2|0:0,0:0:0:0:
344,383,148891,6,0,P|308:275|282:93,1,286.874996169806,12|0,0:0|0:0,0:0:0:0:
225,45,149484,1,2,0:0:0:0:
218,66,149582,1,2,0:0:0:0:
209,87,149681,1,2,0:0:0:0:
130,198,149878,1,0,0:0:0:0:
0,231,150076,1,2,0:0:0:0:
140,212,150273,1,0,0:0:0:0:
237,331,150470,2,0,P|324:325|418:334,1,172.124997701883,4|0,3:2|0:0,0:0:0:0:
487,346,150865,6,0,P|481:283|484:230,1,114.749998467922,2|0,0:0|0:0,0:0:0:0:
426,61,151260,2,0,P|432:124|429:177,1,114.749998467922
325,287,151655,1,2,0:0:0:0:
316,133,151852,1,0,0:0:0:0:
219,12,152049,6,0,P|212:165|219:319,1,307.125001171589,12|0,0:0|0:0,0:0:0:0:
161,370,152839,1,2,0:0:0:0:
0,93,153234,1,2,0:0:0:0:
136,108,153431,1,0,0:0:0:0:
238,16,153628,2,0,B|309:-16|385:63|341:89|373:165|481:134,1,286.874996169806,12|0,0:0|0:0,0:0:0:0:
504,207,154220,1,2,0:0:0:0:
482,214,154319,1,2,0:0:0:0:
461,224,154418,2,0,P|387:263|307:329,1,172.124997701883,0|0,3:2|0:0,0:0:0:0:
261,374,154812,2,0,P|193:320|118:280,1,172.124997701883,2|0,0:0|0:0,0:0:0:0:
42,309,155207,6,0,B|19:217|103:170|124:199|192:133|148:30,1,286.874996169806,12|0,0:0|0:0,0:0:0:0:
102,11,155799,1,2,0:0:0:0:
89,30,155898,1,0,0:0:0:0:
83,52,155997,1,2,0:0:0:0:
189,141,156194,1,0,0:0:0:0:
323,111,156391,1,2,0:0:0:0:
406,0,156589,1,0,0:0:0:0:
333,127,156786,2,0,B|313:201|337:283|442:240,1,172.124997701883,4|0,3:2|0:0,0:0:0:0:
473,215,157181,2,0,P|453:249|423:344,1,114.749998467922,2|0,0:0|0:0,0:0:0:0:
306,384,157576,6,0,P|285:292|227:190,1,172.124997701883,0|0,3:2|0:0,0:0:0:0:
203,158,157970,1,2,3:2:0:0:
244,55,158168,1,0,3:2:0:0:
182,150,158365,2,0,P|89:155|5:151,1,172.124997701883,8|0,0:0|0:0,0:0:0:0:
6,70,158760,2,0,P|69:67|125:71,1,114.749998467922,2|0,0:0|0:0,0:0:0:0:
265,211,159155,2,0,B|298:71|392:2|503:35|511:170|397:170,1,401.624994637728,12|0,0:0|0:0,0:0:0:0:
355,224,159944,2,0,P|391:259|456:231,1,114.749998467922
498,384,160339,2,0,P|446:355|354:343,1,114.749998467922,2|0,0:0|0:0,0:0:0:0:
235,384,160734,2,0,P|225:327|184:203,1,172.124997701883,0|0,3:2|0:0,0:0:0:0:
182,138,161128,6,0,P|153:219|137:303,1,172.124997701883,2|0,0:0|0:0,0:0:0:0:
90,368,161523,2,0,B|-22:361|-20:246|-1:159|47:96|163:43,1,401.624994637728,12|0,0:0|0:0,0:0:0:0:
197,32,162312,2,0,P|219:105|273:206,1,172.124997701883
340,169,162707,2,0,P|299:105|278:45,1,114.749998467922,2|0,0:0|0:0,0:0:0:0:
460,7,163102,2,0,P|419:71|398:131,1,114.749998467922,0|0,3:2|0:0,0:0:0:0:
364,251,163497,2,0,P|445:243|465:214,1,114.749998467922,2|0,0:0|0:0,0:0:0:0:
498,366,163891,6,0,P|384:334|67:294,1,401.624994637728,0|0,3:2|0:0,0:0:0:0:
26,332,164681,2,0,P|29:252|20:141,1,172.124997701883,12|0,0:0|0:0,0:0:0:0:
6,83,165076,2,0,P|41:32|117:58,1,114.749998467922,2|0,0:0|0:0,0:0:0:0:
168,186,165470,2,0,P|271:139|347:134,1,172.124997701883,0|0,3:2|0:0,0:0:0:0:
408,134,165865,6,0,P|410:73|406:12,1,114.749998467922,2|0,0:0|0:0,0:0:0:0:
472,186,166260,1,2,0:0:0:0:
470,208,166359,1,2,0:0:0:0:
472,230,166457,2,0,B|393:208|337:258|356:263|312:336|207:306,1,286.874996169806
146,354,167049,2,0,P|92:292|-1:232,1,172.124997701883,0|0,3:2|0:0,0:0:0:0:
41,163,167444,2,0,P|97:170|151:190,1,114.749998467922,2|0,0:0|0:0,0:0:0:0:
305,61,167839,6,0,P|260:69|222:88,1,57.3749992339611,12|0,3:2|0:0,0:0:0:0:
177,109,168036,1,0,0:0:0:0:
304,41,168234,1,2,0:0:0:0:
441,82,168431,1,0,0:0:0:0:
508,207,168628,5,0,3:2:0:0:
454,72,168826,1,2,0:0:0:0:
304,41,169023,5,0,3:2:0:0:
250,176,169220,1,2,3:2:0:0:
339,289,169418,6,0,B|404:270|417:206|387:146|311:141|230:162|213:246|193:308|119:317|41:267,1,477.000020015717,12|0,3:2|0:0,0:0:0:0:
0,0,170602,6,0,P|23:33|40:66,1,65.250001991272,2|0,0:0|0:0,0:0:0:0:
78,150,170997,2,0,P|100:97|155:17,1,139.500001064301,12|2,0:0|0:0,0:0:0:0:
212,175,171786,2,0,B|271:183|309:125|286:127|325:63|390:61,1,209.250001596451
416,5,172576,2,0,P|445:149|516:288,1,279.000002128601,8|2,0:0|0:0,0:0:0:0:
382,376,173760,6,0,P|395:335|424:292,1,69.7500005321503,2|0,0:0|0:0,0:0:0:0:
394,243,174155,2,0,P|323:237|305:276,1,104.625000798225,8|0,0:0|0:0,0:0:0:0:
304,276,174549,2,0,B|238:309|165:273|192:259|122:191|32:238,1,279.000002128601,2|2,0:0|0:0,0:0:0:0:
123,373,175734,2,0,P|167:241|246:98,1,279.000002128601,8|2,0:0|0:0,0:0:0:0:
33,20,176918,6,0,P|28:9|22:0,5,23.2500001773834
46,15,177312,2,0,P|60:46|63:57,1,34.8750002660751,12|0,0:0|0:0,0:0:0:0:
203,125,177707,2,0,P|231:80|275:13,1,104.625000798225
298,28,178102,2,0,P|286:40|276:54,1,34.8750002660751,2|0,0:0|0:0,0:0:0:0:
512,151,178891,2,0,B|447:120|360:175|413:187|336:236|240:201,1,279.000002128601,8|2,0:0|0:0,0:0:0:0:
0,356,180470,6,0,P|17:282|82:128,1,244.125001862526,12|0,0:0|0:0,0:0:0:0:
120,59,181260,2,0,P|131:180|162:298,1,244.125001862526,12|0,0:0|0:0,0:0:0:0:
200,362,182049,2,0,B|269:353|338:281|353:179|304:143|246:144|217:192,1,332.999998729706,12|0,0:0|0:0,0:0:0:0:
376,316,183234,6,0,P|416:314|443:285,1,69.7500005321503,2|0,0:0|0:0,0:0:0:0:
512,156,183628,2,0,P|459:101|416:18,1,151.875005793572,12|0,0:0|0:0,0:0:0:0:
354,0,184023,2,0,P|320:38|293:90,1,101.250003862381,2|0,0:0|0:0,0:0:0:0:
237,222,184418,2,0,P|159:213|75:223,1,151.875005793572
13,240,184812,1,2,0:0:0:0:
86,199,185010,1,0,0:0:0:0:
166,309,185207,2,0,B|217:327|250:301|238:293|279:275|323:294,1,151.875005793572,8|0,0:0|0:0,0:0:0:0:
372,351,185602,2,0,P|344:293|335:211,1,101.250003862381,2|0,0:0|0:0,0:0:0:0:
320,103,185997,1,2,3:2:0:0:
512,0,186391,6,0,P|485:45|438:43,1,101.250003862381,2|0,0:0|0:0,0:0:0:0:
379,162,186786,2,0,P|356:101|302:-2,1,151.875005793572,8|0,0:0|0:0,0:0:0:0:
242,10,187181,2,0,P|224:61|167:66,1,101.250003862381,2|0,0:0|0:0,0:0:0:0:
60,4,187576,2,0,P|93:64|106:125,1,101.250003862381,2|0,0:0|0:0,0:0:0:0:
176,216,187970,2,0,B|179:175|120:142|46:187,1,151.875005793572,2|0,0:0|0:0,0:0:0:0:
10,243,188365,2,0,B|86:298|169:254|126:248|223:190|313:252,1,303.750011587143,8|0,0:0|0:0,0:0:0:0:
398,304,189155,1,2,3:2:0:0:
503,56,189549,6,0,P|511:30|515:6,5,33.7500012874604
483,60,189944,2,0,P|469:107|458:131,1,50.6250019311906,12|0,0:0|0:0,0:0:0:0:
312,232,190339,2,0,P|283:147|266:68,1,151.875005793572
328,40,190734,2,0,P|336:63|342:88,1,50.6250019311906,2|0,0:0|0:0,0:0:0:0:
238,261,191128,6,0,P|191:231|118:244,1,101.250003862381,2|0,0:0|0:0,0:0:0:0:
0,191,191523,2,0,P|54:125|93:51,1,151.875005793572,8|0,0:0|0:0,0:0:0:0:
161,80,191918,2,0,P|161:155|147:230,1,151.875005793572,2|0,0:0|0:0,0:0:0:0:
119,300,192312,1,2,3:2:0:0:
296,384,192707,5,2,0:0:0:0:
273,260,192905,1,0,0:0:0:0:
309,374,193102,2,0,P|366:369|441:377,1,101.250003862381,8|0,0:0|0:0,0:0:0:0:
512,239,193497,2,0,P|461:241|411:236,1,101.250003862381,2|0,0:0|0:0,0:0:0:0:
241,182,193891,2,0,P|190:179|140:184,1,101.250003862381,8|0,0:0|0:0,0:0:0:0:
38,47,194286,2,0,P|95:52|170:44,1,101.250003862381,2|0,0:0|0:0,0:0:0:0:
345,2,194681,6,0,P|277:177|238:363,1,354.375013518334,12|0,0:0|0:0,0:0:0:0:
309,374,195470,1,12,3:2:0:0:
143,347,195865,5,2,0:0:0:0:
36,359,196062,1,0,0:0:0:0:
159,331,196260,2,0,P|169:274|187:201,1,101.250003862381,8|0,0:0|0:0,0:0:0:0:
241,339,196655,2,0,P|251:282|269:209,1,101.250003862381,2|0,0:0|0:0,0:0:0:0:
327,54,197049,2,0,P|337:111|355:184,1,101.250003862381,8|0,0:0|0:0,0:0:0:0:
409,46,197444,2,0,P|419:103|437:176,1,101.250003862381,2|0,0:0|0:0,0:0:0:0:
512,292,197839,6,0,B|418:322|325:273|367:243|276:188|145:242,1,354.375013518334,12|0,0:0|0:0,0:0:0:0:
105,255,198628,1,12,3:2:0:0:
417,118,199023,6,0,P|413:174|422:233,1,101.250003862381
512,276,199418,2,0,B|403:281|314:202|371:182|290:98|136:118,1,385.875003679991,12|0,0:0|0:0,0:0:0:0:
106,117,200207,1,12,3:2:0:0:
341,273,200602,6,0,P|370:237|377:163,1,110.250001051426
504,75,200997,2,0,B|527:-30|391:-38|364:-6|324:138|465:246,1,417.375017513753,12|0,0:0|0:0,0:0:0:0:
512,276,201786,1,12,3:2:0:0:
329,85,202181,6,0,P|298:154|281:228,1,119.250005003929
242,383,202576,2,0,P|89:205|-1:11,1,433.125004130602,12|0,0:0|0:0,0:0:0:0:
73,0,203365,2,0,P|110:90|168:185,1,185.625001770258,12|0,0:0|0:0,0:0:0:0:
220,131,203760,2,0,P|210:112|198:95,5,41.2500003933907
228,152,204155,1,8,0:0:0:0:
256,192,204253,12,0,207806,0:0:0:0:
