osu file format v14

[General]
AudioFilename: audio.mp3
AudioLeadIn: 0
PreviewTime: 104090
Countdown: 0
SampleSet: Soft
StackLeniency: 0.6
Mode: 0
LetterboxInBreaks: 0
WidescreenStoryboard: 1

[Editor]
Bookmarks: 6788,20999,46262,58894,74683,104682,170997,183628,204157,207707
DistanceSpacing: 1.7
BeatDivisor: 8
GridSize: 8
TimelineZoom: 1.8

[Metadata]
Title:EXEC_COSMOFLIPS/.
TitleUnicode:EXEC_COSMOFLIPS/.
Artist:KOKIA
ArtistUnicode:KOKIA
Creator:Yooh
Version:Hard
Source:アルトネリコ3 ~世界終焉の引鉄は少女の詩が弾く~
Tags:Ar Tonelico 3 Qoga Knell of ar Ciel Gust hymmnos folk instrumental jrpg j-rpg video game hymn Tilia Tyria ティリア sekai shuuen no hikigane wa shoujo uta ga hajiku
BeatmapID:2697712
BeatmapSetID:1299851

[Difficulty]
HPDrainRate:4
CircleSize:5
OverallDifficulty:6
ApproachRate:7
SliderMultiplier:1.4
SliderTickRate:1

[Events]
//Background and Video events
0,0,"thanks-arportal_ntny_wallpaper.jpg",0,0
//Break Periods
2,59093,73783
2,130146,144834
//Storyboard Layer 0 (Background)
//Storyboard Layer 1 (Fail)
//Storyboard Layer 2 (Pass)
//Storyboard Layer 3 (Foreground)
//Storyboard Layer 4 (Overlay)
//Storyboard Sound Samples

[TimingPoints]
473,789.473684210526,4,2,1,40,1,0
473,-100,4,2,1,40,0,0
6394,-90.9090909090909,4,2,1,40,0,0
6788,-83.3333333333333,4,2,1,60,0,0
13005,-100,4,2,2,5,0,0
13104,-83.3333333333333,4,2,1,60,0,0
18532,-100,4,2,2,5,0,0
18630,-83.3333333333333,4,2,1,60,0,0
19420,-83.3333333333333,4,2,1,60,0,0
20999,-90.9090909090909,4,2,1,50,0,0
27216,-100,4,2,2,5,0,0
27315,-90.9090909090909,4,2,1,50,0,0
33532,-100,4,2,2,5,0,0
33630,-90.9090909090909,4,2,1,50,0,0
36788,-90.9090909090909,4,2,1,50,0,0
37578,-86.9565217391304,4,2,1,50,0,0
38367,-83.3333333333333,4,2,1,50,0,0
39157,-90.9090909090909,4,2,1,50,0,0
39847,-90.9090909090909,4,2,2,5,0,0
39946,-80,4,2,1,50,0,0
42315,-76.9230769230769,4,2,1,50,0,0
44683,-76.9230769230769,4,2,1,50,0,0
45867,-90.9090909090909,4,2,1,50,0,0
46262,-83.3333333333333,4,2,1,60,0,0
52479,-90.9090909090909,4,2,2,5,0,0
52578,-83.3333333333333,4,2,1,60,0,0
58005,-83.3333333333333,4,2,2,5,0,0
58104,-83.3333333333333,4,2,1,60,0,0
58894,-125,4,2,1,60,0,0
74683,789.473684210526,4,2,1,50,1,0
74683,-90.9090909090909,4,2,1,50,0,0
80900,-83.3333333333333,4,2,2,5,0,0
80998,-90.9090909090909,4,2,1,50,0,0
87215,-83.3333333333333,4,2,2,5,0,0
87314,-90.9090909090909,4,2,1,50,0,0
96788,-86.9565217391304,4,2,1,50,0,0
97577,-83.3333333333333,4,2,1,50,0,0
98367,-80,4,2,1,50,0,0
99946,-80,4,2,1,50,0,0
103104,-90.9090909090909,4,2,1,50,0,0
104288,-90.9090909090909,4,2,1,50,0,0
104682,-83.3333333333333,4,2,1,60,0,0
110900,-83.3333333333333,4,2,2,5,0,0
110998,-83.3333333333333,4,2,1,60,0,0
116426,-83.3333333333333,4,2,2,5,0,0
116525,-83.3333333333333,4,2,1,60,0,0
123531,-83.3333333333333,4,2,2,5,0,0
123630,-83.3333333333333,4,2,1,60,0,0
129057,-83.3333333333333,4,2,2,5,0,0
129156,-83.3333333333333,4,2,1,60,0,0
129847,-83.3333333333333,4,2,2,5,0,0
129946,-83.3333333333333,4,2,1,60,0,0
145734,789.473684210526,4,2,1,60,1,1
145734,-76.9230769230769,4,2,1,60,0,1
152740,-83.3333333333333,4,2,2,5,0,1
152839,-76.9230769230769,4,2,1,60,0,1
159845,-76.9230769230769,4,2,2,5,0,1
159944,-76.9230769230769,4,2,1,60,0,1
162214,-76.9230769230769,4,2,2,5,0,1
162312,-76.9230769230769,4,2,1,60,0,1
164582,-76.9230769230769,4,2,2,5,0,1
164681,-76.9230769230769,4,2,1,60,0,1
170207,-76.9230769230769,4,2,1,60,0,0
170602,-90.9090909090909,4,2,1,60,0,0
170997,-100,4,2,1,50,0,0
177214,-83.3333333333333,4,2,2,5,0,0
177312,-100,4,2,1,50,0,0
181161,-100,4,2,2,5,0,0
181260,-100,4,2,1,50,0,0
181951,-100,4,2,2,5,0,0
182049,-100,4,2,1,50,0,0
183234,-90.9090909090909,4,2,1,50,0,0
183628,-83.3333333333333,4,2,1,60,0,0
189845,-100,4,2,2,5,0,0
189944,-83.3333333333333,4,2,1,60,0,0
195372,-83.3333333333333,4,2,2,5,0,0
195470,-83.3333333333333,4,2,1,60,0,0
198530,-83.3333333333333,4,2,2,5,0,0
198628,-83.3333333333333,4,2,1,60,0,0
199418,-76.9230769230769,4,2,1,65,0,0
200108,-76.9230769230769,4,2,2,5,0,0
200207,-76.9230769230769,4,2,1,60,0,0
200997,-71.4285714285714,4,2,1,70,0,0
201687,-71.4285714285714,4,2,2,5,0,0
201786,-71.4285714285714,4,2,1,60,0,0
202576,-66.6666666666667,4,2,1,75,0,0
203266,-100,4,2,2,5,0,0
203365,-100,4,2,1,75,0,0
204155,-100,4,2,1,60,0,0
207707,-100,4,2,1,30,0,0

[Colours]
Combo1 : 254,254,82
Combo2 : 20,200,255
Combo3 : 210,168,234
SliderBorder : 201,143,219

[HitObjects]
0,88,473,6,0,P|64:83|153:89,1,140,8|0,0:0|0:0,0:0:0:0:
312,145,2051,2,0,P|314:124|312:106,1,35,8|0,0:0|0:0,0:0:0:0:
276,81,2446,2,0,P|274:62|275:47,1,35,2|0,0:0|0:0,0:0:0:0:
276,0,2841,1,0,0:0:0:0:
457,0,3630,6,0,P|461:62|455:148,1,140,8|0,0:0|0:0,0:0:0:0:
501,316,5209,2,0,P|478:315|459:317,1,35,8|0,0:0|0:0,0:0:0:0:
432,346,5604,2,0,P|409:347|390:345,1,35,2|0,0:0|0:0,0:0:0:0:
351,343,5999,1,0,0:0:0:0:
272,280,6394,6,0,P|260:291|247:311,1,38.5000011749268,2|0,0:0|0:0,0:0:0:0:
227,360,6788,2,0,P|203:321|171:282,1,83.9999974365235,12|0,0:0|0:0,0:0:0:0:
79,246,7578,2,0,P|38:250|0:220,1,83.9999974365235,0|2,0:0|0:0,0:0:0:0:
8,172,8170,1,0,0:0:0:0:
13,116,8367,2,0,B|50:123|82:103|72:99|97:78|139:84,1,125.999996154785,8|0,0:0|0:0,0:0:0:0:
185,92,9157,1,2,0:0:0:0:
286,52,9551,6,0,P|300:26|313:12,1,41.9999987182618
362,17,9946,2,0,P|380:47|403:108,1,83.9999974365235,8|2,0:0|0:0,0:0:0:0:
507,78,10736,2,0,P|485:114|470:153,1,83.9999974365235,2|2,0:0|0:0,0:0:0:0:
498,258,11525,2,0,B|469:235|422:243|395:310,1,125.999996154785,8|0,0:0|0:0,0:0:0:0:
384,353,12315,1,2,0:0:0:0:
269,383,12709,6,0,P|270:350|267:317,1,62.9999980773926
263,293,13104,1,12,0:0:0:0:
139,218,13499,2,0,P|137:238|138:259,1,41.9999987182618,2|0,0:0|0:0,0:0:0:0:
144,314,13894,1,0,0:0:0:0:
52,372,14288,6,0,P|32:353|27:323,1,41.9999987182618,2|0,0:0|0:0,0:0:0:0:
23,285,14683,2,0,P|26:237|41:189,1,83.9999974365235,8|2,0:0|0:0,0:0:0:0:
20,94,15472,1,2,0:0:0:0:
103,23,15867,6,0,P|137:47|144:48,1,41.9999987182618,2|0,0:0|0:0,0:0:0:0:
188,30,16262,2,0,P|246:44|257:75,1,83.9999974365235,8|2,0:0|0:0,0:0:0:0:
364,54,16854,1,0,0:0:0:0:
364,54,17051,2,0,P|340:102|326:145,1,83.9999974365235,8|2,0:0|0:0,0:0:0:0:
329,185,17644,1,0,0:0:0:0:
336,238,17841,6,0,B|386:224|414:247|404:250|438:274|481:252,1,146.999995513916,12|0,0:0|0:0,0:0:0:0:
503,249,18630,2,0,P|444:299|401:385,1,167.999994873047,12|0,0:0|0:0,0:0:0:0:
85,265,20999,6,0,P|98:233|120:196,1,77.0000023498536,12|2,0:0|0:0,0:0:0:0:
71,100,21788,1,2,0:0:0:0:
141,18,22183,1,2,0:0:0:0:
141,18,22380,1,0,0:0:0:0:
141,18,22578,2,0,P|154:50|176:87,1,77.0000023498536,8|0,0:0|0:0,0:0:0:0:
275,99,23367,6,0,P|313:75|314:35,1,77.0000023498536,2|2,0:0|0:0,0:0:0:0:
354,11,23959,1,0,0:0:0:0:
354,11,24157,2,0,P|396:27|434:54,1,77.0000023498536,8|2,0:0|0:0,0:0:0:0:
487,121,24946,2,0,P|454:141|418:154,1,77.0000023498536,0|2,0:0|0:0,0:0:0:0:
289,181,25736,1,8,0:0:0:0:
289,181,25933,1,0,0:0:0:0:
289,181,26130,2,0,P|328:194|346:235,1,77.0000023498536,2|2,0:0|0:0,0:0:0:0:
381,331,26920,2,0,P|352:339|325:355,1,57.7500017623902
306,369,27315,5,12,0:0:0:0:
203,336,27709,2,0,P|204:314|202:286,1,38.5000011749268,2|0,0:0|0:0,0:0:0:0:
198,243,28104,1,2,0:0:0:0:
90,233,28499,2,0,P|89:211|91:183,1,38.5000011749268,2|0,0:0|0:0,0:0:0:0:
88,140,28894,2,0,P|54:121|38:88,1,77.0000023498536,8|2,0:0|0:0,0:0:0:0:
71,50,29486,1,0,0:0:0:0:
71,50,29683,2,0,P|113:48|154:50,1,77.0000023498536,0|2,0:0|0:0,0:0:0:0:
246,5,30472,6,0,P|263:44|303:60,1,77.0000023498536,8|2,0:0|0:0,0:0:0:0:
334,86,31065,1,0,0:0:0:0:
334,86,31262,2,0,P|368:68|408:60,1,77.0000023498536,0|2,0:0|0:0,0:0:0:0:
453,148,32051,2,0,P|454:186|467:225,1,77.0000023498536,8|2,0:0|0:0,0:0:0:0:
497,318,32841,1,0,0:0:0:0:
398,328,33236,2,0,P|362:327|332:330,1,57.7500017623902
314,337,33630,2,0,P|284:294|222:281,1,115.50000352478,12|0,0:0|0:0,0:0:0:0:
172,292,34420,1,2,0:0:0:0:
64,296,34815,6,0,P|48:271|38:249,1,38.5000011749268,2|0,0:0|0:0,0:0:0:0:
80,223,35209,2,0,P|96:177|119:139,1,77.0000023498536,8|2,0:0|0:0,0:0:0:0:
69,51,35999,1,0,0:0:0:0:
166,3,36394,5,2,0:0:0:0:
166,3,36591,1,0,0:0:0:0:
166,3,36788,2,0,P|172:42|205:62,1,77.0000023498536,8|0,0:0|0:0,0:0:0:0:
313,42,37578,2,0,P|352:34|392:30,1,80.5000015354157,2|2,0:0|0:0,0:0:0:0:
506,26,38367,1,8,0:0:0:0:
461,135,38762,1,0,0:0:0:0:
461,135,38959,1,0,0:0:0:0:
461,135,39157,1,2,0:0:0:0:
487,239,39551,6,0,P|458:236|418:242,1,57.7500017623902,2|0,0:0|0:0,0:0:0:0:
400,248,39946,2,0,P|407:308|404:348,1,87.5,12|2,0:0|0:0,0:0:0:0:
352,354,40538,1,0,0:0:0:0:
352,354,40736,2,0,P|305:353|281:307,1,87.5,0|2,0:0|0:0,0:0:0:0:
229,222,41525,1,8,0:0:0:0:
2,107,42315,5,2,0:0:0:0:
70,0,42709,1,2,0:0:0:0:
70,0,42907,1,0,0:0:0:0:
70,0,43104,2,0,B|104:-13|136:8|129:11|158:33|216:13,1,136.499993751526,12|0,0:0|0:0,0:0:0:0:
264,6,43894,1,2,0:0:0:0:
333,112,44288,2,0,P|359:112|383:113,1,45.4999979171754
474,28,44683,2,0,P|451:108|433:222,1,181.999991668702,12|0,0:0|0:0,0:0:0:0:
482,302,45867,6,0,P|457:320|444:336,1,38.5000011749268,2|0,0:0|0:0,0:0:0:0:
399,364,46262,2,0,P|376:326|337:290,1,83.9999974365235,12|2,0:0|0:0,0:0:0:0:
249,219,47051,1,0,0:0:0:0:
180,318,47446,1,2,0:0:0:0:
117,325,47644,1,0,0:0:0:0:
88,381,47841,2,0,P|45:377|-6:381,1,83.9999974365235,8|0,0:0|0:0,0:0:0:0:
0,253,48630,1,2,3:2:0:0:
61,143,49025,6,0,P|59:110|62:86,1,41.9999987182618,2|0,0:0|0:0,0:0:0:0:
64,38,49420,1,8,0:0:0:0:
184,0,49815,2,0,P|184:20|182:41,1,41.9999987182618,2|0,0:0|0:0,0:0:0:0:
218,93,50209,2,0,P|264:89|317:95,1,83.9999974365235,0|2,0:0|0:0,0:0:0:0:
354,56,50801,1,0,0:0:0:0:
403,16,50999,2,0,B|450:14|469:67|442:124,1,125.999996154785,8|0,0:0|0:0,0:0:0:0:
392,141,51788,1,2,3:2:0:0:
409,265,52183,6,0,P|447:262|474:266,1,62.9999980773926
502,271,52578,1,12,0:0:0:0:
438,379,52972,2,0,P|414:381|395:380,1,41.9999987182618
333,373,53367,1,2,0:0:0:0:
237,291,53762,6,0,P|216:309|208:331,1,41.9999987182618,2|0,0:0|0:0,0:0:0:0:
167,367,54157,2,0,P|135:333|112:287,1,83.9999974365235,8|2,0:0|0:0,0:0:0:0:
130,175,54946,1,2,3:2:0:0:
6,199,55341,5,2,0:0:0:0:
18,137,55538,1,0,0:0:0:0:
34,76,55736,2,0,P|58:15|73:-7,1,83.9999974365235,8|2,0:0|0:0,0:0:0:0:
131,2,56328,1,0,0:0:0:0:
194,11,56525,2,0,P|215:47|243:78,1,83.9999974365235,8|2,0:0|0:0,0:0:0:0:
287,121,57117,1,0,0:0:0:0:
332,168,57315,6,0,P|381:129|410:51,1,146.999995513916,12|0,0:0|0:0,0:0:0:0:
408,20,58104,2,0,P|474:28|500:121,1,167.999994873047,12|0,3:2|0:0,0:0:0:0:
202,367,74683,6,0,P|234:363|284:366,1,77.0000023498536,12|2,0:0|0:0,0:0:0:0:
386,368,75472,1,0,0:0:0:0:
471,302,75867,1,2,0:0:0:0:
471,302,76064,1,0,0:0:0:0:
471,302,76261,2,0,B|499:301|510:265|505:229,1,77.0000023498536,8|2,0:0|0:0,0:0:0:0:
502,133,77051,1,0,0:0:0:0:
416,195,77446,6,0,P|397:192|377:193,1,38.5000011749268,2|0,0:0|0:0,0:0:0:0:
342,151,77840,2,0,P|343:106|340:72,1,77.0000023498536,8|2,0:0|0:0,0:0:0:0:
303,33,78433,1,0,0:0:0:0:
303,33,78630,2,0,P|260:25|227:52,1,77.0000023498536,0|2,0:0|0:0,0:0:0:0:
186,139,79419,1,8,0:0:0:0:
186,139,79617,1,0,0:0:0:0:
186,139,79814,1,2,0:0:0:0:
79,154,80209,1,0,0:0:0:0:
8,235,80604,2,0,P|21:263|37:303,1,57.7500017623902
42,311,80998,6,0,P|64:309|88:312,1,38.5000011749268,12|0,0:0|0:0,0:0:0:0:
129,335,81393,1,2,0:0:0:0:
129,335,81590,1,0,0:0:0:0:
129,335,81788,2,0,P|143:297|164:260,1,77.0000023498536,0|2,0:0|0:0,0:0:0:0:
194,218,82380,1,0,0:0:0:0:
250,204,82577,2,0,P|268:237|281:273,1,77.0000023498536,8|2,0:0|0:0,0:0:0:0:
321,375,83367,2,0,P|341:359|360:350,1,38.5000011749268
403,335,83761,2,0,P|411:307|421:289,1,38.5000011749268,2|0,0:0|0:0,0:0:0:0:
439,250,84156,6,0,P|481:243|504:217,1,77.0000023498536,8|2,0:0|0:0,0:0:0:0:
509,110,84946,2,0,P|507:87|511:56,1,38.5000011749268
459,50,85340,2,0,P|437:52|412:49,1,38.5000011749268,2|0,0:0|0:0,0:0:0:0:
381,13,85735,2,0,P|337:10|302:15,1,77.0000023498536,8|2,0:0|0:0,0:0:0:0:
202,49,86525,1,0,0:0:0:0:
268,133,86919,2,0,P|264:167|269:203,1,57.7500017623902
270,216,87314,2,0,B|239:233|208:217|218:214|189:201|142:219,1,115.50000352478,12|0,0:0|0:0,0:0:0:0:
107,234,88104,1,0,0:0:0:0:
18,294,88498,6,0,P|20:318|18:339,1,38.5000011749268
62,365,88893,2,0,P|104:369|146:365,1,77.0000023498536,8|2,0:0|0:0,0:0:0:0:
230,326,89683,2,0,P|272:322|314:326,1,77.0000023498536,0|2,0:0|0:0,0:0:0:0:
389,380,90472,2,0,B|453:380|464:316|427:254,1,154.000004699707,8|0,0:0|0:0,0:0:0:0:
475,173,91656,1,2,0:0:0:0:
410,97,92051,2,0,P|366:150|331:234,1,154.000004699707
306,324,93235,1,2,0:0:0:0:
208,301,93630,1,8,0:0:0:0:
11,337,94419,5,0,0:0:0:0:
76,260,94814,2,0,P|75:237|77:208,1,38.5000011749268,2|0,0:0|0:0,0:0:0:0:
30,200,95209,2,0,P|34:127|29:41,1,154.000004699707,8|0,0:0|0:0,0:0:0:0:
118,0,96393,1,0,0:0:0:0:
190,75,96788,6,0,B|229:90|259:67|244:66|276:45|322:63,1,120.750002303124,8|0,0:0|0:0,0:0:0:0:
349,25,97577,2,0,P|367:94|396:143,1,125.999996154785,8|0,0:0|0:0,0:0:0:0:
451,144,98367,2,0,P|431:219|399:273,1,131.25,8|0,0:0|0:0,0:0:0:0:
363,304,99156,1,2,0:0:0:0:
147,375,99946,6,0,P|124:238|68:67,1,306.25,8|0,0:0|0:0,0:0:0:0:
49,26,101525,1,8,0:0:0:0:
448,2,103104,2,0,P|427:63|411:159,1,154.000004699707,8|0,0:0|0:0,0:0:0:0:
318,187,104288,6,0,P|285:185|268:190,1,38.5000011749268,2|0,0:0|0:0,0:0:0:0:
241,136,104682,2,0,P|199:139|150:135,1,83.9999974365235,12|2,0:0|0:0,0:0:0:0:
59,56,105472,1,0,0:0:0:0:
0,161,105867,1,2,0:0:0:0:
10,223,106064,1,0,0:0:0:0:
2,285,106261,2,0,P|16:310|24:335,1,41.9999987182618,8|0,0:0|0:0,0:0:0:0:
73,356,106656,2,0,P|96:354|127:356,1,41.9999987182618,2|0,0:0|0:0,0:0:0:0:
173,330,107051,1,2,3:2:0:0:
287,382,107446,6,0,P|289:359|287:328,1,41.9999987182618,2|0,0:0|0:0,0:0:0:0:
283,277,107841,1,8,0:0:0:0:
331,160,108235,1,2,0:0:0:0:
380,198,108432,1,0,0:0:0:0:
384,261,108630,2,0,P|427:265|476:261,1,83.9999974365235,2|2,0:0|0:0,0:0:0:0:
493,204,109222,1,0,0:0:0:0:
512,144,109419,2,0,P|489:88|441:24,1,125.999996154785,8|0,0:0|0:0,0:0:0:0:
394,6,110209,1,2,3:2:0:0:
267,2,110604,6,0,P|252:23|230:67,1,62.9999980773926
224,85,110998,1,12,0:0:0:0:
100,109,111393,2,0,P|109:133|126:159,1,41.9999987182618
161,192,111788,1,2,0:0:0:0:
286,181,112182,6,0,P|320:179|343:184,1,41.9999987182618,2|0,0:0|0:0,0:0:0:0:
374,223,112577,2,0,P|418:220|472:228,1,83.9999974365235,8|2,0:0|0:0,0:0:0:0:
511,339,113367,1,2,3:2:0:0:
392,381,113761,6,0,P|376:361|365:328,1,41.9999987182618,2|0,0:0|0:0,0:0:0:0:
326,299,114156,2,0,P|275:296|228:301,1,83.9999974365235,8|2,0:0|0:0,0:0:0:0:
190,335,114748,1,0,0:0:0:0:
143,377,114946,2,0,B|112:371|102:346|102:302,1,83.9999974365235,8|2,0:0|0:0,0:0:0:0:
50,276,115538,1,0,0:0:0:0:
0,238,115735,6,0,P|15:177|67:101,1,146.999995513916,12|0,0:0|0:0,0:0:0:0:
92,112,116525,1,12,3:2:0:0:
14,13,116919,6,0,P|43:6|57:-5,1,41.9999987182618,2|0,0:0|0:0,0:0:0:0:
115,4,117314,2,0,P|169:13|206:38,1,83.9999974365235,12|2,0:0|0:0,0:0:0:0:
278,120,118104,1,0,0:0:0:0:
343,12,118498,1,2,0:0:0:0:
405,23,118696,1,0,0:0:0:0:
454,61,118893,2,0,P|444:92|432:153,1,83.9999974365235,8|2,0:0|0:0,0:0:0:0:
358,244,119682,1,2,3:2:0:0:
473,294,120077,6,0,P|473:263|472:241,1,41.9999987182618,2|0,0:0|0:0,0:0:0:0:
471,188,120472,1,8,0:0:0:0:
358,244,120867,1,2,0:0:0:0:
353,302,121064,1,0,0:0:0:0:
355,361,121261,2,0,P|312:364|257:359,1,83.9999974365235,2|2,0:0|0:0,0:0:0:0:
208,350,121854,1,0,0:0:0:0:
155,384,122051,2,0,P|146:343|98:263,1,125.999996154785,8|0,0:0|0:0,0:0:0:0:
60,226,122840,1,2,3:2:0:0:
8,110,123235,6,0,P|46:94|58:60,1,62.9999980773926
60,44,123630,1,12,0:0:0:0:
180,7,124025,2,0,P|188:37|202:52,1,41.9999987182618
232,95,124419,1,2,0:0:0:0:
243,220,124814,2,0,P|198:238|196:240,1,41.9999987182618,2|0,0:0|0:0,0:0:0:0:
164,282,125209,2,0,P|202:316|240:325,1,83.9999974365235,8|2,0:0|0:0,0:0:0:0:
338,255,125998,1,2,3:2:0:0:
441,327,126393,6,0,P|451:292|456:284,1,41.9999987182618,2|0,0:0|0:0,0:0:0:0:
497,241,126788,2,0,P|500:199|495:157,1,83.9999974365235,8|2,0:0|0:0,0:0:0:0:
440,125,127380,1,0,0:0:0:0:
382,101,127577,2,0,P|378:59|383:17,1,83.9999974365235,8|2,0:0|0:0,0:0:0:0:
320,6,128169,1,0,0:0:0:0:
257,3,128367,6,0,P|251:77|259:160,1,146.999995513916,12|0,0:0|0:0,0:0:0:0:
261,181,129156,2,0,P|219:120|187:54,1,146.999995513916,12|0,3:2|0:0,0:0:0:0:
178,24,129946,1,0,0:0:0:0:
0,107,145734,6,0,P|23:160|58:300,1,181.999991668702,12|2,0:0|0:0,0:0:0:0:
64,366,146720,1,0,0:0:0:0:
64,366,146918,2,0,P|81:349|105:331,1,45.4999979171754,2|0,0:0|0:0,0:0:0:0:
171,290,147312,2,0,P|206:326|257:343,1,90.9999958343508,12|0,0:0|0:0,0:0:0:0:
328,359,147905,1,2,0:0:0:0:
328,359,148102,1,0,3:2:0:0:
499,341,148497,2,0,P|492:320|488:289,1,45.4999979171754,2|0,3:2|0:0,0:0:0:0:
504,212,148891,6,0,P|458:204|409:181,1,90.9999958343508,12|0,0:0|0:0,0:0:0:0:
359,121,149484,1,2,0:0:0:0:
359,121,149681,2,0,P|362:76|357:21,1,90.9999958343508,2|2,0:0|0:0,0:0:0:0:
271,30,150273,1,0,0:0:0:0:
271,30,150470,2,0,P|267:75|270:120,1,90.9999958343508,0|2,0:0|0:0,0:0:0:0:
246,204,151062,1,0,0:0:0:0:
246,204,151260,2,0,P|250:228|250:252,1,45.4999979171754
192,313,151655,2,0,P|168:317|144:317,1,45.4999979171754,2|0,0:0|0:0,0:0:0:0:
63,337,152049,6,0,B|5:330|11:238|56:192,1,159.249992710114,12|0,0:0|0:0,0:0:0:0:
73,170,152839,1,2,0:0:0:0:
107,0,153234,1,2,0:0:0:0:
107,0,153431,1,0,0:0:0:0:
107,0,153628,2,0,P|121:34|171:51,1,90.9999958343508,12|0,0:0|0:0,0:0:0:0:
256,49,154220,1,2,0:0:0:0:
256,49,154418,2,0,P|288:21|333:6,1,90.9999958343508,0|2,3:2|3:2,0:0:0:0:
504,33,155207,6,0,P|489:83|484:130,1,90.9999958343508,12|0,0:0|0:0,0:0:0:0:
492,207,155799,1,2,0:0:0:0:
492,207,155997,2,0,P|442:208|395:200,1,90.9999958343508,2|2,0:0|0:0,0:0:0:0:
315,195,156589,1,0,0:0:0:0:
315,195,156786,2,0,P|346:241|369:322,1,136.499993751526
292,360,157576,2,0,P|262:358|235:363,1,45.4999979171754,0|0,3:2|0:0,0:0:0:0:
202,286,157970,2,0,P|172:288|145:283,1,45.4999979171754,2|0,3:2|3:2,0:0:0:0:
79,248,158365,6,0,P|67:214|25:174,1,90.9999958343508,8|2,0:0|0:0,0:0:0:0:
49,92,158957,1,0,0:0:0:0:
49,92,159155,2,0,B|92:110|133:84|118:80|157:52|209:65,1,159.249992710114,12|0,0:0|0:0,0:0:0:0:
236,86,159944,2,0,P|266:88|293:84,1,45.4999979171754
368,96,160339,2,0,P|381:72|392:52,1,45.4999979171754,2|0,0:0|0:0,0:0:0:0:
457,2,160734,1,0,3:2:0:0:
484,172,161128,6,0,P|484:216|489:238,1,45.4999979171754,2|0,0:0|0:0,0:0:0:0:
504,301,161523,2,0,P|433:311|334:348,1,159.249992710114,12|0,0:0|0:0,0:0:0:0:
327,376,162312,2,0,P|301:379|266:375,1,45.4999979171754
195,371,162707,2,0,P|192:345|196:310,1,45.4999979171754,2|0,0:0|0:0,0:0:0:0:
155,223,163102,2,0,P|129:220|94:224,1,45.4999979171754,0|0,3:2|0:0,0:0:0:0:
24,235,163497,2,0,P|27:209|23:174,1,45.4999979171754,2|0,0:0|0:0,0:0:0:0:
12,104,163891,6,0,P|107:72|134:15,1,159.249992710114,0|0,3:2|0:0,0:0:0:0:
176,21,164681,2,0,P|203:42|225:49,1,45.4999979171754,12|0,0:0|0:0,0:0:0:0:
299,43,165076,2,0,P|326:22|348:15,1,45.4999979171754,2|0,0:0|0:0,0:0:0:0:
425,63,165470,2,0,P|423:94|428:122,1,45.4999979171754,0|0,3:2|0:0,0:0:0:0:
508,129,165865,2,0,P|510:160|505:188,1,45.4999979171754,2|0,0:0|0:0,0:0:0:0:
478,255,166260,1,2,0:0:0:0:
502,381,166655,5,0,0:0:0:0:
502,381,166852,1,0,0:0:0:0:
502,381,167049,2,0,P|467:378|439:386,1,45.4999979171754,0|0,3:2|0:0,0:0:0:0:
384,368,167444,5,2,0:0:0:0:
384,368,167641,1,0,0:0:0:0:
384,368,167839,2,0,P|359:342|347:316,1,45.4999979171754,12|0,3:2|0:0,0:0:0:0:
261,310,168234,2,0,P|236:335|224:361,1,45.4999979171754,2|0,3:2|3:2,0:0:0:0:
136,331,168628,2,0,P|111:305|99:279,1,45.4999979171754,0|2,0:0|0:0,0:0:0:0:
24,256,169023,2,0,P|33:222|50:199,1,45.4999979171754,0|2,3:2|3:2,0:0:0:0:
5,128,169418,6,0,B|61:143|100:114|87:113|117:72|188:96,1,181.999991668702,12|0,3:2|0:0,0:0:0:0:
249,30,170602,6,0,P|265:17|281:6,1,38.5000011749268,2|0,0:0|0:0,0:0:0:0:
325,23,170997,2,0,P|336:57|350:91,1,70,12|2,0:0|0:0,0:0:0:0:
392,176,171786,1,0,0:0:0:0:
477,352,172576,2,0,P|502:285|513:215,1,140,8|2,0:0|0:0,0:0:0:0:
462,134,173760,6,0,P|444:138|427:144,1,35,2|0,0:0|0:0,0:0:0:0:
392,176,174155,1,8,0:0:0:0:
368,271,174549,2,0,B|329:277|299:254|309:252|276:230|229:243,1,140,2|2,0:0|0:0,0:0:0:0:
144,279,175734,2,0,P|76:268|51:203,1,140,8|2,0:0|0:0,0:0:0:0:
13,117,176918,6,0,P|38:106|62:86,1,52.5
69,69,177312,1,12,0:0:0:0:
161,35,177707,2,0,P|169:52|180:66,1,35
214,99,178102,1,2,0:0:0:0:
310,83,178497,1,0,0:0:0:0:
406,65,178891,2,0,P|388:135|375:207,1,140,8|2,0:0|0:0,0:0:0:0:
357,298,180076,6,0,P|382:300|402:298,1,35
418,341,180470,2,0,P|373:383|309:372,1,122.5,12|0,0:0|0:0,0:0:0:0:
294,365,181260,2,0,P|264:309|217:258,1,122.5,12|0,0:0|0:0,0:0:0:0:
205,251,182049,2,0,B|140:281|94:267|81:225,1,140,12|0,0:0|0:0,0:0:0:0:
11,136,183234,6,0,P|10:111|22:86,1,38.5000011749268,2|0,0:0|0:0,0:0:0:0:
31,37,183628,2,0,P|74:40|125:38,1,83.9999974365235,12|2,0:0|0:0,0:0:0:0:
206,126,184418,1,0,0:0:0:0:
254,9,184812,1,2,0:0:0:0:
316,18,185010,1,0,0:0:0:0:
377,7,185207,2,0,P|375:30|377:61,1,41.9999987182618,8|0,0:0|0:0,0:0:0:0:
418,95,185602,2,0,P|441:97|472:95,1,41.9999987182618,2|0,0:0|0:0,0:0:0:0:
506,138,185997,1,2,3:2:0:0:
462,256,186392,6,0,P|439:254|408:256,1,41.9999987182618,2|0,0:0|0:0,0:0:0:0:
390,198,186787,1,8,0:0:0:0:
271,239,187181,1,2,0:0:0:0:
307,290,187378,1,0,0:0:0:0:
315,352,187576,2,0,P|271:355|218:352,1,83.9999974365235,2|2,0:0|0:0,0:0:0:0:
169,365,188168,1,0,0:0:0:0:
108,384,188365,2,0,P|89:311|61:254,1,125.999996154785,8|0,0:0|0:0,0:0:0:0:
91,206,189155,1,2,3:2:0:0:
7,111,189549,6,0,P|19:72|36:43,1,62.9999980773926
45,25,189944,1,12,0:0:0:0:
170,11,190339,2,0,P|155:34|148:53,1,41.9999987182618
131,108,190734,1,2,0:0:0:0:
222,193,191128,6,0,P|249:191|280:193,1,41.9999987182618,2|0,0:0|0:0,0:0:0:0:
297,138,191523,2,0,P|324:140|387:130,1,83.9999974365235,8|2,0:0|0:0,0:0:0:0:
470,44,192312,1,2,3:2:0:0:
497,166,192707,6,0,P|495:191|485:212,1,41.9999987182618,2|0,0:0|0:0,0:0:0:0:
496,269,193102,2,0,P|454:244|413:231,1,83.9999974365235,8|2,0:0|0:0,0:0:0:0:
387,286,193694,1,0,0:0:0:0:
349,336,193891,2,0,P|307:361|266:374,1,83.9999974365235,8|2,0:0|0:0,0:0:0:0:
211,364,194483,1,0,0:0:0:0:
148,362,194681,2,0,P|171:278|201:224,1,146.999995513916,12|0,0:0|0:0,0:0:0:0:
220,202,195470,1,12,3:2:0:0:
113,134,195865,6,0,P|88:136|57:132,1,41.9999987182618,2|0,0:0|0:0,0:0:0:0:
9,125,196260,2,0,B|-9:108|0:73|31:35,1,83.9999974365235,8|2,0:0|0:0,0:0:0:0:
77,20,196852,1,0,0:0:0:0:
138,0,197049,2,0,B|162:-1|181:30|186:79,1,83.9999974365235,8|2,0:0|0:0,0:0:0:0:
232,102,197641,1,0,0:0:0:0:
288,134,197839,2,0,P|348:130|421:93,1,125.999996154785,12|0,0:0|0:0,0:0:0:0:
436,38,198628,1,12,3:2:0:0:
463,178,199023,6,0,P|461:209|463:228,1,41.9999987182618
496,289,199418,2,0,B|452:272|419:299|434:299|399:337|326:307,1,159.249992710114,12|0,0:0|0:0,0:0:0:0:
308,300,200207,1,12,3:2:0:0:
154,283,200602,6,0,P|126:281|105:283,1,45.4999979171754
49,341,200997,2,0,P|43:265|21:156,1,171.499994766236,12|0,0:0|0:0,0:0:0:0:
8,133,201786,1,12,3:2:0:0:
173,154,202181,6,0,P|203:152|223:138,1,48.9999985046387
269,68,202576,2,0,P|361:79|371:169,1,183.750007009506,12|0,0:0|0:0,0:0:0:0:
390,183,203365,2,0,P|350:218|258:198,1,140,12|8,0:0|0:0,0:0:0:0:
256,192,204253,12,0,207806,0:0:0:0:
