osu file format v14

[General]
AudioFilename: audio.mp3
AudioLeadIn: 0
PreviewTime: 32496
Countdown: 0
SampleSet: Soft
StackLeniency: 0.4
Mode: 0
LetterboxInBreaks: 0
WidescreenStoryboard: 0

[Editor]
DistanceSpacing: 1.4
BeatDivisor: 4
GridSize: 4
TimelineZoom: 2.000001

[Metadata]
Title:Chouwa oto ~with reflection~
TitleUnicode:調和 oto~with reflection~
Artist:KOKIA
ArtistUnicode:KOKIA
Creator:Mirash
Version:three twenty five fifteen twenty one twenty three one
Source:銀色の髪のアギト
Tags:origin spirits of the past Gin iro no Kami no Agito Silver Haired
BeatmapID:1775268
BeatmapSetID:848951

[Difficulty]
HPDrainRate:6
CircleSize:4.4
OverallDifficulty:8
ApproachRate:8.5
SliderMultiplier:1
SliderTickRate:1

[Events]
//Background and Video events
0,0,"bg.png",0,0
//Break Periods
2,104161,106828
//Storyboard Layer 0 (Background)
//Storyboard Layer 1 (Fail)
//Storyboard Layer 2 (Pass)
//Storyboard Layer 3 (Foreground)
//Storyboard Sound Samples

[TimingPoints]
497,333.333333333333,6,2,1,40,1,0
16496,-166.666666666667,6,2,1,20,0,0
32496,-125,6,2,1,40,0,0
38496,-333.333333333333,6,2,1,40,0,0
40496,-125,6,2,1,40,0,0
48496,-100,6,2,1,50,0,0
54830,-142.857142857143,6,2,1,50,0,0
56496,-100,6,2,1,50,0,0
64496,333.333333333333,5,2,1,50,1,0
64496,-200,5,2,1,30,0,0
70162,333.333333333333,5,2,1,30,1,0
70162,-200,5,2,1,30,0,0
76828,-200,5,2,1,35,0,0
82495,333.333333333333,5,2,1,35,1,0
82495,-200,5,2,1,35,0,0
88162,333.333333333333,6,2,1,50,1,0
88162,-83.3333333333333,6,2,1,50,0,0
94162,-200,6,2,1,50,0,0
96161,-83.3333333333333,6,2,1,50,0,0
103161,-200,6,2,1,50,0,0
103245,-200,6,2,1,30,0,0
109495,-200,6,2,1,40,0,0
109828,-200,6,2,1,50,0,0
110161,-333.333333333333,6,2,1,60,0,0
110995,-333.333333333333,6,2,1,50,0,0
111161,-500,6,2,1,70,0,0
111828,-500,6,2,1,5,0,0
113828,333.333333333333,6,2,1,60,1,0
113828,-66.6666666666667,6,2,1,60,0,0
121161,-66.6666666666667,6,2,1,50,0,0
121827,-76.9230769230769,6,2,1,55,0,0
136827,-76.9230769230769,6,2,1,45,0,0
137161,-76.9230769230769,6,2,1,35,0,0
137494,-76.9230769230769,6,2,1,30,0,0
137827,-66.6666666666667,6,2,1,60,0,0
143827,-57.1428571428571,6,2,1,60,0,0
145827,-66.6666666666667,6,2,1,60,0,0
153494,-66.6666666666667,6,2,1,50,0,0
153827,-76.9230769230769,6,2,1,55,0,0
159827,-66.6666666666667,6,2,1,55,0,0
169827,338.983050847458,6,2,1,40,1,0
169827,-200,6,2,1,40,0,0
170843,-200,6,2,1,20,0,0
170928,-200,6,2,1,40,0,0
171860,333.333333333333,6,2,1,40,1,0
171860,-200,6,2,1,40,0,0
172860,-200,6,2,1,20,0,0
172943,-200,6,2,1,40,0,0
174860,-200,6,2,1,20,0,0
174943,-200,6,2,1,40,0,0
175860,-200,6,2,1,35,0,0
176526,-200,6,2,0,35,0,0
176860,-200,6,2,1,35,0,0
177693,-200,6,2,1,10,0,0
177860,338.983050847458,6,2,1,30,1,0
177860,-200,6,2,1,30,0,0
178876,-200,6,2,1,10,0,0
178886,-200,6,2,1,30,0,0
179215,-200,6,2,0,30,0,0
179225,-200,6,2,1,30,0,0
179554,-200,6,2,0,30,0,0
179639,-200,6,2,1,30,0,0
179893,329.67032967033,6,2,1,30,1,0
179893,-200,6,2,1,30,0,0
180882,-200,6,2,0,30,0,0
180892,-200,6,2,1,30,0,0
181211,-200,6,2,0,30,0,0
181221,-200,6,2,1,30,0,0
181541,-200,6,2,0,30,0,0
181551,-200,6,2,1,30,0,0
181871,-200,6,2,1,20,0,0
183189,-200,6,2,0,20,0,0
183199,-200,6,2,1,20,0,0
183519,-200,6,2,0,20,0,0
183601,-200,6,2,1,20,0,0
183849,375,6,2,1,20,1,0
183849,-200,6,2,1,10,0,0
184224,365.853658536585,6,2,0,10,1,0
184406,-333.333333333333,6,2,1,10,0,0
184772,416.666666666667,6,2,1,10,1,0
184980,-100,6,2,1,5,0,0

[Colours]
Combo1 : 232,0,232
Combo2 : 255,255,255
Combo3 : 255,28,28
Combo4 : 185,185,185
Combo5 : 122,122,122
Combo6 : 0,171,253
Combo7 : 0,225,225
Combo8 : 153,51,255

[HitObjects]
127,365,16496,38,0,P|125:302|128:240,1,119.999996337891,2|0,0:0|0:0,0:0:0:0:
127,245,17496,1,0,1:0:0:0:
127,245,17830,1,0,0:0:0:0:
127,245,18163,1,0,0:0:0:0:
385,19,18496,6,0,P|387:82|384:144,1,119.999996337891,4|0,3:0|0:0,0:0:0:0:
384,138,19330,1,0,0:0:0:0:
384,138,19496,1,0,1:0:0:0:
395,149,19830,1,0,0:0:0:0:
399,153,20163,1,4,3:0:0:0:
183,189,20496,102,0,P|146:182|60:172,1,119.999996337891,4|0,3:0|0:0,0:0:0:0:
70,178,21330,1,0,0:0:0:0:
70,178,21496,2,0,L|61:246,2,59.9999981689454,0|0|0,1:0|0:0|0:0,0:0:0:0:
258,374,22496,5,4,3:0:0:0:
258,374,22830,1,0,0:0:0:0:
258,374,23163,1,0,0:0:0:0:
328,378,23330,1,0,1:0:0:0:
397,383,23496,2,0,P|396:352|397:314,2,59.9999981689454,0|0|4,1:0|0:0|3:0,0:0:0:0:
253,10,24496,102,0,P|255:46|258:141,1,119.999996337891,4|0,3:0|0:0,0:0:0:0:
257,129,25496,1,0,1:0:0:0:
257,129,25830,1,0,0:0:0:0:
257,129,26163,1,0,0:0:0:0:
457,347,26496,6,0,P|456:317|449:217,1,119.999996337891,4|0,3:0|0:0,0:0:0:0:
451,227,27330,1,0,1:0:0:0:
451,227,27496,1,0,1:0:0:0:
461,238,27830,1,0,0:0:0:0:
465,242,28163,1,4,3:0:0:0:
263,264,28496,102,0,P|225:262|136:258,1,119.999996337891,4|0,3:0|0:0,0:0:0:0:
149,264,29330,1,0,0:0:0:0:
149,264,29496,2,0,P|151:317|152:336,2,59.9999981689454,0|0|0,1:0|0:0|0:0,0:0:0:0:
252,51,30496,5,4,3:0:0:0:
329,69,30830,1,0,0:0:0:0:
273,125,31163,1,0,1:0:0:0:
196,103,31496,1,0,1:0:0:0:
196,103,32163,1,4,3:0:0:0:
499,165,32496,6,0,P|497:211|498:248,1,80,4|0,1:0|0:0,0:0:0:0:
440,291,32996,2,0,P|416:291|386:293,1,40,0|0,1:0|0:0,0:0:0:0:
186,143,33330,1,0,1:0:0:0:
133,190,33496,2,0,P|111:189|93:189,1,40,8|0,1:0|0:0,0:0:0:0:
32,158,33830,2,0,P|34:136|35:118,2,40,0|0|0,1:0|0:0|1:0,0:0:0:0:
0,220,34330,1,0,1:0:0:0:
238,365,34496,6,0,P|281:364|324:368,1,80,4|0,3:3|0:0,0:0:0:0:
423,328,34996,2,0,P|401:327|371:326,1,40,0|0,1:0|0:0,0:0:0:0:
186,232,35330,1,0,1:0:0:0:
122,191,35496,2,0,P|102:191|82:192,1,40,8|0,1:0|0:0,0:0:0:0:
200,139,35830,1,0,1:0:0:0:
273,158,35996,1,0,0:0:0:0:
274,278,36163,2,0,P|273:253|273:231,1,40,8|0,3:3|1:0,0:0:0:0:
455,32,36496,102,0,P|457:62|456:123,1,80,4|0,3:0|1:0,0:0:0:0:
398,165,36996,2,0,P|400:199|401:211,1,40,0|0,1:0|0:0,0:0:0:0:
156,114,37330,1,4,1:2:0:0:
109,172,37496,2,0,P|111:206|112:218,1,40,8|0,1:0|0:0,0:0:0:0:
259,37,37830,2,0,P|257:71|256:83,1,40,0|0,1:0|0:0,0:0:0:0:
251,148,38163,1,0,1:0:0:0:
261,223,38330,1,4,1:2:0:0:
257,372,38496,6,0,P|256:342|262:292,1,74.9999977111817,4|0,1:0|0:0,0:0:0:0:
353,24,39496,102,0,P|353:53|351:87,1,59.9999981689454,2|8,0:0|3:0,0:0:0:0:
258,199,40330,1,0,0:0:0:0:
127,124,40496,6,0,P|124:94|125:35,1,80,4|0,3:0|0:0,0:0:0:0:
58,12,40996,2,0,P|35:13|12:15,1,40,0|0,1:0|0:0,0:0:0:0:
18,184,41330,1,0,1:0:0:0:
51,247,41496,2,0,P|48:272|47:288,1,40,8|0,1:0|0:0,0:0:0:0:
256,361,41830,2,0,P|254:341|252:321,1,40,0|0,1:0|0:0,0:0:0:0:
326,252,42163,1,0,1:0:0:0:
327,322,42330,1,0,1:0:0:0:
326,252,42496,102,0,P|326:209|322:158,1,80,4|0,3:0|0:0,0:0:0:0:
325,98,42996,2,0,P|347:97|367:96,1,40,0|0,1:0|0:0,0:0:0:0:
497,222,43330,1,0,1:0:0:0:
502,294,43496,2,0,P|503:316|504:336,1,40,8|0,1:0|0:0,0:0:0:0:
345,345,43830,1,0,1:0:0:0:
351,268,43996,1,0,0:0:0:0:
345,345,44163,2,0,P|323:346|303:347,1,40,0|0,1:0|1:0,0:0:0:0:
28,333,44496,6,0,P|29:294|28:239,1,80,4|0,3:0|1:0,0:0:0:0:
28,253,44996,1,0,1:0:0:0:
36,260,45330,1,0,1:0:0:0:
53,188,45496,2,0,P|52:149|53:94,1,80,8|0,1:0|1:0,0:0:0:0:
258,5,45996,2,0,P|254:36|253:57,2,40,0|0|0,0:0|1:0|1:0,0:0:0:0:
255,188,46496,102,0,P|259:234|265:277,1,80,4|0,3:0|1:0,0:0:0:0:
129,219,46996,1,0,1:0:0:0:
111,340,47163,1,0,0:0:0:0:
143,135,47330,1,8,1:0:0:0:
161,256,47497,1,4,3:0:0:0:
161,256,47830,1,4,3:0:0:0:
161,256,48163,1,8,3:0:0:0:
297,74,48496,22,0,P|343:75|406:115,1,100,4|0,1:0|1:0,0:0:0:0:
248,231,48996,2,0,L|255:174,1,50,8|0,1:0|0:0,0:0:0:0:
397,224,49330,1,0,1:0:0:0:
467,286,49496,2,0,P|445:297|420:298,1,50,2|0,1:2|0:0,0:0:0:0:
371,357,49830,1,8,1:0:0:0:
293,339,49996,1,0,0:0:0:0:
176,369,50163,1,8,1:2:0:0:
73,332,50330,1,0,1:0:0:0:
4,192,50496,6,0,P|12:156|14:85,1,100,4|0,1:3|1:0,0:0:0:0:
99,214,50996,2,0,L|156:206,1,50,8|0,1:0|0:0,0:0:0:0:
99,109,51330,1,0,1:0:0:0:
132,25,51496,2,0,P|148:50|170:71,1,50,2|0,1:2|0:0,0:0:0:0:
262,194,51830,1,8,1:0:0:0:
367,186,51996,1,0,0:0:0:0:
321,88,52163,1,0,1:0:0:0:
219,98,52330,1,0,1:0:0:0:
255,274,52496,102,0,P|262:308|265:386,1,100,4|0,1:3|1:0,0:0:0:0:
255,274,52996,2,0,P|258:239|261:223,1,50,8|0,1:0|0:0,0:0:0:0:
260,224,53330,5,0,1:0:0:0:
239,131,53496,1,2,1:2:0:0:
331,56,53663,1,0,0:0:0:0:
425,87,53830,1,8,1:0:0:0:
451,187,53996,1,4,0:0:0:0:
377,257,54163,1,8,1:2:0:0:
346,159,54330,1,0,1:0:0:0:
9,190,54496,101,4,1:3:0:0:
9,190,54830,2,0,L|122:177,1,104.999996795654,0|0,1:0|0:0,0:0:0:0:
113,177,55496,2,0,L|197:186,2,69.9999978637696,2|0|4,0:0|0:0|3:0,0:0:0:0:
55,219,56330,1,0,1:0:0:0:
275,119,56496,6,0,L|271:185,1,50,4|0,1:3|0:0,0:0:0:0:
338,325,56830,1,0,1:0:0:0:
412,358,56996,1,8,1:0:0:0:
386,332,57163,1,0,0:0:0:0:
293,364,57330,1,0,1:0:0:0:
187,339,57496,2,0,P|160:338|134:341,1,50,2|0,1:2|0:0,0:0:0:0:
84,255,57830,2,0,P|93:226|99:202,1,50,8|0,1:0|0:0,0:0:0:0:
222,197,58163,2,0,P|232:231|241:253,1,50,8|0,1:2|1:0,0:0:0:0:
165,109,58496,102,0,P|164:57|170:3,1,100,4|0,1:3|1:0,0:0:0:0:
165,109,58996,2,0,P|161:134|159:161,1,50,8|0,1:0|0:0,0:0:0:0:
159,158,59330,1,0,1:0:0:0:
296,262,59496,5,2,1:2:0:0:
392,243,59663,1,0,0:0:0:0:
334,106,59830,1,8,1:0:0:0:
201,93,59996,1,0,0:0:0:0:
85,290,60163,1,0,1:0:0:0:
181,309,60330,1,0,1:0:0:0:
369,376,60496,102,0,P|415:375|471:365,1,100,4|0,1:3|1:0,0:0:0:0:
289,307,60996,2,0,L|296:361,1,50,8|0,1:0|0:0,0:0:0:0:
289,307,61330,1,0,1:0:0:0:
368,175,61496,5,2,1:2:0:0:
348,107,61663,1,0,1:0:0:0:
156,129,61830,1,8,1:0:0:0:
154,14,61996,1,8,1:0:0:0:
469,62,62163,101,8,1:2:0:0:
438,237,62330,1,0,1:0:0:0:
260,196,62496,5,4,1:3:0:0:
191,218,62830,101,0,1:0:0:0:
333,181,62996,1,8,1:0:0:0:
188,208,63163,5,0,0:0:0:0:
334,189,63329,1,0,1:0:0:0:
191,202,63496,101,2,1:2:0:0:
154,190,63663,1,4,3:0:0:0:
98,143,63830,1,8,1:0:0:0:
30,125,63996,1,0,0:0:0:0:
103,125,64163,1,8,1:0:0:0:
195,92,64330,1,8,3:0:0:0:
413,190,64496,86,0,P|409:223|409:247,1,50,4|0,0:1|0:0,0:0:0:0:
357,287,64996,2,0,P|360:313|369:360,1,75,2|0,0:0|0:0,0:0:0:0:
369,360,65829,1,4,3:0:0:0:
134,268,66162,6,0,P|137:238|135:183,2,75,0|0|0,1:0|0:0|0:0,0:0:0:0:
172,289,67329,1,0,0:0:0:0:
230,230,67496,1,0,0:0:0:0:
231,122,67662,1,0,0:0:0:0:
146,44,67829,102,0,P|122:44|69:50,2,75,0|0|0,1:0|0:0|0:0,0:0:0:0:
301,94,68996,1,0,0:0:0:0:
357,137,69162,2,0,P|376:135|390:132,1,25,0|0,0:0|0:0,0:0:0:0:
511,195,69496,1,0,1:0:0:0:
12,196,70162,6,0,P|14:231|11:273,1,75,0|0,1:0|0:0,0:0:0:0:
66,316,70828,2,0,P|65:335|65:350,1,25,0|0,0:0|0:0,0:0:0:0:
135,284,71162,1,0,1:0:0:0:
220,263,71328,1,0,0:0:0:0:
153,259,71495,1,4,1:3:0:0:
345,325,71828,102,0,P|344:293|342:273,1,50,0|0,1:0|0:0,0:0:0:0:
296,221,72328,1,0,1:0:0:0:
296,221,72662,1,0,0:0:0:0:
348,172,72828,2,0,P|349:140|351:120,1,50,0|0,1:0|0:0,0:0:0:0:
167,59,73495,6,0,P|168:91|170:111,1,50,4|0,1:3|0:0,0:0:0:0:
216,163,73995,1,0,1:0:0:0:
216,163,74329,1,0,1:0:0:0:
164,212,74495,2,0,P|163:244|161:264,1,50,0|8,1:0|1:3,0:0:0:0:
167,59,75162,102,0,P|168:91|170:111,1,50,4|0,1:3|0:0,0:0:0:0:
216,163,75662,1,0,1:0:0:0:
216,163,75996,1,0,1:0:0:0:
164,212,76162,2,0,P|163:244|161:264,1,50,0|8,1:0|1:3,0:0:0:0:
468,104,76828,21,2,1:2:0:0:
405,65,76995,1,0,0:0:0:0:
336,100,77162,1,0,0:0:0:0:
337,185,77328,1,0,3:0:0:0:
412,259,77495,2,0,P|421:298|421:319,2,50,0|0|2,3:0|1:0|1:2,0:0:0:0:
387,249,78328,1,0,0:0:0:0:
176,185,78495,5,2,1:2:0:0:
87,180,78661,1,0,0:0:0:0:
37,254,78828,1,0,0:0:0:0:
93,209,78995,1,0,3:0:0:0:
60,113,79161,1,0,3:0:0:0:
151,127,79328,1,0,0:0:0:0:
88,98,79495,101,0,1:0:0:0:
206,72,79661,1,0,0:0:0:0:
206,72,79745,1,0,1:0:0:0:
206,72,79828,1,0,1:0:0:0:
285,191,79995,1,0,1:0:0:0:
416,148,80161,6,0,P|419:192|421:203,1,50,2|0,1:2|0:0,0:0:0:0:
420,197,80661,2,0,P|423:241|425:252,1,50,0|0,1:0|0:0,0:0:0:0:
198,368,81161,1,0,1:0:0:0:
198,368,81495,1,2,1:2:0:0:
143,308,81661,1,0,0:0:0:0:
197,253,81828,1,2,1:2:0:0:
300,5,82495,102,0,P|304:36|303:83,1,75,2|0,1:2|3:0,0:0:0:0:
248,130,83161,2,0,P|231:127|218:127,1,25,0|0,3:0|0:0,0:0:0:0:
165,83,83495,1,0,1:0:0:0:
90,90,83661,1,0,0:0:0:0:
11,230,83828,1,2,1:2:0:0:
104,245,83995,1,0,0:0:0:0:
308,181,84161,6,0,P|351:179|393:181,1,75,2|0,1:2|3:0,0:0:0:0:
461,186,84828,1,0,3:0:0:0:
260,362,85161,2,0,P|238:359|226:358,3,25,0|0|0|0,1:0|0:0|1:0|1:0,0:0:0:0:
164,236,85828,102,0,P|161:212|160:158,1,75,2|0,1:2|3:0,0:0:0:0:
174,92,86495,2,0,P|194:90|207:90,1,33.3333333333333,0|0,1:0|0:0,0:0:0:0:
207,90,86828,1,4,1:2:0:0:
357,110,87161,1,8,1:3:0:0:
498,136,87495,1,4,1:3:0:0:
265,366,88162,86,0,P|267:298|277:222,1,119.999996337891,4|0,1:0|0:0,0:0:0:0:
87,291,88662,2,0,P|85:223|75:147,1,119.999996337891,0|0,1:0|1:0,0:0:0:0:
161,29,89162,1,8,1:0:0:0:
247,116,89328,1,0,0:0:0:0:
126,121,89495,1,0,1:0:0:0:
265,37,89662,5,0,0:0:0:0:
325,160,89828,1,0,1:0:0:0:
194,191,89995,1,0,1:0:0:0:
381,83,90162,102,0,P|385:153|397:217,1,119.999996337891,4|0,3:3|0:0,0:0:0:0:
221,209,90662,2,0,P|217:279|205:343,1,119.999996337891,0|0,1:0|1:0,0:0:0:0:
391,353,91162,1,8,1:0:0:0:
300,302,91328,1,0,0:0:0:0:
426,275,91495,1,0,1:0:0:0:
281,376,91662,1,0,0:0:0:0:
144,253,91828,1,8,3:3:0:0:
166,150,91995,1,0,1:0:0:0:
346,91,92162,6,0,P|348:164|358:220,1,119.999996337891,4|0,3:0|1:0,0:0:0:0:
190,33,92662,2,0,P|188:106|178:162,1,119.999996337891,0|4,1:0|1:2,0:0:0:0:
231,202,93162,1,8,1:0:0:0:
309,181,93328,1,0,0:0:0:0:
236,100,93495,1,0,1:0:0:0:
99,129,93662,1,0,0:0:0:0:
30,332,93828,1,0,1:0:0:0:
227,366,93995,1,4,1:2:0:0:
135,232,94162,102,0,P|146:314|143:360,1,125,4|0,1:0|0:0,0:0:0:0:
422,356,95162,2,0,P|420:293|427:251,1,100,2|8,0:0|3:0,0:0:0:0:
363,229,95995,1,0,0:0:0:0:
242,27,96161,22,0,P|255:97|253:160,1,119.999996337891,4|0,3:0|0:0,0:0:0:0:
15,257,96661,2,0,P|15:197|27:138,1,119.999996337891,0|0,1:0|1:0,0:0:0:0:
98,228,97161,1,8,1:0:0:0:
172,246,97328,1,0,0:0:0:0:
281,299,97494,1,0,1:0:0:0:
380,283,97661,1,0,0:0:0:0:
499,187,97828,1,0,1:0:0:0:
340,138,97995,1,0,1:0:0:0:
250,196,98161,6,0,P|260:244|259:320,1,119.999996337891,4|0,3:0|0:0,0:0:0:0:
187,156,98661,2,0,P|190:97|207:32,1,119.999996337891,0|0,1:0|1:0,0:0:0:0:
142,6,99161,1,8,1:0:0:0:
297,42,99328,1,0,0:0:0:0:
324,130,99495,1,0,1:0:0:0:
210,162,99661,1,0,0:0:0:0:
179,239,99828,1,0,1:0:0:0:
266,270,99995,1,0,1:0:0:0:
456,190,100161,102,0,P|449:140|402:73,1,119.999996337891,4|0,3:0|1:0,0:0:0:0:
291,286,100661,2,0,P|343:328|407:336,1,119.999996337891,0|0,1:0|1:0,0:0:0:0:
298,154,101161,1,8,1:0:0:0:
189,160,101328,1,0,0:0:0:0:
91,77,101495,1,0,1:0:0:0:
200,71,101662,1,0,0:0:0:0:
263,24,101828,1,0,1:0:0:0:
44,130,101995,1,0,1:0:0:0:
146,290,102161,5,4,3:0:0:0:
146,290,102495,101,0,1:0:0:0:
271,255,102661,1,0,1:0:0:0:
389,345,102828,1,0,0:0:0:0:
262,327,102995,1,8,1:0:0:0:
254,125,103161,6,0,P|264:87|266:66,2,50,4|2|0,3:0|0:0|0:0,0:0:0:0:
424,262,108161,38,0,P|428:286|429:316,1,50,0|2,1:0|0:0,0:0:0:0:
497,302,108661,1,0,1:0:0:0:
497,302,109161,5,2,0:0:0:0:
330,291,109495,1,0,0:0:0:0:
163,280,109828,1,0,0:0:0:0:
115,222,110161,102,0,P|120:187|118:144,1,74.9999977111817,2|0,0:0|0:0,0:0:0:0:
375,47,111161,6,0,P|373:64|374:90,1,40,2|0,0:0|0:0,0:0:0:0:
373,86,113828,70,0,P|308:98|269:181,1,150.000005722046,8|0,1:2|0:0,0:0:0:0:
200,174,114328,1,0,1:0:0:0:
330,328,114494,2,0,P|332:280|331:236,1,75.0000028610231,8|0,1:0|0:0,0:0:0:0:
142,274,114828,5,6,3:0:0:0:
223,348,114994,1,0,0:0:0:0:
238,254,115161,1,8,1:0:0:0:
128,364,115328,1,0,0:0:0:0:
41,286,115494,101,8,1:2:0:0:
109,199,115661,1,0,1:0:0:0:
3,179,115828,6,0,P|15:118|106:68,1,150.000005722046,8|0,1:2|0:0,0:0:0:0:
146,107,116328,1,0,1:0:0:0:
320,98,116494,2,0,L|403:88,1,75.0000028610231,8|0,1:0|0:0,0:0:0:0:
256,267,116828,102,0,B|246:232|246:232|260:174,1,75.0000028610231,6|0,3:0|0:0,0:0:0:0:
216,59,117161,1,8,1:0:0:0:
376,201,117328,1,0,0:0:0:0:
151,192,117494,1,0,1:0:0:0:
323,113,117661,1,0,1:0:0:0:
493,268,117828,6,0,B|424:241|424:241|346:268,1,150.000005722046,8|0,1:2|0:0,0:0:0:0:
352,265,118328,2,0,L|191:257,1,150.000005722046,8|0,1:0|1:0,0:0:0:0:
24,187,118828,2,0,B|61:174|61:174|123:194,1,75.0000028610231,6|0,3:0|0:0,0:0:0:0:
219,348,119161,37,8,1:0:0:0:
306,360,119328,5,0,1:0:0:0:
413,301,119494,5,8,1:2:0:0:
397,114,119661,5,0,1:0:0:0:
209,65,119828,5,8,1:2:0:0:
209,65,120161,5,8,3:0:0:0:
321,143,120328,1,0,1:0:0:0:
241,257,120494,1,8,1:0:0:0:
129,177,120661,1,8,3:0:0:0:
365,53,120828,5,6,3:0:0:0:
207,98,121161,1,0,0:0:0:0:
49,143,121494,1,0,0:0:0:0:
252,15,121827,6,2,P|346:19|455:43,1,194.999991073609,4|2,1:0|1:1,1:1:0:0:
467,82,122411,1,0,1:0:0:0:
447,123,122494,2,0,P|411:124|370:111,1,64.9999970245363,10|8,1:0|1:0,0:0:0:0:
331,165,122827,2,2,P|281:155|198:266,1,194.999991073609,4|2,1:3|1:0,1:0:0:0:
215,319,123494,2,0,P|262:304|283:290,1,64.9999970245363,8|0,1:2|0:0,0:0:0:0:
134,200,123827,70,0,P|77:198|43:120,1,129.999994049073,8|0,1:2|0:0,0:0:0:0:
172,34,124327,2,0,P|167:73|161:120,1,64.9999970245363,0|8,1:0|1:0,0:0:0:0:
101,56,124661,1,8,1:0:0:0:
248,24,124827,2,0,P|248:74|237:181,1,129.999994049073,0|0,1:0|0:0,0:0:0:0:
303,187,125327,21,2,0:0:0:0:
440,138,125494,1,8,1:3:0:0:
357,121,125661,1,4,1:2:0:0:
238,319,125827,5,4,1:3:0:0:
141,338,125994,1,0,0:0:0:0:
126,240,126161,2,2,P|131:187|112:86,1,129.999994049073,2|8,1:0|1:0,1:1:0:0:
181,78,126661,1,10,1:0:0:0:
401,182,126827,2,2,P|334:164|260:176,1,129.999994049073,4|2,1:3|0:1,1:1:0:0:
440,248,127327,1,2,1:0:0:0:
440,248,127411,1,8,1:0:0:0:
440,248,127494,1,8,1:2:0:0:
475,178,127661,1,10,1:0:0:0:
221,226,127827,70,2,P|224:277|304:324,1,129.999994049073,8|2,1:2|1:0,1:1:0:0:
324,304,128244,1,0,1:0:0:0:
341,262,128327,2,0,P|338:228|336:193,1,64.9999970245363,10|10,1:0|1:0,0:0:0:0:
138,151,128661,2,2,P|136:183|133:215,1,64.9999970245363,2|0,1:0|0:0,1:1:0:0:
281,128,128994,1,2,1:0:0:0:
299,54,129161,1,8,1:0:0:0:
227,36,129327,1,0,0:0:0:0:
209,110,129494,1,2,1:0:0:0:
380,57,129661,21,8,1:0:0:0:
136,107,129827,2,0,P|91:108|43:21,1,129.999994049073,4|0,1:0|0:0,0:0:0:0:
193,62,130327,1,0,1:0:0:0:
21,153,130494,2,0,P|24:198|23:244,1,64.9999970245363,8|0,1:0|0:0,0:0:0:0:
232,357,130827,2,0,P|237:295|235:214,2,129.999994049073,4|0|8,1:3|1:0|1:2,0:0:0:0:
162,339,131661,1,0,1:0:0:0:
295,180,131827,6,0,P|312:115|370:86,1,129.999994049073,8|0,1:2|0:0,0:0:0:0:
343,239,132327,1,0,1:0:0:0:
475,207,132494,2,0,L|390:197,1,64.9999970245363,8|0,1:0|0:0,0:0:0:0:
225,102,132827,2,0,B|156:92|156:92|94:122,1,129.999994049073,0|8,1:0|1:0,0:0:0:0:
35,100,133327,1,0,0:0:0:0:
264,41,133494,2,0,L|349:31,1,64.9999970245363,8|8,1:0|1:0,0:0:0:0:
241,318,133827,70,0,P|246:257|256:173,1,129.999994049073,8|0,1:2|0:0,0:0:0:0:
476,207,134327,1,0,1:0:0:0:
411,235,134494,2,0,P|371:238|324:226,1,64.9999970245363,8|0,1:0|0:0,0:0:0:0:
188,160,134827,2,0,P|127:151|45:161,1,129.999994049073,4|0,1:3|0:0,0:0:0:0:
257,19,135327,1,0,1:0:0:0:
257,19,135411,1,8,1:0:0:0:
257,19,135494,2,0,L|250:107,1,64.9999970245363,8|8,1:2|1:0,0:0:0:0:
253,230,135827,22,0,L|264:365,1,129.999994049073,8|0,1:2|0:0,0:0:0:0:
251,155,136327,1,0,1:0:0:0:
380,177,136494,2,0,B|346:168|346:168|305:181,1,64.9999970245363,8|0,1:0|0:0,0:0:0:0:
185,203,136827,1,4,3:0:0:0:
119,231,136994,1,0,0:0:0:0:
78,218,137161,1,4,3:0:0:0:
52,202,137327,1,0,0:0:0:0:
29,193,137494,1,4,3:0:0:0:
12,197,137661,1,4,0:0:0:0:
253,59,137827,86,0,P|295:60|359:154,1,150.000005722046,4|2,1:0|0:3,0:0:0:0:
249,298,138327,1,0,1:0:0:0:
255,227,138494,2,0,P|249:181|247:145,1,75.0000028610231,8|0,1:0|0:0,0:0:0:0:
184,253,138827,5,6,3:0:0:0:
107,238,138994,1,8,1:0:0:0:
33,365,139161,1,0,1:0:0:0:
153,363,139327,1,0,0:0:0:0:
306,305,139494,1,2,1:3:0:0:
432,329,139661,1,0,1:0:0:0:
383,214,139827,102,0,P|329:224|298:323,1,150.000005722046,8|2,1:2|0:3,0:0:0:0:
189,198,140327,1,0,1:0:0:0:
251,157,140494,2,0,P|251:104|247:55,1,75.0000028610231,8|0,1:0|1:0,0:0:0:0:
39,183,140827,2,0,L|140:176,1,75.0000028610231,6|8,3:0|1:0,0:0:0:0:
170,40,141161,1,0,1:0:0:0:
271,52,141327,1,0,0:0:0:0:
374,190,141494,1,10,3:3:0:0:
475,178,141660,1,8,1:0:0:0:
298,137,141827,6,0,P|305:200|309:299,1,150.000005722046,8|2,1:2|1:3,0:0:0:0:
192,194,142327,1,0,1:0:0:0:
197,124,142494,2,0,P|200:81|208:32,1,75.0000028610231,8|4,1:0|0:2,0:0:0:0:
403,26,142827,101,6,3:0:0:0:
436,103,142994,1,8,1:0:0:0:
436,203,143161,1,0,1:0:0:0:
387,312,143327,1,0,1:2:0:0:
197,331,143494,1,2,1:3:0:0:
79,196,143661,1,12,1:2:0:0:
186,6,143827,6,2,P|244:11|311:103,1,175.00000166893,6|0,1:0|0:0,1:0:0:0:
381,96,144327,1,2,1:0:0:0:
113,152,144494,2,0,P|119:204|122:266,1,87.500000834465,0|2,0:0|1:0,1:0:0:0:
301,361,144827,2,0,P|301:299|316:162,1,175.00000166893,2|8,1:0|1:0,0:0:0:0:
238,185,145327,1,4,1:3:0:0:
207,112,145494,1,8,3:0:0:0:
246,13,145661,1,8,1:2:0:0:
383,157,145827,102,0,P|433:172|470:270,1,150.000005722046,4|2,1:0|1:3,0:0:0:0:
331,215,146327,1,0,1:0:0:0:
482,331,146494,2,0,L|391:326,1,75.0000028610231,8|0,1:0|0:0,0:0:0:0:
337,292,146827,1,6,3:0:0:0:
258,302,146994,1,8,1:0:0:0:
113,351,147161,1,0,1:0:0:0:
50,302,147327,2,0,P|51:234|53:212,1,75.0000028610231,0|8,0:0|1:2,0:0:0:0:
201,55,147661,1,0,1:0:0:0:
240,127,147827,6,0,P|303:125|411:126,1,150.000005722046,8|2,1:2|3:3,0:0:0:0:
215,205,148327,1,0,1:0:0:0:
141,210,148494,2,0,P|138:165|133:119,1,75.0000028610231,8|0,1:0|0:0,0:0:0:0:
338,31,148827,101,6,3:0:0:0:
314,120,148994,1,8,1:0:0:0:
181,98,149161,1,0,1:0:0:0:
200,3,149327,1,0,0:0:0:0:
398,67,149494,5,2,1:3:0:0:
334,207,149661,1,8,1:0:0:0:
52,199,149827,102,0,P|64:267|69:355,1,150.000005722046,8|2,1:2|1:3,0:0:0:0:
161,261,150327,1,0,1:0:0:0:
168,187,150494,2,0,P|175:146|176:107,1,75.0000028610231,8|0,1:0|0:0,0:0:0:0:
322,210,150827,5,6,3:0:0:0:
417,240,150994,1,8,1:0:0:0:
489,201,151161,1,0,1:0:0:0:
398,219,151327,1,8,3:0:0:0:
354,320,151494,1,2,1:3:0:0:
275,155,151661,1,8,1:0:0:0:
388,23,151827,1,12,1:2:0:0:
388,23,152161,101,0,1:0:0:0:
309,53,152327,1,8,1:0:0:0:
181,207,152494,1,4,3:0:0:0:
54,189,152661,1,8,1:0:0:0:
13,113,152827,6,0,P|22:190|19:285,1,150.000005722046,8|4,1:2|3:0,0:0:0:0:
311,348,153494,1,2,0:0:0:0:
419,71,153827,38,0,P|361:75|322:147,1,129.999994049073,4|0,1:0|0:0,0:0:0:0:
254,123,154327,1,0,1:0:0:0:
392,287,154494,2,0,P|396:243|394:202,1,64.9999970245363,8|0,1:0|0:0,0:0:0:0:
193,222,154827,1,6,1:2:0:0:
219,307,154994,1,0,0:0:0:0:
219,307,155077,1,8,1:0:0:0:
219,307,155161,1,0,1:0:0:0:
297,272,155327,1,8,1:0:0:0:
419,357,155494,6,0,L|342:363,1,64.9999970245363,8|0,1:2|0:0,0:0:0:0:
142,334,155827,6,0,P|95:324|52:242,1,129.999994049073,8|0,1:2|0:0,0:0:0:0:
110,209,156327,1,0,1:0:0:0:
199,89,156494,2,0,P|201:44|198:9,1,64.9999970245363,8|0,1:0|0:0,0:0:0:0:
25,162,156827,5,6,1:2:0:0:
117,140,156994,1,0,0:0:0:0:
161,149,157077,1,8,1:0:0:0:
205,158,157160,1,0,1:0:0:0:
324,145,157327,1,8,1:0:0:0:
419,181,157494,1,8,1:2:0:0:
499,167,157661,1,0,0:0:0:0:
399,99,157827,6,0,P|391:151|381:245,1,129.999994049073,8|0,1:2|0:0,0:0:0:0:
309,217,158327,1,0,1:0:0:0:
160,195,158494,2,0,P|164:244|165:277,1,64.9999970245363,8|0,1:0|0:0,0:0:0:0:
260,361,158827,5,6,1:2:0:0:
280,278,158994,1,0,1:0:0:0:
66,218,159161,1,8,1:0:0:0:
82,326,159328,1,0,0:0:0:0:
82,326,159411,1,8,1:0:0:0:
82,326,159494,1,8,1:2:0:0:
137,83,159661,37,8,1:0:0:0:
211,82,159827,2,0,P|267:81|392:86,1,150.000005722046,8|2,1:2|0:0,0:0:0:0:
422,44,160327,1,0,0:0:0:0:
267,9,160494,1,8,1:0:0:0:
146,157,160661,1,8,1:0:0:0:
216,173,160827,6,0,P|272:172|397:177,1,150.000005722046,4|2,3:0|0:0,0:0:0:0:
324,245,161327,1,0,0:0:0:0:
443,184,161494,1,8,1:0:0:0:
336,97,161661,1,8,1:0:0:0:
116,192,161827,6,0,P|65:197|15:300,1,150.000005722046,4|0,1:0|0:0,0:0:0:0:
168,358,162327,1,0,1:0:0:0:
226,300,162494,2,0,P|275:303|317:303,1,75.0000028610231,8|0,1:0|0:0,0:0:0:0:
397,217,162827,1,6,1:2:0:0:
491,240,162994,1,8,1:0:0:0:
260,72,163161,1,0,1:0:0:0:
149,94,163327,1,0,0:0:0:0:
149,94,163411,1,8,1:0:0:0:
149,94,163494,1,8,1:2:0:0:
272,208,163661,5,8,1:0:0:0:
357,159,163827,2,0,P|353:108|353:4,1,150.000005722046,8|0,1:2|0:0,0:0:0:0:
162,181,164327,1,0,1:0:0:0:
161,254,164494,2,0,P|167:306|169:345,1,75.0000028610231,8|0,1:0|0:0,0:0:0:0:
41,149,164827,5,6,1:2:0:0:
72,68,164994,1,8,1:0:0:0:
258,51,165161,1,0,0:0:0:0:
266,153,165327,1,8,1:0:0:0:
474,192,165494,1,8,1:0:0:0:
443,56,165661,1,8,1:0:0:0:
260,367,165827,5,2,1:2:0:0:
0,193,166161,37,4,1:2:0:0:
260,17,166494,5,4,1:2:0:0:
512,193,166827,5,6,1:2:0:0:
408,158,166994,1,8,1:0:0:0:
178,266,167161,5,8,1:0:0:0:
301,255,167327,1,0,0:0:0:0:
104,158,167494,5,8,1:2:0:0:
0,193,167661,1,8,1:0:0:0:
106,71,167827,6,0,P|165:82|202:163,1,150.000005722046,8|0,1:2|0:0,0:0:0:0:
235,338,168327,1,0,1:0:0:0:
311,336,168494,2,0,P|376:327|403:321,1,75.0000028610231,8|0,1:0|0:0,0:0:0:0:
114,279,168827,2,0,P|65:278|8:189,1,150.000005722046,6|8,1:2|1:0,0:0:0:0:
214,268,169327,37,0,1:0:0:0:
214,268,169411,1,8,1:0:0:0:
214,268,169494,1,8,1:0:0:0:
383,90,169661,5,8,1:0:0:0:
8,13,169827,70,0,P|9:37|8:62,1,50,4|0,1:0|0:0,0:0:0:0:
67,112,170335,2,0,P|65:136|66:161,1,50,2|0,0:0|0:0,0:0:0:0:
120,216,170843,1,4,0:0:0:0:
113,238,171013,1,0,0:0:0:0:
159,296,171182,1,0,0:0:0:0:
166,318,171352,1,0,0:0:0:0:
229,357,171521,2,0,P|227:369|225:381,1,25,0|0,0:0|0:0,0:0:0:0:
256,192,171860,6,0,P|258:157|258:136,1,50,2|0,0:0|0:0,0:0:0:0:
311,89,172360,2,0,P|309:54|309:33,1,50
381,43,172860,1,4,0:0:0:0:
404,54,173026,1,0,0:0:0:0:
465,96,173193,1,0,0:0:0:0:
494,92,173360,1,0,0:0:0:0:
506,171,173526,2,0,P|501:198|501:204,1,25,0|0,0:0|0:0,0:0:0:0:
386,258,173860,102,0,P|387:288|392:318,1,50,2|0,0:0|0:0,0:0:0:0:
304,315,174360,2,0,P|307:290|307:265,1,50,0|0,0:0|0:0,0:0:0:0:
225,282,174860,1,4,0:0:0:0:
212,289,175026,1,0,0:0:0:0:
145,302,175193,1,0,0:0:0:0:
127,295,175360,1,0,0:0:0:0:
56,292,175526,2,0,P|36:294|27:295,1,25,0|0,0:0|0:0,0:0:0:0:
95,229,175860,6,0,P|101:189|150:151,1,100,2|2,0:0|0:0,0:0:0:0:
144,152,176860,2,0,L|252:158,1,100,2|0,0:0|0:0,0:0:0:0:
253,173,177693,1,4,0:0:0:0:
373,145,177860,102,0,P|393:147|430:145,1,50,2|0,0:0|0:0,0:0:0:0:
463,86,178368,2,0,P|483:84|520:86,1,50,0|0,0:0|0:0,0:0:0:0:
412,32,178876,2,0,P|399:29|386:29,1,25,4|0,0:0|0:0,0:0:0:0:
325,64,179215,2,0,P|310:64|299:65,1,25,2|0,0:0|0:0,0:0:0:0:
247,119,179554,1,2,0:0:0:0:
231,128,179724,1,0,0:0:0:0:
128,196,179893,6,0,P|126:163|126:141,1,50,2|0,0:0|0:0,0:0:0:0:
70,100,180387,2,0,P|72:67|72:45,1,50,0|0,0:0|0:0,0:0:0:0:
20,156,180882,2,0,P|22:171|23:186,1,25,4|0,0:0|0:0,0:0:0:0:
79,228,181211,2,0,P|83:243|84:261,1,25,2|0,0:0|0:0,0:0:0:0:
143,295,181541,2,0,P|145:310|145:324,1,25,2|0,0:0|0:0,0:0:0:0:
311,362,181871,102,0,P|341:358|370:359,1,50,2|0,0:0|0:0,0:0:0:0:
418,318,182365,1,0,0:0:0:0:
418,318,182695,1,0,0:0:0:0:
489,329,182860,2,0,P|487:310|486:294,1,25,2|0,0:0|0:0,0:0:0:0:
484,235,183189,2,0,P|486:216|490:200,1,25,2|0,0:0|0:0,0:0:0:0:
445,151,183519,1,2,0:0:0:0:
439,136,183684,1,0,0:0:0:0:
356,207,183849,6,0,P|361:236|361:268,1,50,4|2,0:0|0:0,0:0:0:0:
271,325,184406,1,0,0:0:0:0:
202,312,184589,2,0,P|190:308|182:307,1,14.9999995422363,2|0,0:0|0:0,0:0:0:0:
50,358,184980,69,4,0:0:0:0:
