osu file format v14

[General]
AudioFilename: audio.mp3
AudioLeadIn: 0
PreviewTime: 32418
Countdown: 0
SampleSet: Soft
StackLeniency: 0.7
Mode: 0
LetterboxInBreaks: 0
WidescreenStoryboard: 1

[Editor]
DistanceSpacing: 0.6
BeatDivisor: 3
GridSize: 4
TimelineZoom: 2.599999

[Metadata]
Title:Chouwa oto ~with reflection~ (Cut Ver.)
TitleUnicode:調和 oto ~with reflection~ (Cut Ver.)
Artist:KOKIA
ArtistUnicode:KOKIA
Creator:PandaHero
Version:Normal
Source:銀色の髪のアギト
Tags:app mirash damnae kiiwa anime japanese pop folk origin spirits of the past Gin iro no Kami no Agito Silver Haired Silver-Haired
BeatmapID:4556725
BeatmapSetID:2156509

[Difficulty]
HPDrainRate:3
CircleSize:3.5
OverallDifficulty:4
ApproachRate:6
SliderMultiplier:1.1
SliderTickRate:1

[Events]
//Background and Video events
0,0,"bg.png",0,0
//Break Periods
2,104366,109102
//Storyboard Layer 0 (Background)
//Storyboard Layer 1 (Fail)
//Storyboard Layer 2 (Pass)
//Storyboard Layer 3 (Foreground)
//Storyboard Layer 4 (Overlay)
//Storyboard Sound Samples

[TimingPoints]
502,333.333333333333,6,2,0,15,1,0
16501,-100,6,2,1,20,0,0
32501,-100,6,2,1,40,0,0
38501,-100,6,2,1,40,0,0
40501,-100,6,2,1,40,0,0
48501,-100,6,2,1,50,0,0
54835,-100,6,2,1,50,0,0
56501,-100,6,2,1,50,0,0
64501,333.333333333333,5,2,1,30,1,0
64501,-100,5,2,1,50,0,0
65001,-100,5,2,3,50,0,0
70167,333.333333333333,5,2,1,30,1,0
70167,-100,5,2,3,30,0,0
76833,-100,5,2,1,35,0,0
77167,-100,5,2,3,35,0,0
78166,-100,5,2,1,35,0,0
79000,-100,5,2,3,35,0,0
80166,-100,5,2,1,35,0,0
80500,-100,5,2,3,35,0,0
81500,-100,5,2,1,35,0,0
82166,-100,5,2,3,35,0,0
82500,333.333333333333,5,2,1,35,1,0
82500,-100,5,2,1,35,0,0
85666,-100,5,2,3,35,0,0
85833,-100,5,2,1,35,0,0
86333,-100,5,2,3,35,0,0
86500,-100,5,2,1,35,0,0
88167,333.333333333333,6,2,1,50,1,0
88167,-100,6,2,1,50,0,0
94167,-100,6,2,1,50,0,0
96166,-100,6,2,1,50,0,0
103166,-100,6,2,1,50,0,0
103250,-100,6,2,1,30,0,0
104166,-100,6,2,1,50,0,0
107833,331.491712707182,6,2,1,50,1,0
108164,331.491712707182,6,2,1,50,1,0
109500,-100,6,2,1,40,0,0
109833,-100,6,2,1,50,0,0
110152,-100,6,2,1,60,0,0
110981,-100,6,2,1,50,0,0
111147,-100,6,2,1,70,0,0
111810,-100,6,2,1,5,0,0
113833,333.333333333333,6,2,1,60,1,0
113833,-100,6,2,1,60,0,1
121166,-100,6,2,1,50,0,1
121832,-100,6,2,1,55,0,0
136832,-100,6,2,1,45,0,0
137166,-100,6,2,1,35,0,0
137499,-100,6,2,1,30,0,0
137832,-100,6,2,1,60,0,1
143832,-100,6,2,1,60,0,1
145832,-100,6,2,1,60,0,1
153499,-100,6,2,1,50,0,0
153832,-100,6,2,1,55,0,1
159832,-100,6,2,1,55,0,1
167832,-100,6,2,1,60,0,1
169832,-100,6,2,1,60,0,0
170666,337.078651685393,6,2,1,60,1,0
170834,337.078651685393,6,2,1,60,1,0
170848,-100,6,2,1,20,0,0
170933,-100,6,2,1,40,0,0
171845,335.195530726257,6,2,1,60,1,0
172865,-100,6,2,1,20,0,0
172948,-100,6,2,1,40,0,0
173185,319.148936170213,6,2,1,60,1,0
173663,344.827586206897,6,2,1,60,1,0
173835,333.333333333333,6,2,1,60,1,0
174668,340.909090909091,6,2,1,60,1,0
174838,340.909090909091,6,2,1,60,1,0
174865,-100,6,2,1,20,0,0
174948,-100,6,2,1,40,0,0
175519,319.148936170213,6,2,1,60,1,0
175841,335.195530726257,6,2,1,60,1,0
175865,-100,6,2,1,35,0,0
176531,-100,6,2,0,35,0,0
176865,-100,6,2,1,35,0,0
177698,-100,6,2,1,10,0,0
177860,338.983050847458,6,2,1,30,1,0
178881,-100,6,2,1,10,0,0
178891,-100,6,2,1,30,0,0
179215,326.08695652174,6,2,1,30,1,0
179220,-100,6,2,0,30,0,0
179230,-100,6,2,1,30,0,0
179559,-100,6,2,0,30,0,0
179644,-100,6,2,1,30,0,0
179704,329.670329670331,6,2,1,30,1,0
179893,329.67032967033,6,2,1,30,1,0
180887,-100,6,2,0,30,0,0
180897,-100,6,2,1,30,0,0
181216,-100,6,2,0,30,0,0
181226,-100,6,2,1,30,0,0
181546,-100,6,2,0,30,0,0
181556,-100,6,2,1,30,0,0
181876,-100,6,2,1,20,0,0
183194,-100,6,2,0,20,0,0
183204,-100,6,2,1,20,0,0
183524,-100,6,2,0,20,0,0
183606,-100,6,2,1,20,0,0
183849,375,6,2,1,10,1,0
184224,365.853658536585,6,2,0,10,1,0
184411,-100,6,2,1,10,0,0
184772,465.116279069768,6,2,1,10,1,0
184985,-100,6,2,1,5,0,0
185004,465.116279069768,6,2,1,10,1,0

[Colours]
Combo1 : 128,128,128
Combo2 : 204,198,181
Combo3 : 192,210,214
Combo4 : 214,133,133

[HitObjects]
197,67,16501,6,0,P|239:47|324:23,2,110,2|0|0,1:2|0:0|0:0,0:0:0:0:
91,97,17501,1,0,1:0:0:0:
39,194,17835,1,0,0:0:0:0:
108,279,18168,1,0,0:0:0:0:
208,234,18501,2,0,P|272:210|362:192,1,110,4|0,3:0|0:0,0:0:0:0:
412,246,19168,1,0,0:0:0:0:
475,156,19501,2,0,P|458:96|432:42,2,110,0|0|4,1:0|0:0|3:0,0:0:0:0:
412,246,20501,5,4,3:0:0:0:
358,149,20835,1,0,0:0:0:0:
248,138,21168,1,0,0:0:0:0:
241,247,21501,2,0,P|267:312|281:357,2,110,0|0|0,1:0|0:0|0:0,0:0:0:0:
139,205,22501,1,4,3:0:0:0:
42,258,22835,1,0,0:0:0:0:
36,148,23168,1,0,0:0:0:0:
125,83,23501,2,0,P|191:57|245:37,2,110,0|0|4,1:0|0:0|3:0,0:0:0:0:
37,149,24501,6,0,P|44:233|63:310,1,110,4|0,3:0|0:0,0:0:0:0:
122,339,25168,1,0,0:0:0:0:
220,291,25501,1,0,1:0:0:0:
182,187,25835,1,0,0:0:0:0:
255,105,26168,1,0,0:0:0:0:
359,139,26501,2,0,P|421:172|470:186,2,110,4|0|0,3:0|0:0|0:0,0:0:0:0:
300,45,27501,1,0,1:0:0:0:
190,35,27835,1,0,0:0:0:0:
146,135,28168,1,4,3:0:0:0:
245,182,28501,6,0,L|244:337,1,110,4|0,3:0|0:0,0:0:0:0:
155,357,29168,1,0,0:0:0:0:
84,273,29501,2,0,L|86:150,1,110,0|0,1:0|0:0,0:0:0:0:
81,52,30168,1,0,0:0:0:0:
189,67,30501,2,0,P|250:72|346:73,2,110,4|0|0,3:0|0:0|1:0,0:0:0:0:
221,172,31501,2,0,P|273:201|337:237,2,110,0|0|4,1:0|0:0|3:0,0:0:0:0:
110,176,32501,6,0,P|83:247|67:299,1,110,4|0,1:0|0:0,0:0:0:0:
67,306,33001,1,0,1:0:0:0:
165,354,33335,1,0,1:0:0:0:
165,354,33501,2,0,L|244:327,1,55,8|0,1:0|0:0,0:0:0:0:
234,315,33835,2,0,L|307:329,1,55,0|0,1:0|0:0,0:0:0:0:
315,324,34168,1,0,1:0:0:0:
424,310,34501,6,0,P|461:257|462:168,1,110,4|0,3:3|0:0,0:0:0:0:
463,186,35001,1,0,1:0:0:0:
369,128,35335,1,0,1:0:0:0:
369,128,35501,2,0,L|318:99,1,55,8|0,1:0|0:0,0:0:0:0:
309,75,35835,2,0,L|245:82,1,55,0|0,1:0|0:0,0:0:0:0:
229,93,36168,2,0,L|164:86,2,55,8|0|4,3:3|1:0|3:0,0:0:0:0:
266,196,36835,5,0,1:0:0:0:
266,196,37001,2,0,P|242:278|219:313,1,110,0|4,1:0|1:2,0:0:0:0:
212,319,37501,2,0,L|150:333,1,55,8|0,1:0|0:0,0:0:0:0:
140,352,37835,2,0,L|76:335,1,55,0|0,1:0|0:0,0:0:0:0:
65,319,38168,1,0,1:0:0:0:
29,214,38501,6,0,L|39:86,2,110,4|0|0,1:0|0:0|0:0,0:0:0:0:
128,166,39501,2,0,L|121:40,2,110,2|0|8,1:2|1:0|0:0,0:0:0:0:
222,222,40501,6,0,P|281:196|346:182,1,110,4|0,3:0|0:0,0:0:0:0:
351,179,41001,1,0,1:0:0:0:
460,190,41335,1,0,1:0:0:0:
460,190,41501,2,0,L|469:129,1,55,8|0,1:0|0:0,0:0:0:0:
489,118,41835,2,0,L|465:48,1,55,0|0,1:0|0:0,0:0:0:0:
464,39,42168,1,0,1:0:0:0:
354,25,42501,6,0,P|272:36|235:38,1,110,4|0,3:0|0:0,0:0:0:0:
217,40,43001,1,0,1:0:0:0:
120,92,43335,1,0,1:0:0:0:
120,92,43501,2,0,L|77:147,1,55,8|0,1:0|0:0,0:0:0:0:
72,159,43835,2,0,L|91:222,1,55,0|0,1:0|0:0,0:0:0:0:
100,236,44168,2,0,L|90:302,2,55,0|0|4,1:0|1:0|3:0,0:0:0:0:
194,178,44835,5,0,1:0:0:0:
194,178,45001,2,0,P|284:191|339:204,1,110,0|0,1:0|1:0,0:0:0:0:
322,213,45501,2,0,L|386:226,1,55,8|0,1:0|0:0,0:0:0:0:
400,210,45835,2,0,L|458:194,1,55,0|0,1:0|0:0,0:0:0:0:
473,213,46168,1,0,1:0:0:0:
450,320,46501,6,0,P|394:343|325:348,1,110,4|0,3:0|1:0,0:0:0:0:
323,332,47001,1,0,1:0:0:0:
323,332,47168,2,0,L|249:320,1,55,0|8,0:0|1:0,0:0:0:0:
246,307,47501,2,0,P|204:320|128:347,1,110,4|4,3:0|3:0,0:0:0:0:
52,277,48168,1,8,3:0:0:0:
148,224,48501,6,0,P|154:160|156:106,1,110,4|0,1:0|1:0,0:0:0:0:
158,86,49001,1,8,1:0:0:0:
67,31,49335,1,0,1:0:0:0:
67,31,49501,2,0,L|49:96,1,55,2|0,1:2|0:0,0:0:0:0:
29,100,49835,2,0,L|36:161,1,55,8|0,1:0|0:0,0:0:0:0:
42,181,50168,1,8,1:2:0:0:
129,247,50501,6,0,P|190:218|268:199,1,110,4|0,1:3|1:0,0:0:0:0:
258,206,51001,1,8,1:0:0:0:
342,276,51335,1,0,1:0:0:0:
342,276,51501,2,0,L|328:343,1,55,2|0,1:2|0:0,0:0:0:0:
342,354,51835,2,0,L|415:361,1,55,8|0,1:0|0:0,0:0:0:0:
418,342,52168,2,0,L|505:344,2,55,0|0|4,1:0|1:0|1:3,0:0:0:0:
367,243,52835,5,0,1:0:0:0:
367,243,53001,2,0,P|378:175|406:120,1,110,8|0,1:0|1:0,0:0:0:0:
419,124,53501,2,0,L|419:41,1,55,2|0,1:2|0:0,0:0:0:0:
418,41,53835,2,0,L|348:19,1,55,8|4,1:0|0:0,0:0:0:0:
339,32,54168,1,8,1:2:0:0:
237,74,54501,6,0,L|109:86,2,110,4|0|0,1:3|1:0|0:0,0:0:0:0:
294,167,55501,2,0,L|455:190,2,110,2|0|4,1:2|1:0|3:0,0:0:0:0:
212,240,56501,6,0,P|144:308|102:330,1,110,4|0,1:3|1:0,0:0:0:0:
108,327,57001,1,8,1:0:0:0:
41,239,57335,1,0,1:0:0:0:
41,239,57501,2,0,L|51:173,1,55,2|0,1:2|0:0,0:0:0:0:
34,161,57835,2,0,L|45:106,1,55,8|0,1:0|0:0,0:0:0:0:
46,79,58168,1,8,1:2:0:0:
147,36,58501,6,0,P|216:39|262:47,1,110,4|0,1:3|1:0,0:0:0:0:
283,49,59001,1,8,1:0:0:0:
387,84,59335,1,0,1:0:0:0:
387,84,59501,2,0,L|467:92,1,55,2|0,1:2|0:0,0:0:0:0:
469,86,59835,2,0,L|485:145,1,55,8|0,1:0|0:0,0:0:0:0:
471,163,60168,2,0,L|484:242,2,55,0|0|4,1:0|1:0|1:3,0:0:0:0:
361,154,60835,5,0,1:0:0:0:
361,154,61001,2,0,B|295:141|297:175|221:165,1,110,8|0,1:0|1:0,0:0:0:0:
230,181,61501,2,0,L|167:177,1,55,2|0,1:2|0:0,0:0:0:0:
159,154,61835,2,0,L|81:150,1,55,8|8,1:0|1:0,0:0:0:0:
76,151,62168,2,0,L|39:213,2,55,8|0|4,1:2|1:0|1:3,0:0:0:0:
95,42,62835,6,0,L|156:18,1,55,0|8,1:0|1:0,0:0:0:0:
168,38,63168,2,0,L|244:40,1,55,0|0,0:0|1:0,0:0:0:0:
243,57,63501,2,0,P|310:71|356:67,1,110,2|8,1:2|1:0,0:0:0:0:
456,37,64168,1,8,1:0:0:0:
490,141,64501,6,0,P|505:212|483:288,1,110,4|0,0:1|0:0,0:0:0:0:
479,267,65001,1,2,0:0:0:0:
371,244,65334,1,0,0:0:0:0:
371,244,65501,2,0,P|301:229|254:233,1,110,0|4,0:0|3:0,0:0:0:0:
193,316,66167,2,0,P|123:331|76:327,1,110,0|0,1:0|0:0,0:0:0:0:
60,316,66667,1,0,0:0:0:0:
38,207,67001,1,0,0:0:0:0:
38,207,67167,2,0,L|24:136,2,55,0|0|0,0:0|0:0|0:0,0:0:0:0:
147,222,67834,6,0,P|174:158|185:102,1,110,0|0,1:0|0:0,0:0:0:0:
182,91,68334,1,0,0:0:0:0:
269,24,68667,1,0,0:0:0:0:
269,24,68834,2,0,L|390:45,1,110,0|0,0:0|0:0,0:0:0:0:
444,130,69501,1,0,1:0:0:0:
385,223,69834,2,0,L|324:198,1,55,2|0,0:0|0:0,0:0:0:0:
310,188,70167,6,0,P|285:252|275:325,1,110,0|0,1:0|0:0,0:0:0:0:
272,319,70667,1,0,0:0:0:0:
166,350,71000,1,0,0:0:0:0:
166,350,71167,2,0,P|158:282|141:226,1,110,0|4,1:0|1:3,0:0:0:0:
55,181,71833,2,0,P|41:117|57:47,2,110,0|0|0,1:0|0:0|0:0,0:0:0:0:
163,159,72833,1,0,1:0:0:0:
205,57,73167,2,0,L|270:43,1,55,0|0,0:0|0:0,0:0:0:0:
283,32,73500,6,0,P|369:46|439:48,1,110,4|0,1:3|0:0,0:0:0:0:
418,42,74000,1,0,1:0:0:0:
484,129,74333,1,0,1:0:0:0:
484,129,74500,2,0,L|452:256,1,110,0|8,1:0|1:3,0:0:0:0:
388,321,75167,2,0,P|330:272|301:203,1,110,4|0,1:3|0:0,0:0:0:0:
304,217,75667,1,0,1:0:0:0:
204,169,76000,1,0,1:0:0:0:
204,169,76167,2,0,L|137:196,1,55,0|0,1:0|0:0,0:0:0:0:
128,177,76500,2,0,L|40:204,1,55,8|0,1:3|0:0,0:0:0:0:
49,202,76833,6,0,P|35:278|29:323,1,110,2|0,1:2|0:0,0:0:0:0:
40,335,77333,1,0,3:0:0:0:
148,354,77666,1,0,0:0:0:0:
148,354,77833,2,0,P|194:315|260:297,1,110,0|2,1:0|1:2,0:0:0:0:
341,254,78500,2,0,L|335:124,1,110,2|0,1:2|0:0,0:0:0:0:
335,116,79000,1,0,3:0:0:0:
260,35,79333,1,0,0:0:0:0:
260,35,79500,2,0,L|181:39,2,55,0|0|0,1:0|0:0|1:0,0:0:0:0:
369,42,80166,6,0,P|431:81|455:133,1,110,2|0,1:2|0:0,0:0:0:0:
460,136,80666,1,0,1:0:0:0:
430,242,81000,1,0,0:0:0:0:
430,242,81166,2,0,L|311:217,1,110,0|2,1:0|1:2,0:0:0:0:
294,216,81666,1,0,0:0:0:0:
294,216,81833,2,0,L|209:233,1,55,2|0,1:2|0:0,0:0:0:0:
220,245,82166,2,0,L|157:230,1,55,2|0,0:0|0:0,0:0:0:0:
139,226,82500,5,2,1:2:0:0:
33,238,82833,1,0,0:0:0:0:
33,238,83000,2,0,P|43:136|51:98,1,110,0|0,3:0|0:0,0:0:0:0:
48,101,83500,2,0,P|93:55|148:15,1,110,0|2,1:0|1:2,0:0:0:0:
224,82,84166,2,0,P|290:88|340:90,1,110,2|0,1:2|0:0,0:0:0:0:
360,93,84666,1,0,3:0:0:0:
452,153,85000,1,0,0:0:0:0:
452,153,85166,2,0,L|466:223,2,55,0|0|0,1:0|0:0|1:0,0:0:0:0:
351,197,85833,6,0,P|327:266|316:336,1,110,2|0,1:2|0:0,0:0:0:0:
322,329,86333,1,0,3:0:0:0:
217,364,86666,1,0,0:0:0:0:
217,364,86833,2,0,L|201:291,1,55,4|0,1:2|0:0,0:0:0:0:
189,287,87166,2,0,L|108:298,1,55,8|0,1:3|0:0,0:0:0:0:
106,297,87500,1,4,1:3:0:0:
38,209,87833,1,0,0:0:0:0:
92,113,88166,6,0,P|150:73|224:49,1,110,4|0,1:0|0:0,0:0:0:0:
210,44,88667,1,0,1:0:0:0:
314,76,89000,1,0,1:0:0:0:
314,76,89167,2,0,L|401:89,1,55,8|0,1:0|0:0,0:0:0:0:
393,72,89500,2,0,L|461:80,1,55,0|0,1:0|0:0,0:0:0:0:
468,96,89833,1,0,1:0:0:0:
490,203,90167,6,0,L|456:337,1,110,4|0,3:3|0:0,0:0:0:0:
458,336,90667,1,0,1:0:0:0:
350,360,91000,1,0,1:0:0:0:
350,360,91167,2,0,L|341:283,1,55,8|0,1:0|0:0,0:0:0:0:
332,280,91500,2,0,L|270:283,1,55,0|0,1:0|0:0,0:0:0:0:
254,298,91833,2,0,L|176:303,2,55,8|0|4,3:3|1:0|3:0,0:0:0:0:
303,199,92500,5,0,1:0:0:0:
303,199,92667,2,0,P|296:129|274:43,1,110,0|4,1:0|1:2,0:0:0:0:
281,63,93167,2,0,L|203:31,1,55,8|0,1:0|0:0,0:0:0:0:
209,24,93500,2,0,L|139:29,1,55,0|0,1:0|0:0,0:0:0:0:
127,34,93833,1,0,1:0:0:0:
52,114,94167,6,0,L|34:241,1,110,4|0,1:0|0:0,0:0:0:0:
118,303,94833,1,0,1:0:0:0:
118,303,95000,1,0,1:0:0:0:
118,303,95167,2,0,L|136:176,1,110,2|0,1:2|1:0,0:0:0:0:
154,86,95833,1,8,3:0:0:0:
253,132,96166,6,0,P|302:138|383:142,1,110,4|0,3:0|0:0,0:0:0:0:
389,136,96666,1,0,1:0:0:0:
454,47,97000,1,0,1:0:0:0:
454,47,97166,2,0,L|390:28,1,55,8|0,1:0|0:0,0:0:0:0:
375,21,97500,2,0,L|313:32,1,55,0|0,1:0|0:0,0:0:0:0:
293,31,97833,1,0,1:0:0:0:
205,97,98166,6,0,P|196:173|189:228,1,110,4|0,3:0|0:0,0:0:0:0:
189,233,98666,1,0,1:0:0:0:
179,346,99000,1,0,1:0:0:0:
179,346,99166,2,0,L|273:366,1,55,8|0,1:0|0:0,0:0:0:0:
252,337,99500,2,0,L|317:340,1,55,0|0,1:0|0:0,0:0:0:0:
323,317,99833,2,0,L|382:321,2,55,0|0|4,1:0|1:0|3:0,0:0:0:0:
251,232,100500,5,0,1:0:0:0:
251,232,100666,2,0,P|284:171|324:138,1,110,0|0,1:0|1:0,0:0:0:0:
337,130,101166,2,0,L|407:137,1,55,8|0,1:0|0:0,0:0:0:0:
416,123,101500,2,0,L|485:130,1,55,0|0,1:0|0:0,0:0:0:0:
488,149,101833,1,0,1:0:0:0:
482,258,102166,6,0,P|428:270|365:260,1,110,4|0,3:0|1:0,0:0:0:0:
350,248,102666,1,0,1:0:0:0:
350,248,102833,2,0,L|281:233,1,55,0|8,0:0|1:0,0:0:0:0:
270,226,103166,2,0,L|189:252,1,55,4|4,3:0|0:3,0:0:0:0:
190,246,103500,1,2,0:0:0:0:
89,200,103833,1,0,1:0:0:0:
167,122,104166,5,0,0:0:0:0:
256,192,110152,12,0,111976,0:0:0:0:
241,30,113833,6,0,P|249:110|246:152,1,110,8|0,1:2|0:0,0:0:0:0:
251,166,114333,1,0,1:0:0:0:
158,225,114666,1,0,0:0:0:0:
158,225,114833,2,0,L|86:209,1,55,6|0,3:0|0:0,0:0:0:0:
77,206,115166,2,0,L|50:287,1,55,8|0,1:0|0:0,0:0:0:0:
53,285,115499,1,8,1:2:0:0:
140,351,115833,6,0,P|214:341|267:326,1,110,8|0,1:2|0:0,0:0:0:0:
244,304,116333,2,0,P|321:303|365:315,1,110,0|0,1:0|0:0,0:0:0:0:
375,325,116833,1,6,3:0:0:0:
471,272,117166,1,8,1:0:0:0:
485,163,117499,2,0,L|480:90,1,55,0|0,1:0|1:0,0:0:0:0:
470,82,117833,6,0,P|416:53|357:62,1,110,8|0,1:2|0:0,0:0:0:0:
342,64,118333,1,8,1:0:0:0:
249,122,118666,1,0,1:0:0:0:
249,122,118833,2,0,L|240:178,1,55,6|0,3:0|0:0,0:0:0:0:
233,203,119166,2,0,L|169:207,1,55,8|0,1:0|1:0,0:0:0:0:
150,204,119499,1,8,1:2:0:0:
46,165,119833,6,0,P|37:96|42:48,1,110,8|8,1:2|3:0,0:0:0:0:
64,42,120333,1,0,1:0:0:0:
64,42,120499,2,0,L|132:52,1,55,8|8,1:0|3:0,0:0:0:0:
146,51,120833,1,6,3:0:0:0:
255,39,121166,1,4,0:3:0:0:
314,131,121499,1,8,0:3:0:0:
259,226,121832,6,2,P|248:319|245:352,1,110,4|0,1:0|0:0,1:1:0:0:
223,350,122332,2,0,P|147:349|98:314,1,110,2|8,1:1|1:0,0:0:0:0:
98,314,122832,1,4,1:3:0:0:
32,225,123166,1,0,0:0:0:0:
132,179,123499,1,8,1:2:0:0:
56,99,123832,6,0,P|104:48|174:26,2,110,8|0|0,1:2|0:0|0:0,0:0:0:0:
132,179,124832,2,0,L|219:156,1,55,0|0,1:0|0:0,0:0:0:0:
203,144,125166,2,0,L|269:149,1,55,0|2,0:0|0:0,0:0:0:0:
279,164,125499,2,2,L|359:185,2,55,8|4|4,1:3|1:2|1:3,1:1:0:0:
232,263,126166,5,2,1:0:0:0:
232,263,126332,2,0,P|278:313|339:335,1,110,0|10,0:0|1:0,0:0:0:0:
339,343,126832,2,0,P|418:323|451:322,1,110,4|2,1:3|0:1,0:0:0:0:
507,230,127499,1,8,1:2:0:0:
409,179,127832,2,2,L|428:51,2,110,8|2|10,1:2|1:0|1:0,1:1:0:0:
306,138,128832,2,0,L|305:-8,2,110,0|8|2,1:0|1:0|1:0,0:0:0:0:
203,178,129832,6,0,P|131:159|92:110,1,110,4|0,1:0|0:0,0:0:0:0:
85,117,130332,2,0,L|49:237,1,110,0|0,1:0|0:0,0:0:0:0:
42,247,130832,1,4,1:3:0:0:
111,332,131166,1,0,1:0:0:0:
214,295,131499,1,8,1:2:0:0:
220,185,131832,6,0,L|223:117,1,55,8|0,1:2|0:0,0:0:0:0:
211,104,132166,2,0,L|216:25,1,55,0|0,0:0|0:0,0:0:0:0:
234,30,132499,1,8,1:0:0:0:
335,73,132832,2,0,L|332:141,1,55,0|0,1:0|0:0,0:0:0:0:
344,154,133166,2,0,L|339:233,2,55,8|0|8,1:0|0:0|1:0,0:0:0:0:
454,132,133832,5,8,1:2:0:0:
454,132,133999,2,0,P|487:203|474:264,1,110,0|0,0:0|1:0,0:0:0:0:
473,257,134499,1,8,1:0:0:0:
395,335,134832,1,4,1:3:0:0:
395,335,134999,2,0,L|283:298,1,110,0|0,0:0|1:0,0:0:0:0:
263,303,135499,1,8,1:2:0:0:
153,303,135832,5,8,1:2:0:0:
176,195,136166,1,0,0:0:0:0:
75,151,136499,1,8,1:0:0:0:
54,258,136832,2,0,L|40:329,1,55,4|0,3:0|0:0,0:0:0:0:
40,339,137166,2,0,L|106:352,1,55,4|0,3:0|0:0,0:0:0:0:
120,357,137499,1,4,3:0:0:0:
203,285,137832,6,0,P|216:221|223:153,1,110,4|2,1:0|0:3,0:0:0:0:
218,149,138332,1,0,1:0:0:0:
263,48,138666,1,0,0:0:0:0:
263,48,138832,2,0,L|355:65,1,55,6|8,3:0|1:0,0:0:0:0:
340,42,139166,2,0,L|419:47,1,55,0|0,1:0|0:0,0:0:0:0:
420,56,139499,1,2,1:3:0:0:
486,143,139832,6,0,P|438:184|364:192,1,110,8|2,1:2|0:3,0:0:0:0:
369,180,140332,1,0,1:0:0:0:
259,165,140666,1,0,1:0:0:0:
259,165,140832,2,0,L|200:164,1,55,6|0,3:0|0:0,0:0:0:0:
180,148,141166,2,0,L|109:153,1,55,0|0,1:0|0:0,0:0:0:0:
97,147,141499,2,0,L|70:68,2,55,10|8|8,3:3|1:0|1:2,0:0:0:0:
37,239,142166,5,2,1:3:0:0:
37,239,142332,2,0,P|46:300|63:368,1,110,0|4,1:0|0:2,0:0:0:0:
81,358,142832,1,6,3:0:0:0:
170,293,143166,2,0,L|184:232,1,55,0|0,1:0|1:2,0:0:0:0:
191,213,143499,2,0,L|266:227,1,55,2|12,1:3|1:2,0:0:0:0:
268,237,143832,6,0,P|367:260|391:260,1,110,6|0,1:0|0:0,1:1:0:0:
476,211,144499,1,0,1:0:0:0:
476,211,144666,1,2,1:0:0:0:
476,211,144832,2,0,P|461:141|446:68,1,110,2|8,1:0|1:0,0:0:0:0:
368,32,145499,2,0,L|266:48,1,55,8|8,3:0|1:2,0:0:0:0:
286,46,145832,6,0,P|297:129|301:167,1,110,4|2,1:0|1:3,0:0:0:0:
303,182,146332,1,0,1:0:0:0:
220,255,146666,1,0,0:0:0:0:
220,255,146832,2,0,L|205:325,1,55,6|8,3:0|1:0,0:0:0:0:
198,334,147166,2,0,L|126:340,1,55,0|0,1:0|0:0,0:0:0:0:
115,340,147499,1,8,1:2:0:0:
50,250,147832,6,0,P|53:164|56:121,1,110,8|2,1:2|3:3,0:0:0:0:
61,113,148332,1,0,1:0:0:0:
125,23,148666,1,0,0:0:0:0:
125,23,148832,2,0,L|186:36,1,55,6|0,3:0|0:0,0:0:0:0:
195,56,149166,2,0,L|252:56,1,55,0|0,1:0|0:0,0:0:0:0:
275,45,149499,2,0,L|260:116,2,55,2|8|8,1:3|1:0|1:2,0:0:0:0:
383,27,150166,5,2,1:3:0:0:
383,27,150332,2,0,P|430:80|454:129,1,110,0|0,1:0|0:0,0:0:0:0:
459,139,150832,1,6,3:0:0:0:
428,244,151166,2,0,L|351:227,1,55,0|8,1:0|3:0,0:0:0:0:
346,230,151499,2,0,L|333:293,1,55,2|8,1:3|1:0,0:0:0:0:
326,310,151832,5,12,1:2:0:0:
225,356,152166,2,0,L|216:258,1,55,0|8,1:0|1:0,0:0:0:0:
211,274,152499,2,0,L|146:272,1,55,4|8,3:0|1:0,0:0:0:0:
133,288,152832,2,0,L|55:291,2,55,8|0|4,1:2|0:0|3:0,0:0:0:0:
192,195,153499,1,2,0:0:0:0:
87,160,153832,6,0,P|95:86|113:37,1,110,4|0,1:0|0:0,0:0:0:0:
119,28,154332,1,0,1:0:0:0:
222,65,154666,1,0,0:0:0:0:
222,65,154832,2,0,L|288:65,1,55,6|0,1:2|0:0,0:0:0:0:
294,43,155166,2,0,L|383:56,1,55,0|8,1:0|1:0,0:0:0:0:
373,40,155499,1,8,1:2:0:0:
460,106,155832,6,0,L|476:222,1,110,8|0,1:2|0:0,0:0:0:0:
478,242,156332,1,0,1:0:0:0:
410,328,156666,1,0,0:0:0:0:
410,328,156832,2,0,L|382:271,1,55,6|0,1:2|0:0,0:0:0:0:
367,257,157166,2,0,L|299:260,1,55,0|8,1:0|1:0,0:0:0:0:
284,261,157499,2,0,L|267:328,2,55,8|0|8,1:2|0:0|1:2,0:0:0:0:
205,183,158166,5,0,0:0:0:0:
205,183,158332,2,0,P|143:193|92:207,1,110,0|0,1:0|0:0,0:0:0:0:
70,212,158832,1,6,1:2:0:0:
36,106,159166,2,0,L|33:52,1,55,8|0,1:0|0:0,0:0:0:0:
52,32,159499,2,0,L|117:13,1,55,8|8,1:2|1:0,0:0:0:0:
129,29,159832,6,0,P|212:59|260:59,2,110,8|2|8,1:2|0:0|1:0,0:0:0:0:
74,124,160832,2,0,P|52:196|40:251,2,110,4|2|8,1:3|0:0|1:0,0:0:0:0:
181,148,161832,2,0,P|253:161|328:167,1,110,4|0,1:0|0:0,0:0:0:0:
317,164,162332,1,0,1:0:0:0:
423,137,162666,1,0,0:0:0:0:
423,137,162832,2,0,L|491:149,1,55,6|8,1:2|1:0,0:0:0:0:
492,169,163166,2,0,L|473:246,1,55,0|0,1:0|0:0,0:0:0:0:
473,249,163499,1,8,1:2:0:0:
399,330,163832,6,0,P|313:312|265:286,1,110,8|0,1:2|0:0,0:0:0:0:
268,291,164332,1,0,1:0:0:0:
173,343,164666,1,0,0:0:0:0:
173,343,164832,2,0,L|93:347,1,55,6|8,1:2|1:0,0:0:0:0:
90,343,165166,2,0,L|118:272,1,55,0|8,0:0|1:0,0:0:0:0:
109,264,165499,2,0,L|46:291,1,55,8|8,1:0|1:0,0:0:0:0:
41,264,165832,5,2,1:2:0:0:
36,154,166166,1,4,1:2:0:0:
79,52,166499,1,4,1:2:0:0:
188,44,166832,2,0,L|256:52,1,55,6|8,1:2|1:0,0:0:0:0:
264,68,167166,2,0,L|243:138,1,55,8|0,1:0|0:0,0:0:0:0:
236,145,167499,1,8,1:2:0:0:
211,252,167832,6,0,P|281:265|346:284,1,110,8|0,1:2|0:0,0:0:0:0:
343,286,168332,1,8,1:0:0:0:
447,245,168666,1,0,0:0:0:0:
447,245,168832,2,0,L|457:183,1,55,6|0,1:2|0:0,0:0:0:0:
469,166,169166,2,0,L|397:140,1,55,8|0,1:0|1:0,0:0:0:0:
404,122,169499,2,0,L|332:153,1,55,8|8,1:0|1:0,0:0:0:0:
326,140,169832,5,4,1:0:0:0:
