osu file format v14

[General]
AudioFilename: audio.mp3
AudioLeadIn: 0
PreviewTime: 32418
Countdown: 0
SampleSet: Soft
StackLeniency: 0.7
Mode: 0
LetterboxInBreaks: 0
WidescreenStoryboard: 0

[Editor]
DistanceSpacing: 0.6
BeatDivisor: 4
GridSize: 4
TimelineZoom: 2.599999

[Metadata]
Title:Chouwa oto ~with reflection~ (Cut Ver.)
TitleUnicode:調和 oto ~with reflection~ (Cut Ver.)
Artist:KOKIA
ArtistUnicode:KOKIA
Creator:PandaHero
Version:Hard
Source:銀色の髪のアギト
Tags:app mirash damnae kiiwa anime japanese pop folk origin spirits of the past Gin iro no Kami no Agito Silver Haired Silver-Haired
BeatmapID:4556724
BeatmapSetID:2156509

[Difficulty]
HPDrainRate:6
CircleSize:4
OverallDifficulty:7
ApproachRate:8
SliderMultiplier:1.6
SliderTickRate:1

[Events]
//Background and Video events
0,0,"bg.png",0,0
//Break Periods
2,104366,109402
2,112176,113083
//Storyboard Layer 0 (Background)
//Storyboard Layer 1 (Fail)
//Storyboard Layer 2 (Pass)
//Storyboard Layer 3 (Foreground)
//Storyboard Layer 4 (Overlay)
//Storyboard Sound Samples

[TimingPoints]
502,333.333333333333,6,2,0,15,1,0
16501,-133.333333333333,6,2,1,20,0,0
32501,-100,6,2,1,40,0,0
38501,-100,6,2,1,40,0,0
40501,-100,6,2,1,40,0,0
48501,-90.9090909090909,6,2,1,50,0,0
54835,-100,6,2,1,50,0,0
56501,-100,6,2,1,50,0,0
64501,333.333333333333,5,2,1,30,1,0
64501,-111.111111111111,5,2,1,50,0,0
65001,-111.111111111111,5,2,3,50,0,0
70167,333.333333333333,5,2,1,30,1,0
70167,-111.111111111111,5,2,3,30,0,0
76833,-111.111111111111,5,2,1,35,0,0
77167,-111.111111111111,5,2,3,35,0,0
78166,-111.111111111111,5,2,1,35,0,0
79000,-111.111111111111,5,2,3,35,0,0
80166,-111.111111111111,5,2,1,35,0,0
80500,-111.111111111111,5,2,3,35,0,0
81500,-111.111111111111,5,2,1,35,0,0
82166,-111.111111111111,5,2,3,35,0,0
82500,333.333333333333,5,2,1,35,1,0
82500,-111.111111111111,5,2,1,35,0,0
85666,-111.111111111111,5,2,3,35,0,0
85833,-111.111111111111,5,2,1,35,0,0
86333,-111.111111111111,5,2,3,35,0,0
86500,-111.111111111111,5,2,1,35,0,0
88167,333.333333333333,6,2,1,50,1,0
88167,-100,6,2,1,50,0,0
94167,-100,6,2,1,50,0,0
96166,-100,6,2,1,50,0,0
103166,-100,6,2,1,50,0,0
103250,-100,6,2,1,30,0,0
104166,-166.666666666667,6,2,1,50,0,0
107833,331.491712707182,6,2,1,50,1,0
108164,331.491712707182,6,2,1,50,1,0
109500,-166.666666666667,6,2,1,40,0,0
109833,-166.666666666667,6,2,1,50,0,0
110152,-166.666666666667,6,2,1,60,0,0
110981,-166.666666666667,6,2,1,50,0,0
111147,-166.666666666667,6,2,1,70,0,0
111810,-166.666666666667,6,2,1,5,0,0
113833,333.333333333333,6,2,1,60,1,0
113833,-83.3333333333333,6,2,1,60,0,1
121166,-83.3333333333333,6,2,1,50,0,1
121832,-90.9090909090909,6,2,1,55,0,0
136832,-83.3333333333333,6,2,1,45,0,0
137166,-83.3333333333333,6,2,1,35,0,0
137499,-83.3333333333333,6,2,1,30,0,0
137832,-83.3333333333333,6,2,1,60,0,1
143832,-83.3333333333333,6,2,1,60,0,1
145832,-83.3333333333333,6,2,1,60,0,1
153499,-83.3333333333333,6,2,1,50,0,0
153832,-83.3333333333333,6,2,1,55,0,1
159832,-83.3333333333333,6,2,1,55,0,1
167832,-83.3333333333333,6,2,1,60,0,1
170666,337.078651685393,6,2,1,60,1,0
170834,337.078651685393,6,2,1,60,1,0
170848,-100,6,2,1,20,0,0
170933,-100,6,2,1,40,0,0
171845,335.195530726257,6,2,1,60,1,0
172865,-100,6,2,1,20,0,0
172948,-100,6,2,1,40,0,0
173185,319.148936170213,6,2,1,60,1,0
173663,344.827586206897,6,2,1,60,1,0
173835,333.333333333333,6,2,1,60,1,0
174668,340.909090909091,6,2,1,60,1,0
174838,340.909090909091,6,2,1,60,1,0
174865,-100,6,2,1,20,0,0
174948,-100,6,2,1,40,0,0
175519,319.148936170213,6,2,1,60,1,0
175841,335.195530726257,6,2,1,60,1,0
175865,-100,6,2,1,35,0,0
176531,-100,6,2,0,35,0,0
176865,-100,6,2,1,35,0,0
177698,-100,6,2,1,10,0,0
177860,338.983050847458,6,2,1,30,1,0
178881,-100,6,2,1,10,0,0
178891,-100,6,2,1,30,0,0
179215,326.08695652174,6,2,1,30,1,0
179220,-100,6,2,0,30,0,0
179230,-100,6,2,1,30,0,0
179559,-100,6,2,0,30,0,0
179644,-100,6,2,1,30,0,0
179704,329.670329670331,6,2,1,30,1,0
179893,329.67032967033,6,2,1,30,1,0
180887,-100,6,2,0,30,0,0
180897,-100,6,2,1,30,0,0
181216,-100,6,2,0,30,0,0
181226,-100,6,2,1,30,0,0
181546,-100,6,2,0,30,0,0
181556,-100,6,2,1,30,0,0
181876,-100,6,2,1,20,0,0
183194,-100,6,2,0,20,0,0
183204,-100,6,2,1,20,0,0
183524,-100,6,2,0,20,0,0
183606,-100,6,2,1,20,0,0
183849,375,6,2,1,10,1,0
184224,365.853658536585,6,2,0,10,1,0
184411,-100,6,2,1,10,0,0
184772,465.116279069768,6,2,1,10,1,0
184985,-100,6,2,1,5,0,0
185004,465.116279069768,6,2,1,10,1,0

[Colours]
Combo1 : 128,128,128
Combo2 : 204,198,181
Combo3 : 192,210,214
Combo4 : 214,133,133

[HitObjects]
51,205,16501,6,0,P|107:190|127:129,1,120.000004577637,2|0,1:2|0:0,0:0:0:0:
53,65,17001,1,0,0:0:0:0:
53,65,17168,2,0,L|41:136,1,60.0000022888184,0|0,0:0|0:0,0:0:0:0:
141,64,17501,2,0,P|192:52|248:45,1,90.0000034332277,0|0,1:0|0:0,0:0:0:0:
248,31,17835,2,0,L|322:53,1,60.0000022888184,0|0,0:0|0:0,0:0:0:0:
403,105,18168,2,0,L|330:115,1,60.0000022888184,0|0,0:0|0:0,0:0:0:0:
264,177,18501,6,0,P|275:229|284:300,1,120.000004577637,4|0,3:0|0:0,0:0:0:0:
283,295,19001,1,0,0:0:0:0:
377,354,19168,2,0,P|381:312|391:276,1,60.0000022888184,0|0,0:0|0:0,0:0:0:0:
464,232,19501,2,0,P|458:191|418:108,2,120.000004577637,0|0|4,1:0|0:0|3:0,0:0:0:0:
338,199,20335,1,0,0:0:0:0:
302,131,20501,6,0,P|317:76|379:32,1,120.000004577637,4|0,3:0|0:0,0:0:0:0:
363,36,21001,1,0,0:0:0:0:
462,69,21168,2,0,L|452:129,1,60.0000022888184,0|0,0:0|0:0,0:0:0:0:
371,197,21501,2,0,P|388:239|401:281,1,90.0000034332277,0|0,1:0|0:0,0:0:0:0:
397,305,21835,2,0,L|327:294,1,60.0000022888184,0|0,0:0|0:0,0:0:0:0:
232,245,22168,2,0,L|303:221,1,60.0000022888184,0|0,0:0|0:0,0:0:0:0:
210,323,22501,6,0,P|151:307|141:231,1,120.000004577637,4|0,3:0|0:0,0:0:0:0:
151,178,23001,1,0,0:0:0:0:
80,203,23168,1,0,0:0:0:0:
91,127,23335,1,0,1:0:0:0:
91,127,23501,2,0,L|103:45,1,60.0000022888184,0|0,1:0|0:0,0:0:0:0:
20,25,23835,2,0,L|12:109,1,60.0000022888184,0|0,0:0|0:0,0:0:0:0:
168,19,24168,1,4,3:0:0:0:
176,96,24335,1,0,0:0:0:0:
181,177,24501,6,0,P|234:170|271:106,1,120.000004577637,4|0,3:0|0:0,0:0:0:0:
268,254,25001,1,0,0:0:0:0:
268,254,25168,2,0,L|251:325,1,60.0000022888184,0|0,0:0|0:0,0:0:0:0:
341,354,25501,2,0,P|355:286|366:241,1,90.0000034332277,0|0,1:0|0:0,0:0:0:0:
368,243,25835,2,0,L|441:258,1,60.0000022888184,0|0,0:0|0:0,0:0:0:0:
488,188,26168,2,0,L|401:172,1,60.0000022888184,0|0,0:0|0:0,0:0:0:0:
325,153,26501,6,0,P|287:127|297:49,1,120.000004577637,4|0,3:0|0:0,0:0:0:0:
288,58,27001,1,0,0:0:0:0:
211,28,27168,2,0,L|132:34,1,60.0000022888184,0|0,0:0|1:0,0:0:0:0:
47,102,27501,1,0,1:0:0:0:
124,120,27668,1,0,0:0:0:0:
51,132,27835,2,0,L|31:212,1,60.0000022888184,0|0,0:0|0:0,0:0:0:0:
104,271,28168,2,0,L|116:196,1,60.0000022888184,4|0,3:0|0:0,0:0:0:0:
234,191,28501,6,0,B|299:178|286:213|369:207,1,120.000004577637,4|0,3:0|0:0,0:0:0:0:
350,207,29001,1,0,0:0:0:0:
396,122,29168,2,0,P|386:85|354:56,1,60.0000022888184,0|0,0:0|0:0,0:0:0:0:
287,22,29501,2,0,P|257:55|246:91,1,60.0000022888184,0|0,1:0|0:0,0:0:0:0:
272,148,29835,2,0,P|308:166|334:171,2,60.0000022888184,0|0|0,0:0|0:0|0:0,0:0:0:0:
191,127,30335,1,0,0:0:0:0:
94,212,30501,6,0,P|56:253|39:319,1,120.000004577637,4|0,3:0|0:0,0:0:0:0:
143,355,31001,1,0,0:0:0:0:
184,287,31168,2,0,L|176:213,1,60.0000022888184,0|0,1:0|0:0,0:0:0:0:
108,128,31501,2,0,P|66:138|10:150,1,90.0000034332277,0|0,1:0|0:0,0:0:0:0:
25,124,31835,2,0,L|55:59,1,60.0000022888184,0|0,0:0|0:0,0:0:0:0:
146,5,32168,2,0,L|165:83,1,60.0000022888184,4|0,3:0|0:0,0:0:0:0:
244,150,32501,6,0,P|297:143|402:122,1,160,4|0,1:0|0:0,0:0:0:0:
474,43,33001,1,0,1:0:0:0:
474,43,33335,1,0,1:0:0:0:
389,22,33501,2,0,P|334:21|305:25,1,80,8|0,1:0|0:0,0:0:0:0:
252,111,33835,2,0,P|307:112|336:108,1,80,0|0,1:0|0:0,0:0:0:0:
192,50,34168,1,0,1:0:0:0:
139,105,34335,1,0,1:0:0:0:
144,186,34501,6,0,P|131:237|105:351,1,160,4|0,3:3|0:0,0:0:0:0:
29,274,35001,1,0,1:0:0:0:
29,274,35335,1,0,1:0:0:0:
27,171,35501,2,0,P|52:128|98:84,1,80,8|0,1:0|0:0,0:0:0:0:
130,39,35835,2,0,P|178:51|239:72,1,80,0|0,1:0|0:0,0:0:0:0:
276,131,36168,1,8,3:3:0:0:
228,194,36335,1,0,1:0:0:0:
264,266,36501,6,0,P|260:330|251:381,2,80,4|0|0,3:0|0:0|1:0,0:0:0:0:
344,359,37001,2,0,P|400:356|456:252,1,160,0|4,1:0|1:2,0:0:0:0:
394,182,37501,2,0,L|377:275,1,80,8|0,1:0|0:0,0:0:0:0:
309,185,37835,2,0,L|219:171,1,80,0|0,1:0|0:0,0:0:0:0:
209,103,38168,1,0,1:0:0:0:
267,55,38335,1,4,1:2:0:0:
120,117,38501,6,0,P|72:105|-8:21,2,160,4|0|0,1:0|0:0|0:0,0:0:0:0:
168,179,39335,1,0,1:0:0:0:
168,179,39501,2,0,L|146:276,1,80,2|0,0:0|0:0,0:0:0:0:
235,277,39835,2,0,L|252:198,1,80,0|0,1:0|0:0,0:0:0:0:
176,334,40168,1,8,3:0:0:0:
110,363,40335,1,0,0:0:0:0:
36,344,40501,6,0,P|23:281|12:168,1,160,4|0,3:0|0:0,0:0:0:0:
103,120,41001,1,0,1:0:0:0:
103,120,41335,1,0,1:0:0:0:
42,37,41501,2,0,P|24:95|20:119,1,80,8|0,1:0|0:0,0:0:0:0:
98,208,41835,2,0,P|147:204|188:191,1,80,0|0,1:0|0:0,0:0:0:0:
221,96,42168,1,0,1:0:0:0:
290,121,42335,1,0,1:0:0:0:
257,193,42501,6,0,P|272:288|282:363,1,160,4|0,3:0|0:0,0:0:0:0:
355,282,43001,1,0,1:0:0:0:
355,282,43335,1,0,1:0:0:0:
442,327,43501,2,0,P|462:282|470:242,1,80,8|0,1:0|0:0,0:0:0:0:
412,176,43835,2,0,P|372:180|334:193,1,80,0|0,1:0|0:0,0:0:0:0:
239,156,44168,1,0,1:0:0:0:
259,79,44335,1,0,1:0:0:0:
344,87,44501,6,0,P|385:75|447:65,2,80,4|0|0,3:0|0:0|1:0,0:0:0:0:
239,156,45001,2,0,P|198:162|119:105,1,120,0|0,1:0|0:0,0:0:0:0:
115,97,45335,1,0,1:0:0:0:
37,170,45501,2,0,P|47:216|52:264,1,80,8|0,1:0|0:0,0:0:0:0:
96,326,45835,2,0,P|134:301|178:294,1,80,0|0,1:0|0:0,0:0:0:0:
280,299,46168,1,0,1:0:0:0:
322,234,46335,1,0,1:0:0:0:
254,191,46501,6,0,P|245:128|205:30,1,160,4|0,3:0|1:0,0:0:0:0:
329,96,47001,1,0,1:0:0:0:
329,96,47168,2,0,P|385:105|424:107,1,80,0|8,0:0|1:0,0:0:0:0:
476,177,47501,2,0,P|495:272|499:342,2,160,4|4|8,3:0|3:0|3:0,0:0:0:0:
477,57,48335,5,0,0:0:0:0:
477,57,48501,2,0,P|421:33|280:35,1,176.000005371094,4|0,1:0|1:0,0:0:0:0:
271,116,49001,2,0,P|323:124|382:121,2,88.000002685547,8|0|0,1:0|0:0|1:0,0:0:0:0:
206,41,49501,2,0,P|121:70|108:75,1,88.000002685547,2|0,1:2|0:0,0:0:0:0:
20,131,49835,2,0,P|71:142|115:146,1,88.000002685547,8|0,1:0|0:0,0:0:0:0:
194,202,50168,1,8,1:2:0:0:
192,123,50335,1,0,1:0:0:0:
194,202,50501,6,0,P|169:267|111:366,1,176.000005371094,4|0,1:3|1:0,0:0:0:0:
44,306,51001,2,0,P|59:253|79:191,1,88.000002685547,8|0,1:0|0:0,0:0:0:0:
105,141,51335,1,0,1:0:0:0:
105,141,51501,2,0,P|92:90|72:44,1,88.000002685547,2|0,1:2|0:0,0:0:0:0:
166,197,51835,2,0,P|229:197|268:183,1,88.000002685547,8|0,1:0|0:0,0:0:0:0:
291,97,52168,1,0,1:0:0:0:
366,115,52335,1,0,1:0:0:0:
364,199,52501,6,0,P|394:233|464:350,1,176.000005371094,4|0,1:3|1:0,0:0:0:0:
506,253,53001,2,0,P|503:209|494:166,2,88.000002685547,8|0|0,1:0|0:0|1:0,0:0:0:0:
424,301,53501,2,0,P|350:307|297:344,1,132.00000402832,2|0,1:2|0:0,0:0:0:0:
273,358,53835,2,0,P|213:339|175:317,1,88.000002685547,8|4,1:0|0:0,0:0:0:0:
124,250,54168,1,8,1:2:0:0:
192,223,54335,1,0,1:0:0:0:
67,166,54501,6,0,P|40:235|38:347,2,176.000005371094,4|0|0,1:3|1:0|0:0,0:0:0:0:
126,99,55335,1,0,1:0:0:0:
126,99,55501,2,0,P|155:54|159:-6,1,80,2|0,0:0|0:0,0:0:0:0:
145,183,55835,2,0,P|190:212|250:216,1,80,0|0,1:0|0:0,0:0:0:0:
307,153,56168,1,4,3:0:0:0:
295,77,56335,1,0,1:0:0:0:
383,100,56501,6,0,P|427:109|496:116,1,80,4|0,1:3|0:0,0:0:0:0:
487,201,56835,1,0,1:0:0:0:
487,201,57001,2,0,P|443:210|374:217,1,80,8|0,1:0|0:0,0:0:0:0:
291,207,57335,1,0,1:0:0:0:
291,207,57501,2,0,P|266:246|234:332,1,120,2|0,1:2|0:0,0:0:0:0:
240,346,57835,2,0,P|208:283|192:252,1,80,8|0,1:0|0:0,0:0:0:0:
129,194,58168,1,8,1:2:0:0:
62,229,58335,1,0,1:0:0:0:
49,125,58501,6,0,P|42:75|41:26,2,80,4|0|0,1:3|0:0|1:0,0:0:0:0:
129,194,59001,2,0,P|173:176|200:94,1,120,8|0,1:0|0:0,0:0:0:0:
203,80,59335,1,0,1:0:0:0:
305,27,59501,2,0,P|297:75|294:116,1,80,2|0,1:2|0:0,0:0:0:0:
371,151,59835,2,0,P|379:103|382:62,1,80,8|0,1:0|0:0,0:0:0:0:
474,73,60168,1,0,1:0:0:0:
490,144,60335,1,0,1:0:0:0:
414,240,60501,6,0,P|353:251|256:212,1,160,4|0,1:3|1:0,0:0:0:0:
168,183,61001,2,0,P|114:196|36:270,1,160,8|0,1:0|1:0,0:0:0:0:
94,338,61501,2,0,P|153:344|196:344,1,80,2|0,1:2|1:0,0:0:0:0:
243,274,61835,1,8,1:0:0:0:
191,220,62001,1,8,1:0:0:0:
254,170,62168,2,0,P|256:123|246:83,1,80,8|0,1:2|1:0,0:0:0:0:
170,51,62501,6,0,P|165:111|169:156,2,80,4|0|0,1:3|0:0|1:0,0:0:0:0:
314,35,63001,1,8,1:0:0:0:
314,35,63168,2,0,L|410:47,1,80,0|0,0:0|1:0,0:0:0:0:
451,139,63501,2,0,L|356:126,1,80,2|4,1:2|3:0,0:0:0:0:
295,219,63835,1,8,1:0:0:0:
323,290,64001,1,0,0:0:0:0:
397,318,64168,1,8,1:0:0:0:
460,273,64335,1,8,3:0:0:0:
461,193,64501,6,0,P|459:148|410:41,1,143.999995605469,4|0,0:1|0:0,0:0:0:0:
327,33,65001,2,0,L|250:38,2,71.9999978027344,2|0|0,0:0|0:0|0:0,0:0:0:0:
275,121,65501,2,0,P|211:126|129:112,1,143.999995605469,0|4,0:0|3:0,0:0:0:0:
37,338,66167,6,0,P|85:317|187:301,1,143.999995605469,0|0,1:0|0:0,0:0:0:0:
268,294,66667,2,0,P|303:309|344:320,2,71.9999978027344,0|0|0,0:0|0:0|0:0,0:0:0:0:
227,225,67167,1,0,0:0:0:0:
269,158,67334,1,0,0:0:0:0:
179,78,67501,2,0,L|191:157,1,71.9999978027344,0|0,0:0|0:0,0:0:0:0:
281,65,67834,6,0,P|336:42|446:32,1,143.999995605469,0|0,1:0|0:0,0:0:0:0:
493,94,68334,2,0,L|475:181,2,71.9999978027344,0|0|0,0:0|0:0|0:0,0:0:0:0:
385,133,68834,2,0,P|397:184|413:253,1,107.999996704102,0|0,0:0|0:0,0:0:0:0:
401,258,69167,1,0,0:0:0:0:
323,256,69334,1,0,0:0:0:0:
294,186,69501,1,0,1:0:0:0:
358,146,69667,1,0,0:0:0:0:
358,146,69751,1,0,0:0:0:0:
358,146,69834,1,2,0:0:0:0:
255,312,70167,6,0,P|213:265|122:229,1,143.999995605469,0|0,1:0|0:0,0:0:0:0:
93,156,70667,2,0,P|39:168|-3:187,2,71.9999978027344,0|0|0,0:0|0:0|0:0,0:0:0:0:
173,117,71167,1,0,1:0:0:0:
162,38,71333,1,0,0:0:0:0:
83,49,71500,1,4,1:3:0:0:
154,210,71833,6,0,P|132:256|107:356,1,143.999995605469,0|0,1:0|0:0,0:0:0:0:
201,320,72333,2,0,P|259:321|299:323,1,71.9999978027344,0|0,1:0|0:0,0:0:0:0:
319,240,72667,1,0,0:0:0:0:
319,240,72833,2,0,P|283:238|247:238,1,71.9999978027344,0|0,1:0|0:0,0:0:0:0:
213,153,73167,2,0,P|271:154|311:156,1,71.9999978027344,0|0,0:0|0:0,0:0:0:0:
350,75,73500,6,0,P|401:81|495:118,1,143.999995605469,4|0,1:3|0:0,0:0:0:0:
401,174,74000,2,0,P|446:209|476:246,1,71.9999978027344,0|0,1:0|0:0,0:0:0:0:
376,264,74333,1,0,1:0:0:0:
376,264,74500,2,0,P|400:309|409:373,1,107.999996704102,0|0,1:0|0:0,0:0:0:0:
388,360,74833,2,0,L|303:343,1,71.9999978027344,8|0,1:3|0:0,0:0:0:0:
213,304,75167,6,0,P|240:262|218:154,1,143.999995605469,4|0,1:3|0:0,0:0:0:0:
157,227,75667,2,0,P|141:189|114:148,1,71.9999978027344,0|0,1:0|0:0,0:0:0:0:
77,265,76000,1,0,1:0:0:0:
77,265,76167,2,0,P|34:209|26:182,1,71.9999978027344,0|0,1:0|0:0,0:0:0:0:
31,186,76417,1,0,0:0:0:0:
31,164,76500,1,8,1:3:0:0:
119,27,76833,6,0,P|162:33|221:44,2,71.9999978027344,2|0|0,1:2|0:0|0:0,0:0:0:0:
161,115,77333,2,0,P|215:84|318:108,1,143.999995605469,0|0,3:0|0:0,0:0:0:0:
363,160,77833,2,0,P|314:179|271:183,1,71.9999978027344,0|0,1:0|0:0,0:0:0:0:
223,250,78166,1,2,1:2:0:0:
282,305,78333,1,0,0:0:0:0:
171,356,78500,6,0,P|150:293|156:214,1,143.999995605469,2|0,1:2|0:0,0:0:0:0:
74,176,79000,2,0,P|51:226|42:273,2,71.9999978027344,0|0|0,3:0|3:0|0:0,0:0:0:0:
127,93,79500,1,0,1:0:0:0:
198,126,79666,1,0,0:0:0:0:
195,47,79833,1,0,1:0:0:0:
126,12,80000,1,0,1:0:0:0:
266,79,80166,6,0,P|306:70|420:61,1,143.999995605469,2|0,1:2|0:0,0:0:0:0:
457,127,80666,2,0,P|446:175|434:202,2,71.9999978027344,0|0|0,1:0|0:0|0:0,0:0:0:0:
345,165,81166,2,0,P|335:217|329:276,1,107.999996704102,0|0,1:0|0:0,0:0:0:0:
327,293,81500,1,2,1:2:0:0:
378,355,81666,1,0,0:0:0:0:
453,335,81833,1,2,1:2:0:0:
448,260,82000,1,0,0:0:0:0:
448,260,82083,1,0,0:0:0:0:
448,260,82166,1,2,0:0:0:0:
240,155,82500,6,0,P|181:176|149:192,2,71.9999978027344,2|0|0,1:2|0:0|0:0,0:0:0:0:
100,124,83000,1,0,3:0:0:0:
100,124,83166,2,0,P|81:169|75:213,1,71.9999978027344,0|0,3:0|0:0,0:0:0:0:
18,254,83500,2,0,P|29:309|58:365,1,107.999996704102,0|0,1:0|0:0,0:0:0:0:
72,352,83833,2,0,P|112:332|146:324,1,71.9999978027344,2|0,1:2|0:0,0:0:0:0:
255,268,84166,6,0,P|301:271|335:284,2,71.9999978027344,2|0|0,1:2|0:0|0:0,0:0:0:0:
199,197,84666,2,0,P|213:150|260:48,1,143.999995605469,0|0,3:0|0:0,0:0:0:0:
335,16,85166,2,0,P|356:73|363:102,1,71.9999978027344,0|0,1:0|0:0,0:0:0:0:
461,159,85500,2,0,P|405:160|359:160,1,71.9999978027344,0|0,1:0|1:0,0:0:0:0:
291,222,85833,6,0,P|303:261|322:368,1,143.999995605469,2|0,1:2|0:0,0:0:0:0:
411,338,86333,2,0,P|421:298|433:252,1,71.9999978027344,0|0,3:0|1:0,0:0:0:0:
492,197,86666,1,0,0:0:0:0:
492,197,86833,2,0,P|473:128|468:119,1,71.9999978027344,4|0,1:2|0:0,0:0:0:0:
378,91,87166,2,0,P|369:151|375:182,1,71.9999978027344,8|0,1:3|0:0,0:0:0:0:
296,229,87500,2,0,P|243:190|257:93,1,143.999995605469,4|0,1:3|0:0,0:0:0:0:
24,32,88167,6,0,P|17:90|13:195,1,160,4|0,1:0|0:0,0:0:0:0:
81,259,88667,2,0,P|89:207|103:159,1,80,0|0,1:0|0:0,0:0:0:0:
161,82,89000,1,0,1:0:0:0:
233,124,89167,2,0,P|285:134|322:138,1,80,8|0,1:0|0:0,0:0:0:0:
373,41,89500,2,0,P|321:51|284:55,1,80,0|0,1:0|0:0,0:0:0:0:
404,118,89833,1,0,1:0:0:0:
476,152,90000,1,0,1:0:0:0:
462,235,90167,6,0,P|447:279|402:391,1,160,4|0,3:3|0:0,0:0:0:0:
322,325,90667,2,0,P|340:264|347:230,1,80,0|0,1:0|0:0,0:0:0:0:
226,177,91000,1,0,1:0:0:0:
160,232,91167,2,0,P|106:250|58:255,1,80,8|0,1:0|0:0,0:0:0:0:
27,152,91500,2,0,P|76:157|118:154,1,80,0|0,1:0|0:0,0:0:0:0:
145,44,91833,1,8,3:3:0:0:
69,60,92000,1,0,1:0:0:0:
182,123,92167,6,0,P|233:106|266:10,1,160,4|0,3:0|1:0,0:0:0:0:
356,67,92667,2,0,P|344:114|326:166,1,80,0|0,1:0|0:0,0:0:0:0:
440,216,93000,1,4,1:2:0:0:
378,279,93167,2,0,P|380:331|390:370,1,80,8|0,1:0|0:0,0:0:0:0:
470,374,93500,2,0,P|480:322|481:284,1,80,0|0,1:0|0:0,0:0:0:0:
359,195,93833,1,0,1:0:0:0:
302,243,94000,1,4,1:2:0:0:
228,251,94167,6,0,P|182:244|136:126,2,160,4|0|0,1:0|0:0|0:0,0:0:0:0:
191,337,95000,1,0,1:0:0:0:
191,337,95167,2,0,P|123:310|90:273,1,120,2|0,0:0|0:0,0:0:0:0:
59,275,95500,2,0,L|37:184,1,80,0|0,1:0|0:0,0:0:0:0:
71,89,95833,1,8,3:0:0:0:
147,78,96000,1,0,0:0:0:0:
211,138,96166,6,0,P|196:183|176:233,2,80,4|0|0,3:0|0:0|0:0,0:0:0:0:
294,59,96666,2,0,P|304:127|313:228,1,160,0|0,1:0|1:0,0:0:0:0:
380,286,97166,2,0,P|389:240|399:197,1,80,8|0,1:0|0:0,0:0:0:0:
473,175,97500,2,0,P|480:223|484:275,1,80,0|0,1:0|0:0,0:0:0:0:
452,92,97833,1,0,1:0:0:0:
389,51,98000,1,0,1:0:0:0:
291,107,98166,6,0,P|230:107|125:83,1,160,4|0,3:0|0:0,0:0:0:0:
32,110,98666,2,0,P|60:144|94:157,1,80,0|0,1:0|0:0,0:0:0:0:
185,235,99000,1,0,1:0:0:0:
143,315,99166,2,0,P|118:351|87:379,1,80,8|0,1:0|0:0,0:0:0:0:
45,292,99500,2,0,P|70:256|101:228,1,80,0|0,1:0|0:0,0:0:0:0:
207,158,99833,1,0,1:0:0:0:
258,219,100000,1,0,1:0:0:0:
288,141,100166,6,0,P|279:86|264:35,2,80,4|0|0,3:0|0:0|1:0,0:0:0:0:
351,242,100666,2,0,P|368:200|396:99,1,120,0|0,1:0|0:0,0:0:0:0:
397,97,101000,1,0,1:0:0:0:
469,182,101166,2,0,P|469:238|471:278,1,80,8|0,1:0|0:0,0:0:0:0:
401,350,101500,1,0,1:0:0:0:
346,292,101666,1,0,0:0:0:0:
279,255,101833,1,0,1:0:0:0:
203,267,102000,1,0,1:0:0:0:
240,333,102166,6,0,P|276:353|316:369,1,80,4|0,3:0|0:0,0:0:0:0:
279,255,102500,2,0,P|265:200|244:158,1,80,0|0,1:0|1:0,0:0:0:0:
138,233,102833,2,0,P|107:283|90:321,1,80,0|8,0:0|1:0,0:0:0:0:
35,198,103166,5,4,3:0:0:0:
58,121,103333,1,4,0:3:0:0:
129,84,103500,1,2,0:0:0:0:
198,122,103666,1,8,0:3:0:0:
277,130,103833,1,0,1:0:0:0:
331,71,104000,1,0,3:0:0:0:
285,4,104166,5,0,0:0:0:0:
256,192,110152,12,0,111976,0:0:0:0:
233,27,113833,6,0,P|240:90|241:163,1,95.9999970703126,8|0,1:2|0:0,0:0:0:0:
178,205,114166,1,0,0:0:0:0:
178,205,114333,2,0,P|145:143|76:34,1,191.999994140625,0|0,1:0|0:0,0:0:0:0:
33,135,114833,2,0,P|14:197|14:233,1,95.9999970703126,6|0,3:0|0:0,0:0:0:0:
49,322,115166,2,0,P|92:301|127:260,1,95.9999970703126,8|0,1:0|0:0,0:0:0:0:
232,180,115499,1,8,1:2:0:0:
301,217,115666,1,0,1:0:0:0:
293,292,115833,6,0,P|236:286|185:303,2,95.9999970703126,8|0|0,1:2|0:0|0:0,0:0:0:0:
386,350,116333,2,0,P|387:302|432:152,1,191.999994140625,0|0,1:0|0:0,0:0:0:0:
367,97,116833,2,0,P|317:119|257:132,1,95.9999970703126,6|0,3:0|0:0,0:0:0:0:
195,64,117166,2,0,P|245:42|305:29,1,95.9999970703126,8|0,1:0|0:0,0:0:0:0:
411,31,117499,1,0,1:0:0:0:
478,73,117666,1,0,1:0:0:0:
462,159,117833,6,0,P|439:221|411:303,1,143.999995605469,8|0,1:2|0:0,0:0:0:0:
399,330,118166,1,0,0:0:0:0:
339,271,118333,2,0,P|316:215|295:178,1,95.9999970703126,8|0,1:0|0:0,0:0:0:0:
220,260,118666,1,0,1:0:0:0:
220,260,118833,2,0,P|159:240|68:233,1,143.999995605469,6|0,3:0|0:0,0:0:0:0:
41,235,119166,2,0,L|13:330,2,95.9999970703126,8|0|8,1:0|1:0|1:2,0:0:0:0:
124,157,119666,1,0,1:0:0:0:
142,78,119833,6,0,P|101:35|50:27,1,95.9999970703126,8|0,1:2|0:0,0:0:0:0:
23,95,120166,1,8,3:0:0:0:
23,95,120333,1,0,1:0:0:0:
67,163,120499,1,8,1:0:0:0:
67,163,120666,1,8,3:0:0:0:
143,159,120833,2,0,P|197:138|246:125,1,95.9999970703126,6|0,3:0|0:0,0:0:0:0:
286,51,121166,2,0,P|347:65|397:84,1,95.9999970703126,4|0,0:3|0:0,0:0:0:0:
458,163,121499,2,0,P|409:164|343:182,1,95.9999970703126,8|0,0:3|0:0,0:0:0:0:
263,242,121832,6,2,P|261:306|368:357,1,176.000005371094,4|0,1:0|0:0,1:1:0:0:
438,327,122332,1,2,1:1:0:0:
438,327,122666,1,8,1:0:0:0:
468,240,122832,2,2,P|465:191|454:146,1,88.000002685547,4|0,1:3|0:0,1:1:0:0:
361,98,123166,1,0,0:0:0:0:
305,155,123332,1,2,1:0:0:0:
362,206,123499,1,8,1:2:0:0:
426,159,123666,1,0,0:0:0:0:
391,85,123832,6,0,P|346:56|211:35,1,176.000005371094,8|0,1:2|0:0,0:0:0:0:
136,83,124332,1,0,1:0:0:0:
136,83,124666,1,8,1:0:0:0:
59,135,124832,2,0,P|47:191|37:237,1,88.000002685547,0|0,1:0|0:0,0:0:0:0:
104,291,125166,2,0,P|116:235|126:189,1,88.000002685547,0|2,0:0|0:0,0:0:0:0:
242,171,125499,1,8,1:3:0:0:
300,226,125666,1,4,1:2:0:0:
263,302,125832,6,2,P|214:269|184:227,2,88.000002685547,4|0|2,1:3|0:0|1:0,1:1:0:0:
341,354,126332,2,0,P|386:342|455:218,1,176.000005371094,0|10,0:0|1:0,0:0:0:0:
433,139,126832,1,4,1:3:0:0:
433,139,127166,1,2,0:1:0:0:
370,178,127332,1,2,1:0:0:0:
310,129,127499,1,8,1:2:0:0:
348,65,127666,1,10,1:0:0:0:
446,51,127832,6,2,P|470:155|487:232,2,176.000005371094,8|2|10,1:2|1:0|1:0,1:1:0:0:
365,122,128666,1,2,1:0:0:0:
365,122,128832,2,0,L|259:117,1,88.000002685547,0|2,1:0|1:0,0:0:0:0:
204,32,129166,2,0,L|310:37,1,88.000002685547,8|0,1:0|0:0,0:0:0:0:
181,111,129499,1,2,1:0:0:0:
105,85,129666,1,8,1:0:0:0:
203,202,129832,6,0,P|236:257|255:368,1,176.000005371094,4|0,1:0|0:0,0:0:0:0:
156,332,130332,1,0,1:0:0:0:
156,332,130666,1,0,0:0:0:0:
75,276,130832,2,0,P|66:210|62:166,1,88.000002685547,4|0,1:3|0:0,0:0:0:0:
33,103,131166,2,0,P|58:56|102:17,1,88.000002685547,0|0,1:0|0:0,0:0:0:0:
198,88,131499,1,8,1:2:0:0:
170,156,131666,1,0,1:0:0:0:
239,205,131832,6,0,P|286:179|417:151,2,176.000005371094,8|0|8,1:2|0:0|1:0,0:0:0:0:
188,287,132666,1,0,0:0:0:0:
188,287,132832,2,0,P|260:320|330:338,1,132.00000402832,0|0,1:0|0:0,0:0:0:0:
333,362,133166,2,0,P|376:336|429:329,1,88.000002685547,8|0,1:0|0:0,0:0:0:0:
488,236,133499,1,8,1:0:0:0:
416,202,133666,1,8,1:0:0:0:
486,141,133832,5,8,1:2:0:0:
486,141,133999,2,0,P|463:86|358:32,1,176.000005371094,0|0,0:0|1:0,0:0:0:0:
288,91,134499,1,8,1:0:0:0:
336,147,134666,2,0,L|333:241,1,88.000002685547,0|4,0:0|1:3,0:0:0:0:
217,209,134999,1,0,0:0:0:0:
182,281,135166,2,0,L|208:379,1,88.000002685547,0|0,0:0|1:0,0:0:0:0:
107,350,135499,1,8,1:2:0:0:
65,284,135666,1,8,1:0:0:0:
112,203,135832,6,0,P|116:154|51:61,1,132.00000402832,8|0,1:2|0:0,0:0:0:0:
47,65,136166,1,0,0:0:0:0:
104,11,136332,1,0,1:0:0:0:
173,38,136499,1,8,1:0:0:0:
169,114,136666,1,0,0:0:0:0:
169,192,136832,2,0,P|211:223|260:235,1,95.9999970703126,4|0,3:0|0:0,0:0:0:0:
291,303,137166,2,0,P|341:288|394:283,1,95.9999970703126,4|0,3:0|0:0,0:0:0:0:
472,229,137499,1,4,3:0:0:0:
453,157,137666,1,4,0:0:0:0:
367,102,137832,6,0,P|313:134|175:147,1,191.999994140625,4|2,1:0|0:3,0:0:0:0:
118,79,138332,1,0,1:0:0:0:
118,79,138666,1,0,0:0:0:0:
33,139,138832,2,0,P|31:201|27:240,1,95.9999970703126,6|8,3:0|1:0,0:0:0:0:
104,315,139166,2,0,P|106:253|110:214,1,95.9999970703126,0|0,1:0|0:0,0:0:0:0:
210,159,139499,1,2,1:3:0:0:
270,212,139666,1,0,1:0:0:0:
226,285,139832,6,0,P|271:324|419:342,1,191.999994140625,8|2,1:2|0:3,0:0:0:0:
471,284,140332,1,0,1:0:0:0:
471,284,140666,1,0,1:0:0:0:
384,223,140832,2,0,P|354:172|324:76,1,143.999995605469,6|0,3:0|0:0,0:0:0:0:
313,55,141166,2,0,P|376:27|415:16,1,95.9999970703126,0|0,1:0|0:0,0:0:0:0:
492,89,141499,1,10,3:3:0:0:
495,162,141666,1,8,1:0:0:0:
421,208,141832,6,0,P|363:182|235:174,1,191.999994140625,8|2,1:2|1:3,0:0:0:0:
142,227,142332,1,0,1:0:0:0:
142,227,142666,1,4,0:2:0:0:
206,280,142832,2,0,P|223:334|230:372,1,95.9999970703126,6|8,3:0|1:0,0:0:0:0:
131,327,143166,2,0,P|70:304|35:280,1,95.9999970703126,0|0,1:0|1:2,0:0:0:0:
10,161,143499,1,2,1:3:0:0:
57,100,143666,1,12,1:2:0:0:
132,87,143832,6,0,P|187:59|322:28,2,191.999994140625,6|0|0,1:0|0:0|0:0,1:1:0:0:
206,158,144666,1,2,1:0:0:0:
206,158,144832,2,0,P|274:185|417:207,2,191.999994140625,2|8|8,1:0|1:0|3:0,0:0:0:0:
142,235,145666,1,8,1:2:0:0:
182,312,145832,6,0,P|244:302|386:298,1,191.999994140625,4|2,1:0|1:3,0:0:0:0:
469,357,146332,1,0,1:0:0:0:
469,357,146666,1,0,0:0:0:0:
480,263,146832,2,0,P|466:207|431:151,1,95.9999970703126,6|8,3:0|1:0,0:0:0:0:
375,114,147166,2,0,P|347:172|335:215,1,95.9999970703126,0|0,1:0|0:0,0:0:0:0:
220,135,147499,1,8,1:2:0:0:
249,68,147666,1,0,1:0:0:0:
178,22,147832,6,0,P|98:37|21:124,1,191.999994140625,8|2,1:2|3:3,0:0:0:0:
30,214,148332,1,0,1:0:0:0:
30,214,148666,1,0,0:0:0:0:
117,186,148832,2,0,P|170:176|278:168,1,143.999995605469,6|0,3:0|0:0,0:0:0:0:
296,156,149166,2,0,L|332:254,1,95.9999970703126,0|0,1:0|0:0,0:0:0:0:
253,348,149499,1,2,1:3:0:0:
218,276,149666,1,8,1:0:0:0:
346,332,149832,6,0,P|396:346|483:250,1,191.999994140625,8|2,1:2|1:3,0:0:0:0:
485,160,150332,1,0,1:0:0:0:
485,160,150666,1,0,0:0:0:0:
385,171,150832,2,0,P|336:155|292:71,1,143.999995605469,6|0,3:0|0:0,0:0:0:0:
283,40,151166,1,0,1:0:0:0:
352,8,151332,1,8,3:0:0:0:
425,32,151499,1,2,1:3:0:0:
430,108,151666,1,8,1:0:0:0:
356,182,151832,6,0,P|291:185|210:132,1,143.999995605469,12|0,1:2|0:0,0:0:0:0:
193,122,152166,2,0,P|128:143|89:170,1,95.9999970703126,0|8,1:0|1:0,0:0:0:0:
19,156,152499,2,0,P|2:210|4:265,1,95.9999970703126,4|8,3:0|1:0,0:0:0:0:
53,343,152832,2,0,P|111:328|223:255,2,191.999994140625,8|4|2,1:2|3:0|0:0,0:0:0:0:
21,125,153832,6,0,P|53:68|105:22,1,95.9999970703126,4|0,1:0|0:0,0:0:0:0:
156,89,154166,1,0,0:0:0:0:
156,89,154332,2,0,P|209:68|276:61,1,95.9999970703126,0|8,1:0|1:0,0:0:0:0:
299,148,154666,1,0,0:0:0:0:
224,191,154832,2,0,P|203:238|176:347,1,143.999995605469,6|8,1:2|1:0,0:0:0:0:
191,363,155166,2,0,P|245:338|300:327,1,95.9999970703126,0|8,1:0|1:0,0:0:0:0:
411,353,155499,1,8,1:2:0:0:
460,298,155666,1,0,0:0:0:0:
412,234,155832,6,0,P|404:176|399:125,1,95.9999970703126,8|0,1:2|0:0,0:0:0:0:
480,78,156166,1,0,0:0:0:0:
480,78,156332,2,0,P|424:24|387:1,1,95.9999970703126,0|8,1:0|1:0,0:0:0:0:
311,95,156666,1,0,0:0:0:0:
235,106,156832,2,0,P|186:81|152:51,2,95.9999970703126,6|0|0,1:2|0:0|1:0,0:0:0:0:
272,184,157332,1,8,1:0:0:0:
272,184,157499,2,0,P|213:204|173:234,1,95.9999970703126,8|0,1:2|0:0,0:0:0:0:
70,298,157832,6,0,P|43:240|40:181,1,95.9999970703126,8|0,1:2|0:0,0:0:0:0:
106,146,158166,1,0,0:0:0:0:
106,146,158332,2,0,P|116:89|129:48,1,95.9999970703126,0|8,1:0|1:0,0:0:0:0:
219,116,158666,1,0,0:0:0:0:
287,153,158832,2,0,P|352:139|458:139,1,143.999995605469,6|0,1:2|0:0,0:0:0:0:
460,113,159166,2,0,P|489:211|489:215,1,95.9999970703126,8|0,1:0|0:0,0:0:0:0:
425,313,159499,1,8,1:2:0:0:
381,248,159666,1,8,1:0:0:0:
305,245,159832,6,0,P|291:309|284:345,1,95.9999970703126,8|0,1:2|0:0,0:0:0:0:
201,356,160166,2,0,P|215:292|222:256,1,95.9999970703126,2|0,0:0|0:0,0:0:0:0:
108,211,160499,1,8,1:0:0:0:
49,261,160666,1,8,1:0:0:0:
37,169,160832,6,0,P|34:109|34:67,1,95.9999970703126,4|0,3:0|0:0,0:0:0:0:
123,22,161166,2,0,P|126:82|126:124,1,95.9999970703126,2|0,0:0|0:0,0:0:0:0:
239,170,161499,1,8,1:0:0:0:
281,106,161666,1,8,1:0:0:0:
352,192,161832,6,0,P|401:202|452:205,2,95.9999970703126,4|0|0,1:0|0:0|0:0,0:0:0:0:
281,264,162332,2,0,P|333:313|409:353,1,143.999995605469,0|0,1:0|0:0,0:0:0:0:
435,347,162666,1,0,0:0:0:0:
497,268,162832,2,0,P|484:210|457:153,1,95.9999970703126,6|8,1:2|1:0,0:0:0:0:
394,134,163166,2,0,P|349:155|308:194,1,95.9999970703126,0|0,1:0|0:0,0:0:0:0:
204,137,163499,1,8,1:2:0:0:
249,77,163666,1,8,1:0:0:0:
126,117,163832,6,0,P|69:105|21:64,2,95.9999970703126,8|0|0,1:2|0:0|0:0,0:0:0:0:
217,172,164332,2,0,P|154:189|62:225,1,143.999995605469,0|0,1:0|0:0,0:0:0:0:
44,230,164666,1,0,0:0:0:0:
64,328,164832,2,0,P|127:341|172:339,1,95.9999970703126,6|8,1:2|1:0,0:0:0:0:
241,291,165166,2,0,P|220:229|192:190,1,95.9999970703126,0|8,0:0|1:0,0:0:0:0:
91,149,165499,1,8,1:0:0:0:
69,73,165666,1,8,1:0:0:0:
141,26,165832,6,0,L|202:41,2,47.9999985351563,2|0|0,1:2|0:0|0:0,0:0:0:0:
218,119,166166,2,0,L|289:106,2,47.9999985351563,4|0|0,1:2|0:0|0:0,0:0:0:0:
311,36,166499,2,0,L|366:42,2,47.9999985351563,4|0|0,1:2|0:0|0:0,0:0:0:0:
376,126,166832,2,0,L|436:129,2,47.9999985351563,6|0|8,1:2|0:0|1:0,0:0:0:0:
303,182,167166,1,8,1:0:0:0:
258,244,167332,1,0,0:0:0:0:
274,319,167499,1,8,1:2:0:0:
343,352,167666,1,8,1:0:0:0:
432,337,167832,6,0,L|430:232,1,95.9999970703126,8|0,1:2|0:0,0:0:0:0:
478,177,168166,5,0,0:0:0:0:
478,177,168332,1,0,1:0:0:0:
406,140,168499,1,8,1:0:0:0:
406,140,168666,1,0,0:0:0:0:
454,68,168832,2,0,L|315:128,1,143.999995605469,6|0,1:2|0:0,0:0:0:0:
311,87,169166,2,0,L|269:197,1,95.9999970703126,8|0,1:0|1:0,0:0:0:0:
185,207,169499,1,8,1:0:0:0:
133,147,169666,1,8,1:0:0:0:
175,85,169832,5,4,1:0:0:0:
