osu file format v14

[General]
AudioFilename: audio.mp3
AudioLeadIn: 0
PreviewTime: 32418
Countdown: 0
SampleSet: Soft
StackLeniency: 0.7
Mode: 0
LetterboxInBreaks: 0
WidescreenStoryboard: 0

[Editor]
DistanceSpacing: 0.6
BeatDivisor: 4
GridSize: 4
TimelineZoom: 2.499999

[Metadata]
Title:Chouwa oto ~with reflection~ (Cut Ver.)
TitleUnicode:調和 oto ~with reflection~ (Cut Ver.)
Artist:KOKIA
ArtistUnicode:KOKIA
Creator:PandaHero
Version:Expert
Source:銀色の髪のアギト
Tags:app mirash damnae kiiwa anime japanese pop folk origin spirits of the past Gin iro no Kami no Agito Silver Haired Silver-Haired
BeatmapID:4546068
BeatmapSetID:2156509

[Difficulty]
HPDrainRate:6
CircleSize:6
OverallDifficulty:8
ApproachRate:9
SliderMultiplier:1.8
SliderTickRate:1

[Events]
//Background and Video events
0,0,"bg.png",0,0
//Break Periods
2,112141,113233
//Storyboard Layer 0 (Background)
//Storyboard Layer 1 (Fail)
//Storyboard Layer 2 (Pass)
//Storyboard Layer 3 (Foreground)
//Storyboard Layer 4 (Overlay)
//Storyboard Sound Samples

[TimingPoints]
502,333.333333333333,6,2,0,15,1,0
16501,-133.333333333333,6,2,1,20,0,0
32501,-100,6,2,1,40,0,0
38501,-100,6,2,1,40,0,0
40501,-100,6,2,1,40,0,0
48501,-90.9090909090909,6,2,1,50,0,0
54835,-90.9090909090909,6,2,1,50,0,0
56501,-90.9090909090909,6,2,1,50,0,0
64501,333.333333333333,5,2,1,30,1,0
64501,-111.111111111111,5,2,1,50,0,0
65001,-111.111111111111,5,2,3,50,0,0
70167,333.333333333333,5,2,1,30,1,0
70167,-111.111111111111,5,2,3,30,0,0
76833,-111.111111111111,5,2,1,35,0,0
77167,-111.111111111111,5,2,3,35,0,0
78166,-111.111111111111,5,2,1,35,0,0
79000,-111.111111111111,5,2,3,35,0,0
80166,-111.111111111111,5,2,1,35,0,0
80500,-111.111111111111,5,2,3,35,0,0
81500,-111.111111111111,5,2,1,35,0,0
82166,-111.111111111111,5,2,3,35,0,0
82500,333.333333333333,5,2,3,35,1,0
82500,-111.111111111111,5,2,3,35,0,0
82666,-111.111111111111,5,2,1,35,0,0
82916,-111.111111111111,5,2,3,35,0,0
83000,-111.111111111111,5,2,1,35,0,0
85666,-111.111111111111,5,2,3,35,0,0
85833,-111.111111111111,5,2,1,35,0,0
86333,-111.111111111111,5,2,3,35,0,0
86500,-111.111111111111,5,2,1,35,0,0
88167,333.333333333333,6,2,1,50,1,0
88167,-100,6,2,1,50,0,0
94167,-100,6,2,1,50,0,0
96166,-100,6,2,1,50,0,0
103166,-100,6,2,1,50,0,0
103250,-100,6,2,1,30,0,0
104166,-166.666666666667,6,2,1,30,0,0
106166,-166.666666666667,6,2,1,40,0,0
107833,331.491712707182,6,2,1,40,1,0
107833,-166.666666666667,6,2,1,40,0,0
108164,331.491712707182,6,2,1,60,1,0
108164,-166.666666666667,6,2,1,60,0,0
109489,-166.666666666667,6,2,1,40,0,0
109821,-166.666666666667,6,2,1,50,0,0
110152,-166.666666666667,6,2,1,60,0,0
110981,-166.666666666667,6,2,1,50,0,0
111147,-166.666666666667,6,2,1,70,0,0
111810,-166.666666666667,6,2,1,5,0,0
113833,333.333333333333,6,2,1,60,1,0
113833,-83.3333333333333,6,2,1,60,0,1
121166,-83.3333333333333,6,2,1,50,0,1
121832,-90.9090909090909,6,2,1,55,0,0
136832,-83.3333333333333,6,2,1,45,0,0
137166,-83.3333333333333,6,2,1,35,0,0
137499,-83.3333333333333,6,2,1,30,0,0
137832,-83.3333333333333,6,2,1,60,0,1
143832,-83.3333333333333,6,2,1,60,0,1
145832,-83.3333333333333,6,2,1,60,0,1
153499,-83.3333333333333,6,2,1,50,0,0
153832,-83.3333333333333,6,2,1,55,0,1
159832,-83.3333333333333,6,2,1,55,0,1
167832,-333.333333333333,6,2,1,60,0,1
170666,337.078651685393,6,2,1,60,1,0
170834,337.078651685393,6,2,1,60,1,0
170848,-100,6,2,1,20,0,0
170933,-100,6,2,1,40,0,0
171845,335.195530726257,6,2,1,60,1,0
172865,-100,6,2,1,20,0,0
172948,-100,6,2,1,40,0,0
173185,319.148936170213,6,2,1,60,1,0
173663,344.827586206897,6,2,1,60,1,0
173835,333.333333333333,6,2,1,60,1,0
174668,340.909090909091,6,2,1,60,1,0
174838,340.909090909091,6,2,1,60,1,0
174865,-100,6,2,1,20,0,0
174948,-100,6,2,1,40,0,0
175519,319.148936170213,6,2,1,60,1,0
175841,335.195530726257,6,2,1,60,1,0
175865,-100,6,2,1,35,0,0
176531,-100,6,2,0,35,0,0
176865,-100,6,2,1,35,0,0
177698,-100,6,2,1,10,0,0
177860,338.983050847458,6,2,1,30,1,0
178881,-100,6,2,1,10,0,0
178891,-100,6,2,1,30,0,0
179215,326.08695652174,6,2,1,30,1,0
179220,-100,6,2,0,30,0,0
179230,-100,6,2,1,30,0,0
179559,-100,6,2,0,30,0,0
179644,-100,6,2,1,30,0,0
179704,329.670329670331,6,2,1,30,1,0
179893,329.67032967033,6,2,1,30,1,0
180887,-100,6,2,0,30,0,0
180897,-100,6,2,1,30,0,0
181216,-100,6,2,0,30,0,0
181226,-100,6,2,1,30,0,0
181546,-100,6,2,0,30,0,0
181556,-100,6,2,1,30,0,0
181876,-100,6,2,1,20,0,0
183194,-100,6,2,0,20,0,0
183204,-100,6,2,1,20,0,0
183524,-100,6,2,0,20,0,0
183606,-100,6,2,1,20,0,0
183849,375,6,2,1,10,1,0
184224,365.853658536585,6,2,0,10,1,0
184411,-100,6,2,1,10,0,0
184772,465.116279069768,6,2,1,10,1,0
184985,-100,6,2,1,5,0,0
185004,465.116279069768,6,2,1,10,1,0

[Colours]
Combo1 : 128,128,128
Combo2 : 204,198,181
Combo3 : 192,210,214
Combo4 : 214,133,133

[HitObjects]
131,153,16501,5,2,0:0:0:0:
145,176,16835,1,0,0:0:0:0:
209,195,17001,1,0,0:0:0:0:
273,215,17168,1,0,0:0:0:0:
220,124,17335,1,0,0:0:0:0:
147,322,17501,2,0,L|163:243,1,67.5000025749208,0|0,1:0|0:0,0:0:0:0:
74,131,17835,2,0,L|81:222,1,67.5000025749208,0|0,0:0|0:0,0:0:0:0:
116,52,18168,1,0,0:0:0:0:
101,30,18501,6,0,P|48:43|0:114,1,135.000005149842,4|0,3:0|0:0,0:0:0:0:
1,105,19001,1,0,0:0:0:0:
66,151,19168,1,0,0:0:0:0:
82,127,19335,1,0,0:0:0:0:
16,212,19501,2,0,P|38:274|40:290,1,67.5000025749208,0|0,1:0|0:0,0:0:0:0:
101,177,19835,2,0,P|112:231|108:290,1,101.250003862381,0|0,0:0|0:0,0:0:0:0:
109,297,20168,1,4,3:0:0:0:
156,123,20335,1,0,0:0:0:0:
110,73,20501,1,4,3:0:0:0:
123,46,20835,5,0,0:0:0:0:
188,31,21001,1,0,0:0:0:0:
236,78,21168,1,0,0:0:0:0:
201,136,21335,1,0,0:0:0:0:
135,122,21501,2,0,P|156:85|177:62,1,67.5000025749208,0|0,1:0|0:0,0:0:0:0:
251,22,21835,2,0,P|291:37|326:68,1,67.5000025749208,0|0,0:0|0:0,0:0:0:0:
187,201,22168,2,0,P|217:156|265:110,1,101.250003862381,0|0,0:0|0:0,0:0:0:0:
283,119,22501,5,4,3:0:0:0:
330,167,22668,1,0,0:0:0:0:
286,217,22835,1,0,0:0:0:0:
263,280,23001,1,0,0:0:0:0:
293,340,23168,1,0,0:0:0:0:
364,363,23335,1,0,1:0:0:0:
364,363,23418,1,0,0:0:0:0:
364,363,23501,2,0,P|411:347|440:340,1,67.5000025749208,0|0,1:0|0:0,0:0:0:0:
472,243,23835,2,0,P|440:254|407:263,1,67.5000025749208,0|0,0:0|0:0,0:0:0:0:
277,243,24168,1,4,3:0:0:0:
228,195,24335,1,0,0:0:0:0:
250,65,24501,6,0,P|293:89|284:186,1,135.000005149842,4|0,3:0|0:0,0:0:0:0:
299,168,25001,1,0,0:0:0:0:
176,243,25168,2,0,P|143:205|136:175,1,67.5000025749208,0|0,0:0|0:0,0:0:0:0:
133,113,25501,1,0,1:0:0:0:
133,87,25835,1,0,0:0:0:0:
68,68,26001,1,0,0:0:0:0:
23,118,26168,1,0,0:0:0:0:
52,178,26335,1,0,0:0:0:0:
87,121,26501,6,0,P|71:76|55:50,1,67.5000025749208,4|0,3:0|0:0,0:0:0:0:
126,193,26835,2,0,P|159:152|151:98,1,101.250003862381,0|0,0:0|0:0,0:0:0:0:
147,87,27168,1,0,0:0:0:0:
245,64,27335,1,0,1:0:0:0:
201,19,27501,1,0,1:0:0:0:
201,38,27835,1,0,0:0:0:0:
235,135,28001,1,0,0:0:0:0:
301,95,28168,1,4,3:0:0:0:
294,59,28335,1,0,0:0:0:0:
205,196,28501,6,0,P|191:243|168:328,1,135.000005149842,4|0,3:0|0:0,0:0:0:0:
168,325,29001,1,0,0:0:0:0:
258,267,29168,2,0,P|293:247|327:241,1,67.5000025749208,0|0,0:0|0:0,0:0:0:0:
372,191,29501,2,0,P|410:206|443:236,1,67.5000025749208,0|0,1:0|0:0,0:0:0:0:
237,143,29835,2,0,P|289:156|314:169,1,67.5000025749208,0|0,0:0|0:0,0:0:0:0:
404,276,30168,2,0,P|421:318|417:359,1,67.5000025749208,0|0,0:0|0:0,0:0:0:0:
481,151,30501,5,4,3:0:0:0:
480,121,30835,1,0,0:0:0:0:
422,86,31001,1,0,0:0:0:0:
374,134,31168,1,0,1:0:0:0:
417,185,31335,1,0,0:0:0:0:
363,46,31501,5,0,1:0:0:0:
345,22,31835,5,0,0:0:0:0:
301,97,32001,1,0,0:0:0:0:
257,173,32168,1,4,3:0:0:0:
245,43,32335,1,0,0:0:0:0:
304,227,32501,6,0,P|254:246|198:145,1,180,4|0,1:0|0:0,0:0:0:0:
268,336,33001,6,0,P|318:355|374:254,1,180,0|0,1:0|1:0,0:0:0:0:
198,357,33501,5,8,1:0:0:0:
138,334,33668,1,0,0:0:0:0:
22,260,33835,5,0,1:0:0:0:
82,242,34001,1,0,0:0:0:0:
196,185,34168,5,0,1:0:0:0:
78,138,34335,1,0,1:0:0:0:
244,246,34501,6,0,P|277:196|198:107,1,180,4|0,3:3|0:0,0:0:0:0:
301,292,35001,6,0,P|362:250|452:319,1,180,0|0,1:0|1:0,0:0:0:0:
227,321,35501,5,8,1:0:0:0:
193,267,35668,1,0,0:0:0:0:
286,349,35835,5,0,1:0:0:0:
346,332,36001,1,0,0:0:0:0:
236,381,36168,5,8,3:3:0:0:
282,263,36335,1,0,1:0:0:0:
119,204,36501,6,0,P|61:155|85:48,1,180,4|0,3:0|1:0,0:0:0:0:
67,370,37001,6,0,P|83:285|21:225,1,180,0|4,1:0|1:2,0:0:0:0:
179,231,37501,5,8,1:0:0:0:
176,167,37668,1,0,0:0:0:0:
190,297,37835,5,0,1:0:0:0:
248,273,38001,1,0,0:0:0:0:
183,362,38168,5,0,1:0:0:0:
299,313,38335,1,4,1:2:0:0:
187,154,38501,5,4,1:0:0:0:
206,182,38835,1,0,1:0:0:0:
284,137,39001,1,2,0:0:0:0:
237,59,39168,1,0,1:0:0:0:
159,104,39335,1,0,1:0:0:0:
224,121,39501,5,8,1:0:0:0:
252,126,39835,5,0,1:0:0:0:
327,78,40001,1,2,0:0:0:0:
275,192,40168,5,8,3:0:0:0:
401,186,40335,1,0,1:0:0:0:
212,250,40501,6,0,P|268:311|369:332,1,180,4|0,3:0|0:0,0:0:0:0:
151,207,41001,6,0,P|134:267|134:329,1,90,0|0,1:0|0:0,0:0:0:0:
178,122,41335,1,0,1:0:0:0:
87,134,41501,5,8,1:0:0:0:
27,153,41668,1,0,0:0:0:0:
123,73,41835,5,0,1:0:0:0:
81,25,42001,1,0,0:0:0:0:
175,152,42168,5,0,1:0:0:0:
258,57,42335,1,0,1:0:0:0:
224,232,42501,6,0,P|283:215|407:215,1,180,4|0,3:0|0:0,0:0:0:0:
189,307,43001,2,0,P|247:326|288:332,1,90,0|0,1:0|0:0,0:0:0:0:
135,235,43335,1,0,1:0:0:0:
277,145,43501,5,8,1:0:0:0:
300,86,43668,1,0,0:0:0:0:
222,200,43835,5,0,1:0:0:0:
183,150,44001,1,0,0:0:0:0:
252,277,44168,5,0,1:0:0:0:
351,199,44335,1,0,1:0:0:0:
429,285,44501,6,0,P|402:332|288:349,1,135,4|0,3:0|0:0,0:0:0:0:
313,343,44835,1,0,1:0:0:0:
463,191,45001,2,0,P|494:251|496:285,1,90,0|0,1:0|0:0,0:0:0:0:
379,186,45335,1,0,1:0:0:0:
344,133,45501,2,0,P|330:82|371:3,1,135,8|0,1:0|0:0,0:0:0:0:
385,9,45835,1,0,1:0:0:0:
427,55,46001,1,0,0:0:0:0:
407,114,46168,1,0,1:0:0:0:
265,83,46335,1,0,1:0:0:0:
284,23,46501,1,4,3:0:0:0:
334,74,46835,5,0,1:0:0:0:
334,74,47001,1,0,1:0:0:0:
141,183,47168,1,0,1:0:0:0:
141,183,47335,1,8,1:0:0:0:
318,253,47501,1,4,3:0:0:0:
240,126,47835,5,4,3:0:0:0:
294,156,48001,1,0,0:0:0:0:
239,188,48168,1,8,3:0:0:0:
206,39,48335,5,0,3:0:0:0:
206,39,48418,1,0,3:0:0:0:
206,39,48501,2,0,P|142:22|27:42,1,148.50000453186,4|0,1:0|0:0,0:0:0:0:
32,38,48835,2,0,L|104:67,1,49.5000015106202,0|0,1:0|0:0,0:0:0:0:
164,124,49001,2,0,P|118:139|40:139,1,99.0000030212403,8|0,1:0|0:0,0:0:0:0:
250,192,49335,5,0,3:0:0:0:
250,192,49418,1,0,3:0:0:0:
250,192,49501,1,2,1:2:0:0:
299,129,49668,1,0,0:0:0:0:
205,251,49835,5,8,1:0:0:0:
270,295,50001,1,0,0:0:0:0:
225,101,50168,5,8,1:2:0:0:
345,199,50335,1,0,1:0:0:0:
350,364,50501,6,0,P|369:300|447:277,1,148.50000453186,4|0,1:3|0:0,0:0:0:0:
471,279,50835,2,0,L|444:332,1,49.5000015106202,0|0,1:0|0:0,0:0:0:0:
328,255,51001,2,0,P|305:190|332:101,1,148.50000453186,8|0,1:0|0:0,0:0:0:0:
342,91,51335,1,0,1:0:0:0:
224,212,51501,5,2,1:2:0:0:
150,181,51668,1,0,0:0:0:0:
246,287,51835,5,8,1:0:0:0:
173,317,52001,1,0,0:0:0:0:
280,172,52168,5,0,1:0:0:0:
152,98,52335,1,0,1:0:0:0:
97,346,52501,6,0,P|59:274|71:192,1,148.50000453186,4|0,1:3|0:0,0:0:0:0:
77,182,52835,2,0,L|99:242,1,49.5000015106202,0|0,1:0|0:0,0:0:0:0:
0,177,53001,2,0,P|9:134|70:69,1,99.0000030212403,8|0,1:0|0:0,0:0:0:0:
1,262,53335,1,0,1:0:0:0:
155,90,53501,5,2,1:2:0:0:
127,15,53668,1,0,0:0:0:0:
211,161,53835,5,8,1:0:0:0:
249,91,54001,1,4,0:0:0:0:
180,287,54168,5,8,1:2:0:0:
129,151,54335,1,0,1:0:0:0:
302,259,54501,5,4,1:3:0:0:
288,232,54835,1,0,1:0:0:0:
273,352,55001,1,0,3:0:0:0:
377,293,55168,1,0,1:0:0:0:
315,297,55335,5,0,3:0:0:0:
315,297,55418,1,0,3:0:0:0:
315,297,55501,1,2,1:2:0:0:
270,181,55668,1,0,1:0:0:0:
366,365,55835,5,0,1:0:0:0:
455,321,56001,1,0,1:0:0:0:
363,234,56168,5,4,3:0:0:0:
359,157,56335,1,0,1:0:0:0:
500,163,56501,6,0,P|482:79|407:30,1,148.50000453186,4|0,1:3|0:0,0:0:0:0:
406,43,56835,2,0,L|447:104,1,49.5000015106202,0|0,1:0|0:0,0:0:0:0:
258,73,57001,2,0,P|331:84|358:94,1,99.0000030212403,8|0,1:0|0:0,0:0:0:0:
79,112,57335,5,0,1:0:0:0:
79,112,57418,1,0,0:0:0:0:
79,112,57501,1,2,1:2:0:0:
156,128,57668,1,0,0:0:0:0:
107,10,57835,5,8,1:0:0:0:
175,48,58001,1,0,0:0:0:0:
2,164,58168,5,8,1:2:0:0:
147,213,58335,1,0,1:0:0:0:
231,204,58501,6,0,P|228:278|141:354,1,148.50000453186,4|0,1:3|0:0,0:0:0:0:
157,348,58835,2,0,L|157:286,1,49.5000015106202,0|0,1:0|0:0,0:0:0:0:
286,125,59001,2,0,P|298:198|368:259,1,148.50000453186,8|0,1:0|0:0,0:0:0:0:
376,261,59335,1,0,1:0:0:0:
376,87,59501,5,2,1:2:0:0:
427,26,59668,1,0,0:0:0:0:
420,157,59835,5,8,1:0:0:0:
497,141,60001,1,0,0:0:0:0:
306,157,60168,5,0,1:0:0:0:
290,7,60335,1,0,1:0:0:0:
333,231,60501,6,0,P|259:258|141:244,1,198.000006042481,4|0,1:3|1:0,0:0:0:0:
24,120,61001,1,8,1:0:0:0:
15,98,61335,1,0,1:0:0:0:
82,172,61501,2,0,P|137:160|157:55,1,148.50000453186,2|0,1:2|0:0,0:0:0:0:
147,57,61835,1,8,1:0:0:0:
70,15,62001,1,8,1:0:0:0:
83,102,62168,1,8,1:2:0:0:
128,67,62335,1,0,1:0:0:0:
92,38,62501,1,4,1:3:0:0:
191,193,62835,5,0,1:0:0:0:
191,193,63001,1,8,1:0:0:0:
389,234,63168,1,0,0:0:0:0:
389,234,63335,1,0,1:0:0:0:
426,57,63501,5,2,1:2:0:0:
359,21,63668,1,4,3:0:0:0:
350,92,63835,1,8,1:0:0:0:
411,132,64001,1,0,0:0:0:0:
401,93,64168,1,8,1:0:0:0:
383,91,64335,1,8,3:0:0:0:
425,198,64501,6,0,P|448:241|469:278,1,80.9999975280763,4|0,1:0|0:0,0:0:0:0:
329,160,64834,1,0,0:0:0:0:
227,128,65001,6,0,L|224:164,1,20.2499993820191,2|0,0:3|0:0,0:0:0:0:
275,80,65167,1,0,3:0:0:0:
193,34,65334,1,0,0:0:0:0:
208,160,65501,2,0,L|205:196,1,20.2499993820191,2|0,0:3|0:0,0:0:0:0:
144,117,65667,1,0,3:0:0:0:
229,204,65834,2,0,L|226:240,1,20.2499993820191,6|0,3:0|0:0,0:0:0:0:
31,308,66167,5,0,1:0:0:0:
80,258,66334,2,0,L|82:229,1,20.2499993820191,2|0,0:3|0:0,0:0:0:0:
10,243,66501,1,0,3:0:0:0:
155,266,66667,1,2,0:0:0:0:
122,323,66834,1,0,0:0:0:0:
67,169,67001,1,0,0:0:0:0:
131,192,67167,1,4,0:0:0:0:
75,249,67334,1,0,0:0:0:0:
75,249,67501,1,0,3:0:0:0:
75,249,67667,1,0,0:0:0:0:
158,358,67834,6,0,P|199:346|235:316,1,80.9999975280763,0|0,1:0|0:0,0:0:0:0:
282,256,68167,1,0,3:0:0:0:
198,212,68334,2,0,L|193:245,1,20.2499993820191,2|0,0:3|0:0,0:0:0:0:
254,167,68501,1,0,3:0:0:0:
174,120,68667,2,0,L|174:155,1,20.2499993820191,2|0,0:3|0:0,0:0:0:0:
335,158,68834,1,4,0:0:0:0:
284,90,69001,1,0,0:0:0:0:
254,167,69167,1,0,1:0:0:0:
388,218,69334,1,0,0:0:0:0:
406,120,69501,1,0,1:0:0:0:
338,163,69667,1,0,3:0:0:0:
337,163,69751,1,0,3:0:0:0:
337,163,69834,1,2,0:0:0:0:
483,87,70167,6,0,P|438:30|348:13,1,161.999995056153,0|0,1:0|0:0,0:0:0:0:
241,80,70667,1,2,0:0:0:0:
272,147,70833,1,0,0:0:0:0:
311,86,71000,1,2,0:0:0:0:
165,62,71167,2,0,P|176:108|188:157,1,80.9999975280763,0|0,1:0|0:0,0:0:0:0:
270,229,71500,2,0,P|281:183|293:134,1,80.9999975280763,4|0,1:3|0:0,0:0:0:0:
166,262,71833,6,0,P|102:258|71:196,1,121.499996292114,0|0,1:0|0:0,0:0:0:0:
51,201,72167,2,0,L|54:172,1,20.2499993820191,2|0,0:3|0:0,0:0:0:0:
85,125,72333,1,0,1:0:0:0:
137,170,72500,1,2,0:0:0:0:
26,274,72667,1,0,3:0:0:0:
58,328,72833,2,0,L|49:356,1,20.2499993820191,2|0,1:3|0:0,0:0:0:0:
17,289,73000,1,0,0:0:0:0:
144,297,73167,1,0,3:0:0:0:
123,351,73333,1,0,0:0:0:0:
162,225,73500,6,0,P|239:237|305:306,1,161.999995056153,4|0,1:3|0:0,0:0:0:0:
375,364,74000,1,0,1:0:0:0:
379,299,74167,1,2,0:0:0:0:
407,241,74333,1,0,1:0:0:0:
469,222,74500,1,0,1:0:0:0:
485,241,74833,1,8,1:3:0:0:
394,180,75000,2,0,L|382:152,1,20.2499993820191,2|0,0:3|0:0,0:0:0:0:
457,164,75167,6,0,P|467:103|420:15,1,161.999995056153,4|0,1:3|0:0,0:0:0:0:
326,122,75667,2,0,L|323:152,1,20.2499993820191,2|0,1:3|0:0,0:0:0:0:
264,188,75833,1,0,3:0:0:0:
212,148,76000,1,0,1:0:0:0:
247,87,76167,1,0,1:0:0:0:
247,87,76250,2,0,L|257:114,1,20.2499993820191,2|0,1:3|0:0,0:0:0:0:
149,122,76417,1,0,3:0:0:0:
149,122,76500,2,0,L|114:113,2,20.2499993820191,2|0|0,1:2|0:0|0:3,0:0:0:0:
103,172,76667,2,0,L|72:173,1,20.2499993820191,2|0,1:3|0:0,0:0:0:0:
28,204,76833,6,0,P|31:253|40:294,1,80.9999975280763,2|0,1:2|0:0,0:0:0:0:
86,78,77167,1,0,3:0:0:0:
35,42,77333,1,0,3:0:0:0:
24,106,77500,2,0,L|28:142,1,20.2499993820191,2|0,3:0|0:0,0:0:0:0:
154,104,77666,1,0,0:0:0:0:
86,78,77833,1,4,1:2:0:0:
99,111,78166,1,2,1:2:0:0:
109,137,78500,6,0,P|164:147|244:76,1,161.999995056153,2|0,1:2|0:0,0:0:0:0:
218,23,79000,1,0,3:0:0:0:
306,122,79166,1,0,3:0:0:0:
258,164,79333,2,0,L|259:189,1,20.2499993820191,2|0,0:3|0:0,0:0:0:0:
335,289,79500,1,0,1:0:0:0:
316,354,79666,1,0,3:0:0:0:
316,354,79750,1,0,3:0:0:0:
316,354,79833,1,2,1:2:0:0:
253,327,80000,1,0,1:0:0:0:
463,258,80166,6,0,P|481:226|451:102,1,161.999995056153,2|0,1:2|0:0,0:0:0:0:
311,47,80666,1,0,1:0:0:0:
357,126,80833,1,0,0:0:0:0:
379,65,81000,2,0,L|384:36,1,20.2499993820191,2|0,0:3|0:0,0:0:0:0:
251,18,81166,1,4,1:2:0:0:
244,82,81333,1,0,0:0:0:0:
308,61,81500,1,2,1:2:0:0:
224,163,81666,1,0,0:0:0:0:
158,101,81833,1,2,1:2:0:0:
168,35,82000,1,0,0:0:0:0:
168,35,82083,1,0,0:0:0:0:
168,35,82166,2,0,L|195:36,1,20.2499993820191,2|0,0:3|0:0,0:0:0:0:
101,132,82333,2,0,L|65:133,1,20.2499993820191,4|0,0:2|0:0,0:0:0:0:
183,109,82500,6,0,L|212:108,1,20.2499993820191,2|0,1:3|0:0,0:0:0:0:
274,125,82666,1,0,0:0:0:0:
210,236,82833,1,0,1:0:0:0:
210,236,82916,2,0,L|189:209,2,20.2499993820191,2|0|2,3:0|0:0|3:0,0:0:0:0:
346,224,83166,1,0,3:0:0:0:
304,286,83333,1,0,0:0:0:0:
268,192,83500,1,0,1:0:0:0:
433,233,83666,1,0,3:0:0:0:
433,233,83750,1,0,3:0:0:0:
433,233,83833,2,0,L|447:289,1,40.4999987640381,2|0,1:2|0:0,0:0:0:0:
465,185,84000,1,0,0:0:0:0:
409,147,84166,6,0,P|405:89|403:55,1,80.9999975280763,2|0,1:2|0:0,0:0:0:0:
254,23,84500,1,0,0:0:0:0:
270,85,84666,1,0,3:0:0:0:
315,39,84833,1,0,3:0:0:0:
212,131,85000,1,0,3:0:0:0:
212,131,85083,1,0,3:0:0:0:
212,131,85166,2,0,P|244:141|297:159,1,80.9999975280763,0|0,1:0|0:0,0:0:0:0:
101,67,85500,1,0,1:0:0:0:
135,129,85666,2,0,L|123:157,1,20.2499993820191,2|0,1:3|0:0,0:0:0:0:
60,175,85833,6,0,P|25:162|30:46,1,161.999995056153,2|0,1:2|0:0,0:0:0:0:
166,33,86333,2,0,L|155:63,1,20.2499993820191,2|0,3:0|0:0,0:0:0:0:
194,160,86500,1,0,1:0:0:0:
254,137,86666,1,0,0:0:0:0:
244,72,86833,1,4,1:2:0:0:
139,359,87166,1,8,1:3:0:0:
425,287,87500,1,4,1:3:0:0:
256,192,87583,12,4,88166,1:0:0:0:
278,196,88500,5,0,0:0:0:0:
243,132,88667,1,0,1:0:0:0:
206,200,88833,1,0,0:0:0:0:
311,129,89000,1,0,1:0:0:0:
123,156,89167,2,0,B|109:200|109:200|126:240,1,90,8|0,1:0|0:0,0:0:0:0:
385,240,89500,2,0,B|403:200|403:200|389:156,1,90,0|0,1:0|0:0,0:0:0:0:
217,6,89833,1,0,1:0:0:0:
237,83,90000,1,0,1:0:0:0:
273,202,90167,6,0,B|291:162|291:162|242:17,1,180,4|0,3:3|0:0,0:0:0:0:
190,223,90667,2,0,L|201:366,1,135,0|0,1:0|0:0,0:0:0:0:
224,370,91000,1,0,1:0:0:0:
115,153,91167,5,8,1:0:0:0:
57,195,91333,1,0,0:0:0:0:
65,102,91500,1,0,1:0:0:0:
121,57,91667,1,0,0:0:0:0:
0,53,91833,5,8,3:3:0:0:
181,228,92000,1,0,1:0:0:0:
218,161,92167,6,0,B|286:107|286:107|401:132,1,180,4|0,3:0|1:0,0:0:0:0:
259,300,92667,2,0,B|191:354|191:354|99:334,1,180,0|4,1:0|1:2,0:0:0:0:
308,213,93167,5,8,1:0:0:0:
354,267,93333,1,0,0:0:0:0:
448,275,93500,1,0,1:0:0:0:
400,220,93667,1,0,0:0:0:0:
239,212,93833,5,0,1:0:0:0:
375,357,94000,1,4,1:2:0:0:
438,122,94167,5,4,1:0:0:0:
438,122,94500,1,0,1:0:0:0:
438,122,94833,1,0,1:0:0:0:
298,62,95000,1,0,3:0:0:0:
400,23,95167,5,0,1:0:0:0:
400,23,95333,1,0,3:0:0:0:
296,181,95500,1,0,1:0:0:0:
296,181,95666,1,0,1:0:0:0:
172,22,95833,1,8,3:0:0:0:
226,64,96000,1,0,1:0:0:0:
98,50,96166,6,0,B|46:60|46:60|11:200,1,180,4|0,3:0|0:0,0:0:0:0:
57,358,96666,2,0,L|86:213,1,135,0|0,1:0|0:0,0:0:0:0:
87,198,97000,1,0,1:0:0:0:
301,162,97166,5,8,1:0:0:0:
336,224,97333,1,0,0:0:0:0:
286,354,97500,1,0,1:0:0:0:
279,282,97666,1,0,0:0:0:0:
395,194,97833,5,0,1:0:0:0:
440,353,98000,1,0,1:0:0:0:
482,115,98166,6,0,B|500:87|500:87|467:240,1,180,4|0,3:0|0:0,0:0:0:0:
374,130,98666,2,0,B|337:106|337:106|368:231,1,135,0|0,1:0|0:0,0:0:0:0:
371,218,99000,1,0,1:0:0:0:
306,28,99166,5,8,1:0:0:0:
239,56,99333,1,0,0:0:0:0:
140,133,99500,1,0,1:0:0:0:
204,164,99666,1,0,0:0:0:0:
371,218,99833,5,0,1:0:0:0:
167,266,100000,1,0,1:0:0:0:
280,339,100166,6,0,B|256:291|256:291|0:314,1,270,4|0,3:0|1:0,0:0:0:0:
40,310,100833,1,0,0:0:0:0:
124,352,101000,1,0,1:0:0:0:
76,170,101166,2,0,L|16:245,1,90,8|0,1:0|0:0,0:0:0:0:
193,238,101500,1,0,1:0:0:0:
152,178,101666,1,0,0:0:0:0:
126,286,101833,1,0,1:0:0:0:
176,337,102000,1,0,1:0:0:0:
253,160,102166,5,4,3:0:0:0:
253,160,102500,5,0,1:0:0:0:
199,77,102666,1,0,1:0:0:0:
299,250,102833,5,0,0:0:0:0:
344,153,103000,1,8,1:0:0:0:
239,365,103166,6,0,L|216:251,1,90,4|0,3:0|0:0,0:0:0:0:
456,179,103500,1,2,0:0:0:0:
480,246,103666,1,0,3:0:0:0:
436,303,103833,1,0,3:0:0:0:
410,235,104000,1,0,0:0:0:0:
481,169,104166,6,0,L|453:51,1,107.999996704102
436,48,104666,2,0,L|460:153,1,107.999996704102
316,272,105166,5,2,0:0:0:0:
299,207,105500,1,0,0:0:0:0:
281,147,105833,1,0,0:0:0:0:
281,147,106000,1,0,0:0:0:0:
281,147,106166,6,0,L|154:167,1,107.999996704102,0|0,0:0|0:0,0:0:0:0:
136,142,106666,2,0,L|242:125,1,107.999996704102,0|0,0:0|0:0,0:0:0:0:
52,49,107166,5,2,0:0:0:0:
32,133,107500,1,0,0:0:0:0:
20,225,107833,1,0,0:0:0:0:
20,225,107998,1,0,0:0:0:0:
20,225,108164,6,0,L|132:240,1,107.999996704102,4|2,0:0|0:0,0:0:0:0:
154,301,108661,2,0,L|46:286,1,107.999996704102
242,252,109158,5,2,0:0:0:0:
355,276,109489,1,0,0:0:0:0:
467,301,109821,1,0,0:0:0:0:
467,301,109987,1,0,0:0:0:0:
467,301,110152,6,0,L|414:88,1,215.999993408203,0|0,1:2|0:0,0:0:0:0:
255,17,111147,6,0,L|231:242,1,215.999993408203,2|0,1:2|0:0,0:0:0:0:
220,135,113833,6,0,P|199:83|35:54,1,215.999993408203,8|0,1:2|0:0,0:0:0:0:
291,221,114333,2,0,P|312:169|476:140,1,215.999993408203,0|0,1:0|0:0,0:0:0:0:
222,207,114833,5,6,3:0:0:0:
201,123,114999,1,0,0:0:0:0:
275,301,115166,5,8,1:0:0:0:
348,254,115333,1,0,0:0:0:0:
204,364,115499,5,8,1:2:0:0:
113,237,115666,1,0,1:0:0:0:
263,95,115833,6,0,P|331:85|473:166,1,215.999993408203,8|0,1:2|0:0,0:0:0:0:
227,25,116333,2,0,P|159:15|17:96,1,215.999993408203,0|0,1:0|0:0,0:0:0:0:
219,165,116833,5,6,3:0:0:0:
267,236,116999,1,0,0:0:0:0:
176,86,117166,5,8,1:0:0:0:
136,162,117333,1,0,0:0:0:0:
267,32,117499,5,0,1:0:0:0:
330,172,117666,1,0,1:0:0:0:
230,351,117833,6,0,P|152:337|67:217,1,215.999993408203,8|0,1:2|0:0,0:0:0:0:
273,288,118333,1,8,1:0:0:0:
273,288,118666,1,0,1:0:0:0:
243,206,118833,2,0,P|242:152|280:35,1,161.999995056153,6|0,3:0|0:0,0:0:0:0:
297,29,119166,1,8,1:0:0:0:
471,89,119333,1,0,1:0:0:0:
448,182,119499,1,8,1:2:0:0:
387,158,119666,1,0,1:0:0:0:
396,126,119833,1,8,1:2:0:0:
248,270,120166,5,8,3:0:0:0:
248,270,120333,1,0,1:0:0:0:
385,359,120499,1,8,1:0:0:0:
385,359,120666,1,8,3:0:0:0:
244,18,120833,1,6,3:0:0:0:
0,120,121166,1,0,1:0:0:0:
90,359,121499,1,0,1:0:0:0:
429,277,121832,6,2,P|476:220|441:84,1,198.000006042481,4|0,1:0|0:0,1:1:0:0:
265,23,122332,1,2,1:1:0:0:
265,23,122499,2,0,L|286:141,1,99.0000030212403,10|8,1:0|1:0,0:0:0:0:
247,361,122832,2,2,L|226:243,1,99.0000030212403,4|0,1:3|0:0,1:1:0:0:
94,163,123166,1,0,0:0:0:0:
20,191,123332,1,2,1:0:0:0:
83,237,123499,1,8,1:2:0:0:
57,21,123666,5,0,3:0:0:0:
57,21,123749,1,0,3:0:0:0:
57,21,123832,2,0,L|38:130,2,99.0000030212403,8|0|0,1:2|0:0|0:0,0:0:0:0:
140,175,124332,2,0,P|140:248|16:286,1,198.000006042481,0|8,1:0|1:0,0:0:0:0:
191,119,124832,5,0,1:0:0:0:
256,164,124999,1,0,0:0:0:0:
248,63,125166,5,0,1:0:0:0:
188,11,125332,1,2,0:0:0:0:
225,235,125499,5,8,1:3:0:0:
290,280,125666,1,4,1:2:0:0:
312,208,125832,5,4,1:3:0:0:
179,297,125999,1,0,0:0:0:0:
331,355,126166,1,2,1:0:0:0:
262,277,126332,6,0,P|233:193|277:86,1,198.000006042481,0|10,0:0|1:0,0:0:0:0:
431,33,126832,2,2,L|459:152,1,99.0000030212403,4|0,1:3|0:0,1:1:0:0:
443,354,127166,2,0,L|415:235,1,99.0000030212403,2|2,0:1|1:0,0:0:0:0:
284,157,127499,1,8,1:2:0:0:
270,235,127666,1,10,1:0:0:0:
348,129,127832,5,8,1:2:0:0:
313,57,127999,1,0,0:0:0:0:
244,17,128166,1,2,1:0:0:0:
166,33,128332,1,10,1:0:0:0:
21,150,128499,5,10,1:0:0:0:
58,136,128666,1,2,1:0:0:0:
210,300,128832,5,0,1:0:0:0:
179,226,128999,1,2,1:0:0:0:
100,217,129166,1,8,1:0:0:0:
33,259,129332,1,0,1:0:0:0:
237,362,129499,5,2,1:0:0:0:
275,353,129666,1,8,1:0:0:0:
192,159,129832,6,0,P|189:97|304:14,1,198.000006042481,4|0,1:0|0:0,0:0:0:0:
469,141,130332,1,0,1:0:0:0:
469,141,130499,2,0,L|353:173,1,99.0000030212403,8|0,1:0|0:0,0:0:0:0:
193,287,130832,1,4,1:3:0:0:
254,337,130999,1,0,0:0:0:0:
172,202,131166,5,0,1:0:0:0:
121,262,131332,1,0,0:0:0:0:
259,222,131499,5,8,1:2:0:0:
128,125,131666,1,0,1:0:0:0:
47,356,131832,5,8,1:2:0:0:
47,356,132166,1,0,0:0:0:0:
47,356,132499,1,8,1:0:0:0:
56,277,132666,1,0,0:0:0:0:
257,219,132832,1,0,1:0:0:0:
257,219,133166,5,8,1:0:0:0:
197,271,133332,1,0,0:0:0:0:
242,126,133499,5,8,1:0:0:0:
295,67,133666,1,8,1:0:0:0:
349,265,133832,5,8,1:2:0:0:
349,265,133999,2,0,L|371:364,1,99.0000030212403,0|0,0:0|0:0,0:0:0:0:
393,186,134332,1,0,1:0:0:0:
468,211,134499,1,8,1:0:0:0:
267,211,134666,2,0,L|155:241,1,99.0000030212403,0|4,1:0|1:3,0:0:0:0:
321,117,134999,1,0,1:0:0:0:
321,117,135166,2,0,L|331:10,1,99.0000030212403
468,211,135499,1,8,1:2:0:0:
330,181,135666,1,8,1:0:0:0:
408,89,135832,5,8,1:2:0:0:
346,322,135999,1,0,0:0:0:0:
381,220,136166,1,0,0:0:0:0:
215,65,136332,5,0,1:0:0:0:
247,242,136499,1,8,1:0:0:0:
235,151,136666,1,0,0:0:0:0:
309,98,136832,5,4,1:3:0:0:
156,202,136999,1,0,1:0:0:0:
235,151,137166,1,4,1:3:0:0:
150,100,137332,5,0,1:0:0:0:
327,189,137499,1,4,1:3:0:0:
235,151,137666,1,4,3:0:0:0:
49,354,137832,6,0,P|19:264|41:133,1,215.999993408203,4|2,1:0|0:3,0:0:0:0:
242,21,138332,1,0,1:0:0:0:
242,21,138666,1,0,0:0:0:0:
257,114,138832,2,0,P|268:179|279:236,1,107.999996704102,6|8,3:0|1:0,0:0:0:0:
226,362,139166,2,0,P|215:297|204:240,1,107.999996704102,0|0,1:0|0:0,0:0:0:0:
413,141,139499,1,2,1:3:0:0:
486,248,139666,1,0,1:0:0:0:
382,382,139832,6,0,P|414:293|398:213,1,161.999995056153,8|0,1:2|0:0,0:0:0:0:
382,203,140166,1,2,0:3:0:0:
444,21,140332,2,0,P|435:100|466:174,1,161.999995056153,0|0,1:0|0:0,0:0:0:0:
485,201,140666,1,0,1:0:0:0:
303,122,140832,5,6,3:0:0:0:
212,161,140999,1,8,1:0:0:0:
349,177,141166,5,0,1:0:0:0:
225,71,141332,1,0,0:0:0:0:
321,28,141499,5,10,3:3:0:0:
211,242,141666,1,8,1:0:0:0:
26,110,141832,6,0,P|28:49|137:8,1,161.999995056153,8|0,1:2|0:0,0:0:0:0:
138,13,142166,1,2,1:3:0:0:
92,172,142332,2,0,P|75:251|56:343,1,161.999995056153,0|0,1:0|0:0,0:0:0:0:
48,363,142666,1,4,0:2:0:0:
248,172,142832,5,6,3:0:0:0:
325,230,142999,1,8,1:0:0:0:
219,263,143166,5,0,1:0:0:0:
348,151,143332,1,0,1:2:0:0:
288,66,143499,5,2,1:3:0:0:
402,317,143666,1,12,1:2:0:0:
477,175,143832,5,6,1:0:0:0:
477,175,144166,1,0,1:0:0:0:
477,175,144499,1,0,1:0:0:0:
244,148,144666,1,2,1:0:0:0:
386,79,144832,5,2,1:0:0:0:
386,79,144999,1,0,1:0:0:0:
321,367,145166,1,8,1:0:0:0:
321,367,145332,1,4,1:3:0:0:
364,195,145499,1,8,1:3:0:0:
416,268,145666,1,8,1:2:0:0:
223,272,145832,6,0,P|178:238|179:101,1,161.999995056153,4|0,1:0|0:0,0:0:0:0:
171,108,146166,1,2,1:3:0:0:
141,352,146332,2,0,P|83:341|29:267,1,107.999996704102,0|8,1:0|1:0,0:0:0:0:
225,362,146666,1,0,0:0:0:0:
56,122,146832,2,0,P|31:67|36:1,1,107.999996704102,6|8,3:0|1:0,0:0:0:0:
225,214,147166,2,0,P|159:215|102:190,1,107.999996704102,0|0,1:0|0:0,0:0:0:0:
316,24,147499,1,8,1:2:0:0:
277,104,147666,1,0,1:0:0:0:
289,272,147832,6,0,P|334:238|333:101,1,161.999995056153,8|0,1:2|0:0,0:0:0:0:
341,108,148166,1,2,3:3:0:0:
371,352,148332,2,0,P|429:341|483:267,1,107.999996704102,0|8,1:0|1:0,0:0:0:0:
287,362,148666,1,0,0:0:0:0:
456,122,148832,2,0,P|481:67|476:1,1,107.999996704102,6|8,3:0|1:0,0:0:0:0:
287,214,149166,2,0,P|353:215|410:190,1,107.999996704102,0|0,1:0|0:0,0:0:0:0:
196,24,149499,1,2,1:3:0:0:
235,104,149666,1,8,1:0:0:0:
284,26,149832,5,8,1:2:0:0:
262,33,150332,1,0,1:0:0:0:
236,43,150666,1,0,1:0:0:0:
158,363,150832,1,6,1:3:0:0:
158,363,151166,5,0,1:0:0:0:
41,179,151332,1,8,3:0:0:0:
136,120,151499,1,2,1:3:0:0:
173,186,151666,1,8,1:0:0:0:
23,33,151832,5,12,1:2:0:0:
294,346,152166,5,0,1:0:0:0:
294,346,152332,1,8,1:0:0:0:
234,54,152499,1,4,3:0:0:0:
234,54,152666,1,8,1:0:0:0:
408,247,152832,5,8,1:2:0:0:
408,182,152999,1,0,0:0:0:0:
458,141,153166,1,4,3:0:0:0:
463,205,153332,1,0,0:0:0:0:
390,327,153499,5,2,0:0:0:0:
306,157,153666,1,0,0:0:0:0:
460,20,153832,6,0,P|395:63|365:189,1,161.999995056153,4|0,1:0|0:0,0:0:0:0:
379,165,154166,2,0,L|417:117,1,53.9999983520508,0|0,0:0|0:0,0:0:0:0:
233,65,154332,2,0,P|222:140|259:240,1,161.999995056153,0|0,1:0|0:0,0:0:0:0:
271,242,154666,1,0,0:0:0:0:
151,29,154832,5,6,1:2:0:0:
26,146,154999,1,0,0:0:0:0:
206,106,155166,5,0,1:0:0:0:
51,47,155332,1,8,1:0:0:0:
150,201,155499,5,8,1:2:0:0:
116,109,155666,1,0,0:0:0:0:
12,351,155832,6,0,P|78:313|184:307,1,161.999995056153,8|0,1:2|0:0,0:0:0:0:
190,320,156166,2,0,L|116:349,1,53.9999983520508,0|0,0:0|0:0,0:0:0:0:
66,164,156332,2,0,P|197:221|220:241,1,161.999995056153,0|0,1:0|0:0,0:0:0:0:
235,253,156666,1,0,0:0:0:0:
197,22,156832,5,6,1:2:0:0:
226,143,156999,1,0,0:0:0:0:
372,26,157166,5,0,1:0:0:0:
300,207,157332,1,8,1:0:0:0:
484,130,157499,5,8,1:2:0:0:
391,178,157666,1,0,0:0:0:0:
385,363,157832,6,0,P|450:309|475:224,1,161.999995056153,8|0,1:2|0:0,0:0:0:0:
465,205,158166,2,0,L|411:275,1,53.9999983520508,0|0,0:0|0:0,0:0:0:0:
327,308,158332,2,0,B|331:241|283:145,1,161.999995056153,0|0,1:0|0:0,0:0:0:0:
276,127,158666,1,0,0:0:0:0:
12,243,158832,5,6,1:2:0:0:
159,349,158999,1,0,1:0:0:0:
106,172,159166,5,8,1:0:0:0:
41,356,159332,1,0,0:0:0:0:
197,264,159499,5,8,1:2:0:0:
105,255,159666,1,8,1:0:0:0:
251,30,159832,5,8,1:2:0:0:
251,30,160166,1,2,0:0:0:0:
251,30,160499,1,8,1:0:0:0:
276,355,160666,1,8,1:0:0:0:
213,145,160832,5,4,1:3:0:0:
297,209,160999,1,0,1:0:0:0:
168,201,161166,5,2,1:2:0:0:
338,154,161332,1,0,1:0:0:0:
112,132,161499,5,8,1:2:0:0:
401,210,161666,1,8,1:2:0:0:
104,368,161832,6,0,P|41:298|21:195,1,161.999995056153,4|0,1:0|0:0,0:0:0:0:
29,202,162166,2,0,L|58:267,1,53.9999983520508,0|0,0:0|0:0,0:0:0:0:
175,353,162332,2,0,P|164:290|169:181,1,161.999995056153,0|0,1:0|0:0,0:0:0:0:
172,160,162666,1,0,0:0:0:0:
390,15,162832,5,6,1:2:0:0:
484,145,162999,1,8,1:0:0:0:
310,68,163166,5,0,1:0:0:0:
398,94,163332,1,0,0:0:0:0:
366,180,163499,5,8,1:2:0:0:
471,45,163666,1,8,1:0:0:0:
347,263,163832,6,0,P|262:238|166:172,1,161.999995056153,8|0,1:2|0:0,0:0:0:0:
197,168,164166,2,0,L|258:210,1,53.9999983520508,0|0,0:0|0:0,0:0:0:0:
421,318,164332,2,0,P|333:344|247:348,1,161.999995056153,0|0,1:0|0:0,0:0:0:0:
230,351,164666,1,0,0:0:0:0:
480,210,164832,5,6,1:2:0:0:
363,133,164999,1,8,1:0:0:0:
434,81,165166,5,0,0:0:0:0:
300,219,165332,1,8,1:0:0:0:
384,207,165499,5,8,1:0:0:0:
190,116,165666,1,8,1:0:0:0:
22,240,165832,5,2,1:2:0:0:
52,229,165916,1,0,0:0:0:0:
77,209,165999,1,0,0:0:0:0:
86,178,166082,1,0,0:0:0:0:
73,147,166166,1,4,1:2:0:0:
53,121,166249,1,0,0:0:0:0:
49,88,166332,1,0,0:0:0:0:
51,55,166416,1,0,0:0:0:0:
66,26,166499,2,0,L|120:22,3,53.9999983520508,4|0|0|0,1:2|0:0|0:0|0:0,0:0:0:0:
181,69,166832,6,0,L|283:92,1,53.9999983520508,6|0,1:2|0:0,0:0:0:0:
330,153,166999,2,0,L|228:130,1,53.9999983520508,8|0,1:0|0:0,0:0:0:0:
149,228,167166,6,0,L|211:216,1,53.9999983520508,8|0,1:0|0:0,0:0:0:0:
380,55,167332,2,0,L|298:73,1,53.9999983520508,0|0,0:0|0:0,0:0:0:0:
79,159,167499,6,0,L|141:147,1,53.9999983520508,8|0,1:2|0:0,0:0:0:0:
439,211,167666,2,0,L|337:188,1,53.9999983520508,8|0,1:0|0:0,0:0:0:0:
259,369,167832,6,0,L|252:284,1,53.9999983520508,8|0,1:2|0:0,0:0:0:0:
246,17,168332,1,0,1:0:0:0:
246,17,168499,2,0,L|251:52,1,26.9999991760254,8|0,1:0|0:0,0:0:0:0:
249,370,168832,2,0,L|246:335,1,26.9999991760254,6|0,1:2|0:0,0:0:0:0:
146,101,169166,5,8,1:0:0:0:
364,256,169332,1,0,1:0:0:0:
139,238,169499,5,8,1:0:0:0:
355,121,169666,1,8,1:0:0:0:
252,190,169832,5,4,1:0:0:0:
