osu file format v14

[General]
AudioFilename: 04 - KOHH - Paris.mp3
AudioLeadIn: 0
PreviewTime: -1
Countdown: 1
SampleSet: Soft
StackLeniency: 0.2
Mode: 3
LetterboxInBreaks: 1
SpecialStyle: 1
WidescreenStoryboard: 0

[Editor]
DistanceSpacing: 1
BeatDivisor: 2
GridSize: 8
TimelineZoom: 1

[Metadata]
Title:Paris
TitleUnicode:Paris
Artist:KOHH
ArtistUnicode:KOHH
Creator:Sasukeyeah
Version:Normal
Source:
Tags:
BeatmapID:1419999
BeatmapSetID:671621

[Difficulty]
HPDrainRate:5
CircleSize:4
OverallDifficulty:5
ApproachRate:5
SliderMultiplier:1.4
SliderTickRate:1

[Events]
//Background and Video events
0,0,"KOHH3.jpg",0,0
//Break Periods
//Storyboard Layer 0 (Background)
//Storyboard Layer 1 (Fail)
//Storyboard Layer 2 (Pass)
//Storyboard Layer 3 (Foreground)
//Storyboard Sound Samples

[TimingPoints]
10080.3422202743,500,4,2,0,0,1,0

[HitObjects]
448,192,1080,5,0,0:0:0:0:
64,192,1580,1,0,0:0:0:0:
448,192,3080,1,0,0:0:0:0:
192,192,3580,1,0,0:0:0:0:
64,192,5080,1,0,0:0:0:0:
320,192,5580,1,0,0:0:0:0:
192,192,6580,1,0,0:0:0:0:
448,192,7080,1,0,0:0:0:0:
192,192,8080,1,0,0:0:0:0:
448,192,9080,1,0,0:0:0:0:
192,192,9580,1,0,0:0:0:0:
320,192,10080,1,0,0:0:0:0:
64,192,11080,1,0,0:0:0:0:
320,192,11580,1,0,0:0:0:0:
192,192,12080,1,0,0:0:0:0:
448,192,13080,1,0,0:0:0:0:
192,192,13580,1,0,0:0:0:0:
320,192,14080,1,0,0:0:0:0:
64,192,14580,1,0,0:0:0:0:
448,192,15080,1,0,0:0:0:0:
192,192,15580,1,0,0:0:0:0:
448,192,16080,1,0,0:0:0:0:
192,192,16580,1,0,0:0:0:0:
320,192,16830,1,0,0:0:0:0:
64,192,17080,1,0,0:0:0:0:
448,192,17080,1,0,0:0:0:0:
192,192,17330,1,0,0:0:0:0:
320,192,17580,1,0,0:0:0:0:
64,192,17830,1,0,0:0:0:0:
448,192,20080,1,0,0:0:0:0:
192,192,21080,1,0,0:0:0:0:
448,192,21580,1,0,0:0:0:0:
64,192,22080,1,0,0:0:0:0:
320,192,22580,1,0,0:0:0:0:
192,192,23080,1,0,0:0:0:0:
448,192,23580,1,0,0:0:0:0:
64,192,24080,1,0,0:0:0:0:
320,192,24580,1,0,0:0:0:0:
192,192,25080,1,0,0:0:0:0:
448,192,25330,1,0,0:0:0:0:
64,192,25580,1,0,0:0:0:0:
320,192,25580,1,0,0:0:0:0:
192,192,25830,1,0,0:0:0:0:
448,192,26080,1,0,0:0:0:0:
64,192,26330,1,0,0:0:0:0:
320,192,26580,1,0,0:0:0:0:
192,192,26830,1,0,0:0:0:0:
448,192,27080,1,0,0:0:0:0:
64,192,27330,1,0,0:0:0:0:
320,192,27580,1,0,0:0:0:0:
192,192,27830,1,0,0:0:0:0:
448,192,28080,1,0,0:0:0:0:
192,192,28830,1,0,0:0:0:0:
320,192,29080,1,0,0:0:0:0:
64,192,29580,1,0,0:0:0:0:
448,192,30080,1,0,0:0:0:0:
192,192,30330,1,0,0:0:0:0:
320,192,30580,1,0,0:0:0:0:
64,192,30830,1,0,0:0:0:0:
448,192,31080,1,0,0:0:0:0:
192,192,31580,1,0,0:0:0:0:
320,192,32080,1,0,0:0:0:0:
64,192,32330,1,0,0:0:0:0:
448,192,32580,1,0,0:0:0:0:
192,192,32830,1,0,0:0:0:0:
320,192,33080,1,0,0:0:0:0:
64,192,33330,1,0,0:0:0:0:
448,192,33580,1,0,0:0:0:0:
192,192,34080,1,0,0:0:0:0:
320,192,34330,1,0,0:0:0:0:
64,192,34580,1,0,0:0:0:0:
448,192,34830,1,0,0:0:0:0:
192,192,35080,1,0,0:0:0:0:
320,192,35330,1,0,0:0:0:0:
64,192,35580,1,0,0:0:0:0:
448,192,36080,1,0,0:0:0:0:
192,192,36330,1,0,0:0:0:0:
320,192,36580,1,0,0:0:0:0:
64,192,36830,1,0,0:0:0:0:
448,192,37080,1,0,0:0:0:0:
192,192,37330,1,0,0:0:0:0:
320,192,37580,1,0,0:0:0:0:
64,192,38080,1,0,0:0:0:0:
448,192,38330,1,0,0:0:0:0:
192,192,38580,1,0,0:0:0:0:
448,192,38830,1,0,0:0:0:0:
192,192,39080,1,0,0:0:0:0:
448,192,39080,1,0,0:0:0:0:
192,192,39330,1,0,0:0:0:0:
320,192,39580,1,0,0:0:0:0:
64,192,39830,1,0,0:0:0:0:
448,192,40080,1,0,0:0:0:0:
192,192,40330,1,0,0:0:0:0:
320,192,40580,1,0,0:0:0:0:
64,192,40830,1,0,0:0:0:0:
448,192,41080,1,0,0:0:0:0:
192,192,41330,1,0,0:0:0:0:
320,192,41580,1,0,0:0:0:0:
64,192,41830,1,0,0:0:0:0:
448,192,42080,1,0,0:0:0:0:
192,192,42330,1,0,0:0:0:0:
320,192,42580,1,0,0:0:0:0:
64,192,42830,1,0,0:0:0:0:
448,192,43080,1,0,0:0:0:0:
192,192,43330,1,0,0:0:0:0:
320,192,43580,1,0,0:0:0:0:
64,192,43830,1,0,0:0:0:0:
448,192,44080,1,0,0:0:0:0:
192,192,44330,1,0,0:0:0:0:
320,192,44580,1,0,0:0:0:0:
64,192,44830,1,0,0:0:0:0:
448,192,45080,1,0,0:0:0:0:
192,192,45580,1,0,0:0:0:0:
448,192,46080,1,0,0:0:0:0:
64,192,46080,1,0,0:0:0:0:
320,192,46330,1,0,0:0:0:0:
192,192,46330,1,0,0:0:0:0:
448,192,46580,1,0,0:0:0:0:
64,192,46580,1,0,0:0:0:0:
320,192,46830,1,0,0:0:0:0:
192,192,46830,1,0,0:0:0:0:
448,192,47080,1,0,0:0:0:0:
192,192,47580,1,0,0:0:0:0:
448,192,48080,128,0,49080:0:0:0:0:
64,192,49080,128,0,50080:0:0:0:0:
320,192,50080,128,0,51080:0:0:0:0:
192,192,51080,128,0,52080:0:0:0:0:
448,192,52080,128,0,53080:0:0:0:0:
64,192,53080,128,0,53580:0:0:0:0:
320,192,53580,128,0,54080:0:0:0:0:
192,192,54080,128,0,55080:0:0:0:0:
448,192,55080,128,0,56080:0:0:0:0:
64,192,56080,128,0,57080:0:0:0:0:
320,192,57080,1,0,0:0:0:0:
192,192,57330,1,0,0:0:0:0:
448,192,57580,1,0,0:0:0:0:
64,192,57830,1,0,0:0:0:0:
320,192,58080,128,0,59080:0:0:0:0:
192,192,59080,128,0,60080:0:0:0:0:
448,192,60080,128,0,61080:0:0:0:0:
64,192,61080,1,0,0:0:0:0:
320,192,61330,1,0,0:0:0:0:
192,192,61580,1,0,0:0:0:0:
448,192,61830,1,0,0:0:0:0:
64,192,62080,128,0,63080:0:0:0:0:
320,192,63080,128,0,64080:0:0:0:0:
192,192,64080,128,0,65080:0:0:0:0:
448,192,65080,1,0,0:0:0:0:
64,192,65580,1,0,0:0:0:0:
320,192,66080,1,0,0:0:0:0:
192,192,67080,1,0,0:0:0:0:
448,192,67580,1,0,0:0:0:0:
64,192,68080,1,0,0:0:0:0:
192,192,69080,1,0,0:0:0:0:
320,192,69330,1,0,0:0:0:0:
64,192,69580,1,0,0:0:0:0:
448,192,70080,1,0,0:0:0:0:
192,192,70580,1,0,0:0:0:0:
320,192,71080,1,0,0:0:0:0:
64,192,71580,1,0,0:0:0:0:
448,192,72080,128,0,73080:0:0:0:0:
192,192,73080,1,0,0:0:0:0:
320,192,73580,128,0,74080:0:0:0:0:
64,192,74080,128,0,75080:0:0:0:0:
448,192,75080,128,0,75580:0:0:0:0:
192,192,75580,128,0,76080:0:0:0:0:
320,192,76080,128,0,77080:0:0:0:0:
64,192,77080,128,0,77580:0:0:0:0:
448,192,77580,128,0,78080:0:0:0:0:
192,192,78080,128,0,79080:0:0:0:0:
320,192,79080,128,0,79580:0:0:0:0:
64,192,79580,128,0,80080:0:0:0:0:
448,192,80080,1,0,0:0:0:0:
192,192,80330,1,0,0:0:0:0:
320,192,80580,1,0,0:0:0:0:
64,192,80830,1,0,0:0:0:0:
448,192,81080,1,0,0:0:0:0:
192,192,81580,1,0,0:0:0:0:
320,192,81830,1,0,0:0:0:0:
64,192,82080,1,0,0:0:0:0:
448,192,82330,1,0,0:0:0:0:
192,192,82580,1,0,0:0:0:0:
320,192,82830,1,0,0:0:0:0:
64,192,83080,1,0,0:0:0:0:
448,192,83330,1,0,0:0:0:0:
192,192,83330,1,0,0:0:0:0:
320,192,83580,1,0,0:0:0:0:
64,192,83830,1,0,0:0:0:0:
448,192,84080,1,0,0:0:0:0:
192,192,84330,1,0,0:0:0:0:
320,192,84330,1,0,0:0:0:0:
64,192,84580,1,0,0:0:0:0:
448,192,84830,1,0,0:0:0:0:
192,192,85080,1,0,0:0:0:0:
320,192,85580,1,0,0:0:0:0:
192,192,86080,1,0,0:0:0:0:
448,192,86080,1,0,0:0:0:0:
64,192,86330,1,0,0:0:0:0:
320,192,86580,1,0,0:0:0:0:
192,192,86830,1,0,0:0:0:0:
448,192,87080,1,0,0:0:0:0:
192,192,87580,1,0,0:0:0:0:
320,192,88080,1,0,0:0:0:0:
64,192,88580,1,0,0:0:0:0:
448,192,89080,1,0,0:0:0:0:
192,192,89580,1,0,0:0:0:0:
320,192,90080,1,0,0:0:0:0:
64,192,90580,1,0,0:0:0:0:
448,192,91080,1,0,0:0:0:0:
192,192,91580,1,0,0:0:0:0:
320,192,92080,1,0,0:0:0:0:
64,192,92330,1,0,0:0:0:0:
448,192,92330,1,0,0:0:0:0:
192,192,92580,1,0,0:0:0:0:
320,192,92830,1,0,0:0:0:0:
64,192,93080,1,0,0:0:0:0:
448,192,93580,1,0,0:0:0:0:
192,192,94080,1,0,0:0:0:0:
320,192,94080,1,0,0:0:0:0:
64,192,94330,1,0,0:0:0:0:
448,192,94580,1,0,0:0:0:0:
192,192,94830,1,0,0:0:0:0:
320,192,95080,1,0,0:0:0:0:
64,192,95580,1,0,0:0:0:0:
448,192,96080,1,0,0:0:0:0:
192,192,96580,1,0,0:0:0:0:
320,192,97080,1,0,0:0:0:0:
64,192,97330,1,0,0:0:0:0:
448,192,97580,1,0,0:0:0:0:
192,192,97830,1,0,0:0:0:0:
320,192,98080,1,0,0:0:0:0:
64,192,98580,1,0,0:0:0:0:
448,192,99080,1,0,0:0:0:0:
192,192,99330,1,0,0:0:0:0:
320,192,99580,1,0,0:0:0:0:
64,192,99830,1,0,0:0:0:0:
448,192,100080,1,0,0:0:0:0:
192,192,100330,1,0,0:0:0:0:
320,192,100580,1,0,0:0:0:0:
64,192,100830,1,0,0:0:0:0:
448,192,101080,1,0,0:0:0:0:
192,192,101330,1,0,0:0:0:0:
320,192,101580,1,0,0:0:0:0:
64,192,101830,1,0,0:0:0:0:
448,192,102080,1,0,0:0:0:0:
192,192,102330,1,0,0:0:0:0:
320,192,102580,1,0,0:0:0:0:
64,192,102830,1,0,0:0:0:0:
448,192,103080,1,0,0:0:0:0:
192,192,103330,1,0,0:0:0:0:
320,192,103580,1,0,0:0:0:0:
64,192,103830,1,0,0:0:0:0:
448,192,104080,1,0,0:0:0:0:
192,192,104330,1,0,0:0:0:0:
448,192,104580,1,0,0:0:0:0:
192,192,104830,1,0,0:0:0:0:
448,192,105080,1,0,0:0:0:0:
192,192,105330,1,0,0:0:0:0:
320,192,105580,1,0,0:0:0:0:
64,192,105830,1,0,0:0:0:0:
320,192,106080,1,0,0:0:0:0:
192,192,106330,1,0,0:0:0:0:
64,192,106580,1,0,0:0:0:0:
448,192,106580,1,0,0:0:0:0:
192,192,107080,1,0,0:0:0:0:
320,192,107080,1,0,0:0:0:0:
448,192,107580,1,0,0:0:0:0:
192,192,107830,1,0,0:0:0:0:
320,192,108080,1,0,0:0:0:0:
64,192,108330,1,0,0:0:0:0:
320,192,108580,1,0,0:0:0:0:
192,192,108830,1,0,0:0:0:0:
320,192,109080,1,0,0:0:0:0:
64,192,109330,1,0,0:0:0:0:
320,192,109580,1,0,0:0:0:0:
192,192,109830,1,0,0:0:0:0:
448,192,110080,1,0,0:0:0:0:
64,192,110330,1,0,0:0:0:0:
320,192,110580,1,0,0:0:0:0:
192,192,110830,1,0,0:0:0:0:
448,192,111080,1,0,0:0:0:0:
64,192,111580,1,0,0:0:0:0:
320,192,112080,1,0,0:0:0:0:
192,192,112580,1,0,0:0:0:0:
448,192,113080,1,0,0:0:0:0:
64,192,113330,1,0,0:0:0:0:
320,192,113580,1,0,0:0:0:0:
192,192,113830,1,0,0:0:0:0:
448,192,114080,1,0,0:0:0:0:
192,192,115080,1,0,0:0:0:0:
320,192,115580,1,0,0:0:0:0:
64,192,116080,1,0,0:0:0:0:
448,192,117080,1,0,0:0:0:0:
192,192,117330,1,0,0:0:0:0:
320,192,117580,1,0,0:0:0:0:
64,192,117830,1,0,0:0:0:0:
448,192,118080,128,0,118580:0:0:0:0:
192,192,118580,128,0,119080:0:0:0:0:
320,192,119080,128,0,119580:0:0:0:0:
64,192,119580,128,0,120080:0:0:0:0:
448,192,120080,128,0,120580:0:0:0:0:
192,192,120580,1,0,0:0:0:0:
320,192,121080,128,0,121580:0:0:0:0:
64,192,121580,1,0,0:0:0:0:
320,192,122080,1,0,0:0:0:0:
192,192,122580,1,0,0:0:0:0:
448,192,123080,1,0,0:0:0:0:
64,192,123580,1,0,0:0:0:0:
320,192,124080,1,0,0:0:0:0:
192,192,124580,1,0,0:0:0:0:
448,192,125080,1,0,0:0:0:0:
64,192,125330,1,0,0:0:0:0:
320,192,125580,1,0,0:0:0:0:
192,192,125830,1,0,0:0:0:0:
448,192,126080,1,0,0:0:0:0:
64,192,126580,1,0,0:0:0:0:
320,192,127080,1,0,0:0:0:0:
192,192,127580,1,0,0:0:0:0:
448,192,128080,1,0,0:0:0:0:
64,192,128330,1,0,0:0:0:0:
320,192,128580,1,0,0:0:0:0:
192,192,128830,1,0,0:0:0:0:
448,192,129080,1,0,0:0:0:0:
64,192,129330,1,0,0:0:0:0:
320,192,129580,1,0,0:0:0:0:
192,192,129830,1,0,0:0:0:0:
448,192,130080,1,0,0:0:0:0:
64,192,130330,1,0,0:0:0:0:
320,192,130580,1,0,0:0:0:0:
192,192,130830,1,0,0:0:0:0:
448,192,131080,1,0,0:0:0:0:
64,192,131330,1,0,0:0:0:0:
320,192,131580,1,0,0:0:0:0:
192,192,131830,1,0,0:0:0:0:
448,192,132080,1,0,0:0:0:0:
64,192,132330,1,0,0:0:0:0:
320,192,132580,1,0,0:0:0:0:
192,192,132830,1,0,0:0:0:0:
448,192,133080,1,0,0:0:0:0:
64,192,133330,1,0,0:0:0:0:
320,192,133580,1,0,0:0:0:0:
192,192,133830,1,0,0:0:0:0:
448,192,134080,128,0,135080:0:0:0:0:
64,192,135080,128,0,136080:0:0:0:0:
320,192,136080,1,0,0:0:0:0:
192,192,136330,1,0,0:0:0:0:
448,192,136580,1,0,0:0:0:0:
64,192,136830,1,0,0:0:0:0:
320,192,137080,1,0,0:0:0:0:
192,192,137330,1,0,0:0:0:0:
448,192,137580,1,0,0:0:0:0:
64,192,137830,1,0,0:0:0:0:
320,192,138080,1,0,0:0:0:0:
192,192,138330,1,0,0:0:0:0:
448,192,138580,1,0,0:0:0:0:
64,192,138830,1,0,0:0:0:0:
320,192,139080,1,0,0:0:0:0:
192,192,139330,1,0,0:0:0:0:
320,192,139580,1,0,0:0:0:0:
64,192,139830,1,0,0:0:0:0:
448,192,140080,1,0,0:0:0:0:
192,192,140330,1,0,0:0:0:0:
320,192,140580,1,0,0:0:0:0:
64,192,140830,1,0,0:0:0:0:
448,192,141080,1,0,0:0:0:0:
192,192,141330,1,0,0:0:0:0:
320,192,141580,1,0,0:0:0:0:
64,192,141830,1,0,0:0:0:0:
448,192,142080,128,0,143080:0:0:0:0:
192,192,143080,128,0,143830:0:0:0:0:
320,192,144080,128,0,145080:0:0:0:0:
64,192,145080,128,0,146080:0:0:0:0:
448,192,146080,128,0,147080:0:0:0:0:
192,192,147080,128,0,148080:0:0:0:0:
320,192,148080,128,0,149080:0:0:0:0:
64,192,149080,128,0,150080:0:0:0:0:
448,192,150080,128,0,151080:0:0:0:0:
192,192,151080,128,0,152080:0:0:0:0:
320,192,152080,128,0,153080:0:0:0:0:
64,192,153080,128,0,154080:0:0:0:0:
448,192,154080,128,0,155080:0:0:0:0:
192,192,155080,128,0,156080:0:0:0:0:
320,192,156080,128,0,157080:0:0:0:0:
64,192,157080,1,0,0:0:0:0:
