osu file format v14

[General]
AudioFilename: audio.mp3
AudioLeadIn: 0
PreviewTime: 574
Countdown: 0
SampleSet: Soft
StackLeniency: 0.2
Mode: 0
LetterboxInBreaks: 0
WidescreenStoryboard: 0

[Editor]
Bookmarks: 6574,6734,6894,15694,16174,17134,38191,38287,38382,41439,42013,42586,43159,43541,43732,44115,44306,44497,45070,45643,46217,46790,47172,48701,48796,48892,48987,49083,52140,56535,56726,56821,56917,57108,57681,57872,58063,58254,59783,61312,65707,65898,66662,66853,67044,67235,67426,76598,80420,80802,81184,82331,85006,88828
DistanceSpacing: 1
BeatDivisor: 4
GridSize: 4
TimelineZoom: 1.3

[Metadata]
Title:Koi no Maryoku
TitleUnicode:恋の魔力
Artist:KOH+
ArtistUnicode:KOH+
Creator:Yuuya_ke
Version:EXPERT
Source:ガリレオ2
Tags:
BeatmapID:1720487
BeatmapSetID:820799

[Difficulty]
HPDrainRate:7
CircleSize:3.8
OverallDifficulty:7
ApproachRate:9
SliderMultiplier:1.4
SliderTickRate:1

[Events]
//Background and Video events
0,0,"kk.png",0,0
//Break Periods
//Storyboard Layer 0 (Background)
//Storyboard Layer 1 (Fail)
//Storyboard Layer 2 (Pass)
//Storyboard Layer 3 (Foreground)
//Storyboard Sound Samples

[TimingPoints]
814.888406629651,480,4,2,0,70,1,0
6574,-83.3333333333333,4,2,0,70,0,0
6894,-83.3333333333333,4,2,0,5,0,0
7054,-100,4,2,0,70,0,0
15694,-125,4,2,0,70,0,0
16174,-100,4,2,0,70,0,0
30389,382.165605095541,4,2,0,30,1,0
30771,382.165605095541,4,2,0,70,1,0
30771,-83.3333333333333,4,2,1,70,0,0
31313,382.165605095541,4,2,1,70,1,0
31313,-71.4285714285714,4,2,1,70,0,0
31504,382.165605095541,4,2,1,70,1,0
31504,-71.4285714285714,4,2,1,70,0,0
32268,382.165605095541,4,2,1,70,1,0
32268,-83.3333333333333,4,2,1,70,0,0
35229,-83.3333333333333,4,2,1,5,0,0
35325,-83.3333333333333,4,2,1,70,0,0
42013,-83.3333333333333,4,2,39,70,0,0
42108,-83.3333333333333,4,2,1,70,0,0
42586,-83.3333333333333,4,2,39,70,0,0
42682,-83.3333333333333,4,2,1,70,0,0
43159,-83.3333333333333,4,2,39,70,0,0
43255,-83.3333333333333,4,2,1,70,0,0
43732,-83.3333333333333,4,2,39,70,0,0
43828,-83.3333333333333,4,2,1,70,0,0
44497,-71.4285714285714,4,2,1,70,0,0
44497,-71.4285714285714,4,2,39,70,0,0
44592,-71.4285714285714,4,2,1,70,0,0
45070,-71.4285714285714,4,2,39,70,0,0
45166,-71.4285714285714,4,2,1,70,0,0
45643,-71.4285714285714,4,2,39,70,0,0
45739,-71.4285714285714,4,2,1,70,0,0
46217,-71.4285714285714,4,2,39,70,0,0
46312,-71.4285714285714,4,2,1,70,0,0
46790,-71.4285714285714,4,2,39,70,0,0
46885,-71.4285714285714,4,2,1,70,0,0
47172,-66.6666666666667,4,2,39,70,0,0
47172,-66.6666666666667,4,2,1,70,0,0
47267,-66.6666666666667,4,2,1,70,0,0
47610,382.165605095541,4,2,1,70,1,0
47610,-76.9230769230769,4,2,1,70,0,0
47992,-76.9230769230769,4,2,1,5,0,0
48183,-66.6666666666667,4,2,1,70,0,0
48469,-76.9230769230769,4,2,1,5,0,0
48565,-76.9230769230769,4,2,1,70,0,0
48701,382.165605095541,4,2,1,70,1,0
49083,382.165605095541,4,2,1,70,1,0
49083,-66.6666666666667,4,2,1,70,0,1
49178,-66.6666666666667,4,2,1,70,0,0
49847,-66.6666666666667,4,2,39,70,0,0
50229,-66.6666666666667,4,2,1,70,0,0
51375,-66.6666666666667,4,2,39,70,0,0
51758,-66.6666666666667,4,2,1,70,0,0
52904,-66.6666666666667,4,2,39,70,0,0
53286,-66.6666666666667,4,2,1,70,0,0
54433,-66.6666666666667,4,2,39,70,0,0
54815,-66.6666666666667,4,2,1,70,0,0
55961,-66.6666666666667,4,2,39,70,0,0
56344,-66.6666666666667,4,2,1,70,0,0
57490,-66.6666666666667,4,2,39,70,0,0
57872,-66.6666666666667,4,2,1,70,0,0
59019,-66.6666666666667,4,2,39,70,0,0
59401,-66.6666666666667,4,2,1,70,0,0
60547,-66.6666666666667,4,2,39,70,0,0
60930,-66.6666666666667,4,2,1,70,0,0
61312,-58.8235294117647,4,2,1,80,0,1
61407,-58.8235294117647,4,2,1,80,0,0
62076,-58.8235294117647,4,2,39,80,0,0
62363,-58.8235294117647,4,2,1,80,0,0
63605,-58.8235294117647,4,2,39,80,0,0
63891,-58.8235294117647,4,2,1,80,0,0
64369,-55.5555555555556,4,2,1,80,0,0
65133,-55.5555555555556,4,2,39,80,0,0
65420,-55.5555555555556,4,2,1,80,0,0
66662,-55.5555555555556,4,2,39,80,0,0
66949,-55.5555555555556,4,2,1,80,0,0
67426,-83.3333333333333,4,2,1,60,0,0
76981,-83.3333333333333,4,2,19,60,0,0
77363,-80,4,2,19,60,0,0
77745,-76.9230769230769,4,2,19,60,0,0
78127,-74.0740740740741,4,2,19,60,0,0
79274,-74.0740740740741,4,2,1,60,0,0
80420,-66.6666666666667,4,2,1,60,0,0
81184,-66.6666666666667,4,2,1,80,0,0
81567,-66.6666666666667,4,2,1,5,0,0
81662,-66.6666666666667,4,2,1,80,0,0
81949,-66.6666666666667,4,2,1,5,0,0
82044,-66.6666666666667,4,2,1,80,0,0
82235,-66.6666666666667,4,2,1,5,0,0
82331,-100,4,2,1,70,0,0
82618,-66.6666666666667,4,2,1,5,0,0
82713,-66.6666666666667,4,2,1,80,0,1
82809,-66.6666666666667,4,2,1,80,0,0
88828,-66.6666666666667,4,2,39,80,0,0

[Colours]
Combo1 : 74,122,234
Combo2 : 30,10,211

[HitObjects]
196,49,814,5,0,0:0:0:0:
196,49,1294,2,0,P|201:75|203:98,1,46.6666666666667,2|0,0:0|0:0,0:0:0:0:
279,63,1614,2,0,P|284:89|286:112,1,46.6666666666667,0|2,0:0|0:0,0:0:0:0:
286,110,2254,2,0,P|284:86|280:64,1,46.6666666666667
366,144,2574,2,0,P|359:176|356:203,1,46.6666666666667,2|0,0:0|0:0,0:0:0:0:
357,189,3214,6,0,P|360:166|366:144,2,46.6666666666667,2|0|2,0:0|0:0|0:0,0:0:0:0:
361,280,3694,2,0,P|339:288|316:295,2,46.6666666666667,0|0|2,0:0|0:0|0:0,0:0:0:0:
438,231,4174,2,0,P|456:245|473:261,2,46.6666666666667,2|0|2,0:0|0:0|0:0,0:0:0:0:
268,195,4654,5,2,0:0:0:0:
268,195,5134,2,0,P|242:202|214:205,1,46.6666666666667,2|0,0:0|0:0,0:0:0:0:
220,287,5454,2,0,P|194:294|166:297,1,46.6666666666667,2|0,0:0|0:0,0:0:0:0:
174,296,6094,2,0,P|197:293|220:287,1,46.6666666666667,2|0,0:0|0:0,0:0:0:0:
316,294,6414,1,0,0:0:0:0:
222,204,6574,6,2,P|168:204|116:231,1,111.999996582031
117,229,7054,2,0,P|140:213|166:203,2,46.6666666666667
122,321,7534,2,0,P|123:349|119:377,2,46.6666666666667
40,279,8014,2,0,P|14:266|-7:248,2,46.6666666666667
204,276,8494,5,0,0:0:0:0:
204,276,8974,2,0,L|261:266,1,46.6666666666667,2|0,0:0|0:0,0:0:0:0:
346,349,9294,2,0,L|299:341,1,46.6666666666667,0|2,0:0|0:0,0:0:0:0:
299,341,9934,2,0,L|346:349,1,46.6666666666667
442,271,10254,2,0,L|395:278,1,46.6666666666667,2|0,0:0|0:0,0:0:0:0:
395,278,10894,6,0,L|442:271,2,46.6666666666667,2|0|2,0:0|0:0|0:0,0:0:0:0:
420,189,11374,2,0,L|466:181,2,46.6666666666667,0|0|2,0:0|0:0|0:0,0:0:0:0:
444,99,11854,2,0,L|490:91,2,46.6666666666667,2|0|2,0:0|0:0|0:0,0:0:0:0:
330,212,12334,5,2,0:0:0:0:
330,212,12814,2,0,L|318:152,1,46.6666666666667,2|0,0:0|0:0,0:0:0:0:
346,41,13134,2,0,L|355:86,1,46.6666666666667,2|0,0:0|0:0,0:0:0:0:
355,86,13774,2,0,L|346:41,1,46.6666666666667,2|0,0:0|0:0,0:0:0:0:
222,117,14094,2,0,L|231:162,1,46.6666666666667
232,163,14734,6,0,L|223:118,2,46.6666666666667
259,294,15214,2,0,L|249:248,2,46.6666666666667
275,378,15694,2,2,L|260:295,1,74.6666666666667
275,378,16174,6,0,P|320:351|338:305,1,93.3333333333333
176,282,16654,2,0,P|221:280|261:304,1,93.3333333333333,2|0,0:0|0:0,0:0:0:0:
128,342,17134,2,0,P|73:340|21:277,1,140,2|0,0:0|0:0,0:0:0:0:
21,278,18094,6,0,P|29:224|66:191,1,93.3333333333333,2|0,0:0|0:0,0:0:0:0:
188,252,18574,2,0,P|137:271|90:256,1,93.3333333333333,2|2,0:0|0:0,0:0:0:0:
135,191,19054,2,0,P|124:114|117:52,1,140,0|2,0:0|0:0,0:0:0:0:
117,52,20014,6,0,P|124:106|130:153,1,93.3333333333333,2|0,0:0|0:0,0:0:0:0:
23,210,20494,2,0,P|28:158|34:117,1,93.3333333333333,2|2,0:0|0:0,0:0:0:0:
117,52,20974,2,0,B|169:42|195:68|183:71|204:101|262:89,1,140,0|2,0:0|0:0,0:0:0:0:
245,91,21934,6,0,P|192:104|163:138,1,93.3333333333333
236,218,22414,2,0,P|238:195|241:172,1,46.6666666666667
316,137,22734,1,2,0:0:0:0:
316,137,22894,2,0,B|360:133|360:133|410:155,1,93.3333333333333,2|2,0:0|0:0,0:0:0:0:
405,152,23374,2,0,P|382:143|356:132,1,46.6666666666667
320,57,23694,1,2,0:0:0:0:
349,219,23854,6,0,B|357:261|368:310|368:310,1,93.3333333333333
272,368,24334,2,0,P|276:343|280:322,1,46.6666666666667
234,204,24654,1,2,0:0:0:0:
234,204,24814,2,0,B|190:200|190:200|140:222,1,93.3333333333333,2|2,0:0|0:0,0:0:0:0:
145,219,25294,2,0,P|168:208|194:199,1,46.6666666666667
230,124,25614,1,2,0:0:0:0:
207,285,25774,6,0,P|162:306|107:300,1,93.3333333333333
16,240,26254,2,0,P|48:233|73:238,1,46.6666666666667
119,304,26574,1,0,0:0:0:0:
92,151,26734,6,2,P|81:94|66:19,2,116.666666666667
256,192,27694,12,0,30389,0:0:0:0:
439,273,30771,6,8,B|451:252|451:252|455:231,1,41.9999987182618
434,134,30962,1,8,0:0:0:0:
349,270,31153,1,8,0:0:0:0:
339,73,31313,5,8,0:0:0:0:
337,79,31408,1,8,0:0:0:0:
335,86,31504,2,2,P|331:107|327:143,1,48.9999985046387
349,270,31695,2,2,P|342:242|339:215,1,48.9999985046387
248,58,31886,2,2,P|242:84|236:130,1,48.9999985046387
263,300,32077,2,2,P|257:271|252:236,1,48.9999985046387
150,82,32268,6,0,P|133:165|115:256,1,167.999994873047,12|0,0:0|0:0,0:0:0:0:
116,246,33032,2,0,B|198:232|198:232|272:274|272:274|355:261,1,251.999992309571,2|0,0:0|0:0,0:0:0:0:
291,184,33796,5,8,0:0:0:0:
422,317,33987,2,0,P|441:277|439:234,1,83.9999974365235,2|0,0:0|0:0,0:0:0:0:
378,172,34369,1,8,0:0:0:0:
324,344,34560,2,0,B|249:324|233:291|307:214|350:316|320:328|234:395|175:359|150:269,1,293.999991027832,2|0,0:0|0:0,0:0:0:0:
184,223,35325,6,0,B|137:213|99:234|119:246|73:273|18:243,1,167.999994873047,8|0,0:0|0:0,0:0:0:0:
25,246,35898,1,0,0:0:0:0:
25,246,36089,2,0,B|2:232|-8:204|-8:204|80:209|80:295|37:364,1,251.999992309571,2|2,0:0|0:0,0:0:0:0:
156,254,36853,5,8,0:0:0:0:
42,354,37045,2,0,P|89:364|134:373,1,83.9999974365235,2|0,0:0|0:0,0:0:0:0:
112,177,37427,1,8,0:0:0:0:
234,332,37618,2,0,B|170:342|102:349|102:349|126:337|136:315,1,167.999994873047,2|0,0:0|0:0,0:0:0:0:
197,140,38191,5,2,0:0:0:0:
199,146,38286,1,2,0:0:0:0:
201,153,38382,2,0,P|272:210|340:185,1,167.999994873047,12|0,0:0|0:0,0:0:0:0:
337,187,38955,1,8,0:0:0:0:
337,187,39146,2,0,P|331:227|332:275,1,83.9999974365235,2|0,0:0|0:0,0:0:0:0:
217,63,39529,1,0,0:0:0:0:
399,124,39720,1,2,0:0:0:0:
260,206,39911,5,8,0:0:0:0:
431,37,40102,2,0,P|376:36|318:83,1,125.999996154785,2|0,0:0|0:0,0:0:0:0:
317,90,40484,1,8,0:0:0:0:
379,211,40675,2,0,B|436:220|469:183|469:183|512:209|502:253,1,167.999994873047,2|2,0:0|0:0,0:0:0:0:
503,238,41248,1,0,0:0:0:0:
323,317,41439,6,0,P|285:308|238:302,1,83.9999974365235,6|0,0:0|0:0,0:0:0:0:
164,351,41726,1,2,0:0:0:0:
162,357,41822,2,2,P|157:333|149:308,1,41.9999987182618
24,199,42013,2,0,P|62:190|109:184,1,83.9999974365235,12|2,0:0|0:0,0:0:0:0:
183,233,42300,1,2,0:0:0:0:
185,239,42396,2,2,P|190:215|198:190,1,41.9999987182618
286,82,42586,5,12,0:0:0:0:
308,117,42681,1,2,0:0:0:0:
312,159,42777,1,2,0:0:0:0:
298,198,42872,1,2,0:0:0:0:
268,227,42968,2,0,P|300:230|325:233,1,41.9999987182618,2|0,0:0|0:0,0:0:0:0:
209,5,43159,1,12,0:0:0:0:
187,40,43254,1,2,0:0:0:0:
183,81,43350,1,2,0:0:0:0:
197,121,43445,1,2,0:0:0:0:
227,149,43541,2,0,P|195:152|169:155,1,41.9999987182618,2|0,0:0|0:0,0:0:0:0:
21,10,43732,5,12,0:0:0:0:
62,17,43827,1,2,0:0:0:0:
103,24,43923,1,2,0:0:0:0:
145,31,44018,1,2,0:0:0:0:
189,38,44115,2,0,P|220:42|246:44,1,41.9999987182618,2|2,0:0|0:0,0:0:0:0:
344,102,44306,2,2,P|323:99|302:97,1,41.9999987182618
185,153,44497,6,0,P|203:200|208:255,1,97.9999970092774,12|2,0:0|0:0,0:0:0:0:
181,330,44783,1,2,0:0:0:0:
179,336,44879,2,2,P|208:342|231:348,1,48.9999985046387
338,88,45070,2,0,P|320:135|315:190,1,97.9999970092774,12|8,0:0|0:0,0:0:0:0:
342,265,45357,1,2,0:0:0:0:
344,271,45452,2,2,P|315:277|292:283,1,48.9999985046387
229,74,45643,5,12,0:0:0:0:
181,62,45738,1,2,0:0:0:0:
135,77,45834,1,2,0:0:0:0:
103,113,45929,1,2,0:0:0:0:
95,161,46025,2,0,P|59:169|41:172,1,48.9999985046387,2|0,0:0|0:0,0:0:0:0:
290,19,46217,1,12,0:0:0:0:
337,7,46312,1,2,0:0:0:0:
383,22,46408,1,2,0:0:0:0:
415,58,46503,1,2,0:0:0:0:
423,106,46599,2,0,P|459:113|476:118,1,48.9999985046387,2|2,0:0|0:0,0:0:0:0:
296,279,46790,5,12,0:0:0:0:
306,231,46886,1,2,0:0:0:0:
317,183,46981,1,2,0:0:0:0:
327,135,47077,1,2,0:0:0:0:
338,88,47172,2,2,P|345:58|356:25,1,52.5000020027161,6|2,0:0|0:0,0:0:0:0:
184,153,47363,2,2,P|190:176|197:205,1,52.5000020027161
199,219,47610,6,0,B|249:168|364:256|248:352|211:345,1,227.499989585877
187,230,48183,2,0,B|139:200|80:280|155:325,1,157.500006008148
161,327,48565,1,0,0:0:0:0:
161,327,48701,5,2,0:0:0:0:
195,335,48796,1,2,0:0:0:0:
229,342,48892,1,2,0:0:0:0:
263,349,48987,1,2,0:0:0:0:
262,355,49083,6,0,P|340:313|406:342,1,157.500006008148,12|0,0:0|0:0,0:0:0:0:
500,258,49465,2,0,P|476:264|397:235,1,105.000004005432,2|0,0:0|0:0,0:0:0:0:
449,84,49847,5,12,0:0:0:0:
314,226,50038,1,12,0:0:0:0:
347,0,50229,1,2,0:0:0:0:
463,180,50420,1,8,0:0:0:0:
224,114,50611,6,0,P|275:124|326:134,1,105.000004005432,8|8,0:0|0:0,0:0:0:0:
131,179,50993,1,2,0:0:0:0:
255,29,51184,1,8,0:0:0:0:
267,228,51375,5,12,0:0:0:0:
160,42,51567,1,12,0:0:0:0:
179,276,51758,1,2,0:0:0:0:
326,134,51949,1,8,0:0:0:0:
84,101,52140,6,8,P|43:160|48:217,1,105.000004005432
224,114,52522,1,2,0:0:0:0:
24,24,52713,1,8,0:0:0:0:
100,258,52904,5,12,0:0:0:0:
160,42,53095,1,12,0:0:0:0:
196,294,53286,1,2,0:0:0:0:
84,101,53477,1,8,0:0:0:0:
346,212,53668,6,8,P|353:267|363:320,1,105.000004005432
183,191,54051,2,0,P|196:140|207:88,1,105.000004005432,2|8,0:0|0:0,0:0:0:0:
273,359,54433,5,12,0:0:0:0:
283,142,54624,1,12,0:0:0:0:
97,248,54815,1,2,0:0:0:0:
346,212,55006,1,8,0:0:0:0:
158,373,55197,6,0,P|98:329|20:352,1,157.500006008148,8|0,0:0|0:0,0:0:0:0:
18,361,55579,2,0,P|19:334|15:302,1,52.5000020027161,2|0,0:0|0:0,0:0:0:0:
5,199,55770,1,8,0:0:0:0:
225,279,55961,5,12,0:0:0:0:
93,138,56153,1,4,0:0:0:0:
158,373,56344,1,2,0:0:0:0:
192,168,56535,1,8,0:0:0:0:
16,308,56726,6,0,P|8:246|37:191,1,105.000004005432,8|8,0:0|0:0,0:0:0:0:
272,203,57108,1,2,0:0:0:0:
101,264,57299,1,8,0:0:0:0:
170,77,57490,5,12,0:0:0:0:
223,275,57681,1,12,0:0:0:0:
322,65,57872,1,2,0:0:0:0:
115,174,58063,1,8,0:0:0:0:
319,280,58254,5,8,0:0:0:0:
256,120,58446,1,8,0:0:0:0:
201,310,58637,1,2,0:0:0:0:
261,130,58829,1,8,0:0:0:0:
94,244,59019,1,12,0:0:0:0:
271,134,59211,1,12,0:0:0:0:
55,98,59400,1,2,0:0:0:0:
281,130,59592,1,8,0:0:0:0:
16,182,59783,5,2,0:0:0:0:
203,64,59974,1,8,0:0:0:0:
11,192,60165,1,2,0:0:0:0:
288,229,60356,1,8,0:0:0:0:
112,16,60547,5,6,0:0:0:0:
94,244,60739,1,12,0:0:0:0:
300,27,60930,1,2,0:0:0:0:
21,172,61121,1,8,0:0:0:0:
303,250,61312,6,0,P|311:190|319:132,1,119.000002269745,8|0,0:0|0:0,0:0:0:0:
94,244,61694,2,0,P|100:303|108:362,1,119.000002269745,2|0,0:0|0:0,0:0:0:0:
373,309,62076,2,12,P|381:249|389:191,1,119.000002269745
164,185,62458,2,0,P|171:245|182:327,1,119.000002269745,2|8,0:0|0:0,0:0:0:0:
420,378,62840,6,0,P|361:364|303:356,1,119.000002269745,10|8,0:0|0:0,0:0:0:0:
61,281,63223,2,0,P|119:294|177:302,1,119.000002269745,2|8,0:0|0:0,0:0:0:0:
465,304,63605,2,4,P|408:288|341:275,1,119.000002269745,6|12,0:0|0:0,0:0:0:0:
106,207,63987,2,0,P|167:220|225:228,1,119.000002269745,2|8,0:0|0:0,0:0:0:0:
464,158,64369,6,0,B|463:142|466:117|466:117|454:87|454:87|454:67|445:36,1,125.999996154785,2|8,0:0|0:0,0:0:0:0:
154,129,64751,2,0,B|158:112|159:87|159:87|176:60|176:60|180:40|194:11,1,125.999996154785,2|8,0:0|0:0,0:0:0:0:
397,231,65133,1,12,0:0:0:0:
296,53,65325,1,12,0:0:0:0:
272,326,65516,1,2,0:0:0:0:
300,64,65707,2,0,P|271:74|234:81,1,62.9999980773926,8|0,0:0|0:0,0:0:0:0:
106,207,65898,5,2,0:0:0:0:
388,156,66089,1,8,0:0:0:0:
190,364,66280,1,2,0:0:0:0:
228,80,66471,1,8,0:0:0:0:
364,332,66662,5,6,0:0:0:0:
142,289,66853,1,12,0:0:0:0:
315,231,67044,1,8,0:0:0:0:
210,210,67235,1,8,0:0:0:0:
279,159,67426,6,0,P|160:182|21:203,1,251.999992309571,12|8,0:0|0:0,0:0:0:0:
210,210,68191,2,0,P|333:230|468:254,1,251.999992309571,2|2,0:0|0:0,0:0:0:0:
248,308,68955,5,0,0:0:0:0:
362,150,69146,2,0,P|375:101|392:51,1,83.9999974365235,2|0,0:0|0:0,0:0:0:0:
362,150,69528,1,8,0:0:0:0:
405,352,69719,2,0,B|362:371|321:347|321:347|303:302|250:299,1,167.999994873047,2|0,0:0|0:0,0:0:0:0:
260,300,70293,1,2,0:0:0:0:
146,349,70484,6,0,P|173:217|210:80,1,251.999992309571
22,42,71248,2,0,B|23:56|30:68|30:68|33:67|33:67|30:68|30:68|59:168|77:285,1,251.999992309571,10|2,0:0|0:0,0:0:0:0:
24,365,72012,5,0,0:0:0:0:
181,263,72204,2,0,P|192:308|200:362,1,83.9999974365235,2|0,0:0|0:0,0:0:0:0:
181,263,72586,1,8,0:0:0:0:
28,181,72777,2,0,B|78:199|122:172|98:157|147:133|204:145,1,167.999994873047,2|0,0:0|0:0,0:0:0:0:
184,142,73350,1,2,0:0:0:0:
289,210,73541,6,0,B|370:266|441:194|441:194|386:182|369:139,1,251.999992309571,12|0,0:0|0:0,0:0:0:0:
361,31,74305,2,0,B|278:-22|209:47|209:47|259:56|281:102,1,251.999992309571,2|2,0:0|0:0,0:0:0:0:
184,142,75070,5,0,0:0:0:0:
219,363,75261,2,0,P|233:310|246:266,1,83.9999974365235,2|0,0:0|0:0,0:0:0:0:
219,363,75643,1,0,0:0:0:0:
412,223,75834,2,0,P|350:171|272:192,1,167.999994873047,2|0,0:0|0:0,0:0:0:0:
273,191,76598,6,0,P|351:171|401:202,1,125.999996154785
364,334,76981,2,2,P|370:307|374:281,1,41.9999987182618
273,191,77172,2,2,P|280:216|289:239,1,41.9999987182618
355,343,77363,2,2,P|362:316|368:284,1,43.75
262,190,77554,2,2,P|270:215|283:240,1,43.75
338,353,77745,2,2,P|352:316|357:290,1,45.4999979171754
243,190,77936,2,2,P|262:224|284:246,1,45.4999979171754
250,375,78127,5,2,0:0:0:0:
222,382,78222,1,2,0:0:0:0:
194,384,78318,1,2,0:0:0:0:
166,380,78413,1,2,0:0:0:0:
140,369,78509,1,2,0:0:0:0:
114,357,78604,1,2,0:0:0:0:
87,350,78700,1,2,0:0:0:0:
58,348,78795,1,2,0:0:0:0:
30,350,78891,5,2,0:0:0:0:
67,358,78986,1,2,0:0:0:0:
104,354,79082,1,2,0:0:0:0:
139,338,79177,1,2,0:0:0:0:
166,312,79273,1,2,0:0:0:0:
184,279,79368,1,2,0:0:0:0:
190,242,79464,1,2,0:0:0:0:
184,205,79559,1,2,0:0:0:0:
166,171,79656,5,2,0:0:0:0:
192,210,79751,1,2,0:0:0:0:
231,236,79847,1,2,0:0:0:0:
277,245,79942,1,2,0:0:0:0:
323,236,80038,1,2,0:0:0:0:
362,209,80133,1,2,0:0:0:0:
387,169,80229,1,2,0:0:0:0:
395,123,80324,1,2,0:0:0:0:
384,77,80420,6,2,P|374:50|366:17,1,52.5000020027161
226,99,80611,2,2,P|222:125|215:152,1,52.5000020027161
399,79,80802,2,2,P|388:43|384:20,1,52.5000020027161
215,101,80993,2,2,P|210:127|199:158,1,52.5000020027161
409,284,81184,6,0,B|360:295|316:305|291:257|264:217|272:195|267:169|265:153|277:80|372:84|453:172|401:232|359:261|273:300|210:304|187:254|239:250|165:178|92:229,1,577.500022029878,12|0,0:0|0:0,0:0:0:0:
65,164,82331,6,8,P|46:212|63:261,1,105
137,297,82713,5,12,0:0:0:0:
127,104,82904,1,8,0:0:0:0:
221,333,83095,1,2,0:0:0:0:
65,164,83286,1,8,0:0:0:0:
287,209,83477,5,8,0:0:0:0:
154,384,83668,1,8,0:0:0:0:
255,126,83860,1,2,0:0:0:0:
315,307,84051,5,8,0:0:0:0:
130,214,84242,1,8,0:0:0:0:
341,136,84433,1,8,0:0:0:0:
137,297,84624,5,2,0:0:0:0:
199,66,84815,1,8,0:0:0:0:
389,240,85006,5,8,0:0:0:0:
123,121,85197,1,8,0:0:0:0:
394,69,85388,2,0,P|446:65|498:58,1,105.000004005432,2|8,0:0|0:0,0:0:0:0:
210,249,85770,5,8,0:0:0:0:
116,32,85961,1,8,0:0:0:0:
137,297,86153,1,2,0:0:0:0:
255,126,86344,1,8,0:0:0:0:
43,104,86535,5,8,0:0:0:0:
288,206,86726,1,8,0:0:0:0:
0,236,86917,1,2,0:0:0:0:
277,48,87108,6,0,P|216:62|167:76,1,105.000004005432,2|0,0:0|0:0,0:0:0:0:
369,181,87490,1,2,0:0:0:0:
100,177,87681,2,0,P|156:194|209:208,1,105.000004005432,2|0,0:0|0:0,0:0:0:0:
373,317,88063,6,0,P|366:292|356:268,1,52.5000020027161,0|2,0:0|0:0,0:0:0:0:
294,146,88254,2,2,P|288:179|289:206,1,52.5000020027161
264,362,88446,2,2,P|277:332|285:297,1,52.5000020027161
404,138,88637,2,2,P|381:167|373:195,1,52.5000020027161
194,284,88828,5,8,0:0:0:0:
194,7,89019,1,2,0:0:0:0:
31,231,89210,1,2,0:0:0:0:
294,146,89401,1,2,0:0:0:0:
31,60,89592,5,2,0:0:0:0:
194,284,89783,1,2,0:0:0:0:
307,32,90165,1,2,0:0:0:0:
31,60,90547,5,6,0:0:0:0:
316,263,90739,1,6,0:0:0:0:
