osu file format v14

[General]
AudioFilename: KISS Shite - KOH+.mp3
AudioLeadIn: 0
PreviewTime: 25381
Countdown: 1
SampleSet: None
StackLeniency: 0.7
Mode: 0
LetterboxInBreaks: 0
WidescreenStoryboard: 1

[Editor]
Bookmarks: 323,11617,16205,22911,25734,37028,42675,49734,72322,75146,86440,89264,100558,106205,113264,135852,141499,142911,168322,173970,183852,206440,214911
DistanceSpacing: 3
BeatDivisor: 6
GridSize: 4
TimelineZoom: 1.7

[Metadata]
Title:KISS Shite
TitleUnicode:KISSして
Artist:KOH+
ArtistUnicode:KOH+
Creator:XiaofengTiger
Version:Galileo
Source:Galileo2
Tags:ガリレオ 柴咲コウ 福山雅治 Fukuyama Masaharu 湯川学 内海薫 神探伽利略
BeatmapID:1170392
BeatmapSetID:552664

[Difficulty]
HPDrainRate:7
CircleSize:4.3
OverallDifficulty:7
ApproachRate:9
SliderMultiplier:1.5
SliderTickRate:1

[Events]
//Background and Video events
0,0,"Science.jpg",0,0
//Break Periods
2,23111,25134
2,75170,85840
2,143111,167722
//Storyboard Layer 0 (Background)
//Storyboard Layer 1 (Fail)
//Storyboard Layer 2 (Pass)
//Storyboard Layer 3 (Foreground)
//Storyboard Sound Samples

[TimingPoints]
323,352.941176470588,4,2,1,80,1,0
5970,-100,4,2,1,80,0,0
11617,-100,4,3,1,80,0,0
37028,-100,4,2,1,80,0,0
41970,-100,4,3,1,80,0,0
49028,-100,4,3,0,80,0,0
49205,-100,4,3,1,80,0,0
49734,-100,4,3,1,80,0,1
75146,-100,4,3,1,80,0,0
113264,-100,4,3,1,80,0,1
141499,-100,4,2,1,80,0,0
168322,-200,4,2,1,80,0,0
172558,-100,4,3,1,80,0,0
179617,-100,4,3,1,90,0,0
181028,-100,4,3,1,100,0,0
183852,-100,4,3,1,80,0,1
214911,-100,4,3,1,80,0,0

[Colours]
Combo1 : 70,92,214
Combo2 : 99,12,177
Combo3 : 6,19,255
Combo4 : 0,155,148
Combo5 : 179,4,39
Combo6 : 0,96,69

[HitObjects]
383,155,323,5,0,0:0:0:0:
383,155,675,1,0,0:0:0:0:
383,155,1028,1,0,0:0:0:0:
383,245,1205,1,0,0:0:0:0:
293,245,1381,1,0,0:0:0:0:
293,155,1558,2,0,P|285:128|287:75,1,75
383,155,1911,2,0,P|410:147|463:149,1,75
383,245,2264,2,0,P|391:272|389:325,1,75
293,245,2617,2,0,P|266:253|213:251,1,75
142,248,2970,1,0,0:0:0:0:
142,248,3146,5,0,0:0:0:0:
142,248,3499,1,0,0:0:0:0:
142,248,3852,1,0,0:0:0:0:
212,191,4028,1,0,0:0:0:0:
283,246,4205,1,0,0:0:0:0:
141,248,4381,2,0,P|111:268|87:297,1,75
283,246,4734,2,0,P|313:266|337:295,1,75
212,191,5087,2,0,L|212:116,1,75
212,293,5440,2,0,L|212:368,1,75
298,76,5970,5,8,0:0:0:0:
298,76,6322,1,0,0:0:0:0:
298,76,6675,1,8,0:0:0:0:
209,58,6852,1,0,0:0:0:0:
121,76,7028,1,0,0:0:0:0:
72,152,7205,2,0,P|66:201|43:232,1,75,0|8,0:0|0:0,0:0:0:0:
168,140,7558,2,0,L|164:218,1,75
256,140,7911,2,0,L|259:214,1,75,0|8,0:0|0:0,0:0:0:0:
352,152,8264,2,0,P|353:189|371:222,1,75
326,322,8617,1,0,0:0:0:0:
326,322,8793,5,8,0:0:0:0:
326,322,9146,1,0,0:0:0:0:
326,322,9499,1,8,0:0:0:0:
270,251,9675,1,0,0:0:0:0:
280,161,9852,1,0,0:0:0:0:
313,77,10028,2,0,P|349:89|386:94,1,75,0|4,0:0|0:0,0:0:0:0:
436,168,10381,2,0,P|401:180|364:179,1,75,8|4,0:0|0:0,0:0:0:0:
193,204,10734,2,0,P|230:208|267:204,1,75,8|4,0:0|0:0,0:0:0:0:
432,255,11087,2,0,P|392:271|345:262,1,75,8|4,0:0|0:0,0:0:0:0:
248,277,11352,1,4,0:0:0:0:
281,306,11440,1,4,0:0:0:0:
320,327,11528,1,4,0:0:0:0:
360,346,11617,5,4,0:0:0:0:
488,176,11970,1,8,0:0:0:0:
158,82,12322,2,0,P|195:74|231:61,1,75,4|0,0:0|0:0,0:0:0:0:
380,126,12675,2,0,P|344:118|308:105,1,75,8|0,0:0|0:0,0:0:0:0:
133,179,13028,2,0,P|170:171|206:158,1,75,4|0,0:0|0:0,0:0:0:0:
394,223,13381,2,0,P|358:215|322:202,1,75,8|0,0:0|0:0,0:0:0:0:
123,304,13734,2,0,P|159:293|194:277,1,75,4|0,0:0|0:0,0:0:0:0:
406,320,14087,2,0,P|372:305|339:285,1,75,8|0,0:0|0:0,0:0:0:0:
150,218,14440,5,4,0:0:0:0:
402,226,14793,1,8,0:0:0:0:
222,163,15146,2,0,P|263:168|297:163,1,75,4|0,0:0|0:0,0:0:0:0:
332,261,15499,2,0,P|295:252|258:261,1,75,8|0,0:0|0:0,0:0:0:0:
108,198,15852,2,0,P|142:212|172:235,1,75,4|0,0:0|0:0,0:0:0:0:
453,169,16205,2,0,P|418:181|381:186,1,75,8|0,0:0|0:0,0:0:0:0:
141,299,16558,2,4,P|168:324|200:344,1,75,4|0,0:0|0:0,0:0:0:0:
476,277,16911,2,0,P|439:270|404:256,1,75,8|0,0:0|0:0,0:0:0:0:
158,109,17264,5,4,0:0:0:0:
372,79,17617,1,8,0:0:0:0:
82,206,17970,2,0,P|116:191|152:183,1,75,4|0,0:0|0:0,0:0:0:0:
343,145,18322,2,0,P|308:129|272:121,1,75,8|0,0:0|0:0,0:0:0:0:
192,245,18675,2,0,P|228:232|260:213,1,75,4|0,0:0|0:0,0:0:0:0:
399,222,19028,2,0,P|363:234|331:254,1,75,8|0,0:0|0:0,0:0:0:0:
55,296,19381,2,0,L|126:331,1,75,4|0,0:0|0:0,0:0:0:0:
397,296,19734,2,0,L|349:376,1,75,8|0,0:0|0:0,0:0:0:0:
256,192,20087,12,4,22911,1:1:0:0:
360,66,25734,5,0,0:0:0:0:
255,56,25911,1,0,0:0:0:0:
150,66,26087,1,8,0:0:0:0:
44,54,26264,2,0,P|46:91|62:124,1,75,0|4,0:0|0:0,0:0:0:0:
148,188,26617,2,0,P|164:219|162:266,1,75,0|8,0:0|0:0,0:0:0:0:
84,328,26970,1,0,0:0:0:0:
184,356,27146,1,4,0:0:0:0:
248,272,27322,1,0,0:0:0:0:
256,168,27499,2,0,L|260:79,1,75,8|0,0:0|0:0,0:0:0:0:
259,93,27764,1,0,0:0:0:0:
259,93,27852,1,4,0:0:0:0:
348,36,28028,1,0,0:0:0:0:
436,96,28205,2,0,L|448:181,1,75,8|0,0:0|0:0,0:0:0:0:
460,276,28558,5,4,0:0:0:0:
460,276,28734,1,0,0:0:0:0:
358,303,28911,2,0,P|357:342|343:378,1,75,8|0,0:0|0:0,0:0:0:0:
241,354,29264,1,4,0:0:0:0:
208,254,29440,2,0,P|191:220|185:183,1,75,4|8,0:0|0:0,0:0:0:0:
242,94,29793,1,4,0:0:0:0:
324,160,29970,1,4,0:0:0:0:
392,76,30146,1,4,0:0:0:0:
486,121,30322,1,8,0:0:0:0:
403,186,30499,1,4,0:0:0:0:
403,186,30587,1,4,0:0:0:0:
403,186,30675,1,4,0:0:0:0:
307,226,30852,1,8,0:0:0:0:
234,301,31028,1,8,0:0:0:0:
336,336,31205,1,8,0:0:0:0:
424,280,31381,5,4,0:0:0:0:
359,196,31558,1,0,0:0:0:0:
255,210,31734,1,8,0:0:0:0:
157,169,31911,2,0,P|120:165|88:145,1,75,0|4,0:0|0:0,0:0:0:0:
233,79,32264,2,0,P|269:83|301:103,1,75,0|8,0:0|0:0,0:0:0:0:
317,207,32617,1,0,0:0:0:0:
216,237,32793,2,0,P|202:278|200:323,1,75,4|0,0:0|0:0,0:0:0:0:
94,299,33146,1,8,0:0:0:0:
64,198,33322,2,4,P|80:164|91:124,1,75,4|0,0:0|0:0,0:0:0:0:
179,72,33675,2,0,P|215:63|252:60,1,75,0|8,0:0|0:0,0:0:0:0:
381,88,34028,1,0,0:0:0:0:
381,88,34117,1,0,0:0:0:0:
381,88,34205,6,0,L|382:163,1,75,4|0,0:0|0:0,0:0:0:0:
484,184,34558,2,0,L|485:268,1,75,8|0,0:0|0:0,0:0:0:0:
400,320,34911,1,4,0:0:0:0:
311,210,35087,2,0,P|324:251|312:290,1,75,4|8,0:0|0:0,0:0:0:0:
224,92,35440,2,4,P|210:133|223:172,1,75
207,339,35793,1,4,0:0:0:0:
66,182,35970,1,8,0:0:0:0:
266,166,36146,1,8,0:0:0:0:
162,345,36322,1,4,0:0:0:0:
92,140,36499,1,8,0:0:0:0:
282,216,36675,1,8,0:0:0:0:
107,320,36852,1,8,0:0:0:0:
34,208,37028,6,0,P|114:217|190:212,1,150
232,119,37558,1,0,0:0:0:0:
429,207,37734,2,0,P|354:215|280:211,1,150
232,119,38264,1,0,0:0:0:0:
34,30,38440,2,0,P|114:21|190:26,1,150
232,119,38970,1,0,0:0:0:0:
429,31,39146,2,0,P|354:23|280:27,1,150
232,119,39675,1,0,0:0:0:0:
131,309,39852,6,0,P|126:234|134:159,1,150
232,119,40381,1,0,0:0:0:0:
231,220,40558,2,0,L|231:295,1,75
318,160,40911,2,0,P|325:234|321:309,1,150
231,220,41440,1,0,0:0:0:0:
232,119,41617,1,0,0:0:0:0:
233,14,41793,1,0,0:0:0:0:
159,89,41970,1,8,0:0:0:0:
307,91,42146,1,8,0:0:0:0:
159,89,42322,1,8,0:0:0:0:
307,91,42499,1,8,0:0:0:0:
220,150,42675,5,4,0:0:0:0:
116,163,42852,1,0,0:0:0:0:
52,246,43028,1,8,0:0:0:0:
97,340,43205,2,0,P|170:353|243:337,1,150
337,290,43734,1,8,0:0:0:0:
326,100,43911,2,0,P|383:153|416:218,1,150
337,290,44440,1,8,0:0:0:0:
162,216,44617,2,0,P|197:231|234:231,1,75,0|4,0:0|0:0,0:0:0:0:
337,207,44970,2,0,P|362:159|362:138,1,75,0|8,0:0|0:0,0:0:0:0:
285,67,45322,1,0,0:0:0:0:
183,38,45499,6,4,P|145:38|113:57,1,75
96,161,45852,1,4,0:0:0:0:
70,261,46028,1,4,0:0:0:0:
171,234,46205,1,4,0:0:0:0:
81,167,46381,1,4,0:0:0:0:
82,270,46558,1,4,0:0:0:0:
172,218,46734,1,4,0:0:0:0:
242,138,46911,6,4,P|275:122|312:126,1,75
407,171,47264,1,4,0:0:0:0:
447,343,47440,1,4,0:0:0:0:
308,225,47617,1,4,0:0:0:0:
485,245,47793,1,4,0:0:0:0:
325,333,47970,1,4,0:0:0:0:
407,171,48146,1,4,0:0:0:0:
403,66,48322,5,4,0:0:0:0:
306,22,48499,1,4,0:0:0:0:
238,102,48675,1,4,0:0:0:0:
291,192,48852,1,4,0:0:0:0:
205,252,49028,1,12,3:3:0:0:
221,92,49205,1,8,0:0:0:0:
205,84,49293,1,8,0:0:0:0:
190,76,49381,1,8,0:0:0:0:
174,69,49470,1,8,0:0:0:0:
157,62,49558,1,8,0:0:0:0:
140,52,49646,1,8,0:0:0:0:
122,44,49734,5,4,0:0:0:0:
72,137,49911,1,0,0:0:0:0:
53,240,50087,1,8,0:0:0:0:
129,167,50264,1,0,0:0:0:0:
25,180,50440,1,4,0:0:0:0:
117,229,50617,1,0,0:0:0:0:
144,330,50793,2,0,L|216:350,1,75,8|0,0:0|0:0,0:0:0:0:
315,315,51146,2,0,L|387:333,1,75,4|0,0:0|0:0,0:0:0:0:
458,256,51499,1,8,0:0:0:0:
400,167,51675,2,0,P|403:84|364:29,1,150,4|0,0:0|0:0,0:0:0:0:
294,124,52205,1,8,0:0:0:0:
190,111,52381,1,0,0:0:0:0:
124,193,52558,6,0,P|133:228|158:256,1,75,4|0,0:0|0:0,0:0:0:0:
264,236,52911,2,0,P|301:233|335:219,1,75,8|0,0:0|0:0,0:0:0:0:
278,117,53264,1,4,0:0:0:0:
177,109,53440,1,0,0:0:0:0:
124,210,53617,1,8,0:0:0:0:
281,241,53793,1,0,0:0:0:0:
265,116,53970,1,4,0:0:0:0:
167,110,54146,2,0,P|146:74|111:50,2,75,0|8|0,0:0|0:0|0:0,0:0:0:0:
128,224,54675,1,4,0:0:0:0:
196,303,54852,2,0,P|245:313|292:318,1,75,0|8,0:0|0:0,0:0:0:0:
374,328,55205,1,0,0:0:0:0:
446,252,55381,6,0,P|379:221|309:244,1,150,4|8,0:0|0:0,0:0:0:0:
207,215,55911,1,0,0:0:0:0:
91,87,56087,1,4,0:0:0:0:
246,163,56264,1,0,0:0:0:0:
60,145,56440,1,8,0:0:0:0:
227,103,56617,1,0,0:0:0:0:
84,199,56793,2,0,P|48:219|25:243,1,75,4|0,0:0|0:0,0:0:0:0:
180,55,57146,1,8,0:0:0:0:
142,222,57322,2,0,P|187:280|259:281,1,150,4|0,0:0|0:0,0:0:0:0:
342,215,57852,1,8,0:0:0:0:
435,168,58028,1,0,0:0:0:0:
374,82,58205,6,0,P|300:72|232:101,1,150,4|8,0:0|0:0,0:0:0:0:
130,73,58734,1,0,0:0:0:0:
72,161,58911,1,4,0:0:0:0:
172,191,59087,2,0,P|201:235|247:249,2,75,0|8|0,0:0|0:0|0:0,0:0:0:0:
232,101,59617,2,0,P|307:116|372:164,1,150,4|8,0:0|0:0,0:0:0:0:
423,245,60146,1,0,0:0:0:0:
354,324,60322,1,4,0:0:0:0:
392,225,60499,1,12,0:0:0:0:
325,305,60675,1,12,0:0:0:0:
366,208,60852,1,12,0:0:0:0:
291,281,61028,6,0,P|217:291|145:270,1,150,4|8,0:0|0:0,0:0:0:0:
103,173,61558,1,0,0:0:0:0:
148,78,61734,1,4,0:0:0:0:
252,68,61911,1,0,0:0:0:0:
355,83,62087,2,0,P|393:84|431:118,1,75,8|0,0:0|0:0,0:0:0:0:
291,280,62440,2,0,P|338:223|370:155,1,150,4|8,0:0|0:0,0:0:0:0:
305,41,62970,2,0,P|257:98|225:166,1,150,4|0,0:0|0:0,0:0:0:0:
187,265,63499,1,8,0:0:0:0:
291,280,63675,1,0,0:0:0:0:
297,179,63852,6,0,P|259:164|214:171,1,75,4|0,0:0|0:0,0:0:0:0:
115,252,64205,2,0,P|153:267|198:260,1,75,8|0,0:0|0:0,0:0:0:0:
269,121,64558,2,0,P|228:114|186:131,1,75,4|0,0:0|0:0,0:0:0:0:
153,298,64911,2,0,P|193:301|234:282,1,75,8|0,0:0|0:0,0:0:0:0:
106,146,65264,2,0,L|113:239,1,75,4|0,0:0|0:0,0:0:0:0:
305,277,65617,2,0,L|298:184,1,75,8|0,0:0|0:0,0:0:0:0:
215,44,65970,1,0,0:0:0:0:
206,45,66146,1,8,0:0:0:0:
198,45,66322,1,8,0:0:0:0:
189,46,66499,1,8,0:0:0:0:
180,47,66675,6,0,P|130:56|99:69,1,75,4|0,0:0|0:0,0:0:0:0:
250,135,67028,2,0,P|287:130|323:118,1,75,8|0,0:0|0:0,0:0:0:0:
391,38,67381,1,4,0:0:0:0:
484,87,67558,1,0,0:0:0:0:
426,174,67734,2,0,P|435:207|423:256,1,75,8|0,0:0|0:0,0:0:0:0:
325,272,68087,2,0,P|254:292|176:280,1,150,4|8,0:0|0:0,0:0:0:0:
249,201,68617,1,0,0:0:0:0:
326,278,68793,1,4,0:0:0:0:
258,359,68970,1,0,0:0:0:0:
179,281,69146,1,8,0:0:0:0:
249,201,69322,1,0,0:0:0:0:
318,122,69499,6,0,P|384:89|458:87,1,150,4|8,0:0|0:0,0:0:0:0:
316,228,70028,1,0,0:0:0:0:
193,122,70205,2,0,P|127:89|53:87,1,150,4|8,0:0|0:0,0:0:0:0:
196,228,70734,1,8,0:0:0:0:
316,228,70911,2,0,P|358:288|423:325,1,150,4|8,0:0|0:0,0:0:0:0:
318,122,71440,1,0,0:0:0:0:
196,228,71617,2,0,P|153:288|88:325,1,150,4|8,0:0|0:0,0:0:0:0:
194,122,72146,1,8,0:0:0:0:
97,81,72322,5,4,0:0:0:0:
97,81,72499,2,0,P|102:117|118:151,1,75,4|0,0:0|0:0,0:0:0:0:
243,136,72852,1,4,0:0:0:0:
243,136,73028,2,0,P|279:131|313:115,1,75,4|0,0:0|0:0,0:0:0:0:
175,307,73381,1,4,0:0:0:0:
175,307,73558,2,0,P|170:271|154:237,1,75,4|0,0:0|0:0,0:0:0:0:
345,242,73911,1,4,0:0:0:0:
344,242,74087,2,0,P|308:247|274:263,1,75,4|0,0:0|0:0,0:0:0:0:
168,166,74440,1,8,0:0:0:0:
344,166,74617,1,8,0:0:0:0:
256,80,74793,1,8,0:0:0:0:
256,253,74970,1,8,0:0:0:0:
302,98,86440,6,0,P|338:90|375:94,1,75,4|0,0:0|0:0,0:0:0:0:
208,135,86793,2,0,P|171:142|134:138,1,75,8|0,0:0|0:0,0:0:0:0:
375,94,87322,1,4,0:0:0:0:
433,181,87499,1,8,0:0:0:0:
374,267,87675,1,0,0:0:0:0:
315,177,87852,2,0,P|289:153|274:112,1,75,4|0,0:0|0:0,0:0:0:0:
433,181,88205,2,0,P|461:204|475:240,1,75,8|0,0:0|0:0,0:0:0:0:
373,267,88558,2,0,P|339:281|302:283,1,75,4|0,0:0|0:0,0:0:0:0:
433,181,88911,1,8,0:0:0:0:
467,279,89087,1,8,0:0:0:0:
463,297,89175,1,8,0:0:0:0:
457,315,89264,6,0,P|446:351|417:374,1,75,4|0,0:0|0:0,0:0:0:0:
318,337,89617,1,8,0:0:0:0:
213,346,89793,2,0,P|157:306|132:229,1,150
136,128,90322,1,8,0:0:0:0:
220,64,90499,1,0,0:0:0:0:
304,128,90675,2,0,P|286:160|260:187,1,75,4|0,0:0|0:0,0:0:0:0:
136,128,91028,2,0,P|153:95|179:68,1,75,8|0,0:0|0:0,0:0:0:0:
321,60,91381,1,4,0:0:0:0:
260,187,91558,1,0,0:0:0:0:
106,197,91734,1,8,0:0:0:0:
179,68,91911,1,0,0:0:0:0:
280,47,92087,6,0,P|317:37|354:34,1,75,4|0,0:0|0:0,0:0:0:0:
474,113,92440,2,0,P|437:123|400:126,1,75,8|0,0:0|0:0,0:0:0:0:
182,109,92793,1,4,0:0:0:0:
123,198,92970,2,0,P|206:195|270:179,1,150,4|4,0:0|0:0,0:0:0:0:
340,96,93499,1,4,0:0:0:0:
408,176,93675,1,4,0:0:0:0:
408,280,93852,2,0,P|444:274|469:247,1,75,8|8,0:0|0:0,0:0:0:0:
212,248,94205,2,0,P|264:260|284:300,1,75,4|4,0:0|0:0,0:0:0:0:
340,96,94558,2,0,P|331:132|335:169,1,75,8|8,0:0|0:0,0:0:0:0:
231,175,94911,6,0,P|198:158|161:156,2,75,4|0|8,0:0|0:0|0:0,0:0:0:0:
276,275,95440,1,0,0:0:0:0:
416,100,95793,2,0,P|378:99|341:91,1,75,0|8,0:0|0:0,0:0:0:0:
380,191,96146,1,0,0:0:0:0:
416,283,96322,2,0,P|378:282|341:290,1,75,4|0,0:0|0:0,0:0:0:0:
240,264,96675,2,0,P|223:191|237:117,2,150,8|4|8,0:0|0:0|0:0,0:0:0:0:
380,195,97558,1,0,0:0:0:0:
360,92,97734,6,0,P|320:60|284:56,1,75,4|0,0:0|0:0,0:0:0:0:
152,92,98087,2,0,P|192:60|228:56,1,75,8|0,0:0|0:0,0:0:0:0:
256,288,98440,1,4,0:0:0:0:
304,196,98617,1,0,0:0:0:0:
200,196,98793,1,8,0:0:0:0:
97,171,98970,2,0,P|88:246|91:321,1,150
192,300,99499,1,8,0:0:0:0:
304,196,99675,1,8,0:0:0:0:
200,196,99852,1,4,0:0:0:0:
304,300,100028,1,4,0:0:0:0:
304,196,100205,1,12,0:0:0:0:
200,196,100381,1,12,0:0:0:0:
80,304,100558,5,4,0:0:0:0:
80,80,101264,1,4,0:0:0:0:
432,80,101970,1,4,0:0:0:0:
432,304,102675,1,4,0:0:0:0:
80,80,103205,1,0,0:0:0:0:
80,80,103381,1,4,0:0:0:0:
432,80,104087,1,4,0:0:0:0:
256,144,104440,1,4,0:0:0:0:
165,196,104617,1,4,0:0:0:0:
346,196,104793,1,4,0:0:0:0:
165,301,104970,1,4,0:0:0:0:
346,301,105146,1,4,0:0:0:0:
256,354,105322,1,4,0:0:0:0:
256,248,105499,1,4,0:0:0:0:
256,144,105675,1,8,0:0:0:0:
256,128,105764,1,8,0:0:0:0:
256,112,105852,1,8,0:0:0:0:
256,248,106028,1,8,0:0:0:0:
152,224,106205,5,4,0:0:0:0:
68,160,106381,1,0,0:0:0:0:
44,56,106558,1,8,0:0:0:0:
144,32,106734,2,0,P|204:52|288:148,1,150,4|0,0:0|0:0,0:0:0:0:
360,60,107264,1,8,0:0:0:0:
95,79,107440,2,0,P|121:149|173:203,1,150,4|0,0:0|0:0,0:0:0:0:
152,324,107970,1,8,0:0:0:0:
409,263,108146,2,0,P|374:198|316:152,1,150,4|0,0:0|0:0,0:0:0:0:
360,60,108675,1,8,0:0:0:0:
256,64,108852,1,0,0:0:0:0:
200,144,109028,5,4,0:0:0:0:
312,144,109205,1,0,0:0:0:0:
188,156,109381,1,12,0:3:0:0:
324,156,109558,1,0,0:3:0:0:
180,168,109734,1,4,0:3:0:0:
332,168,109911,1,0,0:3:0:0:
172,180,110087,1,12,0:3:0:0:
340,180,110264,1,0,0:3:0:0:
172,192,110440,1,4,0:0:0:0:
340,192,110617,1,0,0:0:0:0:
180,208,110793,1,12,0:0:0:0:
332,208,110970,1,0,0:0:0:0:
188,224,111146,1,4,0:0:0:0:
324,224,111323,1,0,0:0:0:0:
200,240,111499,1,12,0:0:0:0:
312,240,111676,1,0,0:0:0:0:
256,272,111852,5,0,0:0:0:0:
256,64,112028,1,0,0:0:0:0:
256,172,112205,1,0,0:0:0:0:
152,172,112381,1,8,0:0:0:0:
152,172,112470,1,8,0:0:0:0:
152,172,112558,1,8,0:0:0:0:
256,172,112734,1,4,0:0:0:0:
360,172,112911,1,8,0:0:0:0:
464,172,113087,1,4,0:0:0:0:
464,172,113175,1,4,0:0:0:0:
464,172,113264,6,0,P|432:240|352:284,1,150,4|8,0:0|0:0,0:0:0:0:
272,316,113793,1,0,0:0:0:0:
168,308,113970,1,4,0:0:0:0:
80,252,114146,1,0,0:0:0:0:
140,164,114322,2,0,L|210:139,1,75,8|0,0:0|0:0,0:0:0:0:
193,256,114675,2,0,L|264:232,1,75,4|0,0:0|0:0,0:0:0:0:
360,192,115028,1,8,0:0:0:0:
360,88,115205,2,0,L|300:44,1,75,0|4,0:0|0:0,0:0:0:0:
360,296,115558,2,0,L|300:340,1,75,0|8,0:0|0:0,0:0:0:0:
280,192,115911,1,0,0:0:0:0:
192,248,116087,5,4,0:0:0:0:
92,220,116264,1,0,0:0:0:0:
87,116,116440,2,0,P|101:81|130:58,1,75,8|0,0:0|0:0,0:0:0:0:
236,48,116793,1,4,0:0:0:0:
324,108,116970,1,0,0:0:0:0:
323,212,117146,2,0,P|299:239|263:249,1,75,8|0,0:0|0:0,0:0:0:0:
72,140,117499,2,0,L|156:144,1,75,4|0,0:0|0:0,0:0:0:0:
440,140,117852,2,0,L|356:144,1,75,8|0,0:0|0:0,0:0:0:0:
256,112,118205,1,4,0:0:0:0:
256,224,118381,1,4,0:0:0:0:
256,232,118470,1,4,0:0:0:0:
256,240,118558,1,8,0:0:0:0:
256,248,118646,1,8,0:0:0:0:
256,256,118734,1,8,0:0:0:0:
256,264,118822,1,8,0:0:0:0:
256,272,118911,6,0,P|184:293|109:292,1,150,4|8,0:0|0:0,0:0:0:0:
156,192,119440,1,0,0:0:0:0:
256,136,119617,1,4,0:0:0:0:
352,192,119793,2,0,L|424:128,2,75,0|8|0,0:0|0:0|0:0,0:0:0:0:
108,68,120322,1,4,0:0:0:0:
84,180,120499,1,0,0:0:0:0:
187,140,120675,2,0,P|210:110|217:74,1,75,8|0,0:0|0:0,0:0:0:0:
404,68,121028,1,4,0:0:0:0:
428,180,121205,1,0,0:0:0:0:
325,140,121381,2,0,P|302:110|295:74,1,75,8|0,0:0|0:0,0:0:0:0:
168,64,121734,6,0,P|96:108|72:176,1,150,4|8,0:0|0:0,0:0:0:0:
188,180,122264,1,0,0:0:0:0:
268,104,122440,1,4,0:0:0:0:
208,200,122617,1,0,0:0:0:0:
320,220,122793,1,8,0:0:0:0:
212,248,122970,1,0,0:0:0:0:
283,331,123146,2,0,P|353:359|427:353,1,150,4|8,0:0|0:0,0:0:0:0:
452,244,123675,1,0,0:0:0:0:
448,356,123852,1,4,0:0:0:0:
436,244,124028,1,0,0:0:0:0:
468,352,124205,1,8,0:0:0:0:
415,252,124381,1,8,0:0:0:0:
400,264,124470,1,8,0:0:0:0:
388,275,124558,6,0,P|324:308|244:288,1,150,4|8,0:0|0:0,0:0:0:0:
196,180,125087,1,0,0:0:0:0:
264,92,125264,1,4,0:0:0:0:
308,196,125440,1,0,0:0:0:0:
188,176,125617,2,0,P|151:171|121:150,1,75,8|0,0:0|0:0,0:0:0:0:
268,84,125970,2,0,P|342:77|416:90,1,150,4|8,0:0|0:0,0:0:0:0:
316,204,126499,2,0,P|322:240|317:277,1,75,0|4,0:0|0:0,0:0:0:0:
208,308,126852,1,0,0:0:0:0:
104,268,127028,1,8,0:0:0:0:
88,156,127205,1,0,0:0:0:0:
172,83,127381,6,0,P|212:70|249:72,1,75,4|0,0:0|0:0,0:0:0:0:
228,180,127734,1,8,0:0:0:0:
244,71,127911,2,0,P|280:80|309:103,1,75,0|4,0:0|0:0,0:0:0:0:
228,180,128264,1,0,0:0:0:0:
309,103,128440,2,0,P|334:145|338:171,1,75,8|0,0:0|0:0,0:0:0:0:
188,281,128793,2,0,P|151:282|117:268,1,75,4|0,0:0|0:0,0:0:0:0:
324,281,129146,2,0,P|361:282|396:268,1,75,8|0,0:0|0:0,0:0:0:0:
256,192,129499,1,4,0:0:0:0:
308,92,129675,1,0,0:0:0:0:
420,92,129852,1,8,0:0:0:0:
468,192,130028,1,8,0:0:0:0:
464,204,130117,1,8,0:0:0:0:
460,215,130205,6,0,P|417:276|347:297,1,150,4|8,0:0|0:0,0:0:0:0:
262,172,130734,1,0,0:0:0:0:
342,98,130911,1,4,0:0:0:0:
436,160,131087,1,0,0:0:0:0:
356,240,131264,1,8,0:0:0:0:
262,172,131440,1,0,0:0:0:0:
193,100,131617,2,0,L|216:28,1,75,4|0,0:0|0:0,0:0:0:0:
138,165,131970,1,8,0:0:0:0:
138,165,132146,1,0,0:0:0:0:
59,212,132322,2,0,L|36:284,1,75,4|0,0:0|0:0,0:0:0:0:
34,125,132675,1,8,0:0:0:0:
34,125,132852,1,0,0:0:0:0:
260,52,133028,6,0,P|333:40|403:65,1,150,4|8,0:0|0:0,0:0:0:0:
320,196,133558,1,0,0:0:0:0:
196,288,133734,2,0,P|158:310|112:324,1,75,4|0,0:0|0:0,0:0:0:0:
40,268,134087,1,8,0:0:0:0:
196,288,134264,1,0,0:0:0:0:
320,195,134440,2,0,P|385:160|459:159,1,150,4|8,0:0|0:0,0:0:0:0:
256,240,134970,1,0,0:0:0:0:
256,240,135146,2,0,P|208:177|196:108,1,150,4|8,0:0|0:0,0:0:0:0:
320,196,135675,1,0,0:0:0:0:
416,240,135852,6,4,P|424:280|420:320,1,75
232,320,136205,1,0,0:0:0:0:
127,329,136381,2,4,P|128:292|145:258,1,75
248,100,136734,1,0,0:0:0:0:
307,13,136910,2,4,P|334:38|348:72,1,75
428,244,137264,1,0,0:0:0:0:
470,340,137440,2,4,P|434:350|397:345,1,75
220,276,137793,1,0,0:0:0:0:
76,156,137970,1,8,0:0:0:0:
236,60,138146,1,8,0:0:0:0:
108,196,138322,1,8,0:0:0:0:
200,32,138499,1,8,0:0:0:0:
384,72,138675,6,4,P|378:108|354:136,1,75
204,168,139028,1,0,0:0:0:0:
320,316,139205,2,4,P|282:310|245:311,1,75
204,168,139558,1,0,0:0:0:0:
72,300,139734,2,4,P|73:262|63:226,1,75
204,168,140087,1,0,0:0:0:0:
48,60,140264,2,4,P|82:46|119:39,1,75
204,168,140617,1,0,0:0:0:0:
344,232,140793,1,8,0:0:0:0:
168,232,140970,1,8,0:0:0:0:
256,319,141146,1,8,0:0:0:0:
256,146,141323,1,8,0:0:0:0:
224,77,141499,5,4,0:3:0:0:
174,70,141616,1,4,0:3:0:0:
139,106,141734,1,4,0:3:0:0:
149,155,141852,1,4,0:3:0:0:
181,192,141969,1,4,0:3:0:0:
222,219,142087,1,4,0:3:0:0:
288,77,142205,5,8,0:3:0:0:
338,70,142322,1,8,0:3:0:0:
373,106,142440,1,8,0:3:0:0:
363,155,142558,1,8,0:3:0:0:
331,192,142675,1,8,0:3:0:0:
290,219,142793,1,8,0:3:0:0:
256,146,142911,5,4,0:1:0:0:
244,70,168322,6,0,P|303:54|366:56,1,125
395,125,169028,2,0,L|408:253,1,125
351,299,169734,2,0,P|288:289|219:298,1,125
153,280,170440,2,0,L|122:155,1,125
142,86,171146,2,0,P|180:67|274:66,1,137.5
302,89,171852,2,0,L|300:170,1,75
256,192,172440,12,8,173264,0:0:0:0:
168,112,173440,5,8,0:0:0:0:
324,88,173617,1,8,0:0:0:0:
356,244,173793,1,8,0:0:0:0:
368,168,173970,5,8,0:0:0:0:
244,72,174146,1,4,0:0:0:0:
148,200,174322,1,4,0:0:0:0:
295,235,174499,2,0,P|355:277|427:304,1,150,4|4,0:0|0:0,0:0:0:0:
456,88,175028,1,8,0:0:0:0:
240,47,175205,2,4,P|173:80|125:138,1,150
295,235,175734,1,8,0:0:0:0:
408,48,175911,2,0,P|374:31|337:34,1,75,4|0,0:0|0:0,0:0:0:0:
124,138,176264,2,0,P|102:208|109:283,1,150,4|0,0:0|0:0,0:0:0:0:
295,235,176793,5,4,0:0:0:0:
390,174,176970,1,0,0:0:0:0:
277,176,177146,1,8,0:0:0:0:
322,57,177322,1,0,0:0:0:0:
226,142,177499,1,4,0:0:0:0:
181,7,177675,1,0,0:0:0:0:
165,148,177852,1,8,0:0:0:0:
29,68,178028,1,0,0:0:0:0:
132,228,178205,6,0,P|158:253|168:289,1,75
316,284,178558,2,0,P|342:258|351:222,1,75
429,81,178911,2,0,P|456:56|465:20,1,75
200,86,179264,2,0,P|173:111|164:147,1,75
89,292,179617,6,0,P|63:317|54:353,1,75
274,349,179970,2,0,P|248:323|238:287,1,75
240,151,180322,2,0,P|275:160|311:150,1,75
390,17,180675,2,0,P|354:7|318:17,1,75
204,218,181028,6,0,P|239:209|276:218,1,75
201,355,181381,2,0,P|165:365|130:357,1,75
242,22,181734,2,0,P|268:47|278:83,1,75
237,286,182087,2,0,P|247:322|274:349,1,75
389,147,182440,6,0,P|362:121|353:85,1,75
164,77,182793,1,0,0:0:0:0:
79,169,182970,1,0,0:0:0:0:
101,182,183058,1,0,0:0:0:0:
123,197,183146,1,4,0:0:0:0:
195,78,183322,1,4,0:0:0:0:
140,208,183499,1,8,0:0:0:0:
222,77,183675,1,8,0:0:0:0:
326,66,183852,6,0,P|399:86|435:160,1,150,4|8,0:0|0:0,0:0:0:0:
333,172,184381,1,0,0:0:0:0:
276,260,184558,1,4,0:0:0:0:
171,260,184734,1,0,0:0:0:0:
101,182,184910,2,0,L|101:104,1,75,8|0,0:0|0:0,0:0:0:0:
252,30,185263,2,0,L|252:109,1,75,4|0,0:0|0:0,0:0:0:0:
372,193,185616,1,8,0:0:0:0:
442,108,185793,2,0,P|407:97|384:68,1,75,0|4,0:0|0:0,0:0:0:0:
372,193,186146,2,8,P|336:204|313:233,1,75,0|8,0:0|0:0,0:0:0:0:
384,68,186499,1,0,0:0:0:0:
256,52,186675,5,4,0:0:0:0:
178,124,186852,1,0,0:0:0:0:
166,228,187028,2,0,P|152:262|124:287,1,75,8|0,0:0|0:0,0:0:0:0:
256,52,187381,1,4,0:0:0:0:
332,124,187558,1,0,0:0:0:0:
342,228,187734,2,0,P|356:262|385:286,1,75,8|0,0:0|0:0,0:0:0:0:
250,209,188087,2,0,P|213:208|179:222,1,75,4|0,0:0|0:0,0:0:0:0:
256,117,188440,2,0,P|293:118|327:104,1,75,8|0,0:0|0:0,0:0:0:0:
174,112,188793,1,4,0:0:0:0:
123,204,188970,2,4,L|150:235,1,37.5
223,304,189146,2,0,L|248:333,1,37.5,8|8,0:0|0:0,0:0:0:0:
251,227,189322,2,0,L|225:199,1,37.5,8|8,0:0|0:0,0:0:0:0:
325,300,189499,6,0,P|385:341|457:330,1,150,4|8,0:0|0:0,0:0:0:0:
409,235,190028,1,0,0:0:0:0:
320,177,190205,1,4,0:0:0:0:
395,105,190381,2,0,P|428:87|455:60,2,75,0|8|0,0:0|0:0|0:0,0:0:0:0:
197,91,190911,2,0,P|143:142|125:214,1,150,4|8,0:0|0:0,0:0:0:0:
196,90,191440,1,0,0:0:0:0:
315,293,191617,2,0,P|368:241|386:169,1,150,4|8,0:0|0:0,0:0:0:0:
315,293,192146,1,0,0:0:0:0:
101,271,192322,6,0,P|88:197|82:122,1,150,4|8,0:0|0:0,0:0:0:0:
335,222,192852,1,4,0:0:0:0:
195,206,193028,1,4,0:0:0:0:
275,98,193205,1,0,0:0:0:0:
354,264,193381,1,8,0:0:0:0:
143,218,193558,1,0,0:0:0:0:
283,53,193734,2,0,P|348:22|427:31,1,150,12|8,0:0|0:0,0:0:0:0:
471,123,194263,1,0,0:0:0:0:
367,142,194440,1,4,0:0:0:0:
286,209,194617,1,0,0:0:0:0:
185,180,194793,2,0,L|185:223,1,37.5,8|8,0:0|0:0,0:0:0:0:
93,306,194970,2,0,L|93:269,1,37.5,8|8,0:0|0:0,0:0:0:0:
47,173,195146,6,0,P|23:100|61:26,1,150,4|8,0:0|0:0,0:0:0:0:
128,106,195675,1,0,0:0:0:0:
230,81,195852,1,4,0:0:0:0:
299,159,196028,1,0,0:0:0:0:
213,220,196205,2,0,P|167:209|142:187,1,75,8|0,0:0|0:0,0:0:0:0:
299,159,196558,2,0,P|372:172|439:205,1,150,4|8,0:0|0:0,0:0:0:0:
299,159,197087,1,0,0:0:0:0:
237,243,197263,1,4,0:0:0:0:
137,211,197440,1,0,0:0:0:0:
137,106,197616,1,8,0:0:0:0:
237,74,197793,1,0,0:0:0:0:
334,111,197969,6,0,P|374:123|402:147,1,75,4|0,0:0|0:0,0:0:0:0:
269,178,198322,2,0,P|233:167|204:144,1,75,8|0,0:0|0:0,0:0:0:0:
234,43,198675,1,4,0:0:0:0:
334,48,198852,1,0,0:0:0:0:
398,130,199028,2,0,P|447:160|465:186,1,75,8|0,0:0|0:0,0:0:0:0:
339,232,199381,2,0,P|325:266|325:303,1,75,4|0,0:0|0:0,0:0:0:0:
172,152,199734,2,0,P|187:117|186:80,1,75,8|0,0:0|0:0,0:0:0:0:
300,37,200087,1,4,0:0:0:0:
377,131,200263,1,0,0:0:0:0:
342,230,200440,2,0,L|344:278,1,37.5,8|8,0:0|0:0,0:0:0:0:
248,313,200617,2,0,L|247:266,1,37.5,12|4,0:0|0:0,0:0:0:0:
192,217,200793,6,0,P|134:170|118:98,1,150,4|8,0:0|0:0,0:0:0:0:
238,105,201322,1,0,0:0:0:0:
376,206,201499,1,4,0:0:0:0:
323,45,201675,1,0,0:0:0:0:
270,205,201852,1,8,0:0:0:0:
408,106,202028,1,0,0:0:0:0:
327,173,202205,2,0,L|306:271,1,75,4|0,0:0|0:0,0:0:0:0:
110,197,202558,1,8,0:0:0:0:
110,197,202734,1,0,0:0:0:0:
210,166,202911,2,0,L|222:86,1,75,4|0,0:0|0:0,0:0:0:0:
427,142,203264,1,8,0:0:0:0:
427,142,203440,1,0,0:0:0:0:
272,260,203617,6,0,P|199:272|130:244,1,150,4|8,0:0|0:0,0:0:0:0:
272,260,204146,1,0,0:0:0:0:
309,162,204322,2,0,P|334:128|393:126,1,75,4|0,0:0|0:0,0:0:0:0:
464,86,204675,1,8,0:0:0:0:
464,86,204852,1,8,0:0:0:0:
359,270,205028,2,0,P|286:280|226:238,1,150,4|8,0:0|0:0,0:0:0:0:
363,272,205558,1,0,0:0:0:0:
176,130,205734,2,0,P|235:117|311:165,1,150,4|8,0:0|0:0,0:0:0:0:
176,130,206264,1,8,0:0:0:0:
69,60,206440,6,4,L|81:144,1,75
79,134,206793,1,0,0:0:0:0:
158,282,206970,2,4,L|173:208,1,75
173,208,207322,1,0,0:0:0:0:
284,123,207499,2,0,L|295:208,1,75
293,197,207852,1,0,0:0:0:0:
395,270,208028,2,0,L|411:196,1,75
411,196,208381,1,0,0:0:0:0:
393,93,208558,1,12,0:0:0:0:
203,31,208734,1,12,0:0:0:0:
308,31,208911,1,12,0:0:0:0:
118,93,209087,1,12,0:0:0:0:
98,191,209264,5,4,0:0:0:0:
146,283,209440,2,0,L|226:295,1,75,4|0,0:0|0:0,0:0:0:0:
413,192,209793,1,4,0:0:0:0:
366,97,209970,2,0,L|285:86,1,75,4|0,0:0|0:0,0:0:0:0:
207,41,210323,1,4,0:0:0:0:
129,111,210499,2,0,L|113:189,1,75,4|0,0:0|0:0,0:0:0:0:
342,282,210852,1,4,0:0:0:0:
418,210,211028,2,0,L|432:132,1,75,4|0,0:0|0:0,0:0:0:0:
288,122,211381,1,12,0:0:0:0:
224,261,211558,1,12,0:0:0:0:
224,123,211734,1,12,0:0:0:0:
288,262,211911,1,12,0:0:0:0:
341,136,212087,6,4,P|378:134|414:125,1,75
256,192,212440,1,0,0:0:0:0:
165,146,212617,2,4,P|145:114|119:87,1,75
256,192,212970,1,0,0:0:0:0:
346,237,213146,2,4,P|366:269|392:296,1,75
256,192,213499,1,0,0:0:0:0:
170,247,213675,2,4,P|133:249|97:258,1,75
256,192,214028,1,0,0:0:0:0:
168,121,214205,1,12,0:0:0:0:
344,121,214381,1,12,0:0:0:0:
255,67,214557,1,12,0:0:0:0:
256,284,214734,1,12,0:0:0:0:
