osu file format v14

[General]
AudioFilename: audio.mp3
AudioLeadIn: 0
PreviewTime: 14932
Countdown: 0
SampleSet: Soft
StackLeniency: 0.7
Mode: 3
LetterboxInBreaks: 0
SpecialStyle: 0
WidescreenStoryboard: 1

[Editor]
DistanceSpacing: 0.8
BeatDivisor: 4
GridSize: 32
TimelineZoom: 2.699999

[Metadata]
Title:Hanyamaru Manten, Zenitendou. (TV Size)
TitleUnicode:はにゃ○満点、銭天堂。 (TV Size)
Artist:KOCHO
ArtistUnicode:KOCHO
Creator:fvrex
Version:MJH's 5K Meow
Source:ふしぎ駄菓子屋 銭天堂
Tags:japanese jpop pop j-pop ed ending anime Fushigi Dagashiya Zenitendō Zenitendo short ver version xtrippin ucitysm indoroid tigerinity mjh mjhs ilham silentwuffer 坂東邑真 ばんどうゆま udonban yuma bando dagashiya:
BeatmapID:4050726
BeatmapSetID:1792369

[Difficulty]
HPDrainRate:8
CircleSize:5
OverallDifficulty:8
ApproachRate:5
SliderMultiplier:1.4
SliderTickRate:1

[Events]
//Background and Video events
0,0,"5k.jpg",0,0
//Break Periods
//Storyboard Layer 0 (Background)
//Storyboard Layer 1 (Fail)
//Storyboard Layer 2 (Pass)
//Storyboard Layer 3 (Foreground)
//Storyboard Layer 4 (Overlay)
//Storyboard Sound Samples

[TimingPoints]
-5498,430.10752688172,4,2,1,70,1,0
15147,-100,4,2,1,70,0,1
28910,-100,4,2,1,70,0,0
30631,-100,4,2,1,70,0,1
31921,-100,4,2,1,70,0,0

[HitObjects]
153,192,953,5,0,0:0:0:0:
153,192,1168,1,0,0:0:0:0:
256,192,1276,1,0,0:0:0:0:
51,192,1383,1,2,0:0:0:0:
358,192,1383,1,0,0:0:0:0:
460,192,1383,1,0,0:0:0:0:
153,192,1491,1,0,0:0:0:0:
256,192,1598,1,0,0:0:0:0:
460,192,1598,1,0,0:0:0:0:
51,192,1706,1,0,0:0:0:0:
153,192,1813,1,2,0:0:0:0:
460,192,1813,1,0,0:0:0:0:
358,192,1921,1,0,0:0:0:0:
51,192,2028,1,0,0:0:0:0:
256,192,2028,1,0,0:0:0:0:
51,192,2243,1,2,0:0:0:0:
460,192,2243,128,0,2458:0:0:0:0:
153,192,2351,1,0,0:0:0:0:
256,192,2458,1,0,0:0:0:0:
153,192,2674,1,2,0:0:0:0:
460,192,2674,1,0,0:0:0:0:
358,192,2781,1,0,0:0:0:0:
153,192,2889,128,0,2996:0:0:0:0:
256,192,2889,1,0,0:0:0:0:
51,192,3104,1,2,0:0:0:0:
358,192,3104,1,0,0:0:0:0:
153,192,3211,1,0,0:0:0:0:
256,192,3319,1,0,0:0:0:0:
358,192,3319,128,0,3426:0:0:0:0:
51,192,3534,128,2,3749:0:0:0:0:
460,192,3534,1,0,0:0:0:0:
358,192,3641,1,0,0:0:0:0:
256,192,3749,1,0,0:0:0:0:
358,192,3856,1,0,0:0:0:0:
51,192,3964,1,2,0:0:0:0:
460,192,3964,1,0,0:0:0:0:
153,192,4071,1,0,0:0:0:0:
256,192,4179,128,0,4286:0:0:0:0:
460,192,4179,1,0,0:0:0:0:
153,192,4286,1,0,0:0:0:0:
51,192,4394,1,2,0:0:0:0:
460,192,4394,1,0,0:0:0:0:
358,192,4501,1,0,0:0:0:0:
51,192,4609,1,0,0:0:0:0:
256,192,4609,128,0,4717:0:0:0:0:
153,192,4824,1,2,0:0:0:0:
358,192,4824,1,0,0:0:0:0:
460,192,4932,1,0,0:0:0:0:
153,192,5039,1,0,0:0:0:0:
256,192,5147,1,0,0:0:0:0:
358,192,5254,1,2,0:0:0:0:
460,192,5254,1,0,0:0:0:0:
51,192,5362,1,0,0:0:0:0:
256,192,5469,1,0,0:0:0:0:
358,192,5469,1,0,0:0:0:0:
153,192,5684,1,2,0:0:0:0:
256,192,5684,1,0,0:0:0:0:
460,192,5792,1,0,0:0:0:0:
51,192,5899,1,0,0:0:0:0:
153,192,5899,1,0,0:0:0:0:
256,192,6114,1,2,0:0:0:0:
358,192,6114,1,0,0:0:0:0:
51,192,6222,1,0,0:0:0:0:
358,192,6329,128,0,6437:0:0:0:0:
460,192,6329,128,0,6437:0:0:0:0:
153,192,6545,1,2,0:0:0:0:
256,192,6545,1,0,0:0:0:0:
460,192,6652,1,0,0:0:0:0:
51,192,6760,128,0,6867:0:0:0:0:
153,192,6760,128,0,6867:0:0:0:0:
153,192,6975,1,2,0:0:0:0:
358,192,6975,1,0,0:0:0:0:
51,192,7082,1,0,0:0:0:0:
256,192,7190,128,0,7297:0:0:0:0:
358,192,7190,128,0,7297:0:0:0:0:
153,192,7405,1,2,0:0:0:0:
358,192,7405,1,0,0:0:0:0:
460,192,7512,1,0,0:0:0:0:
51,192,7620,128,0,7727:0:0:0:0:
153,192,7620,128,0,7727:0:0:0:0:
256,192,7727,1,0,0:0:0:0:
358,192,7835,1,2,0:0:0:0:
460,192,7835,1,0,0:0:0:0:
51,192,7942,1,0,0:0:0:0:
153,192,8050,128,0,8157:0:0:0:0:
358,192,8050,128,0,8157:0:0:0:0:
256,192,8265,1,2,0:0:0:0:
256,192,8480,128,0,8588:0:0:0:0:
51,192,8695,1,2,0:0:0:0:
460,192,8695,1,0,0:0:0:70:pong.wav
256,192,8731,128,0,9985:0:0:0:0:
153,192,8910,1,0,0:0:0:0:
51,192,9125,1,2,0:0:0:0:
460,192,9125,1,0,0:0:0:0:
358,192,9233,1,0,0:0:0:0:
460,192,9340,1,0,0:0:0:0:
51,192,9555,1,2,0:0:0:0:
358,192,9555,1,0,0:0:0:0:
153,192,9663,1,0,0:0:0:0:
51,192,9770,1,0,0:0:0:0:
153,192,9985,1,2,0:0:0:0:
460,192,9985,1,0,0:0:0:0:
358,192,10093,1,0,0:0:0:0:
256,192,10200,1,0,0:0:0:0:
460,192,10200,1,0,0:0:0:0:
51,192,10415,1,2,0:0:0:0:
460,192,10415,1,0,0:0:0:0:
153,192,10523,1,0,0:0:0:0:
51,192,10631,1,0,0:0:0:0:
358,192,10631,1,0,0:0:0:0:
256,192,10738,1,0,0:0:0:0:
51,192,10846,1,2,0:0:0:0:
460,192,10846,1,0,0:0:0:0:
358,192,10953,1,0,0:0:0:0:
153,192,11061,128,0,11168:0:0:0:0:
460,192,11061,1,0,0:0:0:0:
51,192,11276,1,2,0:0:0:0:
460,192,11276,1,0,0:0:0:0:
153,192,11383,1,0,0:0:0:0:
51,192,11491,1,0,0:0:0:0:
358,192,11491,128,0,11598:0:0:0:0:
51,192,11706,128,2,12028:0:0:0:0:
256,192,11706,1,0,0:0:0:0:
460,192,11921,128,0,12028:0:0:0:0:
51,192,12136,1,2,0:0:0:0:
153,192,12136,128,8,12458:0:0:0:0:
358,192,12136,128,0,12243:0:0:0:0:
256,192,12351,128,0,12458:0:0:0:0:
51,192,12566,128,2,12674:0:0:0:0:
256,192,12566,128,0,12889:0:0:0:0:
460,192,12781,128,0,12996:0:0:0:0:
153,192,12889,128,0,12996:0:0:0:0:
51,192,12996,1,2,0:0:0:0:
256,192,12996,1,8,0:0:0:0:
358,192,12996,128,0,13319:0:0:0:0:
153,192,13211,128,0,13319:0:0:0:0:
51,192,13426,128,2,13641:0:0:0:0:
358,192,13426,1,8,0:0:0:0:
460,192,13426,1,0,0:0:0:0:
153,192,13641,1,2,0:0:0:0:
460,192,13641,1,8,0:0:0:0:
51,192,13856,128,2,14071:0:0:0:0:
153,192,13856,128,8,14071:0:0:0:0:
358,192,13856,1,0,0:0:0:0:
256,192,14071,1,2,0:0:0:0:
460,192,14071,1,8,0:0:0:0:
51,192,14286,128,2,14501:0:0:0:0:
153,192,14286,128,8,14501:0:0:0:0:
256,192,14286,128,0,14501:0:0:0:0:
460,192,14501,1,0,0:0:0:0:
51,192,14717,128,0,15039:0:0:0:0:
153,192,14717,128,0,14824:0:0:0:0:
460,192,14717,128,0,14824:0:0:0:0:
256,192,14824,128,0,14932:0:0:0:0:
358,192,14932,128,0,15039:0:0:0:0:
51,192,15147,1,2,0:0:0:0:
358,192,15147,128,4,17297:0:0:0:0:
153,192,15362,128,8,15684:0:0:0:0:
256,192,15362,1,0,0:0:0:0:
460,192,15362,1,0,0:0:0:0:
51,192,15577,128,2,15684:0:0:0:0:
51,192,15792,1,8,0:0:0:0:
256,192,15792,1,0,0:0:0:0:
460,192,15792,1,0,0:0:0:0:
153,192,16007,1,2,0:0:0:0:
153,192,16222,1,8,0:0:0:0:
256,192,16222,128,0,16545:0:0:0:0:
460,192,16222,1,0,0:0:0:0:
51,192,16437,128,2,16545:0:0:0:0:
51,192,16652,1,8,0:0:0:0:
153,192,16652,1,0,0:0:0:0:
460,192,16652,1,0,0:0:0:0:
256,192,16867,1,2,0:0:0:0:
51,192,17082,1,8,0:0:0:0:
153,192,17082,128,0,17190:0:0:0:0:
51,192,17297,128,2,17727:0:0:0:0:
256,192,17297,128,0,17405:0:0:0:0:
153,192,17512,1,8,0:0:0:0:
358,192,17512,128,0,17620:0:0:0:0:
256,192,17727,128,2,18157:0:0:0:0:
460,192,17727,128,0,17835:0:0:0:0:
153,192,17942,1,8,0:0:0:0:
460,192,17942,128,0,18050:0:0:0:0:
51,192,18050,1,0,0:0:0:0:
153,192,18157,128,2,18588:0:0:0:0:
358,192,18157,128,0,18265:0:0:0:0:
256,192,18372,128,8,18480:0:0:0:0:
460,192,18372,1,0,0:0:0:0:
51,192,18588,128,2,19125:0:0:0:0:
256,192,18588,128,0,18695:0:0:0:0:
153,192,18803,1,8,0:0:0:0:
256,192,18803,1,0,0:0:0:0:
358,192,18803,1,0,0:0:0:0:
460,192,18910,1,0,0:0:0:0:
358,192,19018,128,2,19125:0:0:0:0:
153,192,19233,1,8,0:0:0:0:
358,192,19233,1,0,0:0:0:0:
460,192,19233,1,0,0:0:0:0:
256,192,19340,1,0,0:0:0:0:
153,192,19448,128,2,19555:0:0:0:0:
460,192,19448,128,0,20308:0:0:0:0:
153,192,19663,1,8,0:0:0:0:
256,192,19663,128,0,19985:0:0:0:0:
358,192,19663,1,0,0:0:0:0:
51,192,19878,128,2,19985:0:0:0:0:
51,192,20093,1,8,0:0:0:0:
153,192,20093,128,0,20415:0:0:0:0:
256,192,20093,1,0,0:0:0:0:
256,192,20308,128,2,20415:0:0:0:0:
358,192,20308,128,0,21168:0:0:0:0:
51,192,20523,1,8,0:0:0:0:
153,192,20523,1,0,0:0:0:0:
256,192,20631,1,0,0:0:0:0:
153,192,20738,128,2,20846:0:0:0:0:
460,192,20738,128,0,20846:0:0:0:0:
51,192,20953,1,8,0:0:0:0:
256,192,20953,1,0,0:0:0:0:
51,192,21168,1,2,0:0:0:0:
460,192,21168,1,8,0:0:0:0:
153,192,21276,1,8,0:0:0:0:
358,192,21276,1,0,0:0:0:0:
256,192,21383,1,0,0:0:0:0:
51,192,21491,1,8,0:0:0:0:
358,192,21491,1,0,0:0:0:0:
153,192,21598,128,2,21706:0:0:0:0:
460,192,21598,128,8,21706:0:0:0:0:
51,192,21706,128,8,21813:0:0:0:0:
358,192,21706,128,0,21813:0:0:0:0:
153,192,21813,128,8,21921:0:0:0:0:
256,192,21921,128,8,22028:0:0:0:0:
51,192,22028,128,2,22243:0:0:0:0:
358,192,22028,128,4,22136:0:0:0:0:
460,192,22028,128,0,22136:0:0:0:0:
153,192,22243,1,8,0:0:0:0:
256,192,22243,128,0,22351:0:0:0:0:
460,192,22243,1,0,0:0:0:0:
153,192,22458,1,2,0:0:0:0:
256,192,22458,128,0,22674:0:0:0:0:
51,192,22674,1,8,0:0:0:0:
358,192,22674,1,0,0:0:0:0:
460,192,22674,1,0,0:0:0:0:
256,192,22781,1,0,0:0:0:0:
51,192,22889,128,2,22996:0:0:0:0:
153,192,22889,128,0,22996:0:0:0:0:
460,192,22889,128,0,23104:0:0:0:0:
51,192,23104,1,8,0:0:0:0:
256,192,23104,128,0,23211:0:0:0:0:
358,192,23104,1,0,0:0:0:0:
256,192,23319,128,2,23534:0:0:0:0:
358,192,23319,1,0,0:0:0:0:
51,192,23534,1,8,0:0:0:0:
153,192,23534,1,0,0:0:0:0:
460,192,23534,1,0,0:0:0:0:
51,192,23749,128,2,23856:0:0:0:0:
153,192,23749,128,0,23856:0:0:0:0:
358,192,23749,1,0,0:0:0:0:
51,192,23964,1,8,0:0:0:0:
256,192,23964,128,0,24071:0:0:0:0:
460,192,23964,1,0,0:0:0:0:
153,192,24179,128,2,24286:0:0:0:0:
460,192,24179,1,0,0:0:0:0:
51,192,24394,1,8,0:0:0:0:
153,192,24394,1,0,0:0:0:0:
358,192,24394,128,0,24501:0:0:0:0:
153,192,24609,128,2,24717:0:0:0:0:
256,192,24609,128,0,24717:0:0:0:0:
460,192,24609,128,0,24717:0:0:0:0:
256,192,24824,1,8,0:0:0:0:
358,192,24824,128,0,24932:0:0:0:0:
460,192,24824,1,0,0:0:0:0:
51,192,24932,1,0,0:0:0:0:
153,192,25039,1,2,0:0:0:0:
256,192,25039,128,0,25147:0:0:0:0:
51,192,25254,128,8,25362:0:0:0:0:
256,192,25254,1,0,0:0:0:0:
358,192,25254,1,0,0:0:0:0:
51,192,25469,128,2,25684:0:0:0:0:
153,192,25469,1,0,0:0:0:0:
256,192,25684,1,8,0:0:0:0:
358,192,25684,1,0,0:0:0:0:
460,192,25684,1,0,0:0:0:0:
153,192,25899,128,2,26114:0:0:0:0:
460,192,25899,1,0,0:0:0:0:
51,192,26114,1,8,0:0:0:0:
256,192,26114,1,0,0:0:0:0:
358,192,26114,1,0,0:0:0:0:
51,192,26329,128,2,26652:0:0:0:0:
358,192,26329,128,0,26437:0:0:0:0:
460,192,26329,128,0,26437:0:0:0:0:
153,192,26545,1,8,0:0:0:0:
256,192,26545,128,0,26652:0:0:0:0:
460,192,26545,1,0,0:0:0:0:
153,192,26760,1,2,0:0:0:0:
358,192,26760,128,0,27082:0:0:0:0:
51,192,26975,128,8,27082:0:0:0:0:
256,192,26975,1,0,0:0:0:0:
460,192,26975,1,0,0:0:0:0:
51,192,27190,128,2,27297:0:0:0:0:
256,192,27190,128,0,27297:0:0:0:0:
358,192,27190,128,0,28050:0:0:0:0:
153,192,27405,1,8,0:0:0:0:
256,192,27405,1,0,0:0:0:0:
460,192,27405,1,0,0:0:0:0:
51,192,27620,1,2,0:0:0:0:
51,192,27835,1,8,0:0:0:0:
153,192,27835,1,0,0:0:0:0:
460,192,27835,1,0,0:0:0:0:
256,192,28050,1,2,0:0:0:0:
153,192,28157,1,8,0:0:0:0:
358,192,28157,1,0,0:0:0:0:
51,192,28265,1,8,0:0:0:0:
460,192,28265,1,0,0:0:0:0:
153,192,28372,1,8,0:0:0:0:
358,192,28372,1,0,0:0:0:0:
256,192,28480,128,2,28910:0:0:0:0:
51,192,28910,128,2,29233:0:0:0:0:
358,192,28910,128,4,29125:0:0:0:0:
460,192,28910,1,0,0:0:0:0:
153,192,29340,1,8,0:0:0:0:
358,192,29340,128,0,29555:0:0:0:0:
51,192,29770,1,2,0:0:0:0:
153,192,29770,128,4,29985:0:0:0:0:
460,192,29770,128,0,30093:0:0:0:0:
256,192,29985,128,0,30200:0:0:0:0:
51,192,30200,128,0,30415:0:0:0:0:
460,192,30415,128,0,30631:0:0:0:0:
51,192,30631,1,2,0:0:0:0:
256,192,30631,128,0,31706:0:0:0:0:
358,192,30631,1,0,0:0:0:0:
153,192,30846,1,2,0:0:0:0:
358,192,30846,1,8,0:0:0:0:
153,192,31061,1,2,0:0:0:0:
51,192,31168,1,8,0:0:0:0:
460,192,31168,1,0,0:0:0:0:
358,192,31276,1,10,0:0:0:0:
51,192,31383,1,8,0:0:0:0:
460,192,31383,1,0,0:0:0:0:
153,192,31491,128,2,31706:0:0:0:0:
358,192,31491,128,0,31706:0:0:0:0:
51,192,31921,1,0,0:0:0:70:pong.wav
358,192,31921,1,0,0:0:0:0:
153,192,31957,1,0,0:0:0:0:
460,192,31957,1,0,0:0:0:0:
