osu file format v14

[General]
AudioFilename: audio.mp3
AudioLeadIn: 0
PreviewTime: 14932
Countdown: 0
SampleSet: Soft
StackLeniency: 0.7
Mode: 3
LetterboxInBreaks: 0
SpecialStyle: 0
WidescreenStoryboard: 1

[Editor]
DistanceSpacing: 0.8
BeatDivisor: 4
GridSize: 32
TimelineZoom: 3.099999

[Metadata]
Title:Hanyamaru Manten, Zenitendou. (TV Size)
TitleUnicode:はにゃ○満点、銭天堂。 (TV Size)
Artist:KOCHO
ArtistUnicode:KOCHO
Creator:fvrex
Version:7K Silent's Easy
Source:ふしぎ駄菓子屋 銭天堂
Tags:japanese jpop pop j-pop ed ending anime Fushigi Dagashiya Zenitendō Zenitendo short ver version xtrippin ucitysm indoroid tigerinity mjh mjhs ilham silentwuffer 坂東邑真 ばんどうゆま udonban yuma bando dagashiya:
BeatmapID:3673030
BeatmapSetID:1792369

[Difficulty]
HPDrainRate:6.5
CircleSize:7
OverallDifficulty:6.5
ApproachRate:5
SliderMultiplier:1.4
SliderTickRate:1

[Events]
//Background and Video events
0,0,"7k.jpg",0,0
//Break Periods
//Storyboard Layer 0 (Background)
//Storyboard Layer 1 (Fail)
//Storyboard Layer 2 (Pass)
//Storyboard Layer 3 (Foreground)
//Storyboard Layer 4 (Overlay)
//Storyboard Sound Samples
Sample,8695,0,"pong.wav",70

[TimingPoints]
-5498,430.10752688172,4,2,1,70,1,0
15147,-100.0,4,2,1,70,0,1
28910,-100.0,4,2,1,70,0,0
30631,-100.0,4,2,1,70,0,1
31921,-100.0,4,2,1,70,0,0

[HitObjects]
36,192,1383,1,2,0:0:0:0:
475,192,1383,1,0,0:0:0:0:
329,192,1598,1,0,0:0:0:0:
182,192,1813,1,2,0:0:0:0:
402,192,2243,128,2,2674:0:0:0:0:
109,192,2674,1,2,0:0:0:0:
256,192,2889,128,0,3319:0:0:0:0:
36,192,3319,1,0,0:0:0:0:
329,192,3534,1,2,0:0:0:0:
182,192,3964,1,2,0:0:0:0:
182,192,4394,1,2,0:0:0:0:
402,192,5039,1,0,0:0:0:0:
329,192,5254,1,2,0:0:0:0:
109,192,5684,128,2,6114:0:0:0:0:
329,192,6329,1,0,0:0:0:0:
182,192,6545,1,2,0:0:0:0:
402,192,6760,1,0,0:0:0:0:
109,192,6975,1,2,0:0:0:0:
475,192,7405,1,2,0:0:0:0:
36,192,7620,1,0,0:0:0:0:
256,192,7835,1,2,0:0:0:0:
329,192,8480,1,0,0:0:0:0:
256,192,8695,128,2,9125:0:0:0:0:
475,192,9125,1,2,0:0:0:0:
109,192,9340,1,0,0:0:0:0:
402,192,9770,1,0,0:0:0:0:
36,192,9985,1,2,0:0:0:0:
182,192,10415,1,2,0:0:0:0:
329,192,10846,1,2,0:0:0:0:
109,192,11061,1,0,0:0:0:0:
475,192,11276,1,2,0:0:0:0:
109,192,11706,1,2,0:0:0:0:
402,192,11706,1,0,0:0:0:0:
182,192,11921,1,0,0:0:0:0:
329,192,12136,1,10,0:0:0:0:
182,192,12566,1,2,0:0:0:0:
36,192,12781,1,0,0:0:0:0:
475,192,12996,1,10,0:0:0:0:
36,192,13426,1,2,0:0:0:0:
402,192,13426,1,8,0:0:0:0:
182,192,13641,1,10,0:0:0:0:
329,192,13856,1,10,0:0:0:0:
475,192,14071,1,10,0:0:0:0:
109,192,14286,1,10,0:0:0:0:
256,192,14717,1,0,0:0:0:0:
36,192,15147,1,2,0:0:0:0:
475,192,15147,1,4,0:0:0:0:
109,192,15362,1,8,0:0:0:0:
182,192,15577,1,2,0:0:0:0:
475,192,16007,1,2,0:0:0:0:
402,192,16222,1,8,0:0:0:0:
329,192,16437,1,2,0:0:0:0:
182,192,17082,128,8,17512:0:0:0:0:
329,192,17512,1,8,0:0:0:0:
475,192,17727,1,2,0:0:0:0:
182,192,17942,1,8,0:0:0:0:
36,192,18157,1,2,0:0:0:0:
329,192,18588,128,2,19018:0:0:0:0:
182,192,19018,128,2,19448:0:0:0:0:
329,192,19448,1,2,0:0:0:0:
475,192,19663,1,8,0:0:0:0:
109,192,19878,1,2,0:0:0:0:
256,192,20093,1,8,0:0:0:0:
36,192,20308,128,2,20738:0:0:0:0:
256,192,20738,1,2,0:0:0:0:
475,192,21168,128,10,21598:0:0:0:0:
182,192,21598,1,10,0:0:0:0:
36,192,22028,1,2,0:0:0:0:
475,192,22028,1,4,0:0:0:0:
109,192,22243,1,8,0:0:0:0:
182,192,22458,1,2,0:0:0:0:
475,192,22889,1,2,0:0:0:0:
402,192,23104,1,8,0:0:0:0:
329,192,23319,1,2,0:0:0:0:
182,192,23964,1,8,0:0:0:0:
109,192,24179,1,2,0:0:0:0:
329,192,24394,1,8,0:0:0:0:
402,192,24609,1,2,0:0:0:0:
256,192,25039,1,2,0:0:0:0:
36,192,25469,128,2,25899:0:0:0:0:
475,192,25899,128,2,26329:0:0:0:0:
109,192,26329,1,2,0:0:0:0:
256,192,26545,1,8,0:0:0:0:
402,192,26760,128,2,27190:0:0:0:0:
182,192,27190,128,2,28050:0:0:0:0:
256,192,28050,1,2,0:0:0:0:
109,192,28480,1,2,0:0:0:0:
182,192,28910,1,2,0:0:0:0:
402,192,28910,1,4,0:0:0:0:
36,192,29770,1,2,0:0:0:0:
256,192,29770,1,4,0:0:0:0:
329,192,30631,128,2,31491:0:0:0:0:
182,192,31491,1,2,0:0:0:0:
36,192,31921,1,0,0:0:0:70:pong.wav
475,192,31921,1,0,0:0:0:0:
