osu file format v14

[General]
AudioFilename: audio.mp3
AudioLeadIn: 0
PreviewTime: 14932
Countdown: 0
SampleSet: Soft
StackLeniency: 0.7
Mode: 3
LetterboxInBreaks: 0
SpecialStyle: 0
WidescreenStoryboard: 1

[Editor]
DistanceSpacing: 0.8
BeatDivisor: 4
GridSize: 32
TimelineZoom: 2.3

[Metadata]
Title:Hanyamaru Manten, Zenitendou. (TV Size)
TitleUnicode:はにゃ○満点、銭天堂。 (TV Size)
Artist:KOCHO
ArtistUnicode:KOCHO
Creator:fvrex
Version:6K Easy
Source:ふしぎ駄菓子屋 銭天堂
Tags:japanese jpop pop j-pop ed ending anime Fushigi Dagashiya Zenitendō Zenitendo short ver version xtrippin ucitysm indoroid tigerinity mjh mjhs ilham silentwuffer 坂東邑真 ばんどうゆま udonban yuma bando dagashiya:
BeatmapID:3673026
BeatmapSetID:1792369

[Difficulty]
HPDrainRate:6.5
CircleSize:6
OverallDifficulty:6.5
ApproachRate:5
SliderMultiplier:1.4
SliderTickRate:1

[Events]
//Background and Video events
0,0,"6k.jpg",0,0
//Break Periods
//Storyboard Layer 0 (Background)
//Storyboard Layer 1 (Fail)
//Storyboard Layer 2 (Pass)
//Storyboard Layer 3 (Foreground)
//Storyboard Layer 4 (Overlay)
//Storyboard Sound Samples

[TimingPoints]
-5498,430.10752688172,4,2,1,70,1,0
15147,-100.0,4,2,1,70,0,1
28910,-100.0,4,2,1,70,0,0
30631,-100.0,4,2,1,70,0,1
31921,-100.0,4,2,1,70,0,0

[HitObjects]
213,192,953,1,0,0:0:0:0:
128,192,1383,1,2,0:0:0:0:
384,192,1383,1,0,0:0:0:0:
298,192,1813,1,2,0:0:0:0:
213,192,2028,1,0,0:0:0:0:
42,192,2243,1,2,0:0:0:0:
384,192,2458,1,0,0:0:0:0:
384,192,2889,1,0,0:0:0:0:
128,192,3104,1,2,0:0:0:0:
298,192,3319,1,0,0:0:0:0:
213,192,3534,1,2,0:0:0:0:
469,192,3964,128,2,4394:0:0:0:0:
128,192,4394,128,2,4824:0:0:0:0:
384,192,4824,1,2,0:0:0:0:
213,192,5039,1,0,0:0:0:0:
298,192,5254,1,2,0:0:0:0:
42,192,5684,1,2,0:0:0:0:
384,192,5899,1,0,0:0:0:0:
213,192,6329,1,0,0:0:0:0:
384,192,6545,128,2,6975:0:0:0:0:
128,192,6975,128,2,7405:0:0:0:0:
298,192,7405,128,2,7835:0:0:0:0:
42,192,7835,128,2,8265:0:0:0:0:
384,192,8265,1,2,0:0:0:0:
128,192,8695,1,2,0:0:0:0:
213,192,8695,1,0,0:0:0:70:pong.wav
298,192,9125,1,2,0:0:0:0:
128,192,9340,1,0,0:0:0:0:
384,192,9770,1,0,0:0:0:0:
213,192,9985,1,2,0:0:0:0:
469,192,10200,1,0,0:0:0:0:
128,192,10415,1,2,0:0:0:0:
298,192,10846,128,2,11276:0:0:0:0:
42,192,11276,128,2,11706:0:0:0:0:
384,192,11706,1,2,0:0:0:0:
128,192,12136,1,10,0:0:0:0:
298,192,12351,1,0,0:0:0:0:
213,192,12566,1,2,0:0:0:0:
469,192,12996,1,10,0:0:0:0:
298,192,13211,1,0,0:0:0:0:
128,192,13426,1,10,0:0:0:0:
384,192,13856,1,10,0:0:0:0:
128,192,14286,1,10,0:0:0:0:
298,192,14717,1,0,0:0:0:0:
42,192,15147,1,2,0:0:0:0:
469,192,15147,1,4,0:0:0:0:
213,192,15362,1,8,0:0:0:0:
298,192,15577,1,2,0:0:0:0:
128,192,16007,1,2,0:0:0:0:
213,192,16222,1,8,0:0:0:0:
384,192,16437,1,2,0:0:0:0:
42,192,16867,1,2,0:0:0:0:
298,192,17082,1,8,0:0:0:0:
384,192,17297,1,2,0:0:0:0:
128,192,17727,1,2,0:0:0:0:
213,192,17942,1,8,0:0:0:0:
384,192,18157,1,2,0:0:0:0:
298,192,18372,1,8,0:0:0:0:
42,192,18588,1,2,0:0:0:0:
42,192,19018,1,2,0:0:0:0:
384,192,19448,1,2,0:0:0:0:
384,192,19878,1,2,0:0:0:0:
213,192,20093,1,8,0:0:0:0:
128,192,20308,128,2,20738:0:0:0:0:
469,192,20738,128,2,21168:0:0:0:0:
42,192,21168,1,10,0:0:0:0:
298,192,21598,1,10,0:0:0:0:
213,192,21813,1,8,0:0:0:0:
128,192,22028,1,2,0:0:0:0:
384,192,22028,1,4,0:0:0:0:
469,192,22243,1,8,0:0:0:0:
213,192,22458,1,2,0:0:0:0:
384,192,22889,1,2,0:0:0:0:
128,192,23104,1,8,0:0:0:0:
298,192,23319,1,2,0:0:0:0:
42,192,23749,1,2,0:0:0:0:
469,192,23749,1,0,0:0:0:0:
213,192,23964,1,8,0:0:0:0:
384,192,24179,1,2,0:0:0:0:
128,192,24609,1,2,0:0:0:0:
298,192,24824,1,8,0:0:0:0:
213,192,25039,1,2,0:0:0:0:
469,192,25254,1,8,0:0:0:0:
42,192,25469,128,2,25899:0:0:0:0:
213,192,25899,1,2,0:0:0:0:
384,192,26329,128,2,26760:0:0:0:0:
42,192,26760,1,2,0:0:0:0:
213,192,26975,1,8,0:0:0:0:
469,192,27190,1,2,0:0:0:0:
469,192,27620,1,2,0:0:0:0:
213,192,28050,1,2,0:0:0:0:
298,192,28265,1,8,0:0:0:0:
128,192,28480,1,2,0:0:0:0:
42,192,28910,1,2,0:0:0:0:
384,192,28910,1,4,0:0:0:0:
298,192,29340,1,8,0:0:0:0:
128,192,29770,1,2,0:0:0:0:
213,192,29770,1,4,0:0:0:0:
298,192,30631,1,2,0:0:0:0:
298,192,31061,1,2,0:0:0:0:
42,192,31276,1,10,0:0:0:0:
213,192,31491,1,2,0:0:0:0:
128,192,31921,1,0,0:0:0:70:pong.wav
384,192,31921,1,0,0:0:0:0:
