osu file format v14

[General]
AudioFilename: audio.mp3
AudioLeadIn: 0
PreviewTime: 14932
Countdown: 0
SampleSet: Soft
StackLeniency: 0.7
Mode: 3
LetterboxInBreaks: 0
SpecialStyle: 0
WidescreenStoryboard: 1

[Editor]
DistanceSpacing: 0.8
BeatDivisor: 4
GridSize: 32
TimelineZoom: 1.9

[Metadata]
Title:Hanyamaru Manten, Zenitendou. (TV Size)
TitleUnicode:はにゃ○満点、銭天堂。 (TV Size)
Artist:KOCHO
ArtistUnicode:KOCHO
Creator:fvrex
Version:4K Easy
Source:ふしぎ駄菓子屋 銭天堂
Tags:japanese jpop pop j-pop ed ending anime Fushigi Dagashiya Zenitendō Zenitendo short ver version xtrippin ucitysm indoroid tigerinity mjh mjhs ilham silentwuffer 坂東邑真 ばんどうゆま udonban yuma bando dagashiya:
BeatmapID:3673018
BeatmapSetID:1792369

[Difficulty]
HPDrainRate:6.5
CircleSize:4
OverallDifficulty:6.5
ApproachRate:5
SliderMultiplier:1.4
SliderTickRate:1

[Events]
//Background and Video events
0,0,"4k.jpg",0,0
//Break Periods
//Storyboard Layer 0 (Background)
//Storyboard Layer 1 (Fail)
//Storyboard Layer 2 (Pass)
//Storyboard Layer 3 (Foreground)
//Storyboard Layer 4 (Overlay)
//Storyboard Sound Samples
Sample,8695,0,"pong.wav",70

[TimingPoints]
-5498,430.10752688172,4,2,1,70,1,0
15147,-100.0,4,2,1,70,0,1
28910,-100.0,4,2,1,70,0,0
30631,-100.0,4,2,1,70,0,1
31921,-100.0,4,2,1,70,0,0

[HitObjects]
320,192,953,1,0,0:0:0:0:
64,192,1383,1,2,0:0:0:0:
448,192,1383,1,0,0:0:0:0:
192,192,1813,1,2,0:0:0:0:
320,192,2243,1,2,0:0:0:0:
192,192,2458,1,0,0:0:0:0:
448,192,2889,1,0,0:0:0:0:
64,192,3319,1,0,0:0:0:0:
192,192,3534,1,2,0:0:0:0:
320,192,3964,128,2,4394:0:0:0:0:
192,192,4394,128,2,4824:0:0:0:0:
448,192,4824,1,2,0:0:0:0:
64,192,5254,1,2,0:0:0:0:
320,192,5684,1,2,0:0:0:0:
192,192,5899,1,0,0:0:0:0:
448,192,6329,1,0,0:0:0:0:
64,192,6545,128,2,6975:0:0:0:0:
320,192,6975,128,2,7405:0:0:0:0:
192,192,7405,128,2,7835:0:0:0:0:
448,192,7835,128,2,8265:0:0:0:0:
64,192,8265,1,2,0:0:0:0:
320,192,8695,1,2,0:0:0:0:
192,192,9125,1,2,0:0:0:0:
448,192,9340,1,0,0:0:0:0:
64,192,9770,1,0,0:0:0:0:
320,192,9985,1,2,0:0:0:0:
192,192,10200,1,0,0:0:0:0:
448,192,10415,1,2,0:0:0:0:
64,192,10846,128,2,11276:0:0:0:0:
448,192,11276,1,2,0:0:0:0:
320,192,11491,1,0,0:0:0:0:
192,192,11706,128,2,12136:0:0:0:0:
448,192,12136,1,10,0:0:0:0:
320,192,12566,128,2,12996:0:0:0:0:
64,192,12996,1,10,0:0:0:0:
192,192,13426,1,10,0:0:0:0:
192,192,13641,1,10,0:0:0:0:
320,192,13856,1,10,0:0:0:0:
320,192,14071,1,10,0:0:0:0:
64,192,14286,1,10,0:0:0:0:
320,192,14717,1,0,0:0:0:0:
64,192,15147,1,2,0:0:0:0:
448,192,15147,1,4,0:0:0:0:
320,192,15362,1,8,0:0:0:0:
192,192,15577,1,2,0:0:0:0:
448,192,16007,1,2,0:0:0:0:
64,192,16222,1,8,0:0:0:0:
192,192,16437,1,2,0:0:0:0:
320,192,17082,1,8,0:0:0:0:
192,192,17297,1,2,0:0:0:0:
448,192,17512,1,8,0:0:0:0:
64,192,17727,1,2,0:0:0:0:
448,192,18157,1,2,0:0:0:0:
64,192,18588,1,2,0:0:0:0:
64,192,18803,1,8,0:0:0:0:
448,192,19018,1,2,0:0:0:0:
448,192,19233,1,8,0:0:0:0:
192,192,19448,1,2,0:0:0:0:
64,192,19878,1,2,0:0:0:0:
192,192,20093,1,8,0:0:0:0:
448,192,20308,128,2,20738:0:0:0:0:
192,192,20738,128,2,21168:0:0:0:0:
320,192,21168,1,10,0:0:0:0:
448,192,21598,1,10,0:0:0:0:
64,192,21813,1,8,0:0:0:0:
320,192,22028,1,2,0:0:0:0:
448,192,22028,1,4,0:0:0:0:
192,192,22243,1,8,0:0:0:0:
320,192,22458,1,2,0:0:0:0:
64,192,22889,1,2,0:0:0:0:
448,192,23104,1,8,0:0:0:0:
192,192,23319,1,2,0:0:0:0:
320,192,23964,1,8,0:0:0:0:
192,192,24179,1,2,0:0:0:0:
448,192,24394,1,8,0:0:0:0:
64,192,24609,1,2,0:0:0:0:
192,192,25039,1,2,0:0:0:0:
448,192,25254,1,8,0:0:0:0:
64,192,25469,128,2,25899:0:0:0:0:
320,192,25899,128,2,26329:0:0:0:0:
192,192,26329,128,2,26760:0:0:0:0:
448,192,26760,1,2,0:0:0:0:
320,192,27190,1,2,0:0:0:0:
320,192,27405,1,8,0:0:0:0:
64,192,27620,1,2,0:0:0:0:
64,192,27835,1,8,0:0:0:0:
448,192,28050,1,2,0:0:0:0:
192,192,28480,1,2,0:0:0:0:
320,192,28910,1,2,0:0:0:0:
448,192,28910,1,4,0:0:0:0:
64,192,29770,1,2,0:0:0:0:
192,192,29770,1,4,0:0:0:0:
64,192,30631,1,2,0:0:0:0:
64,192,30846,1,10,0:0:0:0:
320,192,31061,1,2,0:0:0:0:
320,192,31276,1,10,0:0:0:0:
192,192,31491,1,2,0:0:0:0:
64,192,31921,1,0,0:0:0:70:pong.wav
448,192,31921,1,0,0:0:0:0:
