osu file format v14

[General]
AudioFilename: audio.mp3
AudioLeadIn: 0
PreviewTime: 14922
Countdown: 0
SampleSet: Soft
StackLeniency: 0.3
Mode: 0
LetterboxInBreaks: 0
WidescreenStoryboard: 1

[Editor]
Bookmarks: 15137
DistanceSpacing: 0.8
BeatDivisor: 4
GridSize: 32
TimelineZoom: 2.7

[Metadata]
Title:Hanyamaru Manten, Zenitendou. (TV Size)
TitleUnicode:はにゃ○満点、銭天堂。 (TV Size)
Artist:KOCHO
ArtistUnicode:KOCHO
Creator:Xahlt
Version:Insane
Source:ふしぎ駄菓子屋 銭天堂
Tags:japanese jpop j pop j-pop ed ending anime Fushigi Dagashiya Zenitendō Zenitendo Zenitendou edit cut version Kuon-
BeatmapID:3393400
BeatmapSetID:1662256

[Difficulty]
HPDrainRate:5.3
CircleSize:4.3
OverallDifficulty:8.5
ApproachRate:9.2
SliderMultiplier:2.6
SliderTickRate:1

[Events]
//Background and Video events
0,0,"aqua.jpg",0,0
//Break Periods
//Storyboard Layer 0 (Background)
//Storyboard Layer 1 (Fail)
//Storyboard Layer 2 (Pass)
//Storyboard Layer 3 (Foreground)
//Storyboard Layer 4 (Overlay)
//Storyboard Sound Samples

[TimingPoints]
-5508,430.10752688172,4,2,2,50,1,0
943,-100,4,2,2,50,0,0
1373,-166.666666666667,4,2,2,50,0,0
1481,-166.666666666667,4,2,1,50,0,0
11696,-166.666666666667,4,2,1,60,0,0
13416,-166.666666666667,4,2,1,70,0,0
14707,-71.4285714285715,4,2,1,70,0,0
15137,-100,4,2,1,80,0,1
15567,-62.5,4,2,1,80,0,1
15997,-100,4,2,1,80,0,1
16427,-62.5,4,2,1,80,0,1
17072,-100,4,2,1,80,0,1
20298,-62.5,4,2,1,80,0,1
20728,-50,4,2,1,80,0,1
21373,-100,4,2,1,80,0,1
22448,-62.5,4,2,1,80,0,1
22879,-100,4,2,1,80,0,1
23309,-55.5555555555556,4,2,1,80,0,1
23954,-100,4,2,1,80,0,1
28900,-166.666666666667,4,2,1,70,0,0
30621,-100,4,2,1,80,0,1
30836,-83.3333333333333,4,2,1,80,0,1
31051,-71.4285714285714,4,2,1,80,0,1
31911,-55.5555555555556,4,2,1,80,0,0

[Colours]
Combo1 : 137,207,240
Combo2 : 253,193,223

[HitObjects]
38,43,943,5,2,2:1:0:0:
151,113,1158,5,2,2:1:0:0:
146,101,1266,1,2,2:1:0:0:
142,90,1373,1,2,3:1:0:0:
53,203,1588,6,0,P|28:208|1:216,2,38.9999988098145,2|2|2,0:0|0:0|3:2,0:0:0:0:
185,251,2018,1,2,0:0:0:0:
273,141,2233,2,0,P|261:104|248:55,1,77.999997619629,2|2,3:2|0:0,0:0:0:0:
341,0,2664,1,0,3:2:0:0:
457,78,2879,6,0,P|419:88|365:105,1,77.999997619629,2|0,0:0|3:2,0:0:0:0:
381,99,3309,1,2,0:0:0:0:
490,162,3524,2,0,P|452:172|398:189,1,77.999997619629,2|2,3:2|0:0,0:0:0:0:
350,226,3846,1,2,0:0:0:0:
335,218,3954,5,2,3:2:0:0:
235,164,4169,1,2,0:0:0:0:
142,252,4384,1,2,3:2:0:0:
44,206,4599,2,0,P|82:216|136:233,1,77.999997619629,2|0,0:0|3:2,0:0:0:0:
223,339,5029,6,0,P|218:363|211:404,2,38.9999988098145,2|2|2,0:0|0:0|3:2,0:0:0:0:
309,228,5459,1,2,0:0:0:0:
199,140,5674,1,2,3:2:0:0:
283,28,5889,2,0,P|323:36|384:48,1,77.999997619629,2|0,0:0|3:2,0:0:0:0:
480,69,6319,1,2,0:0:0:0:
398,184,6535,6,0,P|367:159|363:111,1,77.999997619629,2|2,3:2|0:0,0:0:0:0:
481,230,6965,2,0,P|472:269|460:325,1,77.999997619629,2|2,3:2|0:0,0:0:0:0:
354,370,7395,1,2,3:2:0:0:
239,279,7610,5,2,0:0:0:0:
268,282,7717,1,2,0:0:0:0:
292,298,7825,1,2,3:2:0:0:
168,360,8040,2,0,P|129:350|68:337,1,77.999997619629,2|0,0:0|3:2,0:0:0:0:
38,232,8470,6,0,P|14:236|-21:245,2,38.9999988098145,2|2|2,0:0|0:0|3:2,0:0:0:0:
135,131,8900,1,2,0:0:0:0:
253,206,9115,1,2,3:2:0:0:
370,129,9330,2,0,P|361:92|350:31,1,77.999997619629,2|0,0:0|3:2,0:0:0:0:
492,150,9760,1,2,0:0:0:0:
417,254,9975,6,0,P|377:247|314:241,1,77.999997619629,2|2,3:2|0:0,0:0:0:0:
219,362,10405,2,0,P|228:325|239:264,1,77.999997619629,2|2,3:2|0:2,0:0:0:0:
198,218,10728,1,2,0:0:0:0:
207,205,10836,5,2,3:2:0:0:
317,118,11051,1,2,0:0:0:0:
224,12,11266,1,2,3:2:0:0:
103,83,11481,2,0,P|142:89|204:102,1,77.999997619629,2|2,0:0|3:2,0:0:0:0:
306,210,11911,5,2,0:0:0:0:
457,120,12126,1,10,0:0:0:0:
512,184,12341,1,2,0:0:0:0:
326,137,12556,1,0,3:2:0:0:
237,261,12771,5,2,0:0:0:0:
244,274,12879,1,2,0:0:0:0:
249,286,12986,1,10,0:0:0:0:
128,363,13201,1,0,0:0:0:0:
22,236,13416,5,10,0:0:0:0:
222,169,13631,1,8,0:0:0:0:
0,86,13846,5,8,0:0:0:0:
241,249,14061,1,8,0:0:0:0:
107,15,14276,5,8,0:0:0:0:
161,110,14491,1,2,2:1:0:0:
43,244,14707,6,0,P|28:238|7:233,9,30.3333324076335,10|0|0|0|0|0|0|0|0|0,0:0|0:0|0:0|0:0|0:0|0:0|0:0|0:0|0:0|0:0,0:0:0:0:
0,228,15137,6,0,P|1:200|36:161,1,65,6|0,3:2|0:0,0:0:0:0:
248,96,15352,2,0,P|223:109|171:98,1,65,10|0,0:0|0:0,0:0:0:0:
59,16,15567,2,0,P|92:114|123:213,1,208,2|8,3:2|0:0,0:0:0:0:
303,212,15889,5,0,3:2:0:0:
295,216,15997,2,0,P|263:208|231:203,1,65,2|0,3:2|0:0,0:0:0:0:
421,356,16212,2,0,P|453:361|485:369,1,65,10|0,0:0|0:0,0:0:0:0:
318,373,16427,2,0,B|290:318|337:262|380:308|425:238|359:148,1,208,2|8,3:2|0:0,0:0:0:0:
465,81,16750,5,0,3:2:0:0:
457,71,16857,1,0,3:2:0:0:
29,165,17072,6,0,P|60:158|92:151,1,65,10|0,0:0|0:0,0:0:0:0:
263,20,17287,2,0,P|252:50|242:81,1,65,2|0,3:2|0:0,0:0:0:0:
248,297,17502,2,0,P|226:272|204:248,1,65,10|0,0:0|0:0,0:0:0:0:
87,9,17717,6,0,P|108:33|130:57,1,65,2|0,3:2|0:0,0:0:0:0:
370,176,17932,2,0,P|338:182|306:189,1,65,10|0,0:0|0:0,0:0:0:0:
72,319,18147,2,0,P|82:288|92:257,1,65,2|0,3:2|0:0,0:0:0:0:
193,160,18362,1,10,0:0:0:0:
410,366,18578,6,0,P|442:360|485:355,1,65,2|0,3:2|0:0,0:0:0:0:
304,257,18793,5,10,0:0:0:0:
302,268,18900,1,2,0:0:0:0:
299,280,19008,2,0,P|266:284|234:290,1,65,2|0,3:2|0:0,0:0:0:0:
379,144,19223,5,10,0:0:0:0:
381,155,19330,1,2,0:0:0:0:
383,165,19438,2,0,P|414:159|447:155,1,65,2|0,3:2|0:0,0:0:0:0:
286,67,19653,6,0,P|296:36|309:6,1,65,10|0,0:0|0:0,0:0:0:0:
139,72,19868,6,0,P|117:47|98:21,1,65,2|0,3:2|0:0,0:0:0:0:
76,202,20083,6,0,P|44:207|11:211,1,65,10|0,0:0|0:0,0:0:0:0:
277,351,20298,6,0,B|294:296|243:256|204:300|148:238|195:149,1,208,2|8,3:2|0:0,0:0:0:0:
199,375,20621,5,0,3:2:0:0:
190,368,20728,2,0,B|162:313|209:247|262:288|301:217|243:130,1,260,2|8,3:2|0:0,0:0:0:0:
67,39,21051,5,0,3:2:0:0:
93,5,21158,1,2,3:2:0:0:
143,1,21266,1,0,3:2:0:0:
183,34,21373,2,0,P|176:68|165:119,1,65,0|0,3:2|3:2,0:0:0:0:
320,342,21588,5,10,0:0:0:0:
393,384,21696,5,8,0:0:0:0:
462,336,21803,5,8,0:0:0:0:
466,251,21911,5,8,0:0:0:0:
392,210,22018,6,0,P|364:216|317:192,1,65,6|0,3:2|0:0,0:0:0:0:
109,112,22233,2,0,P|136:96|169:97,1,65,10|0,0:0|0:0,0:0:0:0:
278,0,22448,2,0,P|258:102|238:216,1,208,2|8,3:2|0:0,0:0:0:0:
73,337,22771,5,0,3:2:0:0:
63,341,22879,2,0,P|29:333|-24:324,1,65,2|0,3:2|0:0,0:0:0:0:
261,280,23094,2,0,P|292:286|324:293,1,65,10|0,0:0|0:0,0:0:0:0:
181,384,23309,2,0,B|209:329|162:263|121:313|70:233|124:149,1,233.999992858887,2|8,3:2|0:0,0:0:0:0:
32,56,23631,5,0,3:2:0:0:
40,46,23738,1,0,3:2:0:0:
474,163,23954,6,0,P|448:187|388:181,1,65,10|0,0:0|0:0,0:0:0:0:
230,89,24169,2,0,P|263:99|288:154,1,65,2|0,3:2|0:0,0:0:0:0:
278,336,24384,2,0,P|270:301|305:252,1,65,10|0,0:0|0:0,0:0:0:0:
381,26,24599,6,0,P|388:60|353:109,1,65,2|0,3:2|0:0,0:0:0:0:
147,222,24814,1,10,0:0:0:0:
153,227,24922,1,2,0:0:0:0:
159,233,25029,2,0,P|185:209|245:215,1,65,2|0,3:2|0:0,0:0:0:0:
450,327,25244,2,0,P|416:316|391:261,1,65,10|0,0:0|0:0,0:0:0:0:
277,0,25459,6,0,P|212:18|126:34,1,130,2|8,3:2|0:0,0:0:0:0:
6,161,25782,1,0,3:2:0:0:
19,169,25889,2,0,P|84:151|170:135,1,130,2|8,3:2|0:0,0:0:0:0:
23,1,26212,1,0,3:2:0:0:
36,7,26319,6,0,P|45:40|57:79,1,65,2|0,3:2|0:0,0:0:0:0:
284,174,26535,6,0,P|274:140|263:102,1,65,10|0,0:0|0:0,0:0:0:0:
79,294,26750,6,0,P|112:284|151:273,1,65,2|0,3:2|0:0,0:0:0:0:
370,350,26965,6,0,P|338:358|307:368,1,65,10|0,0:0|0:0,0:0:0:0:
358,59,27180,6,0,P|376:124|392:210,1,130,2|10,3:2|0:0,0:0:0:0:
497,248,27502,1,2,3:2:0:0:
502,238,27610,2,0,P|484:173|468:87,1,130,2|10,3:2|0:0,0:0:0:0:
178,6,28040,5,10,3:2:0:0:
101,18,28147,1,10,0:0:0:0:
72,90,28255,1,10,0:0:0:0:
116,153,28362,1,10,0:0:0:0:
194,157,28470,1,10,3:2:0:0:
204,149,28685,1,2,0:0:0:0:
215,141,28900,6,0,P|138:158|66:187,1,155.999995239258,6|10,3:2|0:0,0:0:0:0:
244,221,29760,2,0,P|167:237|95:266,1,155.999995239258,6|2,3:2|0:0,0:0:0:0:
451,370,30621,6,0,P|439:341|414:281,1,65,2|0,3:2|0:0,0:0:0:0:
336,105,30836,2,0,P|321:68|306:32,1,77.999997619629,10|0,0:0|0:0,0:0:0:0:
462,156,31051,5,10,0:2:0:0:
410,206,31158,1,8,0:0:0:0:
337,217,31266,1,10,0:0:0:0:
265,202,31373,1,8,0:0:0:0:
210,152,31481,1,10,3:2:0:0:
217,144,31911,5,2,2:1:0:0:
