osu file format v14

[General]
AudioFilename: audio.mp3
AudioLeadIn: 0
PreviewTime: 14922
Countdown: 0
SampleSet: Soft
StackLeniency: 0.3
Mode: 0
LetterboxInBreaks: 0
WidescreenStoryboard: 1

[Editor]
Bookmarks: 15137
DistanceSpacing: 1.3
BeatDivisor: 4
GridSize: 32
TimelineZoom: 1

[Metadata]
Title:Hanyamaru Manten, Zenitendou. (TV Size)
TitleUnicode:はにゃ○満点、銭天堂。 (TV Size)
Artist:KOCHO
ArtistUnicode:KOCHO
Creator:Xahlt
Version:Hard
Source:ふしぎ駄菓子屋 銭天堂
Tags:japanese jpop j pop j-pop ed ending anime Fushigi Dagashiya Zenitendō Zenitendo Zenitendou edit cut version Kuon-
BeatmapID:3393469
BeatmapSetID:1662256

[Difficulty]
HPDrainRate:4.7
CircleSize:3.8
OverallDifficulty:6
ApproachRate:8
SliderMultiplier:1.8
SliderTickRate:1

[Events]
//Background and Video events
0,0,"aqua.jpg",0,0
//Break Periods
//Storyboard Layer 0 (Background)
//Storyboard Layer 1 (Fail)
//Storyboard Layer 2 (Pass)
//Storyboard Layer 3 (Foreground)
//Storyboard Layer 4 (Overlay)
//Storyboard Sound Samples

[TimingPoints]
-5508,430.10752688172,4,2,2,50,1,0
1373,-111.111111111111,4,2,2,50,0,0
11696,-99.9999999999999,4,2,1,60,0,0
13416,-99.9999999999999,4,2,1,70,0,0
15137,-90.9090909090909,4,2,1,80,0,1
28900,-125,4,2,1,70,0,0
30621,-90.9090909090909,4,2,1,80,0,1
31481,-90.9090909090909,4,2,1,80,0,0

[Colours]
Combo1 : 137,207,240
Combo2 : 253,193,223

[HitObjects]
64,102,1373,5,2,3:2:0:0:
135,179,1588,2,0,P|131:198|128:218,2,40.4999987640381,2|2|2,0:0|0:0|3:2,0:0:0:0:
224,121,2018,1,2,0:0:0:0:
224,121,2233,2,0,P|263:113|312:103,1,80.9999975280763,2|2,3:2|0:0,0:0:0:0:
383,36,2664,1,0,3:2:0:0:
472,92,2879,6,0,P|522:152|509:229,1,161.999995056153,2|2,0:0|0:0,0:0:0:0:
434,304,3524,1,2,3:2:0:0:
338,258,3739,2,0,P|333:238|324:205,2,40.4999987640381,2|2|2,0:0|0:0|3:2,0:0:0:0:
264,333,4169,1,2,0:0:0:0:
184,272,4384,1,2,3:2:0:0:
184,272,4599,2,0,P|187:233|192:169,1,80.9999975280763,2|0,0:0|3:2,0:0:0:0:
282,140,5029,6,0,P|304:138|337:134,2,40.4999987640381,2|2|2,0:0|0:0|3:2,0:0:0:0:
234,46,5459,1,2,0:0:0:0:
136,21,5674,1,2,3:2:0:0:
136,21,5889,2,0,P|95:27|43:33,1,80.9999975280763,2|0,0:0|3:2,0:0:0:0:
6,124,6319,1,2,0:0:0:0:
93,183,6535,6,0,P|102:223|112:272,1,80.9999975280763,2|2,3:2|0:0,0:0:0:0:
103,367,6965,2,0,P|143:358|192:348,1,80.9999975280763,2|2,3:2|0:0,0:0:0:0:
287,356,7395,2,0,P|278:316|268:267,1,80.9999975280763,2|2,3:2|0:0,0:0:0:0:
274,264,7717,1,2,0:0:0:0:
279,251,7825,1,2,3:2:0:0:
314,151,8040,2,0,P|353:142|393:133,1,80.9999975280763,2|0,0:0|3:2,0:0:0:0:
468,206,8470,6,0,P|487:201|507:197,2,40.4999987640381,2|2|2,0:0|0:0|3:2,0:0:0:0:
405,290,8900,1,2,0:0:0:0:
316,242,9115,1,2,3:2:0:0:
316,242,9330,2,0,P|274:253|219:267,1,80.9999975280763,2|0,0:0|3:2,0:0:0:0:
179,350,9760,1,2,0:0:0:0:
100,287,9975,5,2,3:2:0:0:
100,287,10190,1,2,0:0:0:0:
156,197,10405,2,0,P|146:157|133:109,1,80.9999975280763,2|2,3:2|0:2,0:0:0:0:
127,110,10728,1,2,0:0:0:0:
117,100,10836,2,0,P|76:108|20:123,1,80.9999975280763,2|2,3:2|0:0,0:0:0:0:
7,16,11266,2,0,P|48:8|104:-7,1,80.9999975280763,2|2,3:2|0:0,0:0:0:0:
192,46,11696,6,0,P|235:37|279:25,1,90,2|2,3:2|0:0,0:0:0:0:
393,0,12126,2,0,P|402:43|413:87,1,90,10|2,0:0|0:0,0:0:0:0:
314,150,12556,2,0,P|271:159|226:170,1,90,0|2,3:2|0:0,0:0:0:0:
204,174,12879,1,2,0:0:0:0:
182,177,12986,2,0,P|193:220|202:264,1,90,10|0,0:0|0:0,0:0:0:0:
261,371,13416,5,10,0:0:0:0:
261,371,13631,1,8,0:0:0:0:
342,287,13846,1,8,0:0:0:0:
342,287,14061,1,8,0:0:0:0:
448,334,14276,1,8,0:0:0:0:
511,236,14491,1,2,2:1:0:0:
432,148,14707,1,10,0:0:0:0:
216,288,15137,6,0,P|167:297|119:309,1,99.0000030212403,6|10,3:2|0:0,0:0:0:0:
33,213,15567,2,0,P|23:164|11:116,1,99.0000030212403,2|8,3:2|0:0,0:0:0:0:
92,16,15997,1,2,3:2:0:0:
201,83,16212,1,10,0:0:0:0:
314,23,16427,2,0,P|362:13|410:1,1,99.0000030212403,2|8,3:2|0:0,0:0:0:0:
510,82,16857,1,0,3:2:0:0:
408,160,17072,5,10,0:0:0:0:
408,160,17287,1,2,3:2:0:0:
501,255,17502,1,10,0:0:0:0:
501,255,17717,1,2,3:2:0:0:
412,348,17932,1,10,0:0:0:0:
398,342,18040,1,2,0:0:0:0:
382,334,18147,1,2,3:2:0:0:
297,237,18362,1,10,0:0:0:0:
200,322,18578,6,0,P|153:329|86:340,1,99.0000030212403,2|10,3:2|0:0,0:0:0:0:
83,342,18900,1,2,0:0:0:0:
64,345,19008,2,0,P|57:298|46:231,1,99.0000030212403,2|10,3:2|0:0,0:0:0:0:
38,237,19330,1,2,0:0:0:0:
28,228,19438,5,2,3:2:0:0:
126,145,19653,1,10,0:0:0:0:
225,226,19868,1,2,3:2:0:0:
318,137,20083,1,10,0:0:0:0:
391,242,20298,6,0,P|439:234|488:226,1,99.0000030212403,2|8,3:2|0:0,0:0:0:0:
501,216,20621,1,0,3:2:0:0:
512,205,20728,2,0,P|504:156|496:107,1,99.0000030212403,2|8,3:2|0:0,0:0:0:0:
391,32,21158,5,2,3:2:0:0:
373,35,21265,1,0,3:2:0:0:
358,39,21373,1,0,3:2:0:0:
260,122,21588,5,10,0:0:0:0:
240,118,21696,1,8,0:0:0:0:
221,113,21803,1,8,0:0:0:0:
199,107,21911,1,8,0:0:0:0:
179,103,22018,6,0,P|129:96|81:86,1,99.0000030212403,6|10,3:2|0:0,0:0:0:0:
20,199,22448,2,0,P|13:248|3:296,1,99.0000030212403,2|8,3:2|0:0,0:0:0:0:
106,373,22879,1,2,3:2:0:0:
199,284,23094,1,10,0:0:0:0:
303,359,23309,2,0,P|352:365|400:375,1,99.0000030212403,2|8,3:2|0:0,0:0:0:0:
486,279,23739,1,0,3:2:0:0:
391,199,23954,5,10,0:0:0:0:
391,199,24169,1,2,3:2:0:0:
482,123,24384,1,10,0:0:0:0:
482,123,24599,1,2,3:2:0:0:
402,35,24814,1,10,0:0:0:0:
387,39,24922,1,2,0:0:0:0:
369,42,25029,1,2,3:2:0:0:
242,16,25244,1,10,0:0:0:0:
208,140,25459,6,0,P|220:191|238:274,1,99.0000030212403,2|8,3:2|0:0,0:0:0:0:
179,354,25889,2,0,P|130:364|82:376,1,99.0000030212403,2|8,3:2|0:0,0:0:0:0:
5,279,26319,1,2,3:2:0:0:
5,279,26535,1,10,0:0:0:0:
86,180,26750,1,2,3:2:0:0:
86,180,26965,1,10,0:0:0:0:
5,79,27180,6,0,P|53:68|101:56,1,99.0000030212403,2|10,3:2|0:0,0:0:0:0:
210,123,27610,2,0,P|258:111|306:100,1,99.0000030212403,2|10,3:2|0:0,0:0:0:0:
407,20,28040,1,10,3:2:0:0:
420,25,28147,1,10,0:0:0:0:
434,30,28255,1,10,0:0:0:0:
447,35,28362,1,10,0:0:0:0:
458,40,28470,1,10,3:2:0:0:
505,159,28685,1,2,0:0:0:0:
388,227,28900,6,0,P|380:298|374:370,1,144,6|10,3:2|0:0,0:0:0:0:
186,378,29760,2,0,P|193:306|199:234,1,144,6|2,3:2|0:0,0:0:0:0:
89,0,30621,5,2,3:2:0:0:
5,98,30836,1,10,0:0:0:0:
103,181,31051,1,10,0:2:0:0:
134,172,31158,1,8,0:0:0:0:
167,163,31266,1,10,0:0:0:0:
206,153,31373,1,8,0:0:0:0:
232,145,31481,1,10,3:2:0:0:
483,91,31911,5,2,2:1:0:0:
