osu file format v14

[General]
AudioFilename: audio.mp3
AudioLeadIn: 0
PreviewTime: 15137
Countdown: 0
SampleSet: Soft
StackLeniency: 0.7
Mode: 2
LetterboxInBreaks: 0
WidescreenStoryboard: 1

[Editor]
DistanceSpacing: 0.8
BeatDivisor: 4
GridSize: 32
TimelineZoom: 1.5

[Metadata]
Title:Hanyamaru Manten, Zenitendou. (TV Size)
TitleUnicode:はにゃ○満点、銭天堂。 (TV Size)
Artist:KOCHO
ArtistUnicode:KOCHO
Creator:Stardust Prism
Version:Platter
Source:ふしぎ駄菓子屋 銭天堂
Tags:quix japanese jpop j pop j-pop ed ending anime fushigi dagashiya zenitendō zenitendo zenitendou edit cut version
BeatmapID:4156641
BeatmapSetID:1999473

[Difficulty]
HPDrainRate:4
CircleSize:3.5
OverallDifficulty:8
ApproachRate:8
SliderMultiplier:1.83
SliderTickRate:2

[Events]
//Background and Video events
0,0,"bg.jpg",0,0
//Break Periods
//Storyboard Layer 0 (Background)
//Storyboard Layer 1 (Fail)
//Storyboard Layer 2 (Pass)
//Storyboard Layer 3 (Foreground)
//Storyboard Layer 4 (Overlay)
//Storyboard Sound Samples

[TimingPoints]
-5508,430.10752688172,4,2,2,50,1,0
1373,-100,4,2,1,50,0,0
11696,-100,4,2,1,60,0,0
13416,-100,4,2,1,70,0,0
15137,-100,4,2,1,80,0,1
28900,-100,4,2,1,70,0,0
30621,-100,4,2,1,80,0,0

[Colours]
Combo1 : 255,128,255
Combo2 : 255,128,128
Combo3 : 255,255,128
Combo4 : 128,255,255

[HitObjects]
145,270,943,6,0,L|145:171,1,91.5,2|2,2:1|2:1,0:0:0:0:
427,271,1373,6,0,P|481:218|400:158,1,183,2|2,3:1|3:2,0:0:0:0:
327,151,2018,1,2,0:0:0:0:
144,277,2233,2,0,L|358:276,1,183,2|0,3:2|3:2,0:0:0:0:
420,281,2879,1,2,0:0:0:0:
230,257,3094,6,0,L|105:253,2,91.5,0|2|2,3:2|0:0|3:2,0:0:0:0:
323,266,3739,1,2,0:0:0:0:
143,267,3954,2,0,L|144:169,1,91.5,2|2,3:2|0:0,0:0:0:0:
237,152,4384,2,0,L|337:152,1,91.5,2|2,3:2|0:0,0:0:0:0:
51,313,4814,6,0,L|51:218,1,91.5,0|2,3:2|0:0,0:0:0:0:
99,202,5137,1,2,0:0:0:0:
145,175,5244,2,0,L|43:171,1,91.5,2|2,3:2|0:0,0:0:0:0:
241,271,5674,2,0,L|343:268,1,91.5,2|2,3:2|0:0,0:0:0:0:
241,271,6104,2,0,L|138:268,1,91.5,0|2,3:2|0:0,0:0:0:0:
442,284,6535,6,0,L|445:190,1,91.5,2|2,3:2|0:0,0:0:0:0:
351,152,6965,2,0,L|449:149,1,91.5,2|2,3:2|0:0,0:0:0:0:
253,238,7395,1,2,3:2:0:0:
160,187,7610,2,0,L|96:188,2,45.75,2|2|2,0:0|0:0|3:2,0:0:0:0:
252,176,8040,1,2,0:0:0:0:
70,145,8255,5,0,3:2:0:0:
70,145,8470,1,2,0:0:0:0:
364,268,8685,2,0,L|467:268,1,91.5,2|2,3:1|0:0,0:0:0:0:
364,268,9115,1,2,3:2:0:0:
272,255,9330,1,2,0:0:0:0:
364,268,9545,2,0,L|365:158,1,91.5,0|2,3:2|0:0,0:0:0:0:
181,203,9975,6,0,L|53:203,3,91.5,2|2|2|2,3:2|0:0|3:2|0:2,0:0:0:0:
274,293,10836,2,0,L|275:190,1,91.5,2|2,3:2|0:0,0:0:0:0:
181,177,11266,2,0,L|48:176,1,91.5,2|2,3:2|0:0,0:0:0:0:
374,311,11696,6,0,P|435:270|361:214,1,183,2|10,3:2|0:0,0:0:0:0:
282,207,12341,1,2,0:0:0:0:
100,281,12556,1,0,3:2:0:0:
8,230,12771,1,2,0:0:0:0:
53,230,12878,1,2,0:0:0:0:
99,231,12986,1,10,0:0:0:0:
8,230,13201,1,0,0:0:0:0:
299,207,13416,6,0,L|396:206,1,91.5,10|8,0:0|0:0,0:0:0:0:
200,244,13846,2,0,L|88:244,1,91.5,8|8,0:0|0:0,0:0:0:0:
395,211,14276,2,0,L|395:112,1,91.5,8|2,0:0|2:1,0:0:0:0:
208,178,14707,1,10,0:0:0:0:
162,177,14814,1,0,0:0:0:0:
116,177,14922,1,0,0:0:0:0:
410,262,15137,6,0,L|507:263,1,91.5,6|10,3:2|0:0,0:0:0:0:
215,326,15567,2,0,P|156:264|238:240,1,183,2|2,3:2|3:2,0:0:0:0:
312,219,16212,1,10,0:0:0:0:
35,252,16427,2,0,L|30:139,1,91.5,2|8,3:2|0:0,0:0:0:0:
130,118,16857,6,0,L|24:120,1,91.5,0|10,3:2|0:0,0:0:0:0:
223,204,17287,2,0,L|336:204,1,91.5,2|10,3:2|0:0,0:0:0:0:
130,281,17717,2,0,L|129:189,1,91.5,2|10,3:2|0:0,0:0:0:0:
220,190,18147,2,0,L|118:189,1,91.5,2|10,3:2|0:0,0:0:0:0:
428,169,18578,5,2,3:2:0:0:
428,169,18793,1,10,0:0:0:0:
382,168,18900,1,2,0:0:0:0:
336,168,19008,1,2,3:2:0:0:
154,112,19223,1,10,0:0:0:0:
108,106,19330,1,2,0:0:0:0:
154,112,19438,1,2,3:2:0:0:
343,217,19653,2,0,L|439:220,2,91.5,10|2|10,0:0|3:2|3:2,0:0:0:0:
59,176,20298,6,0,L|247:176,1,183,2|2,3:2|3:2,0:0:0:0:
336,178,20943,1,10,0:0:0:0:
149,238,21158,1,2,3:2:0:0:
139,194,21265,1,8,0:0:0:0:
163,156,21373,1,10,0:0:0:0:
213,150,21480,1,8,0:0:0:0:
262,147,21588,1,10,0:2:0:0:
302,117,21695,1,8,0:0:0:0:
303,58,21803,1,10,0:0:0:0:
17,177,22018,6,0,L|139:177,2,91.5,6|10|2,3:2|0:0|3:2,0:0:0:0:
17,177,22664,1,8,0:0:0:0:
200,116,22879,2,0,L|71:116,1,91.5,2|10,3:2|0:0,0:0:0:0:
390,225,23309,2,0,L|485:226,1,91.5,2|8,3:2|0:0,0:0:0:0:
299,275,23739,6,0,L|299:163,1,91.5,2|8,3:2|0:0,0:0:0:0:
395,124,24169,2,0,L|297:123,1,91.5,2|8,3:2|0:0,0:0:0:0:
121,219,24599,1,2,3:2:0:0:
25,229,24814,1,8,0:0:0:0:
70,229,24921,1,2,0:0:0:0:
116,229,25029,1,2,3:2:0:0:
25,229,25244,1,10,0:0:0:0:
316,215,25459,6,0,P|330:158|300:125,1,91.5,2|8,3:2|0:0,0:0:0:0:
134,107,25889,2,0,L|36:108,1,91.5,2|8,3:2|0:0,0:0:0:0:
226,205,26319,1,2,3:2:0:0:
325,224,26535,1,10,0:0:0:0:
276,248,26642,1,0,0:0:0:0:
224,251,26750,1,2,3:2:0:0:
126,244,26965,1,10,0:0:0:0:
413,204,27180,5,2,3:2:0:0:
505,134,27395,1,10,0:0:0:0:
459,133,27502,1,8,3:2:0:0:
413,133,27610,1,2,3:2:0:0:
223,300,27825,1,10,0:0:0:0:
180,287,27932,1,8,0:0:0:0:
163,247,28040,1,10,0:2:0:0:
184,208,28147,1,8,0:0:0:0:
227,200,28255,1,10,0:0:0:0:
411,210,28470,2,0,L|411:105,1,91.5,10|0,0:0|0:0,0:0:0:0:
128,165,28900,6,0,L|337:164,2,183,6|10|6,3:2|0:0|3:2,0:0:0:0:
222,131,29975,1,0,0:0:0:0:
406,274,30190,2,0,L|406:170,1,91.5,2|0,0:0|0:0,0:0:0:0:
126,204,30621,6,0,L|24:204,1,91.5,2|10,3:2|0:0,0:0:0:0:
217,249,31051,2,0,L|217:176,1,45.75,10|8,0:2|0:0,0:0:0:0:
171,181,31266,1,10,0:0:0:0:
462,162,31481,1,10,3:2:0:0:
280,138,31911,1,2,2:1:0:0:
