osu file format v14

[General]
AudioFilename: audio.mp3
AudioLeadIn: 0
PreviewTime: 14922
Countdown: 0
SampleSet: Normal
StackLeniency: 0.7
Mode: 1
LetterboxInBreaks: 0
WidescreenStoryboard: 1

[Editor]
Bookmarks: 1373,15137,22018,28900,30621,31911
DistanceSpacing: 0.6
BeatDivisor: 4
GridSize: 32
TimelineZoom: 1

[Metadata]
Title:Hanyamaru Manten, Zenitendou. (TV Size)
TitleUnicode:はにゃ○満点、銭天堂。 (TV Size)
Artist:KOCHO
ArtistUnicode:KOCHO
Creator:Ryxliee
Version:Tachi's Futsuu Nya~
Source:ふしぎ駄菓子屋 銭天堂
Tags:japanese jpop j pop j-pop ed ending anime Fushigi Dagashiya Zenitendō Zenitendo Zenitendou edit cut version Tachibana_
BeatmapID:3533231
BeatmapSetID:1728548

[Difficulty]
HPDrainRate:9
CircleSize:2
OverallDifficulty:3
ApproachRate:9
SliderMultiplier:1.4
SliderTickRate:1

[Events]
//Background and Video events
0,0,"aqua.jpg",0,-10
//Break Periods
//Storyboard Layer 0 (Background)
//Storyboard Layer 1 (Fail)
//Storyboard Layer 2 (Pass)
//Storyboard Layer 3 (Foreground)
//Storyboard Layer 4 (Overlay)
//Storyboard Sound Samples

[TimingPoints]
-5508,430.10752688172,4,1,0,60,1,0
13416,-100,4,1,0,70,0,0
15137,-100,4,1,0,90,0,1
28900,-100,4,1,0,80,0,0
30621,-100,4,1,0,90,0,1
31911,-100,4,1,0,80,0,0

[HitObjects]
256,192,1373,5,8,0:0:0:0:
256,192,1588,1,0,0:0:0:0:
256,192,1803,1,8,0:0:0:0:
256,192,2233,1,8,0:0:0:0:
256,192,2448,1,8,0:0:0:0:
256,192,2879,1,0,0:0:0:0:
256,192,3309,1,8,0:0:0:0:
256,192,3524,1,0,0:0:0:0:
256,192,3954,1,8,0:0:0:0:
256,192,4384,1,8,0:0:0:0:
256,192,4814,1,0,0:0:0:0:
256,192,5029,1,0,0:0:0:0:
256,192,5244,1,8,0:0:0:0:
256,192,5674,1,8,0:0:0:0:
256,192,5889,1,0,0:0:0:0:
256,192,6319,1,0,0:0:0:0:
256,192,6535,1,0,0:0:0:0:
256,192,6965,1,0,0:0:0:0:
256,192,7395,1,8,0:0:0:0:
256,192,8255,1,0,0:0:0:0:
256,192,8470,1,0,0:0:0:0:
256,192,8684,1,8,0:0:0:0:
256,192,9115,1,8,0:0:0:0:
256,192,9330,1,0,0:0:0:0:
256,192,9760,1,0,0:0:0:0:
256,192,9975,1,8,0:0:0:0:
256,192,10405,1,0,0:0:0:0:
256,192,10836,1,0,0:0:0:0:
256,192,11266,1,0,0:0:0:0:
256,192,11481,1,0,0:0:0:0:
256,192,11696,1,12,0:0:0:0:
256,192,12126,1,8,0:0:0:0:
256,192,12556,1,8,0:0:0:0:
256,192,12771,1,0,0:0:0:0:
256,192,12986,1,0,0:0:0:0:
256,192,13416,1,8,0:0:0:0:
256,192,13631,1,8,0:0:0:0:
256,192,13846,1,0,0:0:0:0:
256,192,14061,1,0,0:0:0:0:
256,192,14276,1,8,0:0:0:0:
256,192,15137,1,12,0:0:0:0:
256,192,15352,1,0,0:0:0:0:
256,192,15567,1,8,0:0:0:0:
256,192,15997,1,0,0:0:0:0:
256,192,16212,1,8,0:0:0:0:
256,192,16427,1,0,0:0:0:0:
256,192,17072,1,0,0:0:0:0:
256,192,17287,1,8,0:0:0:0:
256,192,17717,1,8,0:0:0:0:
256,192,17932,1,8,0:0:0:0:
256,192,18147,1,0,0:0:0:0:
256,192,18578,1,8,0:0:0:0:
256,192,19008,1,0,0:0:0:0:
256,192,19438,1,0,0:0:0:0:
256,192,19653,1,0,0:0:0:0:
256,192,19868,1,8,0:0:0:0:
256,192,20083,1,8,0:0:0:0:
256,192,20298,1,0,0:0:0:0:
256,192,20728,1,0,0:0:0:0:
256,192,21158,1,8,0:0:0:0:
256,192,22018,1,12,0:0:0:0:
256,192,22233,1,0,0:0:0:0:
256,192,22448,1,0,0:0:0:0:
256,192,22664,1,8,0:0:0:0:
256,192,22878,1,0,0:0:0:0:
256,192,23308,1,8,0:0:0:0:
256,192,23954,1,0,0:0:0:0:
256,192,24169,1,8,0:0:0:0:
256,192,24599,1,8,0:0:0:0:
256,192,24814,1,0,0:0:0:0:
256,192,25028,1,8,0:0:0:0:
256,192,25459,1,0,0:0:0:0:
256,192,25889,1,8,0:0:0:0:
256,192,26319,1,0,0:0:0:0:
256,192,26534,1,0,0:0:0:0:
256,192,26749,1,8,0:0:0:0:
256,192,26965,1,0,0:0:0:0:
256,192,27179,1,8,0:0:0:0:
256,192,27609,1,0,0:0:0:0:
256,192,28039,1,8,0:0:0:0:
256,192,28255,1,8,0:0:0:0:
256,192,28469,1,0,0:0:0:0:
256,192,28899,1,12,0:0:0:0:
256,192,29330,1,0,0:0:0:0:
256,192,29760,1,12,0:0:0:0:
256,192,30621,1,0,0:0:0:0:
256,192,30836,1,8,0:0:0:0:
256,192,31051,1,8,0:0:0:0:
256,192,31266,1,0,0:0:0:0:
256,192,31481,1,8,0:0:0:0:
256,192,31911,1,0,0:0:0:0:
