osu file format v14

[General]
AudioFilename: audio.mp3
AudioLeadIn: 0
PreviewTime: 14922
Countdown: 0
SampleSet: Normal
StackLeniency: 0.7
Mode: 1
LetterboxInBreaks: 0
WidescreenStoryboard: 1

[Editor]
Bookmarks: 1373,8255,22018
DistanceSpacing: 0.8
BeatDivisor: 4
GridSize: 32
TimelineZoom: 1.2

[Metadata]
Title:Hanyamaru Manten, Zenitendou. (TV Size)
TitleUnicode:はにゃ○満点、銭天堂。 (TV Size)
Artist:KOCHO
ArtistUnicode:KOCHO
Creator:Ryxliee
Version:Oni Nya~
Source:ふしぎ駄菓子屋 銭天堂
Tags:japanese jpop j pop j-pop ed ending anime Fushigi Dagashiya Zenitendō Zenitendo Zenitendou edit cut version Tachibana_
BeatmapID:3533318
BeatmapSetID:1728548

[Difficulty]
HPDrainRate:8
CircleSize:2
OverallDifficulty:5
ApproachRate:9
SliderMultiplier:1.4
SliderTickRate:1

[Events]
//Background and Video events
0,0,"aqua.jpg",0,-10
//Break Periods
//Storyboard Layer 0 (Background)
//Storyboard Layer 1 (Fail)
//Storyboard Layer 2 (Pass)
//Storyboard Layer 3 (Foreground)
//Storyboard Layer 4 (Overlay)
//Storyboard Sound Samples

[TimingPoints]
-5508,430.10752688172,4,1,0,60,1,0
13416,-100,4,1,0,70,0,0
13632,-98.3544110924882,4,1,0,70,0,0
13847,-96.7693576193688,4,1,0,70,0,0
14062,-95.2345824727058,4,1,0,70,0,0
14277,-93.7477307385085,4,1,0,70,0,0
14384,-93.0249315463323,4,1,0,70,0,0
14492,-92.3065923065923,4,1,0,70,0,0
14707,-90.9090909090909,4,1,0,70,0,0
15137,-90.9090909090909,4,1,0,90,0,1
28147,-91.9491072383192,4,1,0,90,0,1
28255,-93.0232558139535,4,1,0,90,0,1
28362,-94.1124972641716,4,1,0,90,0,1
28470,-95.2380952380952,4,1,0,90,0,1
28685,-97.5609756097561,4,1,0,90,0,1
28900,-100,4,1,0,80,0,0
30621,-90.9090909090909,4,1,0,90,0,1
31911,-100,4,1,0,80,0,0

[HitObjects]
256,192,943,5,0,0:0:0:0:
256,192,1158,1,0,0:0:0:0:
256,192,1266,1,0,0:0:0:0:
256,192,1373,1,8,0:0:0:0:
256,192,1588,1,0,0:0:0:0:
256,192,1696,1,8,0:0:0:0:
256,192,1803,1,0,0:0:0:0:
256,192,2018,1,0,0:0:0:0:
256,192,2233,1,8,0:0:0:0:
256,192,2341,1,0,0:0:0:0:
256,192,2448,1,8,0:0:0:0:
256,192,2664,1,0,0:0:0:0:
256,192,2879,1,8,0:0:0:0:
256,192,3094,1,8,0:0:0:0:
256,192,3309,1,0,0:0:0:0:
256,192,3524,1,8,0:0:0:0:
256,192,3739,1,0,0:0:0:0:
256,192,3846,1,0,0:0:0:0:
256,192,3954,1,8,0:0:0:0:
256,192,4169,1,0,0:0:0:0:
256,192,4384,1,8,0:0:0:0:
256,192,4599,1,0,0:0:0:0:
256,192,4814,1,0,0:0:0:0:
256,192,5029,1,8,0:0:0:0:
256,192,5137,1,8,0:0:0:0:
256,192,5244,1,0,0:0:0:0:
256,192,5459,1,8,0:0:0:0:
256,192,5674,1,8,0:0:0:0:
256,192,5782,1,8,0:0:0:0:
256,192,5889,1,0,0:0:0:0:
256,192,6319,1,0,0:0:0:0:
256,192,6535,1,0,0:0:0:0:
256,192,6642,1,8,0:0:0:0:
256,192,6750,1,0,0:0:0:0:
256,192,6965,1,8,0:0:0:0:
256,192,7072,1,0,0:0:0:0:
256,192,7180,1,8,0:0:0:0:
256,192,7395,1,8,0:0:0:0:
256,192,7610,1,0,0:0:0:0:
256,192,7717,1,0,0:0:0:0:
256,192,7825,1,8,0:0:0:0:
256,192,8040,1,8,0:0:0:0:
256,192,8255,1,0,0:0:0:0:
256,192,8470,1,0,0:0:0:0:
256,192,8578,1,0,0:0:0:0:
256,192,8685,1,8,0:0:0:0:
256,192,8900,1,0,0:0:0:0:
256,192,9115,1,8,0:0:0:0:
256,192,9223,1,8,0:0:0:0:
256,192,9330,1,0,0:0:0:0:
256,192,9761,1,8,0:0:0:0:
256,192,9976,1,0,0:0:0:0:
256,192,10191,1,0,0:0:0:0:
256,192,10405,1,8,0:0:0:0:
256,192,10621,1,0,0:0:0:0:
256,192,10728,1,8,0:0:0:0:
256,192,10836,1,0,0:0:0:0:
256,192,11051,1,8,0:0:0:0:
256,192,11266,1,0,0:0:0:0:
256,192,11481,1,0,0:0:0:0:
256,192,11696,1,12,0:0:0:0:
256,192,11911,1,0,0:0:0:0:
256,192,12018,1,0,0:0:0:0:
256,192,12126,1,8,0:0:0:0:
256,192,12341,1,0,0:0:0:0:
256,192,12556,1,8,0:0:0:0:
256,192,12771,1,0,0:0:0:0:
256,192,12879,1,8,0:0:0:0:
256,192,12986,1,0,0:0:0:0:
256,192,13201,1,0,0:0:0:0:
256,192,13416,1,8,0:0:0:0:
256,192,13632,1,0,0:0:0:0:
256,192,13847,1,8,0:0:0:0:
256,192,14062,1,8,0:0:0:0:
256,192,14277,1,0,0:0:0:0:
256,192,14384,1,0,0:0:0:0:
256,192,14492,1,8,0:0:0:0:
256,192,14707,1,0,0:0:0:0:
256,192,15137,1,12,0:0:0:0:
256,192,15352,1,0,0:0:0:0:
256,192,15567,1,8,0:0:0:0:
256,192,15674,1,0,0:0:0:0:
256,192,15782,1,8,0:0:0:0:
256,192,15997,1,8,0:0:0:0:
256,192,16212,1,0,0:0:0:0:
256,192,16427,1,8,0:0:0:0:
256,192,16535,1,0,0:0:0:0:
256,192,16642,1,8,0:0:0:0:
256,192,16857,1,0,0:0:0:0:
256,192,17072,1,0,0:0:0:0:
256,192,17287,1,8,0:0:0:0:
256,192,17502,1,8,0:0:0:0:
256,192,17717,1,0,0:0:0:0:
256,192,17825,1,0,0:0:0:0:
256,192,17932,1,8,0:0:0:0:
256,192,18147,1,0,0:0:0:0:
256,192,18362,1,0,0:0:0:0:
256,192,18578,1,8,0:0:0:0:
256,192,18793,1,0,0:0:0:0:
256,192,18900,1,0,0:0:0:0:
256,192,19008,1,8,0:0:0:0:
256,192,19223,1,8,0:0:0:0:
256,192,19330,1,8,0:0:0:0:
256,192,19438,1,0,0:0:0:0:
256,192,19653,1,8,0:0:0:0:
256,192,19868,1,0,0:0:0:0:
256,192,20083,1,0,0:0:0:0:
256,192,20298,1,8,0:0:0:0:
256,192,20405,1,8,0:0:0:0:
256,192,20513,1,0,0:0:0:0:
256,192,20621,1,0,0:0:0:0:
256,192,20728,1,8,0:0:0:0:
256,192,21158,1,8,0:0:0:0:
256,192,21266,1,0,0:0:0:0:
256,192,21373,1,8,0:0:0:0:
256,192,21481,1,0,0:0:0:0:
256,192,21588,1,8,0:0:0:0:
256,192,21696,1,8,0:0:0:0:
256,192,21803,1,0,0:0:0:0:
256,192,22018,1,12,0:0:0:0:
256,192,22233,1,0,0:0:0:0:
256,192,22448,1,8,0:0:0:0:
256,192,22663,1,0,0:0:0:0:
256,192,22771,1,8,0:0:0:0:
256,192,22878,1,0,0:0:0:0:
256,192,23093,1,0,0:0:0:0:
256,192,23308,1,8,0:0:0:0:
256,192,23416,1,8,0:0:0:0:
256,192,23523,1,0,0:0:0:0:
256,192,23738,1,8,0:0:0:0:
256,192,23953,1,0,0:0:0:0:
256,192,24168,1,0,0:0:0:0:
256,192,24383,1,8,0:0:0:0:
256,192,24491,1,0,0:0:0:0:
256,192,24598,1,8,0:0:0:0:
256,192,24813,1,0,0:0:0:0:
256,192,25029,1,8,0:0:0:0:
256,192,25137,1,8,0:0:0:0:
256,192,25244,1,0,0:0:0:0:
256,192,25459,1,8,0:0:0:0:
256,192,25674,1,0,0:0:0:0:
256,192,25889,1,8,0:0:0:0:
256,192,26104,1,0,0:0:0:0:
256,192,26319,1,8,0:0:0:0:
256,192,26535,1,8,0:0:0:0:
256,192,26750,1,0,0:0:0:0:
256,192,26857,1,8,0:0:0:0:
256,192,26965,1,0,0:0:0:0:
256,192,27180,1,8,0:0:0:0:
256,192,27395,1,0,0:0:0:0:
256,192,27610,1,8,0:0:0:0:
256,192,27825,1,0,0:0:0:0:
256,192,28040,1,0,0:0:0:0:
256,192,28147,1,8,0:0:0:0:
256,192,28255,1,8,0:0:0:0:
256,192,28362,1,8,0:0:0:0:
256,192,28470,1,0,0:0:0:0:
256,192,28685,1,8,0:0:0:0:
256,192,28900,1,4,0:0:0:0:
256,192,29330,1,0,0:0:0:0:
256,192,29760,1,12,0:0:0:0:
256,192,30621,1,0,0:0:0:0:
256,192,30836,1,8,0:0:0:0:
256,192,31051,1,0,0:0:0:0:
256,192,31158,1,0,0:0:0:0:
256,192,31266,1,8,0:0:0:0:
256,192,31373,1,0,0:0:0:0:
256,192,31481,1,8,0:0:0:0:
256,192,31911,1,0,0:0:0:0:
