osu file format v14

[General]
AudioFilename: audio.mp3
AudioLeadIn: 0
PreviewTime: 14922
Countdown: 0
SampleSet: Normal
StackLeniency: 0.7
Mode: 1
LetterboxInBreaks: 0
WidescreenStoryboard: 0

[Editor]
Bookmarks: 1373,8255,22018
DistanceSpacing: 0.8
BeatDivisor: 4
GridSize: 32
TimelineZoom: 1.2

[Metadata]
Title:Hanyamaru Manten, Zenitendou. (TV Size)
TitleUnicode:はにゃ○満点、銭天堂。 (TV Size)
Artist:KOCHO
ArtistUnicode:KOCHO
Creator:Ryxliee
Version:Muzukashii Nya~
Source:ふしぎ駄菓子屋 銭天堂
Tags:japanese jpop j pop j-pop ed ending anime Fushigi Dagashiya Zenitendō Zenitendo Zenitendou edit cut version Tachibana_
BeatmapID:3532450
BeatmapSetID:1728548

[Difficulty]
HPDrainRate:8.5
CircleSize:2
OverallDifficulty:4
ApproachRate:9
SliderMultiplier:1.4
SliderTickRate:1

[Events]
//Background and Video events
0,0,"aqua.jpg",0,-10
//Break Periods
//Storyboard Layer 0 (Background)
//Storyboard Layer 1 (Fail)
//Storyboard Layer 2 (Pass)
//Storyboard Layer 3 (Foreground)
//Storyboard Layer 4 (Overlay)
//Storyboard Sound Samples

[TimingPoints]
-5508,430.10752688172,4,1,0,60,1,0
13416,-100,4,1,0,70,0,0
13631,-98.7654320987654,4,1,0,70,0,0
13846,-97.5609756097561,4,1,0,70,0,0
14061,-96.3855421686747,4,1,0,70,0,0
14276,-95.2380952380952,4,1,0,70,0,0
15137,-95.2380952380952,4,1,0,90,0,1
28147,-95.8057149222971,4,1,0,90,0,1
28362,-96.9669635810125,4,1,0,90,0,1
28470,-97.5609756097561,4,1,0,90,0,1
28685,-98.7654320987654,4,1,0,90,0,1
28900,-100,4,1,0,80,0,0
30621,-95.2380952380952,4,1,0,90,0,1
31911,-100,4,1,0,80,0,0

[HitObjects]
256,192,943,5,0,0:0:0:0:
256,192,1158,1,0,0:0:0:0:
256,192,1373,1,8,0:0:0:0:
256,192,1588,1,0,0:0:0:0:
256,192,1696,1,0,0:0:0:0:
256,192,1803,1,0,0:0:0:0:
256,192,2018,1,0,0:0:0:0:
256,192,2233,1,8,0:0:0:0:
256,192,2448,1,8,0:0:0:0:
256,192,2879,1,0,0:0:0:0:
256,192,3094,1,8,0:0:0:0:
256,192,3309,1,0,0:0:0:0:
256,192,3524,1,0,0:0:0:0:
256,192,3739,1,8,0:0:0:0:
256,192,3846,1,8,0:0:0:0:
256,192,3954,1,8,0:0:0:0:
256,192,4384,1,8,0:0:0:0:
256,192,4814,1,0,0:0:0:0:
256,192,5029,1,0,0:0:0:0:
256,192,5137,1,0,0:0:0:0:
256,192,5244,1,0,0:0:0:0:
256,192,5459,1,8,0:0:0:0:
256,192,5674,1,8,0:0:0:0:
256,192,5889,1,0,0:0:0:0:
256,192,6319,1,0,0:0:0:0:
256,192,6535,1,8,0:0:0:0:
256,192,6750,1,8,0:0:0:0:
256,192,6965,1,0,0:0:0:0:
256,192,7395,1,8,0:0:0:0:
256,192,7825,1,8,0:0:0:0:
256,192,8255,1,0,0:0:0:0:
256,192,8470,1,8,0:0:0:0:
256,192,8578,1,8,0:0:0:0:
256,192,8685,1,8,0:0:0:0:
256,192,8900,1,0,0:0:0:0:
256,192,9115,1,8,0:0:0:0:
256,192,9330,1,0,0:0:0:0:
256,192,9760,1,8,0:0:0:0:
256,192,9975,1,0,0:0:0:0:
256,192,10190,1,0,0:0:0:0:
256,192,10405,1,8,0:0:0:0:
256,192,10621,1,0,0:0:0:0:
256,192,10728,1,0,0:0:0:0:
256,192,10836,1,0,0:0:0:0:
256,192,11266,1,0,0:0:0:0:
256,192,11696,1,12,0:0:0:0:
256,192,11911,1,0,0:0:0:0:
256,192,12126,1,8,0:0:0:0:
256,192,12341,1,0,0:0:0:0:
256,192,12556,1,8,0:0:0:0:
256,192,12771,1,0,0:0:0:0:
256,192,12879,1,0,0:0:0:0:
256,192,12986,1,0,0:0:0:0:
256,192,13416,1,8,0:0:0:0:
256,192,13631,1,0,0:0:0:0:
256,192,13846,1,8,0:0:0:0:
256,192,14061,1,8,0:0:0:0:
256,192,14276,1,0,0:0:0:0:
256,192,15137,1,12,0:0:0:0:
256,192,15352,1,0,0:0:0:0:
256,192,15567,1,8,0:0:0:0:
256,192,15674,1,8,0:0:0:0:
256,192,15782,1,8,0:0:0:0:
256,192,15997,1,8,0:0:0:0:
256,192,16212,1,0,0:0:0:0:
256,192,16427,1,8,0:0:0:0:
256,192,16535,1,8,0:0:0:0:
256,192,16642,1,8,0:0:0:0:
256,192,17072,1,0,0:0:0:0:
256,192,17287,1,8,0:0:0:0:
256,192,17502,1,8,0:0:0:0:
256,192,17717,1,0,0:0:0:0:
256,192,17825,1,0,0:0:0:0:
256,192,17932,1,0,0:0:0:0:
256,192,18147,1,8,0:0:0:0:
256,192,18578,1,8,0:0:0:0:
256,192,18793,1,0,0:0:0:0:
256,192,18900,1,0,0:0:0:0:
256,192,19008,1,0,0:0:0:0:
256,192,19223,1,0,0:0:0:0:
256,192,19330,1,0,0:0:0:0:
256,192,19438,1,0,0:0:0:0:
256,192,19653,1,8,0:0:0:0:
256,192,19868,1,0,0:0:0:0:
256,192,20083,1,0,0:0:0:0:
256,192,20298,1,8,0:0:0:0:
256,192,20728,1,8,0:0:0:0:
256,192,21158,1,8,0:0:0:0:
256,192,21588,1,0,0:0:0:0:
256,192,21696,1,0,0:0:0:0:
256,192,21803,1,0,0:0:0:0:
256,192,22018,1,12,0:0:0:0:
256,192,22233,1,0,0:0:0:0:
256,192,22448,1,8,0:0:0:0:
256,192,22664,1,8,0:0:0:0:
256,192,22771,1,8,0:0:0:0:
256,192,22879,1,8,0:0:0:0:
256,192,23094,1,0,0:0:0:0:
256,192,23309,1,8,0:0:0:0:
256,192,23739,1,8,0:0:0:0:
256,192,23954,1,0,0:0:0:0:
256,192,24169,1,0,0:0:0:0:
256,192,24384,1,8,0:0:0:0:
256,192,24599,1,8,0:0:0:0:
256,192,24814,1,0,0:0:0:0:
256,192,25029,1,0,0:0:0:0:
256,192,25137,1,0,0:0:0:0:
256,192,25244,1,0,0:0:0:0:
256,192,25459,1,8,0:0:0:0:
256,192,25889,1,8,0:0:0:0:
256,192,26319,1,8,0:0:0:0:
256,192,26535,1,8,0:0:0:0:
256,192,26750,1,0,0:0:0:0:
256,192,26857,1,0,0:0:0:0:
256,192,26965,1,0,0:0:0:0:
256,192,27180,1,8,0:0:0:0:
256,192,27395,1,0,0:0:0:0:
256,192,27610,1,8,0:0:0:0:
256,192,27825,1,0,0:0:0:0:
256,192,28040,1,8,0:0:0:0:
256,192,28147,1,8,0:0:0:0:
256,192,28362,1,0,0:0:0:0:
256,192,28470,1,0,0:0:0:0:
256,192,28685,1,8,0:0:0:0:
256,192,28900,1,4,0:0:0:0:
256,192,29330,1,0,0:0:0:0:
256,192,29760,1,12,0:0:0:0:
256,192,30621,1,0,0:0:0:0:
256,192,30836,1,8,0:0:0:0:
256,192,31051,1,0,0:0:0:0:
256,192,31158,1,0,0:0:0:0:
256,192,31266,1,0,0:0:0:0:
256,192,31481,1,8,0:0:0:0:
256,192,31911,1,0,0:0:0:0:
