osu file format v14

[General]
AudioFilename: tsuioku.mp3
AudioLeadIn: 0
PreviewTime: 24150
Countdown: 0
SampleSet: Soft
StackLeniency: 0.7
Mode: 3
LetterboxInBreaks: 0
SpecialStyle: 0
WidescreenStoryboard: 1

[Editor]
Bookmarks: 93634
DistanceSpacing: 1
BeatDivisor: 16
GridSize: 8
TimelineZoom: 1.700001

[Metadata]
Title:Tsuioku
TitleUnicode:追憶
Artist:Kobayashi Project
ArtistUnicode:Kobayashi Project
Creator:eyes
Version:Easy
Source:VOEZ
Tags:nayoleah hydria leah -_[_L_e_a_h_]_- 小林信一 Kobayashi Shin'ichi 福原善勝 Fukuhara Yoshikatsu KP-001 long notes ln rock guitar piano instrumental video game
BeatmapID:3582254
BeatmapSetID:1744814

[Difficulty]
HPDrainRate:6
CircleSize:4
OverallDifficulty:6
ApproachRate:5
SliderMultiplier:1.4
SliderTickRate:1

[Events]
//Background and Video events
0,0,"61502029_p0.jpg",0,0
//Break Periods
//Storyboard Layer 0 (Background)
//Storyboard Layer 1 (Fail)
//Storyboard Layer 2 (Pass)
//Storyboard Layer 3 (Foreground)
//Storyboard Layer 4 (Overlay)
//Storyboard Sound Samples

[TimingPoints]
802,714.285714285714,4,2,1,44,1,0
26516,-100,4,2,1,44,0,1
46516,-100,4,2,1,44,0,0
47945,714.285714285714,4,2,1,44,1,0
93659,-100,4,2,1,44,0,1
115757,-100,4,2,1,44,0,0
117944,714.285714285714,4,2,1,44,1,1
137944,-100,4,2,1,44,0,0

[HitObjects]
448,192,802,128,0,3659:0:0:0:0:
320,192,3659,128,0,6516:0:0:0:0:
192,192,6516,128,0,9373:0:0:0:0:
64,192,9373,128,0,10801:0:0:0:0:
320,192,10801,1,0,0:0:0:0:
192,192,11337,1,0,0:0:0:0:
448,192,11873,1,0,0:0:0:0:
448,192,12230,128,0,13837:0:0:0:0:
64,192,13837,1,0,0:0:0:0:
192,192,14373,1,0,0:0:0:0:
320,192,14730,1,0,0:0:0:0:
448,192,15087,128,0,16694:0:0:0:0:
64,192,16694,1,0,0:0:0:0:
192,192,17230,1,0,0:0:0:0:
448,192,17587,1,0,0:0:0:0:
320,192,17944,128,0,19551:0:0:0:0:
64,192,19551,1,0,0:0:0:0:
192,192,20087,1,0,0:0:0:0:
448,192,20444,1,0,0:0:0:0:
64,192,20801,1,0,0:0:0:0:
320,192,21159,1,0,0:0:0:0:
192,192,21516,1,0,0:0:0:0:
448,192,21873,1,0,0:0:0:0:
320,192,22230,128,0,23659:0:0:0:0:
448,192,23659,1,0,0:0:0:0:
64,192,24254,128,0,25087:0:0:0:0:
192,192,25087,128,0,25801:0:0:0:0:
448,192,25801,128,0,26516:0:0:0:0:
192,192,26516,1,0,0:0:0:0:
64,192,26516,1,4,0:0:0:0:
320,192,26873,1,0,0:0:0:0:
192,192,27230,1,0,0:0:0:0:
448,192,27587,1,0,0:0:0:0:
320,192,27766,128,0,28301:0:0:0:0:
64,192,28301,128,0,28659:0:0:0:0:
192,192,28659,128,0,29016:0:0:0:0:
320,192,29016,1,0,0:0:0:0:
64,192,29194,1,0,0:0:0:0:
448,192,29373,1,4,0:0:0:0:
320,192,29730,1,0,0:0:0:0:
192,192,30087,1,0,0:0:0:0:
64,192,30444,1,0,0:0:0:0:
192,192,30801,1,0,0:0:0:0:
320,192,31159,128,0,31516:0:0:0:0:
192,192,31516,128,4,31873:0:0:0:0:
448,192,31873,128,0,32230:0:0:0:0:
192,192,32230,1,0,0:0:0:0:
64,192,32230,1,4,0:0:0:0:
320,192,32587,1,0,0:0:0:0:
64,192,32944,1,0,0:0:0:0:
192,192,33301,1,0,0:0:0:0:
448,192,33480,128,0,34016:0:0:0:0:
320,192,34016,128,0,34373:0:0:0:0:
192,192,34373,128,0,34730:0:0:0:0:
448,192,34730,1,0,0:0:0:0:
320,192,34909,1,0,0:0:0:0:
192,192,35087,1,0,0:0:0:0:
64,192,35087,1,4,0:0:0:0:
320,192,35801,1,4,0:0:0:0:
192,192,35801,1,0,0:0:0:0:
192,192,36516,1,0,0:0:0:0:
448,192,36516,1,4,0:0:0:0:
64,192,36873,128,0,37230:0:0:0:0:
192,192,37230,128,0,37587:0:0:0:0:
448,192,37587,128,0,37944:0:0:0:0:
192,192,37944,1,0,0:0:0:0:
64,192,37944,1,4,0:0:0:0:
320,192,38301,1,0,0:0:0:0:
448,192,38659,1,4,0:0:0:0:
64,192,39016,1,0,0:0:0:0:
192,192,39194,128,0,39730:0:0:0:0:
320,192,39730,128,0,40087:0:0:0:0:
64,192,40087,128,4,40444:0:0:0:0:
448,192,40444,128,0,40801:0:0:0:0:
320,192,40801,128,4,41159:0:0:0:0:
64,192,41159,128,0,41516:0:0:0:0:
192,192,41516,128,4,41873:0:0:0:0:
320,192,41873,128,0,42230:0:0:0:0:
448,192,42230,128,4,43659:0:0:0:0:
192,192,42944,1,4,0:0:0:0:
192,192,43659,1,0,0:0:0:0:
64,192,43659,1,4,0:0:0:0:
320,192,44016,1,0,0:0:0:0:
192,192,44373,128,0,44730:0:0:0:0:
448,192,44730,1,0,0:0:0:0:
64,192,45087,128,0,45801:0:0:0:0:
320,192,45801,128,0,46516:0:0:0:0:
64,192,47945,1,4,0:0:0:0:
448,192,47945,1,0,0:0:0:0:
320,192,48659,1,0,0:0:0:0:
192,192,49373,1,0,0:0:0:0:
64,192,50087,1,0,0:0:0:0:
192,192,50445,1,0,0:0:0:0:
448,192,50802,1,0,0:0:0:0:
320,192,51516,1,0,0:0:0:0:
192,192,52230,1,0,0:0:0:0:
64,192,52945,1,0,0:0:0:0:
192,192,53302,1,0,0:0:0:0:
448,192,53659,1,4,0:0:0:0:
320,192,53659,1,0,0:0:0:0:
192,192,54373,1,0,0:0:0:0:
64,192,55087,1,0,0:0:0:0:
192,192,55802,1,0,0:0:0:0:
320,192,56159,1,0,0:0:0:0:
448,192,56516,1,0,0:0:0:0:
320,192,57230,1,0,0:0:0:0:
192,192,57945,1,0,0:0:0:0:
64,192,58659,1,0,0:0:0:0:
192,192,59016,1,0,0:0:0:0:
448,192,59373,1,4,0:0:0:0:
320,192,59373,1,0,0:0:0:0:
192,192,59909,1,0,0:0:0:0:
448,192,60087,1,0,0:0:0:0:
64,192,60444,1,0,0:0:0:0:
320,192,60623,1,0,0:0:0:0:
64,192,61159,1,0,0:0:0:0:
448,192,61516,1,0,0:0:0:0:
192,192,62230,1,0,0:0:0:0:
320,192,62409,1,0,0:0:0:0:
64,192,62766,1,0,0:0:0:0:
448,192,62944,1,0,0:0:0:0:
192,192,63302,1,0,0:0:0:0:
320,192,63659,128,0,64194:0:0:0:0:
64,192,64194,1,0,0:0:0:0:
192,192,64373,1,0,0:0:0:0:
448,192,64373,1,4,0:0:0:0:
448,192,64730,128,0,65087:0:0:0:0:
192,192,65087,1,0,0:0:0:0:
64,192,65087,1,4,0:0:0:0:
64,192,65623,1,0,0:0:0:0:
448,192,65802,1,0,0:0:0:0:
192,192,66159,1,0,0:0:0:0:
192,192,66873,1,0,0:0:0:0:
448,192,67230,1,0,0:0:0:0:
320,192,67587,1,0,0:0:0:0:
64,192,67945,1,0,0:0:0:0:
192,192,68123,1,0,0:0:0:0:
448,192,68480,1,0,0:0:0:0:
320,192,68659,1,0,0:0:0:0:
192,192,69016,1,0,0:0:0:0:
320,192,69195,1,0,0:0:0:0:
64,192,69373,1,0,0:0:0:0:
320,192,69730,128,0,70087:0:0:0:0:
192,192,70087,128,0,70444:0:0:0:0:
320,192,70444,128,0,70802:0:0:0:0:
448,192,70802,1,4,0:0:0:0:
64,192,70802,128,0,71516:0:0:0:0:
448,192,71516,128,0,72230:0:0:0:0:
320,192,72230,128,0,72944:0:0:0:0:
64,192,72587,1,0,0:0:0:0:
192,192,72944,1,0,0:0:0:0:
448,192,73302,128,0,73659:0:0:0:0:
320,192,73659,128,0,74016:0:0:0:0:
192,192,74016,128,0,74373:0:0:0:0:
64,192,74373,128,0,74730:0:0:0:0:
192,192,74730,128,0,75087:0:0:0:0:
320,192,75087,128,0,75444:0:0:0:0:
64,192,75444,1,0,0:0:0:0:
192,192,75623,1,0,0:0:0:0:
448,192,75802,1,4,0:0:0:0:
320,192,75802,1,0,0:0:0:0:
64,192,76516,1,4,0:0:0:0:
192,192,76516,128,0,77230:0:0:0:0:
448,192,77230,128,0,77944:0:0:0:0:
320,192,77944,128,0,78659:0:0:0:0:
64,192,78302,1,0,0:0:0:0:
192,192,78659,1,0,0:0:0:0:
448,192,79016,128,0,79373:0:0:0:0:
320,192,79373,128,0,79730:0:0:0:0:
192,192,79730,128,0,80087:0:0:0:0:
64,192,80087,128,0,80444:0:0:0:0:
192,192,80444,128,0,80802:0:0:0:0:
448,192,80802,128,0,81516:0:0:0:0:
64,192,81159,1,0,0:0:0:0:
320,192,81516,128,0,82230:0:0:0:0:
192,192,82230,1,0,0:0:0:0:
64,192,82230,1,4,0:0:0:0:
320,192,85087,1,0,0:0:0:0:
192,192,85087,1,4,0:0:0:0:
448,192,87944,1,0,0:0:0:0:
320,192,87944,1,4,0:0:0:0:
64,192,90802,1,0,0:0:0:0:
448,192,90802,1,4,0:0:0:0:
448,192,91516,1,0,0:0:0:0:
64,192,92230,128,0,92944:0:0:0:0:
192,192,92944,128,0,93659:0:0:0:0:
320,192,93659,1,0,0:0:0:0:
448,192,93659,1,4,0:0:0:0:
64,192,94016,1,0,0:0:0:0:
320,192,94373,1,0,0:0:0:0:
192,192,94730,1,0,0:0:0:0:
448,192,95087,1,0,0:0:0:0:
320,192,95444,1,0,0:0:0:0:
448,192,95802,1,0,0:0:0:0:
192,192,96159,1,0,0:0:0:0:
64,192,96516,1,0,0:0:0:0:
192,192,96873,1,0,0:0:0:0:
64,192,97230,1,0,0:0:0:0:
320,192,97587,1,0,0:0:0:0:
192,192,97944,1,0,0:0:0:0:
448,192,98302,1,0,0:0:0:0:
64,192,98659,128,4,99373:0:0:0:0:
192,192,98659,1,0,0:0:0:0:
320,192,99373,1,0,0:0:0:0:
448,192,99373,1,4,0:0:0:0:
192,192,99730,1,0,0:0:0:0:
320,192,100087,1,0,0:0:0:0:
64,192,100444,1,0,0:0:0:0:
448,192,100802,1,0,0:0:0:0:
192,192,101159,1,0,0:0:0:0:
320,192,101516,1,0,0:0:0:0:
448,192,101873,1,0,0:0:0:0:
64,192,102230,1,0,0:0:0:0:
192,192,102587,1,0,0:0:0:0:
320,192,102944,1,0,0:0:0:0:
448,192,103302,1,0,0:0:0:0:
64,192,103659,128,0,104016:0:0:0:0:
192,192,104016,128,0,104373:0:0:0:0:
320,192,104373,128,0,104730:0:0:0:0:
448,192,104730,128,0,105087:0:0:0:0:
64,192,105087,1,4,0:0:0:0:
192,192,105087,128,0,105802:0:0:0:0:
448,192,105802,1,4,0:0:0:0:
320,192,106159,1,0,0:0:0:0:
64,192,106516,1,4,0:0:0:0:
192,192,106873,1,0,0:0:0:0:
320,192,107230,128,4,107587:0:0:0:0:
448,192,107587,128,0,107944:0:0:0:0:
192,192,107944,1,4,0:0:0:0:
64,192,107944,1,0,0:0:0:0:
320,192,108302,1,0,0:0:0:0:
192,192,108480,1,0,0:0:0:0:
448,192,108659,128,4,109105:0:0:0:0:
192,192,109105,1,0,0:0:0:0:
320,192,109284,128,0,109641:0:0:0:0:
64,192,109641,128,0,110087:0:0:0:0:
448,192,110087,1,4,0:0:0:0:
192,192,110444,128,0,110802:0:0:0:0:
448,192,110802,1,4,0:0:0:0:
64,192,110980,1,0,0:0:0:0:
320,192,111159,1,0,0:0:0:0:
192,192,111337,1,0,0:0:0:0:
64,192,111516,1,4,0:0:0:0:
448,192,111694,128,0,112453:0:0:0:0:
320,192,112453,128,0,112766:0:0:0:0:
192,192,112766,128,0,112944:0:0:0:0:
64,192,112944,128,4,113480:0:0:0:0:
320,192,113480,128,0,114373:0:0:0:0:
192,192,113659,1,4,0:0:0:0:
192,192,114373,1,4,0:0:0:0:
320,192,114730,1,0,0:0:0:0:
448,192,115087,128,4,115742:0:0:0:0:
64,192,115757,128,0,116561:0:0:0:0:
192,192,116561,128,0,117275:0:0:0:0:
448,192,117275,128,0,117944:0:0:0:0:
192,192,117944,1,0,0:0:0:35:FLS_Glass Break_01.wav
64,192,117944,1,4,0:0:0:0:
320,192,118301,1,0,0:0:0:0:
192,192,118658,1,0,0:0:0:0:
320,192,119015,1,0,0:0:0:0:
448,192,119194,128,0,119729:0:0:0:0:
64,192,119729,128,0,120086:0:0:0:0:
192,192,120086,128,0,120444:0:0:0:0:
320,192,120444,1,0,0:0:0:0:
64,192,120622,1,0,0:0:0:0:
448,192,120801,1,4,0:0:0:0:
192,192,121158,1,0,0:0:0:0:
320,192,121515,1,0,0:0:0:0:
64,192,121872,1,0,0:0:0:0:
192,192,122229,1,0,0:0:0:0:
320,192,122586,128,0,122944:0:0:0:0:
192,192,122944,128,4,123301:0:0:0:0:
448,192,123301,128,0,123658:0:0:0:0:
192,192,123658,1,0,0:0:0:0:
64,192,123658,1,4,0:0:0:0:
320,192,124015,1,0,0:0:0:0:
64,192,124372,1,0,0:0:0:0:
192,192,124729,1,0,0:0:0:0:
448,192,124908,128,0,125444:0:0:0:0:
320,192,125444,128,0,125801:0:0:0:0:
192,192,125801,128,0,126158:0:0:0:0:
448,192,126158,1,0,0:0:0:0:
64,192,126336,1,0,0:0:0:0:
320,192,126515,1,4,0:0:0:0:
192,192,126515,1,0,0:0:0:0:
192,192,127229,1,0,0:0:0:0:
448,192,127229,1,4,0:0:0:0:
448,192,127944,1,4,0:0:0:0:
320,192,127944,1,0,0:0:0:0:
64,192,128301,128,0,128658:0:0:0:0:
192,192,128658,128,0,129015:0:0:0:0:
448,192,129015,128,0,129372:0:0:0:0:
192,192,129372,1,0,0:0:0:0:
64,192,129372,1,4,0:0:0:0:
320,192,129729,1,0,0:0:0:0:
192,192,130086,1,4,0:0:0:0:
448,192,130444,1,0,0:0:0:0:
320,192,130622,128,0,131158:0:0:0:0:
192,192,131158,128,0,131515:0:0:0:0:
64,192,131515,128,4,131872:0:0:0:0:
448,192,131872,128,0,132229:0:0:0:0:
320,192,132229,128,4,132586:0:0:0:0:
64,192,132586,128,0,132944:0:0:0:0:
192,192,132944,128,4,133301:0:0:0:0:
320,192,133301,128,0,133658:0:0:0:0:
448,192,133658,128,0,135086:0:0:0:0:
64,192,133658,1,4,0:0:0:0:
192,192,134372,1,4,0:0:0:0:
192,192,135086,1,0,0:0:0:0:
64,192,135086,1,4,0:0:0:0:
320,192,135444,1,0,0:0:0:0:
192,192,135801,128,0,136158:0:0:0:0:
448,192,136158,1,0,0:0:0:0:
64,192,136515,128,0,137229:0:0:0:0:
320,192,137229,128,0,137944:0:0:0:0:
448,192,138658,128,0,138836:0:0:0:0:
320,192,140086,128,0,140265:0:0:0:0:
192,192,141515,128,0,141694:0:0:0:0:
64,192,142944,128,0,143301:0:0:0:0:
448,192,143301,128,0,143658:0:0:0:0:
