osu file format v14

[General]
AudioFilename: audio.mp3
AudioLeadIn: 0
PreviewTime: 131960
Countdown: 0
SampleSet: Soft
StackLeniency: 0.7
Mode: 3
LetterboxInBreaks: 0
SpecialStyle: 0
WidescreenStoryboard: 1

[Editor]
DistanceSpacing: 1.2
BeatDivisor: 4
GridSize: 32
TimelineZoom: 1.7

[Metadata]
Title:Yesterday
TitleUnicode:イエスタデイ
Artist:KOBASOLO & Harutya
ArtistUnicode:コバソロ & 春茶
Creator:Syrion-
Version:4K Reminiscence
Source:HELLO WORLD
Tags:ハロー・ワールド anime japanese jpop movie pop full version size j-pop female vocals cover Official髭男dism Official HIGE DANdism higedan
BeatmapID:3943910
BeatmapSetID:1152613

[Difficulty]
HPDrainRate:8.5
CircleSize:4
OverallDifficulty:8
ApproachRate:8
SliderMultiplier:1.4
SliderTickRate:1

[Events]
//Background and Video events
0,0,"stretched-1920-1080-1052849.jpg",0,0
//Break Periods
//Storyboard Layer 0 (Background)
//Storyboard Layer 1 (Fail)
//Storyboard Layer 2 (Pass)
//Storyboard Layer 3 (Foreground)
//Storyboard Layer 4 (Overlay)
//Storyboard Sound Samples

[TimingPoints]
2037,461.538461538462,4,2,2,60,1,0
62037,-100,4,2,2,60,0,1
92498,-100,4,2,2,60,0,0
133113,-100,4,2,2,60,0,1
162652,-100,4,2,2,60,0,0
225421,-100,4,2,2,60,0,1
254037,-100,4,2,2,60,0,0
254960,-100,4,2,2,60,0,1
288190,-100,4,2,2,60,0,0

[HitObjects]
448,192,1575,5,0,0:0:0:0:
320,192,1652,1,0,0:0:0:0:
64,192,1729,1,0,0:0:0:0:
192,192,1806,1,0,0:0:0:0:
320,192,1883,1,0,0:0:0:0:
448,192,1960,1,0,0:0:0:0:
64,192,2037,128,0,5671:0:0:0:0:
192,192,2037,1,0,0:0:0:0:
320,192,2344,1,0,0:0:0:0:
448,192,2344,1,0,0:0:0:0:
192,192,2671,1,0,0:0:0:0:
448,192,2671,1,0,0:0:0:0:
320,192,3017,1,0,0:0:0:0:
448,192,3883,1,0,0:0:0:0:
192,192,3883,1,0,0:0:0:0:
448,192,4190,1,0,0:0:0:0:
320,192,4190,1,0,0:0:0:0:
448,192,4517,1,0,0:0:0:0:
192,192,4806,1,0,0:0:0:0:
320,192,4806,1,0,0:0:0:0:
192,192,5113,1,0,0:0:0:0:
448,192,5113,1,0,0:0:0:0:
320,192,5440,1,0,0:0:0:0:
192,192,5671,1,0,0:0:0:0:
320,192,5729,128,0,7517:0:0:0:0:
448,192,5729,1,0,0:0:0:0:
64,192,5931,1,0,0:0:0:0:
192,192,6046,1,0,0:0:0:0:
448,192,6248,1,0,0:0:0:0:
64,192,6421,1,0,0:0:0:0:
192,192,6883,1,0,0:0:0:0:
448,192,6883,1,0,0:0:0:0:
64,192,7190,1,0,0:0:0:0:
192,192,7190,1,0,0:0:0:0:
64,192,7517,1,0,0:0:0:0:
448,192,7575,128,0,8613:0:0:0:0:
192,192,7575,1,0,0:0:0:0:
64,192,7883,1,0,0:0:0:0:
192,192,7883,1,0,0:0:0:0:
320,192,8210,1,0,0:0:0:0:
192,192,8613,128,0,9421:0:0:0:0:
448,192,9421,128,0,10344:0:0:0:0:
320,192,9421,1,0,0:0:0:0:
64,192,9421,1,0,0:0:0:0:
192,192,9652,1,0,0:0:0:0:
64,192,9883,1,0,0:0:0:0:
320,192,9883,1,0,0:0:0:0:
64,192,10113,1,0,0:0:0:0:
320,192,10344,128,0,11267:0:0:0:0:
192,192,10344,1,0,0:0:0:0:
64,192,10575,1,0,0:0:0:0:
64,192,10806,1,0,0:0:0:0:
192,192,10806,1,0,0:0:0:0:
448,192,11037,1,0,0:0:0:0:
192,192,11267,128,0,12190:0:0:0:0:
64,192,11267,1,0,0:0:0:0:
448,192,11267,1,0,0:0:0:0:
320,192,11498,1,0,0:0:0:0:
448,192,11613,1,0,0:0:0:0:
64,192,11729,1,0,0:0:0:0:
320,192,11729,1,0,0:0:0:0:
448,192,11960,1,0,0:0:0:0:
448,192,12190,1,0,0:0:0:0:
64,192,12190,128,0,13113:0:0:0:0:
320,192,12190,1,0,0:0:0:0:
192,192,12421,1,0,0:0:0:0:
320,192,12537,1,0,0:0:0:0:
448,192,12652,1,0,0:0:0:0:
192,192,12652,1,0,0:0:0:0:
320,192,12883,1,0,0:0:0:0:
320,192,13113,1,0,0:0:0:0:
192,192,13113,1,0,0:0:0:0:
448,192,13113,128,0,14267:0:0:0:0:
64,192,13344,1,0,0:0:0:0:
192,192,13460,1,0,0:0:0:0:
320,192,13575,1,0,0:0:0:0:
64,192,13575,1,0,0:0:0:0:
192,192,13806,1,0,0:0:0:0:
320,192,14037,1,0,0:0:0:0:
64,192,14037,1,0,0:0:0:0:
192,192,14267,1,0,0:0:0:0:
64,192,14383,1,0,0:0:0:0:
448,192,14498,1,0,0:0:0:0:
320,192,14498,1,0,0:0:0:0:
192,192,14613,128,0,14960:0:0:0:0:
64,192,14729,1,0,0:0:0:0:
320,192,14960,128,0,15883:0:0:0:0:
448,192,14960,1,0,0:0:0:0:
64,192,14960,1,0,0:0:0:0:
192,192,15190,1,0,0:0:0:0:
64,192,15421,1,0,0:0:0:0:
448,192,15421,1,0,0:0:0:0:
192,192,15652,1,0,0:0:0:0:
64,192,15883,128,0,16690:0:0:0:0:
448,192,15883,1,0,0:0:0:0:
320,192,16113,1,0,0:0:0:0:
192,192,16344,128,0,16690:0:0:0:0:
448,192,16344,1,0,0:0:0:0:
320,192,16575,1,0,0:0:0:0:
320,192,16806,1,0,0:0:0:0:
64,192,16806,1,0,0:0:0:0:
448,192,16806,128,0,19806:0:0:0:0:
192,192,17267,1,0,0:0:0:0:
320,192,17729,1,0,0:0:0:0:
64,192,18190,1,0,0:0:0:0:
192,192,18421,1,0,0:0:0:0:
320,192,18652,1,0,0:0:0:0:
192,192,19113,1,0,0:0:0:0:
64,192,19575,1,0,0:0:0:0:
320,192,19806,128,0,20037:0:0:0:0:
192,192,19806,1,0,0:0:0:0:
64,192,20037,128,0,20267:0:0:0:0:
448,192,20037,1,0,0:0:0:0:
320,192,20267,128,0,20498:0:0:0:0:
192,192,20267,1,0,0:0:0:0:
64,192,20498,128,0,22113:0:0:0:0:
448,192,20498,1,0,0:0:0:0:
320,192,20729,1,0,0:0:0:0:
192,192,20960,1,0,0:0:0:0:
448,192,21190,1,0,0:0:0:0:
320,192,21421,1,0,0:0:0:0:
448,192,21883,1,0,0:0:0:0:
192,192,22113,1,0,0:0:0:0:
320,192,22229,1,0,0:0:0:0:
448,192,22344,128,0,23267:0:0:0:0:
64,192,22344,1,0,0:0:0:0:
320,192,22575,1,0,0:0:0:0:
192,192,22806,1,0,0:0:0:0:
64,192,23267,1,0,0:0:0:0:
320,192,23267,128,0,23498:0:0:0:0:
448,192,23498,1,0,0:0:0:0:
192,192,23498,128,0,23729:0:0:0:0:
64,192,23729,128,0,23960:0:0:0:0:
320,192,23729,1,0,0:0:0:0:
448,192,23960,128,0,24190:0:0:0:0:
192,192,23960,1,0,0:0:0:0:
320,192,24190,128,0,25344:0:0:0:0:
64,192,24190,1,0,0:0:0:0:
192,192,24652,1,0,0:0:0:0:
448,192,24883,1,0,0:0:0:0:
192,192,25113,1,0,0:0:0:0:
448,192,25344,1,0,0:0:0:0:
64,192,25344,128,0,25575:0:0:0:0:
192,192,25575,1,0,0:0:0:0:
320,192,25575,128,0,25806:0:0:0:0:
448,192,25806,1,0,0:0:0:0:
64,192,25806,128,0,26037:0:0:0:0:
192,192,26037,128,0,26960:0:0:0:0:
320,192,26037,1,0,0:0:0:0:
448,192,26267,1,0,0:0:0:0:
320,192,26498,1,0,0:0:0:0:
64,192,26729,1,0,0:0:0:0:
320,192,26960,128,0,27883:0:0:0:0:
448,192,26960,1,0,0:0:0:0:
64,192,27190,1,0,0:0:0:0:
448,192,27652,1,0,0:0:0:0:
192,192,27883,128,0,29037:0:0:0:0:
64,192,27883,1,0,0:0:0:0:
320,192,28575,1,0,0:0:0:0:
448,192,28806,1,0,0:0:0:0:
320,192,29037,128,0,29267:0:0:0:0:
64,192,29037,1,0,0:0:0:0:
192,192,29267,128,0,29498:0:0:0:0:
448,192,29267,1,0,0:0:0:0:
64,192,29498,128,0,29729:0:0:0:0:
320,192,29498,1,0,0:0:0:0:
192,192,29729,1,0,0:0:0:0:
448,192,29729,128,0,30190:0:0:0:0:
320,192,29960,1,0,0:0:0:0:
192,192,30190,128,0,30306:0:0:0:0:
64,192,30190,1,0,0:0:0:0:
320,192,30306,128,0,30421:0:0:0:0:
448,192,30421,128,0,30537:0:0:0:0:
192,192,30537,128,0,30652:0:0:0:0:
320,192,30652,1,0,0:0:0:0:
64,192,30652,128,0,30883:0:0:0:0:
192,192,30883,1,0,0:0:0:0:
448,192,30883,128,0,31113:0:0:0:0:
320,192,31113,1,0,0:0:0:0:
64,192,31113,128,0,31344:0:0:0:0:
192,192,31344,1,0,0:0:0:0:
448,192,31344,128,0,31575:0:0:0:0:
320,192,31575,1,0,0:0:0:0:
64,192,31575,1,0,0:0:0:0:
448,192,31806,128,0,32037:0:0:0:0:
192,192,32037,128,0,32267:0:0:0:0:
64,192,32037,1,0,0:0:0:0:
320,192,32267,128,0,32498:0:0:0:0:
448,192,32498,1,0,0:0:0:0:
64,192,32498,128,0,32729:0:0:0:0:
448,192,32960,128,0,33190:0:0:0:0:
192,192,32960,1,0,0:0:0:0:
320,192,33190,128,0,33421:0:0:0:0:
192,192,33421,128,0,33652:0:0:0:0:
64,192,33421,1,0,0:0:0:0:
192,192,33883,128,0,34113:0:0:0:0:
448,192,33883,1,0,0:0:0:0:
64,192,34113,1,0,0:0:0:0:
192,192,34344,128,0,34575:0:0:0:0:
320,192,34344,1,0,0:0:0:0:
64,192,34575,128,0,34690:0:0:0:0:
320,192,34806,1,0,0:0:0:0:
192,192,34806,128,0,34921:0:0:0:0:
448,192,35037,128,0,35152:0:0:0:0:
320,192,35037,128,0,35267:0:0:0:0:
192,192,35267,128,0,35383:0:0:0:0:
64,192,35267,128,0,35729:0:0:0:0:
192,192,35729,128,0,35960:0:0:0:0:
448,192,35729,1,0,0:0:0:0:
320,192,35960,128,0,36190:0:0:0:0:
64,192,36075,1,0,0:0:0:0:
448,192,36190,128,0,36652:0:0:0:0:
192,192,36190,1,0,0:0:0:0:
64,192,36652,128,0,36767:0:0:0:0:
320,192,36652,1,0,0:0:0:0:
64,192,36883,128,0,37113:0:0:0:0:
320,192,37113,128,0,37575:0:0:0:0:
192,192,37113,1,0,0:0:0:0:
448,192,37575,1,0,0:0:0:0:
64,192,37575,128,0,37690:0:0:0:0:
192,192,37806,128,0,38037:0:0:0:0:
320,192,38037,128,0,38498:0:0:0:0:
64,192,38037,1,0,0:0:0:0:
64,192,38498,128,0,38729:0:0:0:0:
448,192,38498,1,0,0:0:0:0:
192,192,38729,128,0,38960:0:0:0:0:
448,192,38960,128,0,39306:0:0:0:0:
320,192,38960,128,0,39075:0:0:0:0:
64,192,39421,128,0,39652:0:0:0:0:
320,192,39421,128,0,39537:0:0:0:0:
448,192,39652,1,0,0:0:0:0:
320,192,39767,1,0,0:0:0:0:
64,192,39883,128,0,40113:0:0:0:0:
192,192,39883,128,0,39998:0:0:0:0:
320,192,40113,128,0,40229:0:0:0:0:
192,192,40344,128,0,40575:0:0:0:0:
448,192,40344,128,0,40460:0:0:0:0:
320,192,40575,128,0,40690:0:0:0:0:
64,192,40575,128,0,40806:0:0:0:0:
192,192,40806,128,0,40921:0:0:0:0:
448,192,40806,128,0,41267:0:0:0:0:
64,192,41267,1,0,0:0:0:0:
192,192,41267,1,0,0:0:0:0:
320,192,41498,128,0,41613:0:0:0:0:
64,192,41498,128,0,41729:0:0:0:0:
192,192,41729,128,0,41960:0:0:0:0:
448,192,41729,128,0,41844:0:0:0:0:
320,192,41960,128,0,42190:0:0:0:0:
64,192,41960,128,0,42075:0:0:0:0:
448,192,42190,128,0,42421:0:0:0:0:
192,192,42190,128,0,42306:0:0:0:0:
64,192,42421,128,0,42652:0:0:0:0:
320,192,42421,128,0,42537:0:0:0:0:
448,192,42652,1,0,0:0:0:0:
192,192,42652,128,0,42998:0:0:0:0:
320,192,42998,1,0,0:0:0:0:
448,192,43113,128,0,43575:0:0:0:0:
64,192,43575,1,0,0:0:0:0:
320,192,43575,1,0,0:0:0:0:
192,192,43806,128,0,44037:0:0:0:0:
64,192,44037,128,0,44267:0:0:0:0:
448,192,44267,128,0,44383:0:0:0:0:
448,192,44498,128,0,44960:0:0:0:0:
192,192,44498,1,0,0:0:0:0:
192,192,45421,128,0,45652:0:0:0:0:
448,192,45421,1,0,0:0:0:0:
320,192,45652,128,0,45883:0:0:0:0:
64,192,45652,1,0,0:0:0:0:
448,192,45883,128,0,46113:0:0:0:0:
192,192,45883,1,0,0:0:0:0:
320,192,46113,1,0,0:0:0:0:
64,192,46113,128,0,46344:0:0:0:0:
448,192,46344,128,0,46806:0:0:0:0:
192,192,46344,1,0,0:0:0:0:
320,192,46344,1,0,0:0:0:0:
64,192,46575,1,0,0:0:0:0:
64,192,46806,1,0,0:0:0:0:
192,192,46806,128,0,47037:0:0:0:0:
64,192,47037,1,0,0:0:0:0:
320,192,47037,128,0,47267:0:0:0:0:
64,192,47267,1,0,0:0:0:0:
448,192,47267,128,0,47729:0:0:0:0:
192,192,47498,1,0,0:0:0:0:
192,192,47729,1,0,0:0:0:0:
192,192,47960,1,0,0:0:0:0:
448,192,48190,128,0,48537:0:0:0:0:
192,192,48190,1,0,0:0:0:0:
64,192,48421,1,0,0:0:0:0:
320,192,48421,1,0,0:0:0:0:
192,192,48537,128,0,48883:0:0:0:0:
320,192,48652,1,0,0:0:0:0:
320,192,48883,1,0,0:0:0:0:
448,192,48883,128,0,49113:0:0:0:0:
64,192,49113,128,0,49344:0:0:0:0:
320,192,49113,1,0,0:0:0:0:
448,192,49344,1,0,0:0:0:0:
448,192,49575,1,0,0:0:0:0:
64,192,49806,128,0,50037:0:0:0:0:
448,192,49806,1,0,0:0:0:0:
320,192,50037,128,0,50267:0:0:0:0:
448,192,50037,1,0,0:0:0:0:
192,192,50267,1,0,0:0:0:0:
192,192,50498,1,0,0:0:0:0:
448,192,50498,128,0,50729:0:0:0:0:
320,192,50729,128,0,50960:0:0:0:0:
192,192,50729,1,0,0:0:0:0:
192,192,50960,1,0,0:0:0:0:
64,192,50960,128,0,51190:0:0:0:0:
448,192,51190,1,0,0:0:0:0:
448,192,51421,1,0,0:0:0:0:
192,192,51421,128,0,51652:0:0:0:0:
64,192,51652,1,0,0:0:0:0:
448,192,51652,1,0,0:0:0:0:
448,192,51883,1,0,0:0:0:0:
320,192,51883,128,0,52344:0:0:0:0:
64,192,52113,1,0,0:0:0:0:
192,192,52113,1,0,0:0:0:0:
192,192,52344,1,0,0:0:0:0:
192,192,52575,1,0,0:0:0:0:
64,192,52575,128,0,52806:0:0:0:0:
192,192,52806,1,0,0:0:0:0:
448,192,52806,128,0,53037:0:0:0:0:
320,192,53037,128,0,53267:0:0:0:0:
64,192,53037,1,0,0:0:0:0:
64,192,53267,1,0,0:0:0:0:
192,192,53267,128,0,53498:0:0:0:0:
64,192,53498,1,0,0:0:0:0:
448,192,53498,128,0,53729:0:0:0:0:
64,192,53729,1,0,0:0:0:0:
320,192,53729,128,0,53960:0:0:0:0:
192,192,53960,1,0,0:0:0:0:
448,192,54075,128,0,54421:0:0:0:0:
192,192,54190,1,0,0:0:0:0:
192,192,54421,1,0,0:0:0:0:
320,192,54421,128,0,54652:0:0:0:0:
192,192,54652,1,0,0:0:0:0:
64,192,54652,128,0,54883:0:0:0:0:
448,192,54883,1,0,0:0:0:0:
448,192,55113,1,0,0:0:0:0:
64,192,55344,128,0,55575:0:0:0:0:
448,192,55344,1,0,0:0:0:0:
448,192,55575,1,0,0:0:0:0:
192,192,55575,128,0,55921:0:0:0:0:
64,192,55806,1,0,0:0:0:0:
320,192,55806,1,0,0:0:0:0:
448,192,55921,128,0,56267:0:0:0:0:
320,192,56037,1,0,0:0:0:0:
320,192,56267,1,0,0:0:0:0:
64,192,56267,128,0,56498:0:0:0:0:
320,192,56498,1,0,0:0:0:0:
192,192,56498,128,0,56729:0:0:0:0:
448,192,56729,1,0,0:0:0:0:
448,192,56960,1,0,0:0:0:0:
448,192,57190,1,0,0:0:0:0:
192,192,57190,128,0,57306:0:0:0:0:
192,192,57421,128,0,57652:0:0:0:0:
448,192,57421,1,0,0:0:0:0:
64,192,57421,1,0,0:0:0:0:
64,192,57652,1,0,0:0:0:0:
320,192,57652,128,0,57883:0:0:0:0:
64,192,57883,1,0,0:0:0:0:
448,192,57883,128,0,58113:0:0:0:0:
192,192,58113,128,0,58344:0:0:0:0:
64,192,58113,1,0,0:0:0:0:
320,192,58344,1,0,0:0:0:0:
448,192,58344,128,0,58575:0:0:0:0:
320,192,58575,1,0,0:0:0:0:
320,192,58806,1,0,0:0:0:0:
64,192,58806,128,0,59037:0:0:0:0:
448,192,59037,1,0,0:0:0:0:
320,192,59037,128,0,60883:0:0:0:0:
64,192,59267,128,0,61113:0:0:0:0:
192,192,59267,128,0,60998:0:0:0:0:
192,192,62037,128,0,62267:0:0:0:0:
320,192,62152,128,0,62383:0:0:0:0:
448,192,62267,128,0,62498:0:0:0:0:
64,192,62383,128,0,62613:0:0:0:0:
192,192,62498,128,0,62729:0:0:0:0:
320,192,62613,128,0,62844:0:0:0:0:
448,192,62729,128,0,62960:0:0:0:0:
64,192,62844,128,0,62960:0:0:0:0:
192,192,62960,128,0,63652:0:0:0:0:
320,192,62960,1,0,0:0:0:0:
448,192,63190,1,0,0:0:0:0:
320,192,63421,1,0,0:0:0:0:
64,192,63421,1,0,0:0:0:0:
448,192,63652,128,0,63883:0:0:0:0:
192,192,63883,128,0,64113:0:0:0:0:
64,192,63883,1,0,0:0:0:0:
320,192,64113,1,0,0:0:0:0:
64,192,64344,1,0,0:0:0:0:
192,192,64344,1,0,0:0:0:0:
448,192,64344,128,0,64460:0:0:0:0:
320,192,64460,128,0,64575:0:0:0:0:
192,192,64575,128,0,64690:0:0:0:0:
64,192,64690,128,0,64806:0:0:0:0:
448,192,64806,128,0,65498:0:0:0:0:
320,192,64806,1,0,0:0:0:0:
192,192,65037,1,0,0:0:0:0:
64,192,65267,1,0,0:0:0:0:
192,192,65267,1,0,0:0:0:0:
320,192,65498,128,0,65729:0:0:0:0:
192,192,65729,128,0,65960:0:0:0:0:
64,192,65729,1,0,0:0:0:0:
320,192,65960,1,0,0:0:0:0:
448,192,66190,1,0,0:0:0:0:
192,192,66190,1,0,0:0:0:0:
64,192,66190,1,0,0:0:0:0:
320,192,66421,128,0,66652:0:0:0:0:
192,192,66652,1,0,0:0:0:0:
64,192,66652,128,0,67113:0:0:0:0:
448,192,66883,1,0,0:0:0:0:
192,192,67113,128,0,67344:0:0:0:0:
320,192,67113,1,0,0:0:0:0:
448,192,67113,1,0,0:0:0:0:
320,192,67344,128,0,67575:0:0:0:0:
448,192,67575,128,0,68037:0:0:0:0:
64,192,67575,1,0,0:0:0:0:
192,192,67806,1,0,0:0:0:0:
320,192,68037,128,0,68498:0:0:0:0:
64,192,68037,1,0,0:0:0:0:
192,192,68037,1,0,0:0:0:0:
192,192,68267,128,0,68498:0:0:0:0:
448,192,68498,128,0,68613:0:0:0:0:
64,192,68498,128,0,68960:0:0:0:0:
320,192,68729,1,0,0:0:0:0:
192,192,68960,1,0,0:0:0:0:
448,192,68960,1,0,0:0:0:0:
320,192,68960,128,0,69075:0:0:0:0:
448,192,69190,128,0,69652:0:0:0:0:
192,192,69421,128,0,69652:0:0:0:0:
64,192,69421,128,0,69537:0:0:0:0:
320,192,69652,1,0,0:0:0:0:
64,192,69883,1,0,0:0:0:0:
448,192,69883,1,0,0:0:0:0:
192,192,69883,128,0,69998:0:0:0:0:
320,192,70113,1,0,0:0:0:0:
192,192,70344,1,0,0:0:0:0:
320,192,70344,128,0,70460:0:0:0:0:
448,192,70344,128,0,70575:0:0:0:0:
64,192,70344,1,0,0:0:0:0:
64,192,70575,128,0,70806:0:0:0:0:
192,192,70806,128,0,71037:0:0:0:0:
448,192,70806,1,0,0:0:0:0:
320,192,70806,1,0,0:0:0:0:
320,192,71037,128,0,71267:0:0:0:0:
64,192,71267,1,0,0:0:0:0:
192,192,71267,1,0,0:0:0:0:
448,192,71498,128,0,71729:0:0:0:0:
320,192,71729,128,0,71960:0:0:0:0:
64,192,71729,1,0,0:0:0:0:
192,192,71729,1,0,0:0:0:0:
192,192,71960,128,0,72190:0:0:0:0:
64,192,72190,128,0,72652:0:0:0:0:
448,192,72190,1,0,0:0:0:0:
320,192,72421,1,0,0:0:0:0:
192,192,72652,128,0,73113:0:0:0:0:
448,192,72652,1,0,0:0:0:0:
320,192,72652,1,0,0:0:0:0:
448,192,72883,1,0,0:0:0:0:
320,192,73113,128,0,73575:0:0:0:0:
64,192,73113,1,0,0:0:0:0:
192,192,73344,1,0,0:0:0:0:
448,192,73575,128,0,74037:0:0:0:0:
64,192,73575,1,0,0:0:0:0:
192,192,73575,1,0,0:0:0:0:
320,192,73806,1,0,0:0:0:0:
64,192,74037,128,0,74729:0:0:0:0:
192,192,74037,1,0,0:0:0:0:
320,192,74037,1,0,0:0:0:0:
448,192,74267,1,0,0:0:0:0:
448,192,74498,1,0,0:0:0:0:
320,192,74498,1,0,0:0:0:0:
192,192,74729,128,0,74960:0:0:0:0:
448,192,74960,128,0,75421:0:0:0:0:
64,192,74960,1,0,0:0:0:0:
320,192,74960,1,0,0:0:0:0:
192,192,75190,1,0,0:0:0:0:
64,192,75421,1,0,0:0:0:0:
320,192,75421,1,0,0:0:0:0:
192,192,75421,1,0,0:0:0:0:
192,192,75652,1,0,0:0:0:0:
448,192,75883,1,0,0:0:0:0:
320,192,75883,1,0,0:0:0:0:
64,192,75883,1,0,0:0:0:0:
192,192,76113,1,0,0:0:0:0:
192,192,76229,1,0,0:0:0:0:
448,192,76344,1,0,0:0:0:0:
320,192,76344,1,0,0:0:0:0:
64,192,76344,1,0,0:0:0:0:
192,192,76575,1,0,0:0:0:0:
64,192,76806,1,0,0:0:0:0:
448,192,76806,1,0,0:0:0:0:
192,192,76921,1,0,0:0:0:0:
320,192,76921,1,0,0:0:0:0:
64,192,77037,1,0,0:0:0:0:
448,192,77037,1,0,0:0:0:0:
192,192,77152,1,0,0:0:0:0:
320,192,77152,1,0,0:0:0:0:
64,192,77267,1,0,0:0:0:0:
448,192,77267,1,0,0:0:0:0:
192,192,77498,1,0,0:0:0:0:
320,192,77498,1,0,0:0:0:0:
448,192,77613,1,0,0:0:0:0:
320,192,77729,1,0,0:0:0:0:
192,192,77729,1,0,0:0:0:0:
64,192,77729,128,0,78190:0:0:0:0:
448,192,77960,1,0,0:0:0:0:
192,192,78190,1,0,0:0:0:0:
320,192,78190,1,0,0:0:0:0:
192,192,78421,128,0,78883:0:0:0:0:
320,192,78652,128,0,78883:0:0:0:0:
448,192,78652,1,0,0:0:0:0:
64,192,78883,1,0,0:0:0:0:
448,192,79113,128,0,79229:0:0:0:0:
64,192,79113,1,0,0:0:0:0:
192,192,79113,1,0,0:0:0:0:
320,192,79229,128,0,79344:0:0:0:0:
192,192,79344,128,0,79460:0:0:0:0:
64,192,79460,128,0,79575:0:0:0:0:
448,192,79575,128,0,80498:0:0:0:0:
320,192,79575,1,0,0:0:0:0:
192,192,79806,1,0,0:0:0:0:
64,192,80037,1,0,0:0:0:0:
320,192,80037,1,0,0:0:0:0:
192,192,80267,128,0,80498:0:0:0:0:
64,192,80498,128,0,80960:0:0:0:0:
320,192,80498,1,0,0:0:0:0:
448,192,80729,1,0,0:0:0:0:
448,192,80960,1,0,0:0:0:0:
192,192,80960,1,0,0:0:0:0:
320,192,80960,1,0,0:0:0:0:
192,192,81190,128,0,81421:0:0:0:0:
320,192,81421,128,0,81652:0:0:0:0:
64,192,81421,1,0,0:0:0:0:
192,192,81652,1,0,0:0:0:0:
64,192,81883,1,0,0:0:0:0:
320,192,81883,1,0,0:0:0:0:
448,192,81883,128,0,82113:0:0:0:0:
192,192,82113,128,0,82344:0:0:0:0:
320,192,82344,128,0,82575:0:0:0:0:
64,192,82344,1,0,0:0:0:0:
448,192,82575,1,0,0:0:0:0:
192,192,82806,128,0,83037:0:0:0:0:
64,192,82806,1,0,0:0:0:0:
448,192,82806,1,0,0:0:0:0:
320,192,83037,128,0,83267:0:0:0:0:
448,192,83267,128,0,83729:0:0:0:0:
64,192,83267,128,0,83383:0:0:0:0:
192,192,83498,1,0,0:0:0:0:
320,192,83729,1,0,0:0:0:0:
64,192,83729,1,0,0:0:0:0:
192,192,83729,128,0,83844:0:0:0:0:
320,192,83960,128,0,84190:0:0:0:0:
64,192,84190,128,0,84421:0:0:0:0:
448,192,84190,128,0,84306:0:0:0:0:
192,192,84421,1,0,0:0:0:0:
64,192,84652,1,0,0:0:0:0:
448,192,84652,1,0,0:0:0:0:
320,192,84652,128,0,84767:0:0:0:0:
192,192,84883,128,0,85113:0:0:0:0:
64,192,85113,128,0,85344:0:0:0:0:
320,192,85113,1,0,0:0:0:0:
448,192,85113,128,0,85229:0:0:0:0:
192,192,85344,1,0,0:0:0:0:
448,192,85460,128,0,85690:0:0:0:0:
320,192,85575,1,0,0:0:0:0:
64,192,85575,1,0,0:0:0:0:
320,192,85806,128,0,86037:0:0:0:0:
192,192,86037,1,0,0:0:0:0:
64,192,86037,128,0,86267:0:0:0:0:
320,192,86267,1,0,0:0:0:0:
192,192,86383,128,0,86613:0:0:0:0:
448,192,86498,1,0,0:0:0:0:
64,192,86498,1,0,0:0:0:0:
320,192,86729,128,0,86960:0:0:0:0:
448,192,86960,128,0,87190:0:0:0:0:
64,192,86960,1,0,0:0:0:0:
192,192,86960,1,0,0:0:0:0:
320,192,87190,1,0,0:0:0:0:
64,192,87306,128,0,87652:0:0:0:0:
192,192,87421,1,0,0:0:0:0:
448,192,87421,1,0,0:0:0:0:
320,192,87652,128,0,88113:0:0:0:0:
192,192,87883,128,0,88113:0:0:0:0:
64,192,87883,1,0,0:0:0:0:
448,192,88113,1,0,0:0:0:0:
192,192,88344,1,0,0:0:0:0:
320,192,88344,1,0,0:0:0:0:
64,192,88344,1,0,0:0:0:0:
448,192,88575,1,0,0:0:0:0:
320,192,88690,1,0,0:0:0:0:
64,192,88806,128,0,89729:0:0:0:0:
192,192,88806,1,0,0:0:0:0:
448,192,88806,1,0,0:0:0:0:
320,192,89037,1,0,0:0:0:0:
192,192,89267,1,0,0:0:0:0:
448,192,89267,1,0,0:0:0:0:
320,192,89498,128,0,89729:0:0:0:0:
192,192,89729,128,0,90190:0:0:0:0:
448,192,89729,1,0,0:0:0:0:
320,192,89960,1,0,0:0:0:0:
64,192,90190,1,0,0:0:0:0:
320,192,90190,1,0,0:0:0:0:
448,192,90190,1,0,0:0:0:0:
320,192,90421,128,0,90652:0:0:0:0:
64,192,90652,128,0,90883:0:0:0:0:
192,192,90652,1,0,0:0:0:0:
448,192,90652,1,0,0:0:0:0:
320,192,90883,1,0,0:0:0:0:
448,192,90998,1,0,0:0:0:0:
320,192,91113,1,0,0:0:0:0:
64,192,91113,1,0,0:0:0:0:
192,192,91113,1,0,0:0:0:0:
448,192,91344,1,0,0:0:0:0:
64,192,91344,1,0,0:0:0:0:
320,192,91575,1,0,0:0:0:0:
448,192,91575,1,0,0:0:0:0:
64,192,91690,1,0,0:0:0:0:
192,192,91690,1,0,0:0:0:0:
448,192,91806,1,0,0:0:0:0:
320,192,91806,1,0,0:0:0:0:
64,192,91921,1,0,0:0:0:0:
192,192,91921,1,0,0:0:0:0:
320,192,92037,1,0,0:0:0:0:
448,192,92037,1,0,0:0:0:0:
64,192,92152,1,0,0:0:0:0:
192,192,92152,1,0,0:0:0:0:
320,192,92267,1,0,0:0:0:0:
448,192,92267,1,0,0:0:0:0:
192,192,92383,1,0,0:0:0:0:
64,192,92498,1,0,0:0:0:0:
320,192,92498,1,0,0:0:0:0:
448,192,92498,128,0,92960:0:0:0:0:
192,192,93190,128,0,93306:0:0:0:0:
448,192,93190,1,0,0:0:0:0:
320,192,93421,1,0,0:0:0:0:
192,192,93421,128,0,95037:0:0:0:0:
64,192,93652,128,0,93767:0:0:0:0:
448,192,93883,128,0,93998:0:0:0:0:
448,192,94113,1,0,0:0:0:0:
320,192,94113,128,0,94229:0:0:0:0:
64,192,94344,1,0,0:0:0:0:
320,192,94344,1,0,0:0:0:0:
448,192,94575,128,0,94690:0:0:0:0:
320,192,94806,128,0,94921:0:0:0:0:
448,192,95037,1,0,0:0:0:0:
64,192,95037,128,0,95152:0:0:0:0:
320,192,95267,1,0,0:0:0:0:
64,192,95498,1,0,0:0:0:0:
192,192,95498,128,0,95613:0:0:0:0:
320,192,95729,128,0,95844:0:0:0:0:
192,192,95729,1,0,0:0:0:0:
320,192,95960,1,0,0:0:0:0:
448,192,95960,128,0,96075:0:0:0:0:
64,192,96190,1,0,0:0:0:0:
192,192,96190,1,0,0:0:0:0:
448,192,96190,1,0,0:0:0:0:
320,192,96652,128,0,96883:0:0:0:0:
192,192,96652,1,0,0:0:0:0:
64,192,96883,1,0,0:0:0:0:
192,192,97113,128,0,97344:0:0:0:0:
448,192,97113,1,0,0:0:0:0:
320,192,97344,1,0,0:0:0:0:
192,192,97575,1,0,0:0:0:0:
64,192,97575,128,0,97806:0:0:0:0:
448,192,97806,128,0,97921:0:0:0:0:
320,192,98037,1,0,0:0:0:0:
448,192,98037,128,0,98498:0:0:0:0:
64,192,98267,1,0,0:0:0:0:
192,192,98498,1,0,0:0:0:0:
320,192,98498,128,0,98960:0:0:0:0:
448,192,98729,1,0,0:0:0:0:
192,192,98960,128,0,99421:0:0:0:0:
64,192,98960,1,0,0:0:0:0:
448,192,99190,128,0,99306:0:0:0:0:
64,192,99421,1,0,0:0:0:0:
448,192,99421,1,0,0:0:0:0:
320,192,99537,128,0,99652:0:0:0:0:
64,192,99652,128,0,99767:0:0:0:0:
192,192,99883,128,0,99998:0:0:0:0:
320,192,99883,1,0,0:0:0:0:
448,192,99883,1,0,0:0:0:0:
64,192,100113,128,0,100344:0:0:0:0:
320,192,100344,128,0,100575:0:0:0:0:
448,192,100344,1,0,0:0:0:0:
192,192,100575,128,0,100806:0:0:0:0:
320,192,100806,1,0,0:0:0:0:
64,192,100806,128,0,101037:0:0:0:0:
448,192,101037,1,0,0:0:0:0:
192,192,101267,128,0,101498:0:0:0:0:
64,192,101267,1,0,0:0:0:0:
320,192,101498,128,0,101729:0:0:0:0:
448,192,101729,128,0,101960:0:0:0:0:
192,192,101729,1,0,0:0:0:0:
64,192,101729,128,0,101844:0:0:0:0:
192,192,101960,128,0,102421:0:0:0:0:
320,192,102190,128,0,102421:0:0:0:0:
448,192,102190,1,0,0:0:0:0:
64,192,102421,1,0,0:0:0:0:
448,192,102652,128,0,102767:0:0:0:0:
192,192,102652,1,0,0:0:0:0:
320,192,102883,1,0,0:0:0:0:
64,192,103113,128,0,103229:0:0:0:0:
448,192,103113,1,0,0:0:0:0:
320,192,103344,128,0,103575:0:0:0:0:
448,192,103575,128,0,104037:0:0:0:0:
192,192,103575,128,0,103690:0:0:0:0:
64,192,103806,1,0,0:0:0:0:
192,192,104037,128,0,104267:0:0:0:0:
320,192,104037,1,0,0:0:0:0:
64,192,104267,128,0,104498:0:0:0:0:
320,192,104498,128,0,104729:0:0:0:0:
448,192,104498,1,0,0:0:0:0:
64,192,104729,1,0,0:0:0:0:
320,192,104960,1,0,0:0:0:0:
192,192,104960,1,0,0:0:0:0:
448,192,105190,128,0,105421:0:0:0:0:
64,192,105421,128,0,105652:0:0:0:0:
320,192,105421,128,0,105537:0:0:0:0:
192,192,105652,128,0,105883:0:0:0:0:
448,192,105883,128,0,106113:0:0:0:0:
320,192,105883,1,0,0:0:0:0:
64,192,106113,128,0,106344:0:0:0:0:
192,192,106344,128,0,106575:0:0:0:0:
320,192,106344,128,0,106460:0:0:0:0:
448,192,106575,128,0,106806:0:0:0:0:
64,192,106806,1,0,0:0:0:0:
320,192,106806,1,0,0:0:0:0:
192,192,107037,128,0,107267:0:0:0:0:
64,192,107267,128,0,107498:0:0:0:0:
448,192,107267,128,0,107383:0:0:0:0:
320,192,107498,1,0,0:0:0:0:
192,192,107729,1,0,0:0:0:0:
64,192,107729,1,0,0:0:0:0:
320,192,107960,128,0,108421:0:0:0:0:
192,192,108190,128,0,108421:0:0:0:0:
64,192,108190,1,0,0:0:0:0:
448,192,108421,1,0,0:0:0:0:
64,192,108652,128,0,108767:0:0:0:0:
192,192,108652,1,0,0:0:0:0:
448,192,108883,128,0,109113:0:0:0:0:
320,192,109113,128,0,109344:0:0:0:0:
64,192,109113,1,0,0:0:0:0:
192,192,109344,128,0,109575:0:0:0:0:
448,192,109575,128,0,109806:0:0:0:0:
64,192,109575,1,0,0:0:0:0:
320,192,109806,1,0,0:0:0:0:
64,192,110037,128,0,110267:0:0:0:0:
192,192,110037,128,0,110152:0:0:0:0:
448,192,110267,128,0,110498:0:0:0:0:
192,192,110498,128,0,110729:0:0:0:0:
320,192,110498,128,0,110613:0:0:0:0:
64,192,110729,1,0,0:0:0:0:
64,192,110960,1,0,0:0:0:0:
192,192,110960,1,0,0:0:0:0:
320,192,110960,1,0,0:0:0:0:
448,192,110960,128,0,111075:0:0:0:0:
64,192,111421,128,0,111537:0:0:0:0:
320,192,111421,1,0,0:0:0:0:
64,192,111652,128,0,111883:0:0:0:0:
320,192,111883,128,0,112113:0:0:0:0:
448,192,111883,1,0,0:0:0:0:
64,192,112113,1,0,0:0:0:0:
192,192,112344,128,0,112575:0:0:0:0:
320,192,112344,1,0,0:0:0:0:
448,192,112575,128,0,112806:0:0:0:0:
64,192,112806,128,0,113037:0:0:0:0:
192,192,112806,128,0,112921:0:0:0:0:
320,192,113037,128,0,113267:0:0:0:0:
64,192,113267,128,0,113498:0:0:0:0:
448,192,113267,1,0,0:0:0:0:
192,192,113498,1,0,0:0:0:0:
448,192,113729,128,0,113960:0:0:0:0:
320,192,113729,1,0,0:0:0:0:
64,192,113960,1,0,0:0:0:0:
192,192,114190,1,0,0:0:0:0:
448,192,114190,1,0,0:0:0:0:
64,192,114421,1,0,0:0:0:0:
192,192,114537,1,0,0:0:0:0:
448,192,114652,128,0,114883:0:0:0:0:
320,192,114652,1,0,0:0:0:0:
64,192,114652,128,0,114767:0:0:0:0:
192,192,114883,1,0,0:0:0:0:
320,192,115113,1,0,0:0:0:0:
64,192,115113,128,0,115344:0:0:0:0:
448,192,115344,128,0,115575:0:0:0:0:
320,192,115575,128,0,115806:0:0:0:0:
192,192,115575,128,0,115690:0:0:0:0:
64,192,115575,1,0,0:0:0:0:
448,192,115806,1,0,0:0:0:0:
64,192,116037,128,0,116267:0:0:0:0:
320,192,116037,1,0,0:0:0:0:
448,192,116267,128,0,116498:0:0:0:0:
64,192,116498,128,0,116729:0:0:0:0:
192,192,116498,128,0,116613:0:0:0:0:
448,192,116729,1,0,0:0:0:0:
64,192,116960,1,0,0:0:0:0:
320,192,116960,1,0,0:0:0:0:
192,192,117190,128,0,117421:0:0:0:0:
64,192,117421,128,0,117652:0:0:0:0:
448,192,117421,128,0,117537:0:0:0:0:
320,192,117652,128,0,117883:0:0:0:0:
448,192,117883,1,0,0:0:0:0:
64,192,117883,128,0,118113:0:0:0:0:
192,192,118113,128,0,118344:0:0:0:0:
448,192,118344,128,0,118460:0:0:0:0:
320,192,118344,128,0,118575:0:0:0:0:
64,192,118344,1,0,0:0:0:0:
192,192,118575,1,0,0:0:0:0:
320,192,118806,1,0,0:0:0:0:
64,192,118806,1,0,0:0:0:0:
448,192,119037,128,0,119267:0:0:0:0:
192,192,119267,128,0,119498:0:0:0:0:
320,192,119267,1,0,0:0:0:0:
64,192,119267,128,0,119383:0:0:0:0:
448,192,119498,128,0,119729:0:0:0:0:
320,192,119729,128,0,119960:0:0:0:0:
64,192,119729,1,0,0:0:0:0:
192,192,119960,128,0,120421:0:0:0:0:
320,192,120190,128,0,120421:0:0:0:0:
64,192,120190,128,0,120421:0:0:0:0:
448,192,120190,128,0,120883:0:0:0:0:
64,192,120652,128,0,120883:0:0:0:0:
192,192,120652,128,0,121344:0:0:0:0:
320,192,120652,128,0,120883:0:0:0:0:
320,192,121113,128,0,121344:0:0:0:0:
448,192,121113,128,0,121344:0:0:0:0:
64,192,121113,128,0,121344:0:0:0:0:
64,192,121575,1,0,0:0:0:0:
192,192,121575,1,0,0:0:0:0:
448,192,121806,128,0,122037:0:0:0:0:
64,192,122037,128,0,122267:0:0:0:0:
320,192,122037,128,0,122152:0:0:0:0:
192,192,122267,128,0,122498:0:0:0:0:
320,192,122498,128,0,122729:0:0:0:0:
64,192,122498,1,0,0:0:0:0:
448,192,122729,128,0,123421:0:0:0:0:
64,192,122960,1,0,0:0:0:0:
192,192,122960,128,0,123075:0:0:0:0:
320,192,123190,1,0,0:0:0:0:
64,192,123421,128,0,123652:0:0:0:0:
192,192,123421,1,0,0:0:0:0:
320,192,123652,128,0,123767:0:0:0:0:
320,192,123883,128,0,124113:0:0:0:0:
192,192,123883,128,0,123998:0:0:0:0:
448,192,124113,1,0,0:0:0:0:
192,192,124344,1,0,0:0:0:0:
320,192,124344,1,0,0:0:0:0:
64,192,124344,1,0,0:0:0:0:
448,192,124575,1,0,0:0:0:0:
320,192,124690,1,0,0:0:0:0:
192,192,124806,1,0,0:0:0:0:
64,192,124806,1,0,0:0:0:0:
320,192,124921,1,0,0:0:0:0:
448,192,124921,1,0,0:0:0:0:
64,192,125037,1,0,0:0:0:0:
192,192,125037,1,0,0:0:0:0:
320,192,125152,1,0,0:0:0:0:
448,192,125152,1,0,0:0:0:0:
64,192,125267,1,0,0:0:0:0:
192,192,125267,1,0,0:0:0:0:
320,192,125383,1,0,0:0:0:0:
448,192,125383,1,0,0:0:0:0:
64,192,125498,1,0,0:0:0:0:
192,192,125498,1,0,0:0:0:0:
320,192,125613,1,0,0:0:0:0:
192,192,125729,1,0,0:0:0:0:
64,192,125729,128,0,126190:0:0:0:0:
448,192,125729,1,0,0:0:0:0:
448,192,125960,1,0,0:0:0:0:
192,192,126190,128,0,126421:0:0:0:0:
448,192,126190,1,0,0:0:0:0:
320,192,126421,128,0,126652:0:0:0:0:
448,192,126421,1,0,0:0:0:0:
64,192,126652,128,0,127113:0:0:0:0:
192,192,126652,1,0,0:0:0:0:
192,192,126883,1,0,0:0:0:0:
192,192,127113,1,0,0:0:0:0:
192,192,127344,1,0,0:0:0:0:
320,192,127575,1,0,0:0:0:0:
64,192,127575,128,0,127921:0:0:0:0:
192,192,127806,1,0,0:0:0:0:
320,192,127806,1,0,0:0:0:0:
448,192,127921,128,0,128267:0:0:0:0:
320,192,128037,1,0,0:0:0:0:
320,192,128267,1,0,0:0:0:0:
64,192,128267,128,0,128498:0:0:0:0:
448,192,128498,1,0,0:0:0:0:
192,192,128498,128,0,128729:0:0:0:0:
448,192,128729,1,0,0:0:0:0:
448,192,128960,1,0,0:0:0:0:
448,192,129190,1,0,0:0:0:0:
320,192,129190,128,0,129421:0:0:0:0:
64,192,129421,1,0,0:0:0:0:
192,192,129421,128,0,129652:0:0:0:0:
64,192,129652,1,0,0:0:0:0:
448,192,129652,128,0,129883:0:0:0:0:
64,192,129883,1,0,0:0:0:0:
320,192,129883,128,0,130113:0:0:0:0:
64,192,130113,1,0,0:0:0:0:
192,192,130113,128,0,130344:0:0:0:0:
64,192,130344,128,0,130575:0:0:0:0:
448,192,130344,1,0,0:0:0:0:
448,192,130575,1,0,0:0:0:0:
320,192,130806,128,0,131037:0:0:0:0:
448,192,130806,1,0,0:0:0:0:
64,192,131037,1,0,0:0:0:0:
448,192,131037,1,0,0:0:0:0:
192,192,131037,128,0,131267:0:0:0:0:
320,192,131267,128,0,131498:0:0:0:0:
64,192,131267,1,0,0:0:0:0:
448,192,131383,128,0,131613:0:0:0:0:
192,192,131498,128,0,131729:0:0:0:0:
320,192,131613,128,0,131844:0:0:0:0:
64,192,131729,128,0,131960:0:0:0:0:
448,192,131729,1,0,0:0:0:0:
192,192,131844,128,0,132075:0:0:0:0:
320,192,131960,128,0,132190:0:0:0:0:
448,192,132075,128,0,132190:0:0:0:0:
64,192,132190,1,0,0:0:0:0:
192,192,132190,1,0,0:0:0:0:
320,192,132306,1,0,0:0:0:0:
448,192,132306,1,0,0:0:0:0:
64,192,132421,1,0,0:0:0:0:
192,192,132421,1,0,0:0:0:0:
320,192,132537,1,0,0:0:0:0:
448,192,132537,1,0,0:0:0:0:
64,192,132652,1,0,0:0:0:0:
192,192,132652,1,0,0:0:0:0:
320,192,132767,1,0,0:0:0:0:
448,192,132767,1,0,0:0:0:0:
64,192,132883,1,0,0:0:0:0:
192,192,132883,1,0,0:0:0:0:
320,192,132998,1,0,0:0:0:0:
192,192,133113,1,0,0:0:0:0:
448,192,133113,128,0,133806:0:0:0:0:
64,192,133113,1,0,0:0:0:0:
320,192,133344,1,0,0:0:0:0:
64,192,133575,1,0,0:0:0:0:
192,192,133575,1,0,0:0:0:0:
320,192,133806,128,0,134037:0:0:0:0:
64,192,134037,1,0,0:0:0:0:
192,192,134037,128,0,134267:0:0:0:0:
448,192,134267,1,0,0:0:0:0:
192,192,134498,1,0,0:0:0:0:
64,192,134498,1,0,0:0:0:0:
448,192,134498,128,0,134613:0:0:0:0:
320,192,134613,128,0,134729:0:0:0:0:
192,192,134729,128,0,134844:0:0:0:0:
64,192,134844,128,0,134960:0:0:0:0:
448,192,134960,1,0,0:0:0:0:
320,192,134960,128,0,135537:0:0:0:0:
192,192,135190,1,0,0:0:0:0:
448,192,135421,1,0,0:0:0:0:
64,192,135421,1,0,0:0:0:0:
320,192,135652,128,0,135767:0:0:0:0:
64,192,135883,1,0,0:0:0:0:
320,192,135883,128,0,136113:0:0:0:0:
448,192,136113,1,0,0:0:0:0:
192,192,136344,1,0,0:0:0:0:
64,192,136344,1,0,0:0:0:0:
320,192,136344,1,0,0:0:0:0:
448,192,136575,128,0,136806:0:0:0:0:
64,192,136806,128,0,137267:0:0:0:0:
192,192,136806,1,0,0:0:0:0:
320,192,137037,1,0,0:0:0:0:
192,192,137267,128,0,137498:0:0:0:0:
448,192,137267,1,0,0:0:0:0:
320,192,137498,128,0,137729:0:0:0:0:
192,192,137729,1,0,0:0:0:0:
448,192,137729,128,0,138190:0:0:0:0:
64,192,137960,1,0,0:0:0:0:
192,192,138190,1,0,0:0:0:0:
320,192,138190,128,0,138652:0:0:0:0:
64,192,138190,1,0,0:0:0:0:
192,192,138421,128,0,138652:0:0:0:0:
64,192,138652,128,0,139113:0:0:0:0:
448,192,138652,128,0,138767:0:0:0:0:
320,192,138883,1,0,0:0:0:0:
448,192,139113,1,0,0:0:0:0:
192,192,139113,1,0,0:0:0:0:
320,192,139113,128,0,139229:0:0:0:0:
448,192,139344,128,0,139806:0:0:0:0:
64,192,139575,128,0,139806:0:0:0:0:
192,192,139575,128,0,139690:0:0:0:0:
320,192,139806,1,0,0:0:0:0:
448,192,140037,1,0,0:0:0:0:
192,192,140037,1,0,0:0:0:0:
64,192,140037,128,0,140152:0:0:0:0:
320,192,140267,1,0,0:0:0:0:
64,192,140498,1,0,0:0:0:0:
192,192,140498,1,0,0:0:0:0:
448,192,140498,128,0,140729:0:0:0:0:
320,192,140498,128,0,140613:0:0:0:0:
64,192,140729,128,0,140960:0:0:0:0:
320,192,140960,1,0,0:0:0:0:
448,192,140960,1,0,0:0:0:0:
192,192,140960,128,0,141190:0:0:0:0:
320,192,141190,128,0,141421:0:0:0:0:
192,192,141421,1,0,0:0:0:0:
64,192,141421,1,0,0:0:0:0:
448,192,141652,128,0,141883:0:0:0:0:
192,192,141883,1,0,0:0:0:0:
64,192,141883,1,0,0:0:0:0:
320,192,141883,128,0,142113:0:0:0:0:
192,192,142113,128,0,142344:0:0:0:0:
448,192,142344,1,0,0:0:0:0:
64,192,142344,128,0,142806:0:0:0:0:
320,192,142575,1,0,0:0:0:0:
320,192,142806,1,0,0:0:0:0:
448,192,142806,1,0,0:0:0:0:
192,192,142806,128,0,143267:0:0:0:0:
448,192,143037,1,0,0:0:0:0:
64,192,143267,1,0,0:0:0:0:
320,192,143267,128,0,143729:0:0:0:0:
192,192,143498,1,0,0:0:0:0:
448,192,143729,128,0,144190:0:0:0:0:
64,192,143729,1,0,0:0:0:0:
192,192,143729,1,0,0:0:0:0:
320,192,143960,1,0,0:0:0:0:
320,192,144190,1,0,0:0:0:0:
192,192,144190,1,0,0:0:0:0:
64,192,144190,128,0,144883:0:0:0:0:
448,192,144421,1,0,0:0:0:0:
448,192,144652,1,0,0:0:0:0:
320,192,144652,1,0,0:0:0:0:
192,192,144883,128,0,145113:0:0:0:0:
320,192,145113,1,0,0:0:0:0:
64,192,145113,1,0,0:0:0:0:
448,192,145113,128,0,145575:0:0:0:0:
320,192,145344,1,0,0:0:0:0:
320,192,145575,1,0,0:0:0:0:
64,192,145575,1,0,0:0:0:0:
192,192,145575,1,0,0:0:0:0:
192,192,145806,1,0,0:0:0:0:
64,192,146037,1,0,0:0:0:0:
192,192,146037,1,0,0:0:0:0:
448,192,146037,1,0,0:0:0:0:
320,192,146267,1,0,0:0:0:0:
320,192,146383,1,0,0:0:0:0:
448,192,146498,1,0,0:0:0:0:
64,192,146498,1,0,0:0:0:0:
192,192,146498,1,0,0:0:0:0:
320,192,146729,1,0,0:0:0:0:
448,192,146960,1,0,0:0:0:0:
64,192,146960,1,0,0:0:0:0:
320,192,147075,1,0,0:0:0:0:
192,192,147075,1,0,0:0:0:0:
64,192,147190,1,0,0:0:0:0:
448,192,147190,1,0,0:0:0:0:
320,192,147306,1,0,0:0:0:0:
192,192,147306,1,0,0:0:0:0:
448,192,147421,1,0,0:0:0:0:
64,192,147421,1,0,0:0:0:0:
448,192,147652,1,0,0:0:0:0:
320,192,147652,1,0,0:0:0:0:
192,192,147767,1,0,0:0:0:0:
64,192,147883,128,0,148460:0:0:0:0:
448,192,147883,1,0,0:0:0:0:
320,192,147883,1,0,0:0:0:0:
192,192,148113,1,0,0:0:0:0:
448,192,148344,1,0,0:0:0:0:
192,192,148344,1,0,0:0:0:0:
64,192,148575,128,0,148690:0:0:0:0:
64,192,148806,128,0,149037:0:0:0:0:
448,192,148806,1,0,0:0:0:0:
320,192,149037,1,0,0:0:0:0:
64,192,149267,1,0,0:0:0:0:
192,192,149267,1,0,0:0:0:0:
448,192,149267,128,0,149383:0:0:0:0:
320,192,149383,128,0,149498:0:0:0:0:
192,192,149498,128,0,149613:0:0:0:0:
64,192,149613,128,0,149729:0:0:0:0:
320,192,149729,1,0,0:0:0:0:
448,192,149729,128,0,150652:0:0:0:0:
192,192,149960,1,0,0:0:0:0:
64,192,150190,1,0,0:0:0:0:
320,192,150190,1,0,0:0:0:0:
192,192,150421,128,0,150652:0:0:0:0:
320,192,150652,1,0,0:0:0:0:
64,192,150652,128,0,151113:0:0:0:0:
448,192,150883,1,0,0:0:0:0:
192,192,151113,1,0,0:0:0:0:
448,192,151113,1,0,0:0:0:0:
320,192,151113,1,0,0:0:0:0:
192,192,151344,128,0,151575:0:0:0:0:
64,192,151575,1,0,0:0:0:0:
320,192,151575,128,0,151806:0:0:0:0:
192,192,151806,1,0,0:0:0:0:
64,192,152037,1,0,0:0:0:0:
320,192,152037,1,0,0:0:0:0:
448,192,152037,128,0,152267:0:0:0:0:
192,192,152267,128,0,152498:0:0:0:0:
64,192,152498,1,0,0:0:0:0:
320,192,152498,128,0,152729:0:0:0:0:
448,192,152729,1,0,0:0:0:0:
192,192,152960,128,0,153190:0:0:0:0:
64,192,152960,1,0,0:0:0:0:
448,192,152960,1,0,0:0:0:0:
320,192,153190,128,0,153421:0:0:0:0:
448,192,153421,128,0,153883:0:0:0:0:
64,192,153421,128,0,153537:0:0:0:0:
192,192,153652,1,0,0:0:0:0:
64,192,153883,1,0,0:0:0:0:
320,192,153883,1,0,0:0:0:0:
192,192,153883,128,0,153998:0:0:0:0:
448,192,154113,128,0,154344:0:0:0:0:
320,192,154344,128,0,154460:0:0:0:0:
64,192,154344,1,0,0:0:0:0:
192,192,154344,128,0,154575:0:0:0:0:
64,192,154806,1,0,0:0:0:0:
320,192,154806,1,0,0:0:0:0:
448,192,154806,128,0,154921:0:0:0:0:
192,192,155037,128,0,155267:0:0:0:0:
448,192,155267,1,0,0:0:0:0:
64,192,155267,128,0,155498:0:0:0:0:
320,192,155267,128,0,155383:0:0:0:0:
192,192,155498,1,0,0:0:0:0:
448,192,155613,128,0,155844:0:0:0:0:
64,192,155729,1,0,0:0:0:0:
320,192,155729,1,0,0:0:0:0:
320,192,155960,128,0,156190:0:0:0:0:
192,192,156190,1,0,0:0:0:0:
64,192,156190,128,0,156421:0:0:0:0:
448,192,156421,1,0,0:0:0:0:
192,192,156537,128,0,156767:0:0:0:0:
64,192,156652,1,0,0:0:0:0:
320,192,156652,1,0,0:0:0:0:
320,192,156883,128,0,157113:0:0:0:0:
448,192,157113,128,0,157344:0:0:0:0:
64,192,157113,1,0,0:0:0:0:
320,192,157344,1,0,0:0:0:0:
64,192,157460,128,0,157806:0:0:0:0:
448,192,157575,1,0,0:0:0:0:
192,192,157575,1,0,0:0:0:0:
320,192,157806,128,0,158267:0:0:0:0:
64,192,158037,1,0,0:0:0:0:
192,192,158037,128,0,158267:0:0:0:0:
448,192,158267,1,0,0:0:0:0:
192,192,158498,1,0,0:0:0:0:
64,192,158498,1,0,0:0:0:0:
320,192,158498,1,0,0:0:0:0:
448,192,158729,128,0,158960:0:0:0:0:
320,192,158960,1,0,0:0:0:0:
192,192,158960,1,0,0:0:0:0:
64,192,158960,128,0,159883:0:0:0:0:
448,192,159190,1,0,0:0:0:0:
448,192,159421,1,0,0:0:0:0:
192,192,159421,1,0,0:0:0:0:
320,192,159652,128,0,159883:0:0:0:0:
448,192,159883,1,0,0:0:0:0:
192,192,159883,128,0,160344:0:0:0:0:
320,192,160113,1,0,0:0:0:0:
64,192,160344,1,0,0:0:0:0:
448,192,160344,1,0,0:0:0:0:
320,192,160575,128,0,160806:0:0:0:0:
448,192,160806,1,0,0:0:0:0:
192,192,160806,1,0,0:0:0:0:
64,192,160806,128,0,161037:0:0:0:0:
320,192,161037,1,0,0:0:0:0:
448,192,161152,1,0,0:0:0:0:
192,192,161267,1,0,0:0:0:0:
64,192,161267,1,0,0:0:0:0:
320,192,161267,1,0,0:0:0:0:
64,192,161498,1,0,0:0:0:0:
448,192,161498,1,0,0:0:0:0:
448,192,161729,1,0,0:0:0:0:
320,192,161729,1,0,0:0:0:0:
192,192,161844,1,0,0:0:0:0:
64,192,161844,1,0,0:0:0:0:
448,192,161960,1,0,0:0:0:0:
320,192,161960,1,0,0:0:0:0:
192,192,162075,1,0,0:0:0:0:
64,192,162075,1,0,0:0:0:0:
448,192,162190,1,0,0:0:0:0:
320,192,162190,1,0,0:0:0:0:
192,192,162306,1,0,0:0:0:0:
64,192,162306,1,0,0:0:0:0:
320,192,162421,1,0,0:0:0:0:
448,192,162421,1,0,0:0:0:0:
192,192,162537,1,0,0:0:0:0:
448,192,162652,128,0,164498:0:0:0:0:
320,192,162652,1,0,0:0:0:0:
64,192,162652,1,0,0:0:0:0:
192,192,162883,1,0,0:0:0:0:
64,192,163113,1,0,0:0:0:0:
320,192,163113,1,0,0:0:0:0:
64,192,163344,1,0,0:0:0:0:
192,192,163575,1,0,0:0:0:0:
320,192,163575,1,0,0:0:0:0:
192,192,163806,1,0,0:0:0:0:
320,192,164037,1,0,0:0:0:0:
64,192,164037,1,0,0:0:0:0:
320,192,164267,1,0,0:0:0:0:
192,192,164498,128,0,165421:0:0:0:0:
64,192,164498,1,0,0:0:0:0:
320,192,164729,1,0,0:0:0:0:
448,192,164960,1,0,0:0:0:0:
64,192,164960,1,0,0:0:0:0:
448,192,165190,1,0,0:0:0:0:
320,192,165421,128,0,166113:0:0:0:0:
64,192,165421,1,0,0:0:0:0:
192,192,165652,1,0,0:0:0:0:
448,192,165883,1,0,0:0:0:0:
64,192,165883,1,0,0:0:0:0:
64,192,166113,128,0,166229:0:0:0:0:
192,192,166229,128,0,166344:0:0:0:0:
448,192,166344,128,0,167383:0:0:0:0:
320,192,166344,1,0,0:0:0:0:
192,192,166575,1,0,0:0:0:0:
320,192,166806,1,0,0:0:0:0:
64,192,166806,1,0,0:0:0:0:
64,192,167037,1,0,0:0:0:0:
192,192,167267,1,0,0:0:0:0:
320,192,167267,1,0,0:0:0:0:
64,192,167498,128,0,167729:0:0:0:0:
320,192,167729,1,0,0:0:0:0:
448,192,167729,1,0,0:0:0:0:
192,192,167844,128,0,168075:0:0:0:0:
64,192,167960,1,0,0:0:0:0:
320,192,168190,128,0,170037:0:0:0:0:
448,192,168190,1,0,0:0:0:0:
192,192,168421,1,0,0:0:0:0:
64,192,168652,1,0,0:0:0:0:
192,192,168652,1,0,0:0:0:0:
448,192,168883,1,0,0:0:0:0:
64,192,169113,1,0,0:0:0:0:
448,192,169113,1,0,0:0:0:0:
192,192,169344,1,0,0:0:0:0:
64,192,169575,1,0,0:0:0:0:
192,192,169575,1,0,0:0:0:0:
448,192,169806,1,0,0:0:0:0:
64,192,170037,128,0,171883:0:0:0:0:
192,192,170037,1,0,0:0:0:0:
448,192,170037,1,0,0:0:0:0:
320,192,170267,1,0,0:0:0:0:
192,192,170498,1,0,0:0:0:0:
448,192,170498,1,0,0:0:0:0:
192,192,170729,1,0,0:0:0:0:
320,192,170960,1,0,0:0:0:0:
448,192,170960,1,0,0:0:0:0:
320,192,171190,1,0,0:0:0:0:
192,192,171421,1,0,0:0:0:0:
448,192,171421,1,0,0:0:0:0:
192,192,171652,1,0,0:0:0:0:
448,192,171883,128,0,172806:0:0:0:0:
320,192,171883,1,0,0:0:0:0:
192,192,172113,1,0,0:0:0:0:
64,192,172344,1,0,0:0:0:0:
320,192,172344,1,0,0:0:0:0:
64,192,172575,1,0,0:0:0:0:
192,192,172806,128,0,173729:0:0:0:0:
320,192,172806,1,0,0:0:0:0:
448,192,173037,1,0,0:0:0:0:
64,192,173267,1,0,0:0:0:0:
320,192,173267,1,0,0:0:0:0:
448,192,173498,1,0,0:0:0:0:
320,192,173729,128,0,174652:0:0:0:0:
448,192,173729,1,0,0:0:0:0:
64,192,173729,1,0,0:0:0:0:
192,192,173960,1,0,0:0:0:0:
448,192,174190,1,0,0:0:0:0:
64,192,174190,1,0,0:0:0:0:
192,192,174421,1,0,0:0:0:0:
448,192,174652,128,0,175575:0:0:0:0:
192,192,174652,1,0,0:0:0:0:
64,192,174652,1,0,0:0:0:0:
320,192,174883,1,0,0:0:0:0:
64,192,175113,1,0,0:0:0:0:
192,192,175113,1,0,0:0:0:0:
320,192,175344,1,0,0:0:0:0:
64,192,175575,128,0,176498:0:0:0:0:
320,192,175575,1,0,0:0:0:0:
192,192,175575,1,0,0:0:0:0:
320,192,175921,1,0,0:0:0:0:
192,192,176037,1,0,0:0:0:0:
448,192,176037,1,0,0:0:0:0:
320,192,176267,1,0,0:0:0:0:
192,192,176267,1,0,0:0:0:0:
320,192,176498,1,0,0:0:0:0:
448,192,176498,1,0,0:0:0:0:
64,192,176613,1,0,0:0:0:0:
192,192,176613,1,0,0:0:0:0:
320,192,176729,1,0,0:0:0:0:
448,192,176729,1,0,0:0:0:0:
192,192,176844,1,0,0:0:0:0:
64,192,176960,1,0,0:0:0:0:
448,192,176960,1,0,0:0:0:0:
320,192,177075,1,0,0:0:0:0:
192,192,177190,1,0,0:0:0:0:
64,192,177190,1,0,0:0:0:0:
448,192,177248,1,0,0:0:0:0:
320,192,177306,1,0,0:0:0:0:
192,192,177363,1,0,0:0:0:0:
448,192,177421,128,0,177537:0:0:0:0:
64,192,177421,1,0,0:0:0:0:
320,192,177421,1,0,0:0:0:0:
192,192,177652,1,0,0:0:0:0:
448,192,177767,1,0,0:0:0:0:
320,192,177825,1,0,0:0:0:0:
64,192,177883,128,0,177998:0:0:0:0:
192,192,177883,1,0,0:0:0:0:
320,192,178113,128,0,178229:0:0:0:0:
448,192,178113,1,0,0:0:0:0:
192,192,178344,1,0,0:0:0:0:
64,192,178344,1,0,0:0:0:0:
320,192,178575,1,0,0:0:0:0:
64,192,178806,128,0,178921:0:0:0:0:
448,192,178806,1,0,0:0:0:0:
192,192,179037,128,0,179152:0:0:0:0:
320,192,179037,1,0,0:0:0:0:
448,192,179267,1,0,0:0:0:0:
64,192,179267,1,0,0:0:0:0:
320,192,179498,128,0,179613:0:0:0:0:
192,192,179498,1,0,0:0:0:0:
192,192,179729,128,0,179844:0:0:0:0:
64,192,179729,1,0,0:0:0:0:
320,192,179960,1,0,0:0:0:0:
448,192,180190,1,0,0:0:0:0:
64,192,180190,1,0,0:0:0:0:
192,192,180421,128,0,180652:0:0:0:0:
64,192,180537,128,0,180652:0:0:0:0:
320,192,180652,128,0,180883:0:0:0:0:
448,192,180652,1,0,0:0:0:0:
192,192,180767,128,0,180883:0:0:0:0:
448,192,180883,128,0,181113:0:0:0:0:
320,192,180998,128,0,181113:0:0:0:0:
64,192,181113,128,0,181229:0:0:0:0:
192,192,181113,1,0,0:0:0:0:
320,192,181344,1,0,0:0:0:0:
448,192,181460,128,0,181575:0:0:0:0:
64,192,181575,1,0,0:0:0:0:
192,192,181575,1,0,0:0:0:0:
320,192,181690,128,0,181806:0:0:0:0:
64,192,181806,1,0,0:0:0:0:
192,192,181921,128,0,182037:0:0:0:0:
448,192,182037,1,0,0:0:0:0:
320,192,182037,1,0,0:0:0:0:
64,192,182152,128,0,182267:0:0:0:0:
192,192,182267,1,0,0:0:0:0:
320,192,182383,128,0,182498:0:0:0:0:
64,192,182498,1,0,0:0:0:0:
448,192,182498,1,0,0:0:0:0:
192,192,182613,128,0,182729:0:0:0:0:
448,192,182729,128,0,182844:0:0:0:0:
320,192,182844,1,0,0:0:0:0:
192,192,182902,1,0,0:0:0:0:
448,192,182960,128,0,183767:0:0:0:0:
64,192,182960,128,0,183306:0:0:0:0:
320,192,182960,128,0,183306:0:0:0:0:
192,192,183421,128,0,183767:0:0:0:0:
64,192,183421,128,0,183767:0:0:0:0:
192,192,183883,128,0,183998:0:0:0:0:
64,192,183883,1,0,0:0:0:0:
320,192,183883,1,0,0:0:0:0:
448,192,183998,128,0,184113:0:0:0:0:
192,192,184113,128,0,184229:0:0:0:0:
448,192,184229,128,0,184344:0:0:0:0:
320,192,184344,1,0,0:0:0:0:
192,192,184460,1,0,0:0:0:0:
64,192,184460,1,0,0:0:0:0:
320,192,184575,1,0,0:0:0:0:
448,192,184575,1,0,0:0:0:0:
192,192,184690,1,0,0:0:0:0:
64,192,184806,128,0,185498:0:0:0:0:
320,192,184806,1,0,0:0:0:0:
448,192,184806,1,0,0:0:0:0:
192,192,185037,1,0,0:0:0:0:
448,192,185267,1,0,0:0:0:0:
192,192,185267,1,0,0:0:0:0:
320,192,185498,128,0,186421:0:0:0:0:
64,192,185729,1,0,0:0:0:0:
448,192,185729,1,0,0:0:0:0:
192,192,185960,1,0,0:0:0:0:
64,192,186190,1,0,0:0:0:0:
192,192,186190,1,0,0:0:0:0:
448,192,186421,128,0,186652:0:0:0:0:
64,192,186652,128,0,187113:0:0:0:0:
192,192,186652,1,0,0:0:0:0:
320,192,186883,1,0,0:0:0:0:
192,192,187113,128,0,187575:0:0:0:0:
448,192,187113,1,0,0:0:0:0:
320,192,187344,128,0,187575:0:0:0:0:
64,192,187575,128,0,187690:0:0:0:0:
448,192,187575,128,0,187690:0:0:0:0:
192,192,187690,128,0,187806:0:0:0:0:
448,192,187806,128,0,187921:0:0:0:0:
320,192,187921,128,0,188037:0:0:0:0:
64,192,188037,128,0,188152:0:0:0:0:
192,192,188037,128,0,188152:0:0:0:0:
448,192,188152,128,0,188267:0:0:0:0:
320,192,188267,128,0,188383:0:0:0:0:
192,192,188383,128,0,188498:0:0:0:0:
448,192,188498,1,0,0:0:0:0:
320,192,188498,1,0,0:0:0:0:
64,192,188498,128,0,189190:0:0:0:0:
320,192,188729,1,0,0:0:0:0:
448,192,188960,1,0,0:0:0:0:
192,192,188960,1,0,0:0:0:0:
320,192,189190,128,0,189421:0:0:0:0:
192,192,189421,128,0,189883:0:0:0:0:
448,192,189421,1,0,0:0:0:0:
64,192,189421,1,0,0:0:0:0:
64,192,189652,128,0,189883:0:0:0:0:
448,192,189883,128,0,190344:0:0:0:0:
320,192,189883,1,0,0:0:0:0:
64,192,190113,1,0,0:0:0:0:
192,192,190344,128,0,191267:0:0:0:0:
320,192,190344,1,0,0:0:0:0:
64,192,190344,1,0,0:0:0:0:
448,192,190575,1,0,0:0:0:0:
320,192,190690,1,0,0:0:0:0:
64,192,190806,1,0,0:0:0:0:
448,192,190806,1,0,0:0:0:0:
320,192,191037,1,0,0:0:0:0:
64,192,191037,1,0,0:0:0:0:
320,192,191267,1,0,0:0:0:0:
448,192,191267,1,0,0:0:0:0:
64,192,191383,1,0,0:0:0:0:
192,192,191383,1,0,0:0:0:0:
320,192,191498,1,0,0:0:0:0:
448,192,191498,1,0,0:0:0:0:
64,192,191613,1,0,0:0:0:0:
192,192,191613,1,0,0:0:0:0:
320,192,191729,1,0,0:0:0:0:
448,192,191729,1,0,0:0:0:0:
64,192,191844,1,0,0:0:0:0:
192,192,191844,1,0,0:0:0:0:
320,192,191960,1,0,0:0:0:0:
448,192,191960,1,0,0:0:0:0:
192,192,192075,1,0,0:0:0:0:
320,192,192190,128,0,193806:0:0:0:0:
64,192,192190,128,0,193806:0:0:0:0:
448,192,192190,128,0,193806:0:0:0:0:
192,192,194037,1,0,0:0:0:0:
448,192,194037,1,0,0:0:0:0:
64,192,195883,1,0,0:0:0:0:
320,192,195883,1,0,0:0:0:0:
448,192,196806,1,0,0:0:0:0:
192,192,196806,1,0,0:0:0:0:
320,192,197729,1,0,0:0:0:0:
192,192,197729,1,0,0:0:0:0:
64,192,198883,1,0,0:0:0:0:
320,192,198883,1,0,0:0:0:0:
448,192,199229,1,0,0:0:0:0:
192,192,199229,1,0,0:0:0:0:
320,192,199575,1,0,0:0:0:0:
64,192,199575,1,0,0:0:0:0:
192,192,201421,1,0,0:0:0:0:
320,192,201421,1,0,0:0:0:0:
448,192,203267,1,0,0:0:0:0:
192,192,203267,1,0,0:0:0:0:
320,192,204190,1,0,0:0:0:0:
64,192,204190,1,0,0:0:0:0:
320,192,205113,1,0,0:0:0:0:
192,192,205113,1,0,0:0:0:0:
192,192,206037,1,0,0:0:0:0:
448,192,206037,1,0,0:0:0:0:
64,192,206960,1,0,0:0:0:0:
448,192,206960,1,0,0:0:0:0:
192,192,207883,1,0,0:0:0:0:
320,192,207883,1,0,0:0:0:0:
64,192,208344,128,0,208806:0:0:0:0:
448,192,208806,128,0,209267:0:0:0:0:
64,192,209267,1,0,0:0:0:0:
192,192,209267,128,0,209498:0:0:0:0:
320,192,209498,128,0,209729:0:0:0:0:
448,192,209729,128,0,209960:0:0:0:0:
64,192,209729,1,0,0:0:0:0:
64,192,210190,1,0,0:0:0:0:
320,192,210421,128,0,210652:0:0:0:0:
64,192,210652,1,0,0:0:0:0:
192,192,210652,128,0,211113:0:0:0:0:
448,192,211113,1,0,0:0:0:0:
320,192,211344,128,0,211575:0:0:0:0:
64,192,211575,128,0,211806:0:0:0:0:
448,192,211575,1,0,0:0:0:0:
448,192,212037,1,0,0:0:0:0:
64,192,212267,128,0,212383:0:0:0:0:
448,192,212498,1,0,0:0:0:0:
64,192,212498,128,0,212960:0:0:0:0:
192,192,212960,128,0,213190:0:0:0:0:
320,192,212960,1,0,0:0:0:0:
448,192,213190,128,0,213421:0:0:0:0:
320,192,213421,1,0,0:0:0:0:
64,192,213421,128,0,213652:0:0:0:0:
320,192,213883,1,0,0:0:0:0:
192,192,213883,128,0,214113:0:0:0:0:
64,192,214113,128,0,214344:0:0:0:0:
320,192,214344,1,0,0:0:0:0:
448,192,214344,128,0,214806:0:0:0:0:
192,192,214806,1,0,0:0:0:0:
320,192,215037,128,0,215267:0:0:0:0:
192,192,215267,1,0,0:0:0:0:
64,192,215267,128,0,215498:0:0:0:0:
192,192,215729,1,0,0:0:0:0:
64,192,216190,1,0,0:0:0:0:
448,192,216190,128,0,216421:0:0:0:0:
192,192,216421,1,0,0:0:0:0:
320,192,216537,128,0,216767:0:0:0:0:
64,192,216652,1,0,0:0:0:0:
448,192,216652,1,0,0:0:0:0:
64,192,216883,128,0,217113:0:0:0:0:
192,192,217113,128,0,217344:0:0:0:0:
320,192,217113,1,0,0:0:0:0:
448,192,217344,1,0,0:0:0:0:
320,192,217460,128,0,217690:0:0:0:0:
64,192,217575,1,0,0:0:0:0:
192,192,217575,1,0,0:0:0:0:
448,192,217806,128,0,218037:0:0:0:0:
64,192,218037,1,0,0:0:0:0:
192,192,218037,128,0,218267:0:0:0:0:
320,192,218383,128,0,218729:0:0:0:0:
192,192,218498,1,0,0:0:0:0:
64,192,218498,1,0,0:0:0:0:
448,192,218729,128,0,219190:0:0:0:0:
64,192,218960,128,0,219190:0:0:0:0:
192,192,218960,1,0,0:0:0:0:
320,192,219190,1,0,0:0:0:0:
64,192,219421,1,0,0:0:0:0:
448,192,219421,1,0,0:0:0:0:
320,192,219652,1,0,0:0:0:0:
192,192,219767,1,0,0:0:0:0:
448,192,219883,128,0,220806:0:0:0:0:
64,192,219883,1,0,0:0:0:0:
320,192,220113,1,0,0:0:0:0:
192,192,220344,1,0,0:0:0:0:
320,192,220344,1,0,0:0:0:0:
64,192,220575,128,0,220806:0:0:0:0:
192,192,220806,128,0,221498:0:0:0:0:
320,192,220806,1,0,0:0:0:0:
448,192,221037,1,0,0:0:0:0:
64,192,221267,1,0,0:0:0:0:
320,192,221267,1,0,0:0:0:0:
448,192,221498,128,0,221729:0:0:0:0:
64,192,221729,128,0,223113:0:0:0:0:
320,192,221729,1,0,0:0:0:0:
192,192,221960,1,0,0:0:0:0:
320,192,222190,1,0,0:0:0:0:
448,192,222190,1,0,0:0:0:0:
320,192,222421,1,0,0:0:0:0:
192,192,222652,1,0,0:0:0:0:
448,192,222652,1,0,0:0:0:0:
192,192,222883,1,0,0:0:0:0:
448,192,223113,1,0,0:0:0:0:
320,192,223229,1,0,0:0:0:0:
448,192,223344,128,0,223575:0:0:0:0:
192,192,223344,128,0,223575:0:0:0:0:
64,192,223344,128,0,223575:0:0:0:0:
64,192,223806,1,0,0:0:0:0:
192,192,223806,1,0,0:0:0:0:
448,192,223806,1,0,0:0:0:0:
320,192,224037,1,0,0:0:0:0:
448,192,224037,1,0,0:0:0:0:
64,192,224037,1,0,0:0:0:0:
64,192,224267,1,0,0:0:0:0:
448,192,224267,1,0,0:0:0:0:
192,192,224267,1,0,0:0:0:0:
64,192,224960,128,0,225190:0:0:0:0:
192,192,225075,128,0,225306:0:0:0:0:
320,192,225190,128,0,225421:0:0:0:0:
448,192,225306,128,0,225421:0:0:0:0:
64,192,225421,1,0,0:0:0:0:
192,192,225421,128,0,226113:0:0:0:0:
448,192,225652,1,0,0:0:0:0:
64,192,225883,1,0,0:0:0:0:
320,192,225883,1,0,0:0:0:0:
448,192,226113,128,0,226344:0:0:0:0:
192,192,226344,1,0,0:0:0:0:
320,192,226344,128,0,226575:0:0:0:0:
64,192,226575,1,0,0:0:0:0:
192,192,226806,1,0,0:0:0:0:
64,192,226806,1,0,0:0:0:0:
448,192,226806,128,0,226921:0:0:0:0:
320,192,226921,128,0,227037:0:0:0:0:
192,192,227037,128,0,227152:0:0:0:0:
64,192,227152,128,0,227267:0:0:0:0:
320,192,227267,1,0,0:0:0:0:
448,192,227267,128,0,227844:0:0:0:0:
192,192,227498,1,0,0:0:0:0:
64,192,227729,1,0,0:0:0:0:
320,192,227729,1,0,0:0:0:0:
448,192,227960,128,0,228075:0:0:0:0:
64,192,228190,1,0,0:0:0:0:
448,192,228190,128,0,228421:0:0:0:0:
192,192,228421,1,0,0:0:0:0:
448,192,228652,1,0,0:0:0:0:
64,192,228652,1,0,0:0:0:0:
320,192,228652,1,0,0:0:0:0:
192,192,228883,128,0,229113:0:0:0:0:
320,192,229113,1,0,0:0:0:0:
448,192,229113,128,0,229575:0:0:0:0:
64,192,229344,1,0,0:0:0:0:
320,192,229575,1,0,0:0:0:0:
64,192,229575,1,0,0:0:0:0:
192,192,229575,128,0,229806:0:0:0:0:
320,192,229806,128,0,230037:0:0:0:0:
192,192,230037,1,0,0:0:0:0:
64,192,230037,128,0,230498:0:0:0:0:
448,192,230267,1,0,0:0:0:0:
192,192,230498,1,0,0:0:0:0:
448,192,230498,1,0,0:0:0:0:
320,192,230498,128,0,230960:0:0:0:0:
192,192,230729,128,0,230960:0:0:0:0:
64,192,230960,128,0,231421:0:0:0:0:
448,192,230960,128,0,231075:0:0:0:0:
320,192,231190,1,0,0:0:0:0:
448,192,231421,1,0,0:0:0:0:
192,192,231421,1,0,0:0:0:0:
320,192,231421,128,0,231537:0:0:0:0:
448,192,231652,128,0,232113:0:0:0:0:
192,192,231883,128,0,231998:0:0:0:0:
64,192,231883,128,0,232113:0:0:0:0:
320,192,232113,1,0,0:0:0:0:
64,192,232344,128,0,232460:0:0:0:0:
192,192,232344,1,0,0:0:0:0:
448,192,232344,1,0,0:0:0:0:
320,192,232575,1,0,0:0:0:0:
320,192,232806,1,0,0:0:0:0:
448,192,232806,128,0,233037:0:0:0:0:
64,192,232806,1,0,0:0:0:0:
192,192,232806,128,0,232921:0:0:0:0:
64,192,233037,128,0,233267:0:0:0:0:
320,192,233267,1,0,0:0:0:0:
448,192,233267,1,0,0:0:0:0:
192,192,233267,128,0,233498:0:0:0:0:
320,192,233498,128,0,233729:0:0:0:0:
192,192,233729,1,0,0:0:0:0:
64,192,233729,1,0,0:0:0:0:
448,192,233960,128,0,234190:0:0:0:0:
320,192,234190,128,0,234421:0:0:0:0:
64,192,234190,1,0,0:0:0:0:
192,192,234190,1,0,0:0:0:0:
192,192,234421,128,0,234652:0:0:0:0:
448,192,234652,1,0,0:0:0:0:
64,192,234652,128,0,235113:0:0:0:0:
320,192,234883,1,0,0:0:0:0:
320,192,235113,1,0,0:0:0:0:
448,192,235113,1,0,0:0:0:0:
192,192,235113,128,0,235575:0:0:0:0:
448,192,235344,1,0,0:0:0:0:
64,192,235575,1,0,0:0:0:0:
320,192,235575,128,0,236037:0:0:0:0:
192,192,235806,1,0,0:0:0:0:
192,192,236037,1,0,0:0:0:0:
64,192,236037,1,0,0:0:0:0:
448,192,236037,128,0,236498:0:0:0:0:
320,192,236267,1,0,0:0:0:0:
320,192,236498,1,0,0:0:0:0:
192,192,236498,1,0,0:0:0:0:
64,192,236498,128,0,237190:0:0:0:0:
448,192,236729,1,0,0:0:0:0:
448,192,236960,1,0,0:0:0:0:
320,192,236960,1,0,0:0:0:0:
192,192,237190,128,0,237421:0:0:0:0:
320,192,237421,1,0,0:0:0:0:
64,192,237421,1,0,0:0:0:0:
448,192,237421,128,0,237883:0:0:0:0:
192,192,237652,1,0,0:0:0:0:
320,192,237883,1,0,0:0:0:0:
64,192,237883,1,0,0:0:0:0:
192,192,237883,1,0,0:0:0:0:
320,192,238113,1,0,0:0:0:0:
192,192,238344,1,0,0:0:0:0:
448,192,238344,1,0,0:0:0:0:
64,192,238344,1,0,0:0:0:0:
320,192,238575,1,0,0:0:0:0:
320,192,238690,1,0,0:0:0:0:
448,192,238806,1,0,0:0:0:0:
64,192,238806,1,0,0:0:0:0:
192,192,238806,1,0,0:0:0:0:
320,192,239037,1,0,0:0:0:0:
64,192,239267,1,0,0:0:0:0:
448,192,239267,1,0,0:0:0:0:
320,192,239383,1,0,0:0:0:0:
192,192,239383,1,0,0:0:0:0:
448,192,239498,1,0,0:0:0:0:
64,192,239498,1,0,0:0:0:0:
320,192,239613,1,0,0:0:0:0:
192,192,239613,1,0,0:0:0:0:
64,192,239729,1,0,0:0:0:0:
448,192,239729,1,0,0:0:0:0:
320,192,239960,1,0,0:0:0:0:
192,192,239960,1,0,0:0:0:0:
448,192,240075,1,0,0:0:0:0:
64,192,240190,128,0,240767:0:0:0:0:
320,192,240190,1,0,0:0:0:0:
192,192,240190,1,0,0:0:0:0:
320,192,240652,1,0,0:0:0:0:
448,192,240652,1,0,0:0:0:0:
64,192,240883,128,0,240998:0:0:0:0:
448,192,241113,1,0,0:0:0:0:
64,192,241113,128,0,241344:0:0:0:0:
320,192,241344,1,0,0:0:0:0:
448,192,241575,128,0,241690:0:0:0:0:
192,192,241575,1,0,0:0:0:0:
64,192,241575,1,0,0:0:0:0:
320,192,241690,128,0,241806:0:0:0:0:
192,192,241806,128,0,241921:0:0:0:0:
64,192,241921,128,0,242037:0:0:0:0:
320,192,242037,1,0,0:0:0:0:
448,192,242037,128,0,242613:0:0:0:0:
192,192,242267,1,0,0:0:0:0:
64,192,242498,1,0,0:0:0:0:
320,192,242498,1,0,0:0:0:0:
448,192,242729,128,0,242844:0:0:0:0:
64,192,242960,1,0,0:0:0:0:
448,192,242960,128,0,243421:0:0:0:0:
192,192,243190,1,0,0:0:0:0:
320,192,243421,1,0,0:0:0:0:
64,192,243421,1,0,0:0:0:0:
192,192,243421,1,0,0:0:0:0:
320,192,243652,128,0,244113:0:0:0:0:
64,192,243883,1,0,0:0:0:0:
192,192,243883,128,0,244113:0:0:0:0:
448,192,244113,1,0,0:0:0:0:
64,192,244344,1,0,0:0:0:0:
320,192,244344,1,0,0:0:0:0:
448,192,244344,128,0,244575:0:0:0:0:
192,192,244575,128,0,245037:0:0:0:0:
64,192,244806,1,0,0:0:0:0:
320,192,244806,128,0,245037:0:0:0:0:
448,192,245037,1,0,0:0:0:0:
192,192,245267,128,0,245498:0:0:0:0:
448,192,245267,1,0,0:0:0:0:
64,192,245267,1,0,0:0:0:0:
320,192,245498,128,0,245729:0:0:0:0:
448,192,245729,128,0,246190:0:0:0:0:
64,192,245729,128,0,245844:0:0:0:0:
192,192,245960,1,0,0:0:0:0:
64,192,246190,1,0,0:0:0:0:
320,192,246190,1,0,0:0:0:0:
192,192,246190,128,0,246306:0:0:0:0:
64,192,246421,128,0,246652:0:0:0:0:
448,192,246652,128,0,246883:0:0:0:0:
320,192,246652,128,0,246767:0:0:0:0:
192,192,246883,1,0,0:0:0:0:
64,192,247113,1,0,0:0:0:0:
320,192,247113,1,0,0:0:0:0:
448,192,247113,128,0,247229:0:0:0:0:
192,192,247344,128,0,247575:0:0:0:0:
448,192,247575,1,0,0:0:0:0:
64,192,247575,128,0,247806:0:0:0:0:
320,192,247575,128,0,247690:0:0:0:0:
192,192,247806,1,0,0:0:0:0:
448,192,247921,128,0,248152:0:0:0:0:
64,192,248037,1,0,0:0:0:0:
320,192,248037,1,0,0:0:0:0:
320,192,248267,128,0,248498:0:0:0:0:
192,192,248498,1,0,0:0:0:0:
64,192,248498,128,0,248729:0:0:0:0:
448,192,248729,1,0,0:0:0:0:
192,192,248844,128,0,249075:0:0:0:0:
64,192,248960,1,0,0:0:0:0:
320,192,248960,1,0,0:0:0:0:
320,192,249190,128,0,249421:0:0:0:0:
64,192,249421,1,0,0:0:0:0:
448,192,249421,128,0,249652:0:0:0:0:
320,192,249652,1,0,0:0:0:0:
64,192,249767,128,0,249998:0:0:0:0:
192,192,249883,1,0,0:0:0:0:
448,192,249883,1,0,0:0:0:0:
320,192,250113,128,0,250344:0:0:0:0:
64,192,250344,1,0,0:0:0:0:
192,192,250344,128,0,250575:0:0:0:0:
320,192,250575,1,0,0:0:0:0:
192,192,250806,1,0,0:0:0:0:
64,192,250806,1,0,0:0:0:0:
448,192,250806,1,0,0:0:0:0:
320,192,251037,1,0,0:0:0:0:
192,192,251152,1,0,0:0:0:0:
64,192,251267,128,0,252190:0:0:0:0:
448,192,251267,1,0,0:0:0:0:
320,192,251267,1,0,0:0:0:0:
192,192,251498,1,0,0:0:0:0:
320,192,251729,1,0,0:0:0:0:
448,192,251729,1,0,0:0:0:0:
192,192,251960,128,0,252190:0:0:0:0:
448,192,252190,128,0,252652:0:0:0:0:
320,192,252190,1,0,0:0:0:0:
192,192,252421,1,0,0:0:0:0:
320,192,252652,1,0,0:0:0:0:
64,192,252652,1,0,0:0:0:0:
192,192,252883,128,0,253113:0:0:0:0:
448,192,253113,1,0,0:0:0:0:
320,192,253113,1,0,0:0:0:0:
64,192,253113,128,0,253344:0:0:0:0:
192,192,253344,1,0,0:0:0:0:
320,192,253460,1,0,0:0:0:0:
448,192,253575,1,0,0:0:0:0:
64,192,253575,1,0,0:0:0:0:
192,192,253575,1,0,0:0:0:0:
64,192,253806,1,0,0:0:0:0:
320,192,253806,1,0,0:0:0:0:
320,192,254037,1,0,0:0:0:0:
448,192,254037,1,0,0:0:0:0:
192,192,254152,1,0,0:0:0:0:
64,192,254152,1,0,0:0:0:0:
448,192,254267,1,0,0:0:0:0:
320,192,254267,1,0,0:0:0:0:
192,192,254383,1,0,0:0:0:0:
64,192,254383,1,0,0:0:0:0:
448,192,254498,1,0,0:0:0:0:
320,192,254498,1,0,0:0:0:0:
192,192,254613,1,0,0:0:0:0:
64,192,254613,1,0,0:0:0:0:
448,192,254729,1,0,0:0:0:0:
320,192,254729,1,0,0:0:0:0:
192,192,254844,1,0,0:0:0:0:
320,192,254960,1,0,0:0:0:0:
64,192,254960,1,0,0:0:0:0:
448,192,254960,128,0,255421:0:0:0:0:
192,192,255190,1,0,0:0:0:0:
64,192,255421,128,0,255652:0:0:0:0:
320,192,255421,1,0,0:0:0:0:
192,192,255652,128,0,256113:0:0:0:0:
320,192,255652,128,0,255883:0:0:0:0:
448,192,255883,128,0,256113:0:0:0:0:
64,192,255883,1,0,0:0:0:0:
64,192,256113,128,0,257498:0:0:0:0:
320,192,256113,128,0,256344:0:0:0:0:
192,192,256344,128,0,256575:0:0:0:0:
448,192,256344,1,0,0:0:0:0:
448,192,256575,128,0,256806:0:0:0:0:
192,192,256806,1,0,0:0:0:0:
320,192,256806,1,0,0:0:0:0:
320,192,257037,128,0,257267:0:0:0:0:
448,192,257267,1,0,0:0:0:0:
192,192,257267,128,0,257498:0:0:0:0:
448,192,257498,128,0,257729:0:0:0:0:
192,192,257729,128,0,257960:0:0:0:0:
320,192,257729,1,0,0:0:0:0:
448,192,257960,128,0,258190:0:0:0:0:
64,192,257960,128,0,258190:0:0:0:0:
320,192,258190,128,0,258421:0:0:0:0:
192,192,258190,128,0,258421:0:0:0:0:
448,192,258421,128,0,258652:0:0:0:0:
64,192,258421,128,0,258652:0:0:0:0:
320,192,258652,128,0,259806:0:0:0:0:
192,192,258652,128,0,259113:0:0:0:0:
64,192,259113,128,0,259344:0:0:0:0:
448,192,259113,1,0,0:0:0:0:
448,192,259344,128,0,259575:0:0:0:0:
64,192,259575,1,0,0:0:0:0:
192,192,259575,128,0,259806:0:0:0:0:
64,192,259806,128,0,260037:0:0:0:0:
320,192,260037,128,0,260267:0:0:0:0:
192,192,260037,128,0,260152:0:0:0:0:
448,192,260152,128,0,260267:0:0:0:0:
192,192,260267,128,0,260498:0:0:0:0:
64,192,260267,128,0,260383:0:0:0:0:
320,192,260383,128,0,260498:0:0:0:0:
448,192,260498,128,0,260613:0:0:0:0:
64,192,260498,128,0,260729:0:0:0:0:
320,192,260729,128,0,260960:0:0:0:0:
192,192,260960,128,0,261190:0:0:0:0:
448,192,260960,1,0,0:0:0:0:
448,192,261190,128,0,261421:0:0:0:0:
320,192,261421,1,0,0:0:0:0:
64,192,261421,128,0,261537:0:0:0:0:
192,192,261652,128,0,261767:0:0:0:0:
448,192,261883,1,0,0:0:0:0:
64,192,261883,1,0,0:0:0:0:
320,192,261883,128,0,261998:0:0:0:0:
448,192,262113,128,0,263960:0:0:0:0:
320,192,262344,1,0,0:0:0:0:
64,192,262344,1,0,0:0:0:0:
192,192,262344,1,0,0:0:0:0:
192,192,262575,128,0,262806:0:0:0:0:
64,192,262806,128,0,263037:0:0:0:0:
320,192,262806,1,0,0:0:0:0:
320,192,263037,128,0,263267:0:0:0:0:
64,192,263267,1,0,0:0:0:0:
192,192,263267,1,0,0:0:0:0:
192,192,263498,128,0,263729:0:0:0:0:
64,192,263729,128,0,263960:0:0:0:0:
320,192,263729,1,0,0:0:0:0:
320,192,263960,128,0,264190:0:0:0:0:
192,192,264190,128,0,264421:0:0:0:0:
64,192,264190,1,0,0:0:0:0:
320,192,264421,1,0,0:0:0:0:
448,192,264652,128,0,264883:0:0:0:0:
192,192,264652,1,0,0:0:0:0:
64,192,264883,128,0,265113:0:0:0:0:
192,192,265113,128,0,266037:0:0:0:0:
448,192,265113,1,0,0:0:0:0:
320,192,265344,1,0,0:0:0:0:
64,192,265575,1,0,0:0:0:0:
448,192,265575,1,0,0:0:0:0:
320,192,265806,128,0,266037:0:0:0:0:
448,192,266037,128,0,267883:0:0:0:0:
64,192,266037,1,0,0:0:0:0:
64,192,266267,128,0,266498:0:0:0:0:
320,192,266498,1,0,0:0:0:0:
192,192,266498,128,0,266729:0:0:0:0:
320,192,266729,128,0,266960:0:0:0:0:
64,192,266960,128,0,267190:0:0:0:0:
192,192,266960,1,0,0:0:0:0:
192,192,267190,128,0,267421:0:0:0:0:
320,192,267421,128,0,267652:0:0:0:0:
64,192,267421,1,0,0:0:0:0:
64,192,267652,128,0,267883:0:0:0:0:
192,192,267883,128,0,268113:0:0:0:0:
320,192,267883,1,0,0:0:0:0:
448,192,268113,1,0,0:0:0:0:
192,192,268229,1,0,0:0:0:0:
64,192,268229,1,0,0:0:0:0:
448,192,268344,1,0,0:0:0:0:
320,192,268344,1,0,0:0:0:0:
192,192,268575,1,0,0:0:0:0:
320,192,268575,1,0,0:0:0:0:
192,192,268806,1,0,0:0:0:0:
64,192,268806,1,0,0:0:0:0:
320,192,268921,1,0,0:0:0:0:
448,192,268921,1,0,0:0:0:0:
192,192,269037,1,0,0:0:0:0:
64,192,269037,1,0,0:0:0:0:
320,192,269152,1,0,0:0:0:0:
448,192,269152,1,0,0:0:0:0:
192,192,269267,1,0,0:0:0:0:
64,192,269267,1,0,0:0:0:0:
320,192,269498,1,0,0:0:0:0:
448,192,269498,1,0,0:0:0:0:
192,192,269613,1,0,0:0:0:0:
64,192,269729,1,0,0:0:0:0:
448,192,269729,128,0,270190:0:0:0:0:
320,192,269729,1,0,0:0:0:0:
192,192,269960,1,0,0:0:0:0:
320,192,270190,1,0,0:0:0:0:
64,192,270190,1,0,0:0:0:0:
192,192,270190,1,0,0:0:0:0:
320,192,270421,128,0,270883:0:0:0:0:
64,192,270652,128,0,270883:0:0:0:0:
448,192,270652,1,0,0:0:0:0:
192,192,270883,1,0,0:0:0:0:
64,192,271113,1,0,0:0:0:0:
448,192,271113,1,0,0:0:0:0:
320,192,271113,1,0,0:0:0:0:
192,192,271344,1,0,0:0:0:0:
448,192,271575,128,0,272498:0:0:0:0:
320,192,271575,1,0,0:0:0:0:
64,192,271806,1,0,0:0:0:0:
320,192,272037,1,0,0:0:0:0:
64,192,272037,1,0,0:0:0:0:
192,192,272267,128,0,272498:0:0:0:0:
64,192,272498,128,0,272960:0:0:0:0:
320,192,272498,1,0,0:0:0:0:
448,192,272729,1,0,0:0:0:0:
320,192,272960,1,0,0:0:0:0:
448,192,272960,1,0,0:0:0:0:
192,192,272960,1,0,0:0:0:0:
192,192,273190,128,0,273421:0:0:0:0:
320,192,273421,128,0,273652:0:0:0:0:
64,192,273421,1,0,0:0:0:0:
192,192,273652,1,0,0:0:0:0:
448,192,273883,128,0,274113:0:0:0:0:
320,192,273883,1,0,0:0:0:0:
64,192,273883,1,0,0:0:0:0:
192,192,274113,128,0,274344:0:0:0:0:
320,192,274344,128,0,274575:0:0:0:0:
64,192,274344,1,0,0:0:0:0:
448,192,274575,1,0,0:0:0:0:
192,192,274806,128,0,275037:0:0:0:0:
64,192,274806,1,0,0:0:0:0:
448,192,274806,1,0,0:0:0:0:
320,192,275037,128,0,275267:0:0:0:0:
64,192,275267,128,0,275383:0:0:0:0:
448,192,275267,128,0,275729:0:0:0:0:
192,192,275498,1,0,0:0:0:0:
192,192,275729,128,0,275844:0:0:0:0:
320,192,275729,1,0,0:0:0:0:
64,192,275729,1,0,0:0:0:0:
64,192,275960,128,0,276190:0:0:0:0:
448,192,276190,128,0,276421:0:0:0:0:
320,192,276190,128,0,276306:0:0:0:0:
192,192,276421,1,0,0:0:0:0:
448,192,276652,128,0,276767:0:0:0:0:
320,192,276652,1,0,0:0:0:0:
64,192,276652,1,0,0:0:0:0:
192,192,276883,128,0,277113:0:0:0:0:
320,192,277113,128,0,277229:0:0:0:0:
64,192,277113,128,0,277344:0:0:0:0:
448,192,277113,1,0,0:0:0:0:
192,192,277344,1,0,0:0:0:0:
448,192,277460,128,0,277690:0:0:0:0:
320,192,277575,1,0,0:0:0:0:
64,192,277575,1,0,0:0:0:0:
320,192,277806,128,0,278037:0:0:0:0:
64,192,278037,128,0,278267:0:0:0:0:
192,192,278037,1,0,0:0:0:0:
448,192,278267,1,0,0:0:0:0:
192,192,278383,128,0,278613:0:0:0:0:
64,192,278498,1,0,0:0:0:0:
320,192,278498,1,0,0:0:0:0:
320,192,278729,128,0,278960:0:0:0:0:
448,192,278960,128,0,279190:0:0:0:0:
64,192,278960,1,0,0:0:0:0:
320,192,279190,1,0,0:0:0:0:
64,192,279306,128,0,279537:0:0:0:0:
192,192,279421,1,0,0:0:0:0:
448,192,279421,1,0,0:0:0:0:
320,192,279652,128,0,279883:0:0:0:0:
192,192,279883,128,0,280113:0:0:0:0:
64,192,279883,1,0,0:0:0:0:
448,192,280113,1,0,0:0:0:0:
320,192,280344,1,0,0:0:0:0:
64,192,280344,1,0,0:0:0:0:
192,192,280344,1,0,0:0:0:0:
448,192,280575,1,0,0:0:0:0:
320,192,280690,1,0,0:0:0:0:
64,192,280806,128,0,281729:0:0:0:0:
192,192,280806,1,0,0:0:0:0:
448,192,280806,1,0,0:0:0:0:
320,192,281037,1,0,0:0:0:0:
192,192,281267,1,0,0:0:0:0:
448,192,281267,1,0,0:0:0:0:
320,192,281498,128,0,281729:0:0:0:0:
192,192,281729,128,0,282190:0:0:0:0:
448,192,281729,1,0,0:0:0:0:
320,192,281960,1,0,0:0:0:0:
448,192,282190,1,0,0:0:0:0:
64,192,282190,1,0,0:0:0:0:
320,192,282190,1,0,0:0:0:0:
64,192,282421,128,0,282652:0:0:0:0:
320,192,282652,1,0,0:0:0:0:
192,192,282652,1,0,0:0:0:0:
448,192,282652,128,0,282883:0:0:0:0:
64,192,282883,1,0,0:0:0:0:
192,192,282998,1,0,0:0:0:0:
64,192,283113,1,0,0:0:0:0:
320,192,283113,1,0,0:0:0:0:
448,192,283113,1,0,0:0:0:0:
64,192,283344,1,0,0:0:0:0:
192,192,283344,1,0,0:0:0:0:
320,192,283575,1,0,0:0:0:0:
448,192,283575,1,0,0:0:0:0:
192,192,283690,1,0,0:0:0:0:
64,192,283690,1,0,0:0:0:0:
320,192,283806,1,0,0:0:0:0:
448,192,283806,1,0,0:0:0:0:
64,192,283921,1,0,0:0:0:0:
192,192,283921,1,0,0:0:0:0:
320,192,284037,1,0,0:0:0:0:
448,192,284037,1,0,0:0:0:0:
192,192,284152,1,0,0:0:0:0:
64,192,284152,1,0,0:0:0:0:
320,192,284267,1,0,0:0:0:0:
448,192,284267,1,0,0:0:0:0:
192,192,284383,1,0,0:0:0:0:
64,192,284498,1,0,0:0:0:0:
320,192,284498,1,0,0:0:0:0:
448,192,284498,128,0,285190:0:0:0:0:
192,192,284729,1,0,0:0:0:0:
64,192,284960,1,0,0:0:0:0:
320,192,284960,1,0,0:0:0:0:
192,192,285190,128,0,285421:0:0:0:0:
320,192,285421,128,0,286113:0:0:0:0:
64,192,285421,1,0,0:0:0:0:
448,192,285421,1,0,0:0:0:0:
192,192,285652,1,0,0:0:0:0:
448,192,285883,1,0,0:0:0:0:
64,192,285883,1,0,0:0:0:0:
64,192,286113,128,0,286344:0:0:0:0:
192,192,286113,1,0,0:0:0:0:
448,192,286344,128,0,286575:0:0:0:0:
320,192,286344,1,0,0:0:0:0:
192,192,286344,1,0,0:0:0:0:
64,192,286575,1,0,0:0:0:0:
192,192,286690,1,0,0:0:0:0:
320,192,286690,1,0,0:0:0:0:
448,192,286806,1,0,0:0:0:0:
64,192,286806,1,0,0:0:0:0:
448,192,287037,1,0,0:0:0:0:
320,192,287037,128,0,287267:0:0:0:0:
64,192,287267,128,0,287498:0:0:0:0:
192,192,287267,1,0,0:0:0:0:
448,192,287498,1,0,0:0:0:0:
320,192,287498,1,0,0:0:0:0:
448,192,287729,128,0,288190:0:0:0:0:
192,192,287729,1,0,0:0:0:0:
320,192,287960,1,0,0:0:0:0:
64,192,287960,1,0,0:0:0:0:
192,192,288190,128,0,289575:0:0:0:0:
64,192,288190,1,0,0:0:0:0:
320,192,288190,1,0,0:0:0:0:
448,192,288421,128,0,288537:0:0:0:0:
320,192,288652,128,0,288767:0:0:0:0:
448,192,288883,1,0,0:0:0:0:
64,192,288883,128,0,288998:0:0:0:0:
320,192,289113,1,0,0:0:0:0:
64,192,289344,128,0,289460:0:0:0:0:
320,192,289575,128,0,289690:0:0:0:0:
448,192,289575,128,0,289806:0:0:0:0:
192,192,289806,128,0,289921:0:0:0:0:
64,192,289806,128,0,293498:0:0:0:0:
320,192,290037,1,0,0:0:0:0:
192,192,290267,1,0,0:0:0:0:
448,192,290267,128,0,290383:0:0:0:0:
320,192,290498,128,0,290613:0:0:0:0:
448,192,290729,1,0,0:0:0:0:
192,192,290729,128,0,290844:0:0:0:0:
320,192,290960,1,0,0:0:0:0:
448,192,291190,128,0,291306:0:0:0:0:
320,192,291421,128,0,291537:0:0:0:0:
192,192,291652,128,0,291767:0:0:0:0:
448,192,291767,1,0,0:0:0:0:
192,192,291883,1,0,0:0:0:0:
320,192,291883,1,0,0:0:0:0:
448,192,292113,128,0,292229:0:0:0:0:
192,192,292344,128,0,292460:0:0:0:0:
448,192,292575,1,0,0:0:0:0:
320,192,292575,128,0,292690:0:0:0:0:
192,192,292806,1,0,0:0:0:0:
448,192,293037,128,0,293152:0:0:0:0:
192,192,293267,128,0,293383:0:0:0:0:
448,192,293498,128,0,293613:0:0:0:0:
320,192,293729,1,0,0:0:0:0:
192,192,293960,1,0,0:0:0:0:
64,192,293960,128,0,294075:0:0:0:0:
448,192,294190,128,0,294306:0:0:0:0:
64,192,294421,1,0,0:0:0:0:
192,192,294421,128,0,294537:0:0:0:0:
320,192,294652,1,0,0:0:0:0:
448,192,294883,128,0,294998:0:0:0:0:
320,192,295113,128,0,295229:0:0:0:0:
192,192,295344,128,0,295460:0:0:0:0:
64,192,295344,1,0,0:0:0:0:
