osu file format v14

[General]
AudioFilename: audio.mp3
AudioLeadIn: 0
PreviewTime: 251657
Countdown: 0
SampleSet: Soft
StackLeniency: 0.2
Mode: 0
LetterboxInBreaks: 0
WidescreenStoryboard: 0

[Editor]
Bookmarks: 108086,118157,119550,119764,121264,149228
DistanceSpacing: 0.8
BeatDivisor: 8
GridSize: 4
TimelineZoom: 2.200006

[Metadata]
Title:Beyond The Shadows
TitleUnicode:Beyond The Shadows
Artist:KOAN Sound x Culprate x Asa x Gemini
ArtistUnicode:KOAN Sound x Culprate x Asa x Gemini
Creator:hi-mei
Version:Where the heavens play
Source:
Tags:Inspected Movember dnb dubstep neurofunk artcore
BeatmapID:1234537
BeatmapSetID:583372

[Difficulty]
HPDrainRate:5
CircleSize:4
OverallDifficulty:6.5
ApproachRate:9
SliderMultiplier:1.59999996185303
SliderTickRate:1

[Events]
//Background and Video events
0,0,"wallpaper-2713897.jpg",0,0
//Break Periods
2,171714,183514
2,190571,191486
2,195714,197228
2,209428,212057
2,216285,217200
2,236856,239486
//Storyboard Layer 0 (Background)
//Storyboard Layer 1 (Fail)
//Storyboard Layer 2 (Pass)
//Storyboard Layer 3 (Foreground)
//Storyboard Sound Samples

[TimingPoints]
86,428.571428571429,4,2,1,10,1,0
86,-250,4,2,1,10,0,0
6621,-250,4,2,1,15,0,0
6836,-250,4,2,1,5,0,0
6943,-250,4,2,1,10,0,0
10800,-250,4,2,1,12,0,0
11014,-250,4,2,1,14,0,0
11228,-250,4,2,1,16,0,0
11443,-250,4,2,1,18,0,0
11657,-250,4,2,1,20,0,0
11871,-250,4,2,1,22,0,0
12086,-250,4,2,1,24,0,0
12300,-250,4,2,1,26,0,0
12514,-250,4,2,1,28,0,0
12728,-250,4,2,1,30,0,0
12943,-250,4,2,1,32,0,0
13157,-250,4,2,1,34,0,0
13371,-250,4,2,1,36,0,0
13586,-250,4,2,1,38,0,0
13693,-250,4,2,1,5,0,0
13800,-200,4,2,1,20,0,0
16371,-200,4,2,1,31,0,0
16586,-200,4,2,1,29,0,0
16800,-200,4,2,1,27,0,0
17014,-200,4,2,1,25,0,0
17121,-200,4,2,1,5,0,0
17228,-188.679245283019,4,2,1,22,0,0
17282,-188.679245283019,4,2,1,21,0,0
17336,-188.679245283019,4,2,1,20,0,0
17389,-188.679245283019,4,2,1,19,0,0
17443,-188.679245283019,4,2,1,18,0,0
17657,-188.679245283019,4,2,1,17,0,0
17871,-188.679245283019,4,2,1,16,0,0
18086,-188.679245283019,4,2,1,15,0,0
18300,-188.679245283019,4,2,1,14,0,0
18514,-188.679245283019,4,2,1,13,0,0
18728,-188.679245283019,4,2,1,12,0,0
18943,-188.679245283019,4,2,1,11,0,0
19157,-188.679245283019,4,2,1,10,0,0
19371,-188.679245283019,4,2,1,9,0,0
19586,-188.679245283019,4,2,1,7,0,0
19800,-188.679245283019,4,2,1,5,0,0
20550,-188.679245283019,4,2,1,5,0,0
20657,-172.413793103448,4,2,1,25,0,0
20764,-172.413793103448,4,2,1,24,0,0
20871,-172.413793103448,4,2,1,23,0,0
20978,-172.413793103448,4,2,1,24,0,0
21086,-172.413793103448,4,2,1,23,0,0
21193,-172.413793103448,4,2,1,22,0,0
21300,-172.413793103448,4,2,1,23,0,0
21407,-172.413793103448,4,2,1,22,0,0
21514,-172.413793103448,4,2,1,21,0,0
21621,-172.413793103448,4,2,1,22,0,0
21728,-172.413793103448,4,2,1,21,0,0
21836,-172.413793103448,4,2,1,20,0,0
21943,-172.413793103448,4,2,1,21,0,0
22050,-172.413793103448,4,2,1,20,0,0
22157,-172.413793103448,4,2,1,19,0,0
22264,-172.413793103448,4,2,1,18,0,0
22371,-172.413793103448,4,2,1,17,0,0
22478,-172.413793103448,4,2,1,16,0,0
22586,-172.413793103448,4,2,1,15,0,0
22693,-172.413793103448,4,2,1,14,0,0
22800,-172.413793103448,4,2,1,13,0,0
22907,-172.413793103448,4,2,1,12,0,0
23014,-172.413793103448,4,2,1,11,0,0
23121,-172.413793103448,4,2,1,10,0,0
23228,-172.413793103448,4,2,1,9,0,0
23336,-172.413793103448,4,2,1,8,0,0
23443,-172.413793103448,4,2,1,7,0,0
23550,-172.413793103448,4,2,1,6,0,0
23657,-172.413793103448,4,2,1,5,0,0
24086,-172.413793103448,4,2,1,20,0,0
24193,-158.730158730159,4,2,1,5,0,0
24246,-158.730158730159,4,2,1,6,0,0
24300,-158.730158730159,4,2,1,7,0,0
24353,-158.730158730159,4,2,1,8,0,0
24407,-158.730158730159,4,2,1,9,0,0
24461,-158.730158730159,4,2,1,10,0,0
24514,-158.730158730159,4,2,1,11,0,0
24568,-158.730158730159,4,2,1,12,0,0
24621,-158.730158730159,4,2,1,13,0,0
24675,-158.730158730159,4,2,1,14,0,0
24728,-158.730158730159,4,2,1,15,0,0
24782,-158.730158730159,4,2,1,16,0,0
24836,-158.730158730159,4,2,1,17,0,0
24889,-158.730158730159,4,2,1,18,0,0
24943,-158.730158730159,4,2,1,19,0,0
24996,-158.730158730159,4,2,1,20,0,0
25050,-158.730158730159,4,2,1,21,0,0
25103,-158.730158730159,4,2,1,22,0,0
25157,-158.730158730159,4,2,1,23,0,0
25211,-158.730158730159,4,2,1,24,0,0
25264,-158.730158730159,4,2,1,25,0,0
25318,-158.730158730159,4,2,1,26,0,0
25371,-158.730158730159,4,2,1,27,0,0
25425,-158.730158730159,4,2,1,28,0,0
25478,-158.730158730159,4,2,1,29,0,0
25532,-158.730158730159,4,2,1,30,0,0
25586,-158.730158730159,4,2,1,31,0,0
25639,-158.730158730159,4,2,1,32,0,0
25693,-158.730158730159,4,2,1,33,0,0
25746,-158.730158730159,4,2,1,34,0,0
25800,-158.730158730159,4,2,1,35,0,0
27407,-111.111111111111,4,2,1,5,0,0
27514,-111.111111111111,4,2,1,40,0,0
27728,-111.111111111111,4,2,1,5,0,0
27836,-111.111111111111,4,2,1,35,0,0
27943,-111.111111111111,4,2,1,40,0,0
28050,-111.111111111111,4,2,1,30,0,0
28157,-111.111111111111,4,2,1,35,0,0
28264,-111.111111111111,4,2,1,5,0,0
28371,-111.111111111111,4,2,1,40,0,0
28425,-111.111111111111,4,2,1,30,0,0
28478,-111.111111111111,4,2,1,20,0,0
28532,-111.111111111111,4,2,1,10,0,0
28586,-111.111111111111,4,2,1,5,0,0
29014,-111.111111111111,4,2,1,10,0,0
29228,-111.111111111111,4,2,1,40,0,0
29443,-111.111111111111,4,2,1,15,0,0
29550,-111.111111111111,4,2,1,35,0,0
29657,-111.111111111111,4,2,1,40,0,0
29764,-111.111111111111,4,2,1,30,0,0
29871,-111.111111111111,4,2,1,35,0,0
29978,-111.111111111111,4,2,1,5,0,0
30086,-111.111111111111,4,2,1,40,0,0
30139,-111.111111111111,4,2,1,30,0,0
30193,-111.111111111111,4,2,1,20,0,0
30246,-111.111111111111,4,2,1,10,0,0
30300,-111.111111111111,4,2,1,5,0,0
30728,-111.111111111111,4,2,1,10,0,0
30943,-111.111111111111,4,2,1,40,0,0
31157,-111.111111111111,4,2,1,5,0,0
31264,-111.111111111111,4,2,1,35,0,0
31371,-111.111111111111,4,2,1,40,0,0
31478,-111.111111111111,4,2,1,30,0,0
31586,-111.111111111111,4,2,1,35,0,0
31693,-111.111111111111,4,2,1,5,0,0
31800,-111.111111111111,4,2,1,40,0,0
31853,-111.111111111111,4,2,1,30,0,0
31907,-111.111111111111,4,2,1,20,0,0
31961,-111.111111111111,4,2,1,10,0,0
32014,-111.111111111111,4,2,1,5,0,0
32443,-111.111111111111,4,2,1,10,0,0
32657,-111.111111111111,4,2,1,40,0,0
32871,-111.111111111111,4,2,1,5,0,0
32978,-111.111111111111,4,2,1,35,0,0
33086,-111.111111111111,4,2,1,40,0,0
33193,-111.111111111111,4,2,1,30,0,0
33300,-111.111111111111,4,2,1,35,0,0
33407,-111.111111111111,4,2,1,5,0,0
33514,-111.111111111111,4,2,1,40,0,0
33568,-111.111111111111,4,2,1,30,0,0
33621,-111.111111111111,4,2,1,20,0,0
33675,-111.111111111111,4,2,1,10,0,0
33728,-111.111111111111,4,2,1,5,0,0
34157,-111.111111111111,4,2,1,10,0,0
34371,-111.111111111111,4,2,1,40,0,0
34586,-111.111111111111,4,2,1,5,0,0
34693,-111.111111111111,4,2,1,35,0,0
34800,-111.111111111111,4,2,1,40,0,0
34907,-111.111111111111,4,2,1,30,0,0
35014,-111.111111111111,4,2,1,35,0,0
35121,-111.111111111111,4,2,1,5,0,0
35228,-111.111111111111,4,2,1,40,0,0
35282,-111.111111111111,4,2,1,30,0,0
35336,-111.111111111111,4,2,1,20,0,0
35389,-111.111111111111,4,2,1,10,0,0
35443,-111.111111111111,4,2,1,5,0,0
36086,-111.111111111111,4,2,1,40,0,0
36300,-111.111111111111,4,2,1,5,0,0
36407,-111.111111111111,4,2,1,35,0,0
36514,-111.111111111111,4,2,1,40,0,0
36621,-111.111111111111,4,2,1,30,0,0
36728,-111.111111111111,4,2,1,35,0,0
36836,-111.111111111111,4,2,1,5,0,0
36943,-111.111111111111,4,2,1,40,0,0
36996,-111.111111111111,4,2,1,30,0,0
37050,-111.111111111111,4,2,1,20,0,0
37103,-111.111111111111,4,2,1,10,0,0
37157,-111.111111111111,4,2,1,5,0,0
37425,-111.111111111111,4,2,1,10,0,0
37478,-111.111111111111,4,2,1,15,0,0
37532,-111.111111111111,4,2,1,20,0,0
37586,-111.111111111111,4,2,1,25,0,0
37639,-111.111111111111,4,2,1,30,0,0
37693,-111.111111111111,4,2,1,5,0,0
37800,-111.111111111111,4,2,1,40,0,0
38014,-111.111111111111,4,2,1,5,0,0
38121,-111.111111111111,4,2,1,35,0,0
38228,-111.111111111111,4,2,1,40,0,0
38336,-111.111111111111,4,2,1,30,0,0
38443,-111.111111111111,4,2,1,35,0,0
38550,-111.111111111111,4,2,1,5,0,0
38657,-111.111111111111,4,2,1,40,0,0
38711,-111.111111111111,4,2,1,30,0,0
38764,-111.111111111111,4,2,1,20,0,0
38818,-111.111111111111,4,2,1,10,0,0
38871,-111.111111111111,4,2,1,5,0,0
39086,-111.111111111111,4,2,1,10,0,0
39514,-111.111111111111,4,2,1,40,0,0
39728,-111.111111111111,4,2,1,5,0,0
39836,-111.111111111111,4,2,1,35,0,0
39943,-111.111111111111,4,2,1,40,0,0
40050,-111.111111111111,4,2,1,30,0,0
40157,-111.111111111111,4,2,1,35,0,0
40264,-111.111111111111,4,2,1,5,0,0
40371,-111.111111111111,4,2,1,40,0,0
40425,-111.111111111111,4,2,1,30,0,0
40478,-111.111111111111,4,2,1,20,0,0
40532,-111.111111111111,4,2,1,10,0,0
40586,-111.111111111111,4,2,1,5,0,0
41014,-111.111111111111,4,2,1,10,0,0
41228,-111.111111111111,4,2,1,40,0,0
41443,-111.111111111111,4,2,1,5,0,0
41550,-111.111111111111,4,2,1,35,0,0
41657,-111.111111111111,4,2,1,40,0,0
41764,-111.111111111111,4,2,1,30,0,0
41871,-111.111111111111,4,2,1,35,0,0
41978,-111.111111111111,4,2,1,5,0,0
42086,-111.111111111111,4,2,1,40,0,0
42139,-111.111111111111,4,2,1,30,0,0
42193,-111.111111111111,4,2,1,20,0,0
42246,-111.111111111111,4,2,1,10,0,0
42300,-111.111111111111,4,2,1,5,0,0
42728,-111.111111111111,4,2,1,10,0,0
42943,-111.111111111111,4,2,1,40,0,0
43157,-111.111111111111,4,2,1,5,0,0
43264,-111.111111111111,4,2,1,35,0,0
43371,-111.111111111111,4,2,1,40,0,0
43478,-111.111111111111,4,2,1,30,0,0
43586,-111.111111111111,4,2,1,35,0,0
43693,-111.111111111111,4,2,1,5,0,0
43800,-111.111111111111,4,2,1,40,0,0
43853,-111.111111111111,4,2,1,30,0,0
43907,-111.111111111111,4,2,1,20,0,0
43961,-111.111111111111,4,2,1,10,0,0
44014,-111.111111111111,4,2,1,5,0,0
44443,-111.111111111111,4,2,1,10,0,0
44657,-111.111111111111,4,2,1,40,0,0
44871,-111.111111111111,4,2,1,5,0,0
44978,-111.111111111111,4,2,1,35,0,0
45086,-111.111111111111,4,2,1,40,0,0
45193,-111.111111111111,4,2,1,30,0,0
45300,-111.111111111111,4,2,1,35,0,0
45407,-111.111111111111,4,2,1,5,0,0
45514,-111.111111111111,4,2,1,40,0,0
45568,-111.111111111111,4,2,1,30,0,0
45621,-111.111111111111,4,2,1,20,0,0
45675,-111.111111111111,4,2,1,10,0,0
45728,-111.111111111111,4,2,1,5,0,0
46157,-111.111111111111,4,2,1,10,0,0
46371,-111.111111111111,4,2,1,40,0,0
46586,-111.111111111111,4,2,1,10,0,0
46693,-111.111111111111,4,2,1,35,0,0
46800,-111.111111111111,4,2,1,40,0,0
46907,-111.111111111111,4,2,1,30,0,0
47014,-111.111111111111,4,2,1,35,0,0
47121,-111.111111111111,4,2,1,5,0,0
47228,-111.111111111111,4,2,1,40,0,0
47282,-111.111111111111,4,2,1,30,0,0
47336,-111.111111111111,4,2,1,20,0,0
47389,-111.111111111111,4,2,1,10,0,0
47443,-111.111111111111,4,2,1,5,0,0
47871,-111.111111111111,4,2,1,10,0,0
48086,-111.111111111111,4,2,1,40,0,0
48300,-111.111111111111,4,2,1,5,0,0
48407,-111.111111111111,4,2,1,35,0,0
48514,-111.111111111111,4,2,1,40,0,0
48621,-111.111111111111,4,2,1,30,0,0
48728,-111.111111111111,4,2,1,35,0,0
48836,-111.111111111111,4,2,1,5,0,0
48943,-111.111111111111,4,2,1,40,0,0
48996,-111.111111111111,4,2,1,30,0,0
49050,-111.111111111111,4,2,1,20,0,0
49103,-111.111111111111,4,2,1,10,0,0
49157,-111.111111111111,4,2,1,5,0,0
49586,-111.111111111111,4,2,1,10,0,0
49800,-111.111111111111,4,2,1,40,0,0
50014,-111.111111111111,4,2,1,5,0,0
50121,-111.111111111111,4,2,1,35,0,0
50228,-111.111111111111,4,2,1,40,0,0
50336,-111.111111111111,4,2,1,30,0,0
50443,-111.111111111111,4,2,1,35,0,0
50550,-111.111111111111,4,2,1,5,0,0
50657,-111.111111111111,4,2,1,40,0,0
50711,-111.111111111111,4,2,1,30,0,0
50764,-111.111111111111,4,2,1,20,0,0
50818,-111.111111111111,4,2,1,10,0,0
50871,-111.111111111111,4,2,1,5,0,0
51407,-111.111111111111,4,2,1,10,0,0
51514,-111.111111111111,4,2,1,20,0,0
51675,-158.730158730159,4,2,1,6,0,0
51728,-158.730158730159,4,2,1,7,0,0
51782,-158.730158730159,4,2,1,8,0,0
51836,-158.730158730159,4,2,1,9,0,0
51889,-158.730158730159,4,2,1,10,0,0
51943,-158.730158730159,4,2,1,11,0,0
51996,-158.730158730159,4,2,1,12,0,0
52050,-158.730158730159,4,2,1,13,0,0
52103,-158.730158730159,4,2,1,14,0,0
52157,-158.730158730159,4,2,1,15,0,0
52211,-158.730158730159,4,2,1,16,0,0
52264,-158.730158730159,4,2,1,17,0,0
52318,-158.730158730159,4,2,1,18,0,0
52371,-158.730158730159,4,2,1,19,0,0
52425,-158.730158730159,4,2,1,20,0,0
52478,-158.730158730159,4,2,1,21,0,0
52532,-158.730158730159,4,2,1,22,0,0
52586,-158.730158730159,4,2,1,23,0,0
52639,-158.730158730159,4,2,1,24,0,0
52693,-158.730158730159,4,2,1,25,0,0
52746,-158.730158730159,4,2,1,26,0,0
52800,-158.730158730159,4,2,1,27,0,0
52853,-158.730158730159,4,2,1,28,0,0
52907,-158.730158730159,4,2,1,29,0,0
52961,-158.730158730159,4,2,1,30,0,0
53014,-158.730158730159,4,2,1,31,0,0
53068,-158.730158730159,4,2,1,32,0,0
53121,-158.730158730159,4,2,1,33,0,0
53175,-158.730158730159,4,2,1,34,0,0
53228,-158.730158730159,4,2,1,35,0,0
53282,-158.730158730159,4,2,1,36,0,0
53336,-158.730158730159,4,2,1,37,0,0
53389,-158.730158730159,4,2,1,38,0,0
53443,-158.730158730159,4,2,1,39,0,0
53496,-158.730158730159,4,2,1,40,0,0
53550,-158.730158730159,4,2,1,41,0,0
53603,-158.730158730159,4,2,1,42,0,0
53657,-158.730158730159,4,2,1,43,0,0
53711,-158.730158730159,4,2,1,44,0,0
53764,-158.730158730159,4,2,1,45,0,0
53818,-158.730158730159,4,2,1,46,0,0
53871,-158.730158730159,4,2,1,47,0,0
53925,-158.730158730159,4,2,1,48,0,0
53978,-158.730158730159,4,2,1,49,0,0
54032,-158.730158730159,4,2,1,50,0,0
54086,-158.730158730159,4,2,1,51,0,0
54139,-158.730158730159,4,2,1,52,0,0
54193,-158.730158730159,4,2,1,53,0,0
54246,-158.730158730159,4,2,1,54,0,0
54300,-158.730158730159,4,2,1,55,0,0
54353,-158.730158730159,4,2,1,56,0,0
54407,-158.730158730159,4,2,1,57,0,0
54461,-158.730158730159,4,2,1,58,0,0
54514,-158.730158730159,4,2,1,5,0,0
54943,-83.3333333333333,4,2,1,50,0,0
55157,-83.3333333333333,4,2,1,25,0,0
55264,-83.3333333333333,4,2,1,45,0,0
55693,-83.3333333333333,4,2,1,10,0,0
55800,-83.3333333333333,4,2,1,50,0,0
56014,-83.3333333333333,4,2,1,35,0,0
56121,-58.8235294117647,4,2,1,60,0,0
56550,-58.8235294117647,4,2,1,5,0,0
56657,-83.3333333333333,4,2,1,50,0,0
56871,-83.3333333333333,4,2,1,25,0,0
56978,-83.3333333333333,4,2,1,45,0,0
57407,-83.3333333333333,4,2,1,10,0,0
57514,-83.3333333333333,4,2,1,50,0,0
57728,-83.3333333333333,4,2,1,35,0,0
57836,-58.8235294117647,4,2,1,61,0,0
58264,-58.8235294117647,4,2,1,5,0,0
58371,-83.3333333333333,4,2,1,50,0,0
58586,-83.3333333333333,4,2,1,25,0,0
58693,-83.3333333333333,4,2,1,45,0,0
59121,-83.3333333333333,4,2,1,10,0,0
59228,-83.3333333333333,4,2,1,50,0,0
59443,-83.3333333333333,4,2,1,35,0,0
59550,-58.8235294117647,4,2,1,62,0,0
59978,-58.8235294117647,4,2,1,5,0,0
60086,-83.3333333333333,4,2,1,50,0,0
60300,-83.3333333333333,4,2,1,25,0,0
60407,-83.3333333333333,4,2,1,45,0,0
60514,-83.3333333333333,4,2,1,50,0,0
60657,-83.3333333333333,4,2,1,25,0,0
60728,-83.3333333333333,4,2,1,45,0,0
60836,-83.3333333333333,4,2,1,10,0,0
60943,-83.3333333333333,4,2,1,50,0,0
61157,-83.3333333333333,4,2,1,35,0,0
61264,-58.8235294117647,4,2,1,63,0,0
61478,-58.8235294117647,4,2,1,35,0,0
61693,-58.8235294117647,4,2,1,5,0,0
61800,-83.3333333333333,4,2,1,50,0,0
62014,-83.3333333333333,4,2,1,25,0,0
62121,-83.3333333333333,4,2,1,45,0,0
62550,-83.3333333333333,4,2,1,10,0,0
62657,-83.3333333333333,4,2,1,50,0,0
62871,-83.3333333333333,4,2,1,35,0,0
62978,-58.8235294117647,4,2,1,60,0,0
63407,-58.8235294117647,4,2,1,5,0,0
63514,-83.3333333333333,4,2,1,50,0,0
63728,-83.3333333333333,4,2,1,25,0,0
63836,-83.3333333333333,4,2,1,45,0,0
64264,-83.3333333333333,4,2,1,10,0,0
64371,-83.3333333333333,4,2,1,50,0,0
64586,-83.3333333333333,4,2,1,35,0,0
64693,-58.8235294117647,4,2,1,62,0,0
65121,-58.8235294117647,4,2,1,5,0,0
65228,-83.3333333333333,4,2,1,50,0,0
65443,-83.3333333333333,4,2,1,25,0,0
65550,-83.3333333333333,4,2,1,45,0,0
65978,-83.3333333333333,4,2,1,10,0,0
66086,-83.3333333333333,4,2,1,50,0,0
66300,-83.3333333333333,4,2,1,35,0,0
66407,-58.8235294117647,4,2,1,62,0,0
66836,-58.8235294117647,4,2,1,5,0,0
66943,-83.3333333333333,4,2,1,50,0,0
67050,-83.3333333333333,4,2,1,35,0,0
67157,-83.3333333333333,4,2,1,50,0,0
67264,-83.3333333333333,4,2,1,10,0,0
67371,-83.3333333333333,4,2,1,50,0,0
67693,-83.3333333333333,4,2,1,10,0,0
67800,-83.3333333333333,4,2,1,50,0,0
68014,-83.3333333333333,4,2,1,35,0,0
68121,-58.8235294117647,4,2,1,61,0,0
68336,-58.8235294117647,4,2,1,50,0,0
68550,-58.8235294117647,4,2,1,5,0,0
68657,-83.3333333333333,4,2,1,50,0,0
68871,-83.3333333333333,4,2,1,25,0,0
68978,-83.3333333333333,4,2,1,45,0,0
69407,-83.3333333333333,4,2,1,10,0,0
69514,-83.3333333333333,4,2,1,50,0,0
69728,-83.3333333333333,4,2,1,35,0,0
69836,-58.8235294117647,4,2,1,60,0,0
70264,-58.8235294117647,4,2,1,5,0,0
70371,-83.3333333333333,4,2,1,50,0,0
70586,-83.3333333333333,4,2,1,25,0,0
70693,-83.3333333333333,4,2,1,45,0,0
71121,-83.3333333333333,4,2,1,10,0,0
71228,-83.3333333333333,4,2,1,50,0,0
71443,-83.3333333333333,4,2,1,35,0,0
71550,-58.8235294117647,4,2,1,61,0,0
71978,-58.8235294117647,4,2,1,5,0,0
72086,-83.3333333333333,4,2,1,50,0,0
72300,-83.3333333333333,4,2,1,25,0,0
72407,-83.3333333333333,4,2,1,45,0,0
72836,-83.3333333333333,4,2,1,10,0,0
72943,-83.3333333333333,4,2,1,50,0,0
73157,-83.3333333333333,4,2,1,35,0,0
73264,-58.8235294117647,4,2,1,62,0,0
73693,-58.8235294117647,4,2,1,5,0,0
73800,-83.3333333333333,4,2,1,50,0,0
74014,-83.3333333333333,4,2,1,25,0,0
74121,-83.3333333333333,4,2,1,35,0,0
74228,-83.3333333333333,4,2,1,50,0,0
74371,-83.3333333333333,4,2,1,25,0,0
74443,-83.3333333333333,4,2,1,35,0,0
74550,-83.3333333333333,4,2,1,10,0,0
74657,-83.3333333333333,4,2,1,50,0,0
74871,-83.3333333333333,4,2,1,35,0,0
74978,-58.8235294117647,4,2,1,63,0,0
75193,-58.8235294117647,4,2,1,35,0,0
75407,-58.8235294117647,4,2,1,5,0,0
75514,-83.3333333333333,4,2,1,50,0,0
75728,-83.3333333333333,4,2,1,25,0,0
75836,-83.3333333333333,4,2,1,45,0,0
76264,-83.3333333333333,4,2,1,10,0,0
76371,-83.3333333333333,4,2,1,50,0,0
76586,-83.3333333333333,4,2,1,35,0,0
76693,-58.8235294117647,4,2,1,62,0,0
77121,-58.8235294117647,4,2,1,5,0,0
77228,-83.3333333333333,4,2,1,50,0,0
77443,-83.3333333333333,4,2,1,25,0,0
77550,-83.3333333333333,4,2,1,45,0,0
77978,-83.3333333333333,4,2,1,10,0,0
78086,-83.3333333333333,4,2,1,50,0,0
78300,-83.3333333333333,4,2,1,35,0,0
78407,-58.8235294117647,4,2,1,62,0,0
78836,-58.8235294117647,4,2,1,5,0,0
78943,-83.3333333333333,4,2,1,50,0,0
79157,-83.3333333333333,4,2,1,25,0,0
79264,-83.3333333333333,4,2,1,45,0,0
79693,-83.3333333333333,4,2,1,10,0,0
79800,-83.3333333333333,4,2,1,50,0,0
80014,-83.3333333333333,4,2,1,35,0,0
80121,-58.8235294117647,4,2,1,63,0,0
80550,-58.8235294117647,4,2,1,5,0,0
80657,-83.3333333333333,4,2,1,50,0,0
80764,-83.3333333333333,4,2,1,5,0,0
80871,-83.3333333333333,4,2,1,45,0,0
80978,-83.3333333333333,4,2,1,25,0,0
81086,-83.3333333333333,4,2,1,50,0,0
81228,-83.3333333333333,4,2,1,50,0,0
81407,-83.3333333333333,4,2,1,10,0,0
81514,-83.3333333333333,4,2,1,50,0,0
81728,-83.3333333333333,4,2,1,35,0,0
81836,-58.8235294117647,4,2,1,63,0,0
82050,-58.8235294117647,4,2,1,35,0,0
82264,-58.8235294117647,4,2,1,5,0,0
82371,-83.3333333333333,4,2,1,55,0,0
82586,-83.3333333333333,4,2,1,25,0,0
82693,-83.3333333333333,4,2,1,45,0,0
83121,-83.3333333333333,4,2,1,10,0,0
83228,-83.3333333333333,4,2,1,50,0,0
83443,-83.3333333333333,4,2,1,35,0,0
83550,-58.8235294117647,4,2,1,55,0,0
83603,-58.8235294117647,4,2,1,5,0,0
83657,-58.8235294117647,4,2,1,60,0,0
83978,-58.8235294117647,4,2,1,5,0,0
84086,-83.3333333333333,4,2,1,55,0,0
84300,-83.3333333333333,4,2,1,25,0,0
84407,-83.3333333333333,4,2,1,50,0,0
84514,-83.3333333333333,4,2,1,55,0,0
84657,-83.3333333333333,4,2,1,25,0,0
84728,-83.3333333333333,4,2,1,50,0,0
84836,-83.3333333333333,4,2,1,10,0,0
84943,-83.3333333333333,4,2,1,55,0,0
85157,-83.3333333333333,4,2,1,35,0,0
85264,-58.8235294117647,4,2,1,60,0,0
85693,-58.8235294117647,4,2,1,5,0,0
85800,-83.3333333333333,4,2,1,55,0,0
86014,-83.3333333333333,4,2,1,35,0,0
86121,-83.3333333333333,4,2,1,50,0,0
86228,-83.3333333333333,4,2,1,55,0,0
86371,-83.3333333333333,4,2,1,25,0,0
86443,-83.3333333333333,4,2,1,50,0,0
86550,-83.3333333333333,4,2,1,10,0,0
86657,-83.3333333333333,4,2,1,55,0,0
86871,-83.3333333333333,4,2,1,35,0,0
86978,-58.8235294117647,4,2,1,62,0,0
87443,-58.8235294117647,4,2,1,5,0,0
87514,-83.3333333333333,4,2,1,55,0,0
87728,-83.3333333333333,4,2,1,25,0,0
87836,-83.3333333333333,4,2,1,50,0,0
87943,-83.3333333333333,4,2,1,55,0,0
88086,-83.3333333333333,4,2,1,35,0,0
88157,-83.3333333333333,4,2,1,50,0,0
88264,-83.3333333333333,4,2,1,10,0,0
88371,-83.3333333333333,4,2,1,55,0,0
88586,-83.3333333333333,4,2,1,35,0,0
88693,-58.8235294117647,4,2,1,63,0,0
88943,-58.8235294117647,4,2,1,35,0,0
89086,-58.8235294117647,4,2,1,25,0,0
89228,-83.3333333333333,4,2,1,55,0,0
89443,-83.3333333333333,4,2,1,25,0,0
89550,-83.3333333333333,4,2,1,50,0,0
89657,-83.3333333333333,4,2,1,55,0,0
89800,-83.3333333333333,4,2,1,25,0,0
89871,-83.3333333333333,4,2,1,50,0,0
89978,-83.3333333333333,4,2,1,10,0,0
90086,-83.3333333333333,4,2,1,55,0,0
90300,-83.3333333333333,4,2,1,35,0,0
90407,-58.8235294117647,4,2,1,60,0,0
90836,-58.8235294117647,4,2,1,5,0,0
90943,-83.3333333333333,4,2,1,55,0,0
91157,-83.3333333333333,4,2,1,25,0,0
91264,-83.3333333333333,4,2,1,50,0,0
91371,-83.3333333333333,4,2,1,55,0,0
91514,-83.3333333333333,4,2,1,25,0,0
91586,-83.3333333333333,4,2,1,50,0,0
91693,-83.3333333333333,4,2,1,10,0,0
91800,-83.3333333333333,4,2,1,55,0,0
92014,-83.3333333333333,4,2,1,35,0,0
92121,-58.8235294117647,4,2,1,61,0,0
92550,-58.8235294117647,4,2,1,5,0,0
92657,-83.3333333333333,4,2,1,55,0,0
92871,-83.3333333333333,4,2,1,25,0,0
92978,-83.3333333333333,4,2,1,50,0,0
93086,-83.3333333333333,4,2,1,55,0,0
93228,-83.3333333333333,4,2,1,25,0,0
93300,-83.3333333333333,4,2,1,50,0,0
93407,-83.3333333333333,4,2,1,10,0,0
93514,-83.3333333333333,4,2,1,55,0,0
93728,-83.3333333333333,4,2,1,35,0,0
93836,-58.8235294117647,4,2,1,60,0,0
94264,-58.8235294117647,4,2,1,5,0,0
94371,-83.3333333333333,4,2,1,55,0,0
94478,-83.3333333333333,4,2,1,5,0,0
94586,-83.3333333333333,4,2,1,50,0,0
94800,-83.3333333333333,4,2,1,55,0,0
94907,-83.3333333333333,4,2,1,50,0,0
95121,-83.3333333333333,4,2,1,35,0,0
95228,-83.3333333333333,4,2,1,50,0,0
95443,-83.3333333333333,4,2,1,35,0,0
95550,-58.8235294117647,4,2,1,61,0,0
95764,-58.8235294117647,4,2,1,35,0,0
95871,-58.8235294117647,4,2,1,45,0,0
96086,-83.3333333333333,4,2,1,55,0,0
96300,-83.3333333333333,4,2,1,25,0,0
96407,-83.3333333333333,4,2,1,50,0,0
96514,-83.3333333333333,4,2,1,55,0,0
96657,-83.3333333333333,4,2,1,25,0,0
96728,-83.3333333333333,4,2,1,50,0,0
96836,-83.3333333333333,4,2,1,10,0,0
96943,-83.3333333333333,4,2,1,55,0,0
97157,-83.3333333333333,4,2,1,35,0,0
97264,-58.8235294117647,4,2,1,60,0,0
97693,-58.8235294117647,4,2,1,5,0,0
97800,-83.3333333333333,4,2,1,55,0,0
98014,-83.3333333333333,4,2,1,25,0,0
98121,-83.3333333333333,4,2,1,50,0,0
98228,-83.3333333333333,4,2,1,55,0,0
98371,-83.3333333333333,4,2,1,25,0,0
98443,-83.3333333333333,4,2,1,55,0,0
98550,-83.3333333333333,4,2,1,10,0,0
98657,-83.3333333333333,4,2,1,55,0,0
98871,-83.3333333333333,4,2,1,35,0,0
98978,-58.8235294117647,4,2,1,59,0,0
99407,-58.8235294117647,4,2,1,5,0,0
99514,-83.3333333333333,4,2,1,55,0,0
99728,-83.3333333333333,4,2,1,25,0,0
99836,-83.3333333333333,4,2,1,50,0,0
99943,-83.3333333333333,4,2,1,55,0,0
100086,-83.3333333333333,4,2,1,25,0,0
100157,-83.3333333333333,4,2,1,50,0,0
100264,-83.3333333333333,4,2,1,10,0,0
100371,-83.3333333333333,4,2,1,55,0,0
100586,-83.3333333333333,4,2,1,35,0,0
100693,-58.8235294117647,4,2,1,61,0,0
101121,-58.8235294117647,4,2,1,5,0,0
101228,-83.3333333333333,4,2,1,55,0,0
101443,-83.3333333333333,4,2,1,25,0,0
101550,-83.3333333333333,4,2,1,50,0,0
101657,-83.3333333333333,4,2,1,55,0,0
101800,-83.3333333333333,4,2,1,25,0,0
101871,-83.3333333333333,4,2,1,50,0,0
101978,-83.3333333333333,4,2,1,10,0,0
102086,-83.3333333333333,4,2,1,55,0,0
102300,-83.3333333333333,4,2,1,35,0,0
102407,-58.8235294117647,4,2,1,62,0,0
102621,-58.8235294117647,4,2,1,35,0,0
102836,-58.8235294117647,4,2,1,5,0,0
102943,-83.3333333333333,4,2,1,55,0,0
103157,-83.3333333333333,4,2,1,25,0,0
103264,-83.3333333333333,4,2,1,50,0,0
103371,-83.3333333333333,4,2,1,55,0,0
103514,-83.3333333333333,4,2,1,25,0,0
103586,-83.3333333333333,4,2,1,50,0,0
103693,-83.3333333333333,4,2,1,10,0,0
103800,-83.3333333333333,4,2,1,55,0,0
104014,-83.3333333333333,4,2,1,35,0,0
104121,-58.8235294117647,4,2,1,61,0,0
104550,-58.8235294117647,4,2,1,5,0,0
104657,-83.3333333333333,4,2,1,55,0,0
104871,-83.3333333333333,4,2,1,25,0,0
104978,-83.3333333333333,4,2,1,50,0,0
105086,-83.3333333333333,4,2,1,55,0,0
105228,-83.3333333333333,4,2,1,25,0,0
105300,-83.3333333333333,4,2,1,50,0,0
105407,-83.3333333333333,4,2,1,10,0,0
105514,-83.3333333333333,4,2,1,60,0,0
105621,-83.3333333333333,4,2,1,57,0,0
105728,-83.3333333333333,4,2,1,54,0,0
105836,-83.3333333333333,4,2,1,51,0,0
105943,-83.3333333333333,4,2,1,48,0,0
106050,-83.3333333333333,4,2,1,45,0,0
106157,-83.3333333333333,4,2,1,42,0,0
106264,-83.3333333333333,4,2,1,39,0,0
106371,-100,4,2,1,45,0,0
107550,-100,4,2,1,47,0,0
107603,-100,4,2,1,51,0,0
107657,-100,4,2,1,57,0,0
107711,-100,4,2,1,65,0,0
107764,-100,4,2,1,61,0,0
107818,-100,4,2,1,44,0,0
107871,-100,4,2,1,32,0,0
107925,-100,4,2,1,30,0,0
107978,-100,4,2,1,5,0,0
108085,-100,4,2,1,45,0,0
109318,-100,4,2,1,47,0,0
109371,-100,4,2,1,55,0,0
109425,-100,4,2,1,51,0,0
109478,-100,4,2,1,48,0,0
109532,-100,4,2,1,45,0,0
109586,-100,4,2,1,42,0,0
109639,-100,4,2,1,37,0,0
109693,-100,4,2,1,5,0,0
109800,-66.6666666666667,4,2,1,55,0,0
110228,-66.6666666666667,4,2,1,25,0,0
110443,-71.4285714285714,4,2,1,50,0,0
110550,-71.4285714285714,4,2,1,5,0,0
110657,-58.8235294117647,4,2,1,60,0,0
110871,-58.8235294117647,4,2,1,55,0,0
110978,-58.8235294117647,4,2,1,40,0,0
111086,-58.8235294117647,4,2,1,55,0,0
111193,-58.8235294117647,4,2,1,40,0,0
111407,-55.5555555555556,4,2,1,25,0,0
111514,-76.9230769230769,4,2,1,50,0,0
111728,-76.9230769230769,4,2,1,35,0,0
111836,-76.9230769230769,4,2,1,33,0,0
111943,-76.9230769230769,4,2,1,36,0,0
112050,-83.3333333333333,4,2,1,40,0,0
112157,-76.9230769230769,4,2,1,50,0,0
112264,-76.9230769230769,4,2,1,25,0,0
112371,-62.5,4,2,1,50,0,0
113121,-62.5,4,2,1,25,0,0
113228,-71.4285714285714,4,2,1,55,0,0
113871,-71.4285714285714,4,2,1,50,0,0
114085,-58.8235294117647,4,2,1,60,0,0
114300,-58.8235294117647,4,2,1,35,0,0
114407,-58.8235294117647,4,2,1,50,0,0
114728,-58.8235294117647,4,2,1,55,0,0
114943,-58.8235294117647,4,2,1,50,0,0
115264,-58.8235294117647,4,2,1,35,0,0
115371,-55.5555555555556,4,2,1,55,0,0
115693,-55.5555555555556,4,2,1,25,0,0
115800,-58.8235294117647,4,2,1,65,0,0
116443,-58.8235294117647,4,2,1,5,0,0
116657,-66.6666666666667,4,2,1,60,0,0
117300,-58.8235294117647,4,2,1,50,0,0
117514,-55.5555555555556,4,2,1,60,0,0
118157,-55.5555555555556,4,2,1,25,0,0
118371,-100,4,2,1,55,0,0
118586,-100,4,2,1,50,0,0
118800,-100,4,2,1,52,0,0
119014,-100,4,2,1,55,0,0
119228,-55.5555555555556,4,2,1,65,0,0
119871,-55.5555555555556,4,2,1,25,0,0
120086,-100,4,2,1,55,0,0
120300,-100,4,2,1,50,0,0
120514,-100,4,2,1,57,0,0
120728,-100,4,2,1,55,0,0
120943,-58.8235294117647,4,2,1,65,0,0
121157,-58.8235294117647,4,2,1,35,0,0
121264,-100,4,2,1,55,0,0
121371,-66.6666666666667,4,2,1,35,0,0
121693,-58.8235294117647,4,2,1,25,0,0
121800,-66.6666666666667,4,2,1,50,0,0
122443,-66.6666666666667,4,2,1,35,0,0
122657,-62.5,4,2,1,50,0,0
123300,-62.5,4,2,1,25,0,0
123514,-100,4,2,1,55,0,0
123728,-100,4,2,1,45,0,0
123943,-100,4,2,1,50,0,0
124157,-100,4,2,1,52,0,0
124371,-58.8235294117647,4,2,1,60,0,0
124586,-58.8235294117647,4,2,1,5,0,0
124693,-58.8235294117647,4,2,1,55,0,0
124800,-58.8235294117647,4,2,1,15,0,0
124907,-58.8235294117647,4,2,1,55,0,0
125121,-58.8235294117647,4,2,1,45,0,0
125228,-100,4,2,1,55,0,0
125443,-100,4,2,1,49,0,0
125657,-100,4,2,1,51,0,0
125871,-100,4,2,1,50,0,0
126085,-60.6060606060606,4,2,1,60,0,0
126836,-60.6060606060606,4,2,1,10,0,0
126943,-67.5675675675676,4,2,1,55,0,0
127586,-67.5675675675676,4,2,1,50,0,0
127800,-55.5555555555556,4,2,1,65,0,0
128014,-55.5555555555556,4,2,1,25,0,0
128121,-55.5555555555556,4,2,1,50,0,0
128443,-55.5555555555556,4,2,1,35,0,0
128657,-55.5555555555556,4,2,1,55,0,0
128978,-55.5555555555556,4,2,1,25,0,0
129086,-55.5555555555556,4,2,1,50,0,0
129407,-55.5555555555556,4,2,1,25,0,0
129514,-50,4,2,1,65,0,0
130157,-50,4,2,1,5,0,0
130371,-62.5,4,2,1,50,0,0
131014,-62.5,4,2,1,50,0,0
131228,-65.7894736842105,4,2,1,60,0,0
131871,-65.7894736842105,4,2,1,45,0,0
132085,-100,4,2,1,55,0,0
132300,-100,4,2,1,50,0,0
132514,-100,4,2,1,55,0,0
132728,-100,4,2,1,50,0,0
132943,-62.5,4,2,1,65,0,0
133586,-66.6666666666667,4,2,1,40,0,0
133800,-100,4,2,1,55,0,0
134014,-100,4,2,1,56,0,0
134228,-100,4,2,1,57,0,0
134443,-100,4,2,1,56,0,0
134657,-62.5,4,2,1,65,0,0
134978,-200,4,2,1,35,0,0
135086,-50,4,2,1,50,0,0
135407,-62.5,4,2,1,5,0,0
135514,-60.9756097560976,4,2,1,50,0,0
136264,-60.9756097560976,4,2,1,15,0,0
136693,-50,4,2,1,45,0,0
137121,-50,4,2,1,50,0,0
137228,-66.6666666666667,4,2,1,40,0,0
137336,-66.6666666666667,4,2,1,42,0,0
137443,-71.4285714285714,4,2,1,50,0,0
137978,-71.4285714285714,4,2,1,50,0,0
138085,-62.5,4,2,1,60,0,0
138514,-62.5,4,2,1,5,0,0
138621,-100,4,2,1,5,0,0
138648,-100,4,2,1,10,0,0
138675,-100,4,2,1,20,0,0
138702,-100,4,2,1,30,0,0
138728,-100,4,2,1,40,0,0
138755,-100,4,2,1,50,0,0
138782,-100,4,2,1,60,0,0
138809,-100,4,2,1,55,0,0
138836,-100,4,2,1,50,0,0
138862,-100,4,2,1,40,0,0
138943,-100,4,2,1,50,0,0
139050,-76.9230769230769,4,2,1,25,0,0
139157,-76.9230769230769,4,2,1,45,0,0
139264,-100,4,2,1,50,0,0
139371,-58.8235294117647,4,2,1,50,0,0
139800,-58.8235294117647,4,2,1,60,0,0
140014,-58.8235294117647,4,2,1,45,0,0
140121,-62.5,4,2,1,50,0,0
140228,-62.5,4,2,1,15,0,0
140336,-62.5,4,2,1,40,0,0
140443,-62.5,4,2,1,5,0,0
140550,-58.8235294117647,4,2,1,50,0,0
140657,-66.6666666666667,4,2,1,55,0,0
140764,-66.6666666666667,4,2,1,15,0,0
140871,-66.6666666666667,4,2,1,50,0,0
140978,-66.6666666666667,4,2,1,35,0,0
141086,-66.6666666666667,4,2,1,55,0,0
141407,-66.6666666666667,4,2,1,50,0,0
141514,-52.6315789473684,4,2,1,65,0,0
141728,-52.6315789473684,4,2,1,55,0,0
141836,-58.8235294117647,4,2,1,55,0,0
142050,-52.6315789473684,4,2,1,35,0,0
142157,-52.6315789473684,4,2,1,55,0,0
142371,-52.6315789473684,4,2,1,50,0,0
142693,-100,4,2,1,50,0,0
142746,-58.8235294117647,4,2,1,35,0,0
142800,-58.8235294117647,4,2,1,55,0,0
143014,-58.8235294117647,4,2,1,50,0,0
143228,-69.9300699300699,4,2,1,60,0,0
143871,-69.9300699300699,4,2,1,5,0,0
143978,-100,4,2,1,60,0,0
144085,-66.6666666666667,4,2,1,50,0,0
144300,-66.6666666666667,4,2,1,35,0,0
144407,-62.5,4,2,1,50,0,0
144836,-62.5,4,2,1,50,0,0
144942,-83.3333333333333,4,2,1,60,0,0
145264,-71.4285714285714,4,2,1,15,0,0
145371,-71.4285714285714,4,2,1,50,0,0
145478,-100,4,2,1,10,0,0
145505,-100,4,2,1,15,0,0
145532,-100,4,2,1,20,0,0
145559,-100,4,2,1,25,0,0
145586,-100,4,2,1,30,0,0
145612,-100,4,2,1,35,0,0
145639,-100,4,2,1,40,0,0
145666,-100,4,2,1,5,0,0
145693,-100,4,2,1,45,0,0
145800,-66.6666666666667,4,2,1,50,0,0
146014,-66.6666666666667,4,2,1,25,0,0
146121,-62.5,4,2,1,55,0,0
146550,-62.5,4,2,1,50,0,0
146657,-83.3333333333333,4,2,1,60,0,0
146978,-83.3333333333333,4,2,1,35,0,0
147085,-100,4,2,1,25,0,0
147112,-100,4,2,1,30,0,0
147139,-100,4,2,1,35,0,0
147166,-100,4,2,1,40,0,0
147193,-100,4,2,1,45,0,0
147219,-100,4,2,1,50,0,0
147246,-100,4,2,1,35,0,0
147273,-100,4,2,1,20,0,0
147300,-100,4,2,1,5,0,0
147407,-200,4,2,1,50,0,0
147657,-66.6666666666667,4,2,1,25,0,0
147943,-66.6666666666667,4,2,1,50,0,0
148264,-66.6666666666667,4,2,1,45,0,0
148371,-58.8235294117647,4,2,1,55,0,0
148586,-58.8235294117647,4,2,1,40,0,0
148693,-66.6666666666667,4,2,1,50,0,0
149228,-66.6666666666667,4,2,1,55,0,0
149443,-66.6666666666667,4,2,1,15,0,0
149550,-50,4,2,1,45,0,0
149978,-50,4,2,1,55,0,0
150085,-83.3333333333333,4,2,1,60,0,0
150407,-83.3333333333333,4,2,1,5,0,0
150514,-58.8235294117647,4,2,1,55,0,0
150836,-58.8235294117647,4,2,1,55,0,0
150943,-62.5,4,2,1,50,0,0
151157,-62.5,4,2,1,15,0,0
151264,-62.5,4,2,1,50,0,0
151371,-62.5,4,2,1,55,0,0
151800,-83.3333333333333,4,2,1,60,0,0
152228,-100,4,2,1,35,0,0
152336,-100,4,2,1,15,0,0
152362,-100,4,2,1,25,0,0
152389,-100,4,2,1,35,0,0
152416,-100,4,2,1,45,0,0
152443,-100,4,2,1,55,0,0
152469,-100,4,2,1,65,0,0
152496,-100,4,2,1,60,0,0
152550,-100,4,2,1,25,0,0
152657,-66.6666666666667,4,2,1,45,0,0
152764,-66.6666666666667,4,2,1,25,0,0
152871,-66.6666666666667,4,2,1,45,0,0
152978,-100,4,2,1,45,0,0
153086,-62.5,4,2,1,50,0,0
153407,-62.5,4,2,1,50,0,0
153514,-66.6666666666667,4,2,1,60,0,0
153621,-55.5555555555556,4,2,1,5,0,0
153728,-62.5,4,2,1,55,0,0
153943,-52.6315789473684,4,2,1,50,0,0
154157,-52.6315789473684,4,2,1,5,0,0
154264,-52.6315789473684,4,2,1,50,0,0
154371,-66.6666666666667,4,2,1,55,0,0
154586,-66.6666666666667,4,2,1,50,0,0
154693,-66.6666666666667,4,2,1,55,0,0
155121,-66.6666666666667,4,2,1,5,0,0
155228,-76.9230769230769,4,2,1,65,0,0
155443,-76.9230769230769,4,2,1,45,0,0
155550,-76.9230769230769,4,2,1,55,0,0
155764,-76.9230769230769,4,2,1,20,0,0
155871,-76.9230769230769,4,2,1,55,0,0
156407,-100,4,2,1,60,0,0
156514,-55.5555555555556,4,2,1,50,0,0
156728,-55.5555555555556,4,2,1,55,0,0
156835,-100,4,2,1,50,0,0
156889,-100,4,2,1,5,0,0
156943,-58.8235294117647,4,2,1,65,0,0
157157,-58.8235294117647,4,2,1,50,0,0
157264,-62.5,4,2,1,45,0,0
157586,-62.5,4,2,1,25,0,0
157693,-100,4,2,1,45,0,0
157800,-62.5,4,2,1,50,0,0
158014,-62.5,4,2,1,25,0,0
158121,-55.5555555555556,4,2,1,50,0,0
158657,-83.3333333333333,4,2,1,65,0,0
159086,-66.6666666666667,4,2,1,55,0,0
159193,-100,4,2,1,5,0,0
159219,-100,4,2,1,15,0,0
159246,-100,4,2,1,25,0,0
159273,-100,4,2,1,35,0,0
159300,-100,4,2,1,45,0,0
159327,-100,4,2,1,55,0,0
159514,-66.6666666666667,4,2,1,55,0,0
159728,-66.6666666666667,4,2,1,50,0,0
159835,-62.5,4,2,1,55,0,0
160264,-62.5,4,2,1,50,0,0
160371,-66.6666666666667,4,2,1,65,0,0
160693,-66.6666666666667,4,2,1,35,0,0
160800,-100,4,2,1,5,0,0
160827,-100,4,2,1,15,0,0
160853,-100,4,2,1,25,0,0
160880,-100,4,2,1,35,0,0
160907,-100,4,2,1,45,0,0
160934,-100,4,2,1,55,0,0
161014,-100,4,2,1,5,0,0
161121,-66.6666666666667,4,2,1,50,0,0
161228,-66.6666666666667,4,2,1,60,0,0
161336,-66.6666666666667,4,2,1,55,0,0
161443,-66.6666666666667,4,2,1,50,0,0
161550,-58.8235294117647,4,2,1,60,0,0
161978,-58.8235294117647,4,2,1,5,0,0
162085,-58.8235294117647,4,2,1,65,0,0
162407,-58.8235294117647,4,2,1,40,0,0
162514,-58.8235294117647,4,2,1,50,0,0
162621,-58.8235294117647,4,2,1,40,0,0
162728,-58.8235294117647,4,2,1,55,0,0
162836,-58.8235294117647,4,2,1,35,0,0
162943,-71.4285714285714,4,2,1,50,0,0
163157,-71.4285714285714,4,2,1,55,0,0
163264,-100,4,2,1,52,0,0
163371,-55.5555555555556,4,2,1,55,0,0
163586,-55.5555555555556,4,2,1,50,0,0
163800,-64.1025641025641,4,2,1,60,0,0
165086,-66.6666666666667,4,2,1,15,0,0
165407,-86.2068965517241,4,2,1,10,0,0
166264,-86.2068965517241,4,2,1,5,0,0
166425,-86.2068965517241,4,2,1,6,0,0
166478,-86.2068965517241,4,2,1,7,0,0
166532,-86.2068965517241,4,2,1,8,0,0
166586,-86.2068965517241,4,2,1,9,0,0
166639,-86.2068965517241,4,2,1,10,0,0
166693,-86.2068965517241,4,2,1,11,0,0
166746,-86.2068965517241,4,2,1,12,0,0
166800,-86.2068965517241,4,2,1,13,0,0
166853,-86.2068965517241,4,2,1,14,0,0
166907,-86.2068965517241,4,2,1,15,0,0
166961,-86.2068965517241,4,2,1,16,0,0
167014,-86.2068965517241,4,2,1,17,0,0
167068,-86.2068965517241,4,2,1,18,0,0
167121,-86.2068965517241,4,2,1,19,0,0
167175,-86.2068965517241,4,2,1,20,0,0
167228,-86.2068965517241,4,2,1,21,0,0
167282,-86.2068965517241,4,2,1,22,0,0
167336,-86.2068965517241,4,2,1,23,0,0
167389,-86.2068965517241,4,2,1,24,0,0
167443,-86.2068965517241,4,2,1,25,0,0
167496,-86.2068965517241,4,2,1,26,0,0
167550,-86.2068965517241,4,2,1,27,0,0
167603,-86.2068965517241,4,2,1,28,0,0
167657,-86.2068965517241,4,2,1,29,0,0
167711,-86.2068965517241,4,2,1,30,0,0
167764,-86.2068965517241,4,2,1,31,0,0
167818,-86.2068965517241,4,2,1,32,0,0
167871,-86.2068965517241,4,2,1,33,0,0
167925,-86.2068965517241,4,2,1,34,0,0
167978,-86.2068965517241,4,2,1,35,0,0
168032,-86.2068965517241,4,2,1,36,0,0
168086,-86.2068965517241,4,2,1,37,0,0
168139,-86.2068965517241,4,2,1,38,0,0
168193,-86.2068965517241,4,2,1,39,0,0
168246,-86.2068965517241,4,2,1,40,0,0
168300,-86.2068965517241,4,2,1,41,0,0
168353,-86.2068965517241,4,2,1,42,0,0
168407,-86.2068965517241,4,2,1,43,0,0
168461,-86.2068965517241,4,2,1,44,0,0
168514,-86.2068965517241,4,2,1,35,0,0
169371,-86.2068965517241,4,2,1,37,0,0
169478,-86.2068965517241,4,2,1,39,0,0
169586,-86.2068965517241,4,2,1,41,0,0
169693,-86.2068965517241,4,2,1,43,0,0
169800,-86.2068965517241,4,2,1,45,0,0
169907,-86.2068965517241,4,2,1,47,0,0
170014,-86.2068965517241,4,2,1,49,0,0
170121,-86.2068965517241,4,2,1,51,0,0
170228,-86.2068965517241,4,2,1,53,0,0
170336,-86.2068965517241,4,2,1,40,0,0
170443,-86.2068965517241,4,2,1,43,0,0
170550,-86.2068965517241,4,2,1,46,0,0
170657,-86.2068965517241,4,2,1,49,0,0
170764,-86.2068965517241,4,2,1,52,0,0
170871,-86.2068965517241,4,2,1,55,0,0
170978,-86.2068965517241,4,2,1,60,0,0
171086,-86.2068965517241,4,2,1,65,0,0
171193,-86.2068965517241,4,2,1,70,0,0
171300,-86.2068965517241,4,2,1,67,0,0
171407,-86.2068965517241,4,2,1,68,0,0
171514,-86.2068965517241,4,2,1,40,0,0
185228,-131.578947368421,4,2,1,20,0,0
185657,-131.578947368421,4,2,1,17,0,0
186086,-131.578947368421,4,2,1,14,0,0
186514,-131.578947368421,4,2,1,11,0,0
186943,-131.578947368421,4,2,1,8,0,0
187371,-131.578947368421,4,2,1,7,0,0
187800,-131.578947368421,4,2,1,6,0,0
188228,-131.578947368421,4,2,1,5,0,0
188657,-120.481927710843,4,2,1,22,0,0
188978,-120.481927710843,4,2,1,19,0,0
189300,-120.481927710843,4,2,1,16,0,0
189621,-120.481927710843,4,2,1,13,0,0
189943,-120.481927710843,4,2,1,10,0,0
190264,-120.481927710843,4,2,1,7,0,0
190371,-120.481927710843,4,2,1,15,0,0
192086,-131.578947368421,4,2,1,25,0,0
192407,-131.578947368421,4,2,1,22,0,0
192728,-131.578947368421,4,2,1,19,0,0
193050,-131.578947368421,4,2,1,16,0,0
193371,-131.578947368421,4,2,1,13,0,0
193693,-131.578947368421,4,2,1,10,0,0
194014,-131.578947368421,4,2,1,7,0,0
194336,-131.578947368421,4,2,1,5,0,0
194657,-131.578947368421,4,2,1,20,0,0
194978,-131.578947368421,4,2,1,15,0,0
195300,-131.578947368421,4,2,1,10,0,0
195514,-131.578947368421,4,2,1,15,0,0
198943,-156.25,4,2,1,25,0,0
199264,-156.25,4,2,1,21,0,0
199586,-156.25,4,2,1,18,0,0
199907,-156.25,4,2,1,15,0,0
200228,-156.25,4,2,1,12,0,0
200550,-156.25,4,2,1,9,0,0
200657,-142.857142857143,4,2,1,15,0,0
200978,-142.857142857143,4,2,1,13,0,0
201300,-142.857142857143,4,2,1,11,0,0
201621,-142.857142857143,4,2,1,9,0,0
201943,-142.857142857143,4,2,1,7,0,0
202264,-142.857142857143,4,2,1,5,0,0
202371,-147.058823529412,4,2,1,11,0,0
202693,-147.058823529412,4,2,1,9,0,0
203014,-147.058823529412,4,2,1,7,0,0
203336,-147.058823529412,4,2,1,6,0,0
203657,-147.058823529412,4,2,1,5,0,0
203978,-147.058823529412,4,2,1,5,0,0
204086,-142.857142857143,4,2,1,12,0,0
204407,-142.857142857143,4,2,1,10,0,0
204728,-142.857142857143,4,2,1,8,0,0
205050,-142.857142857143,4,2,1,6,0,0
205371,-142.857142857143,4,2,1,7,0,0
205693,-142.857142857143,4,2,1,5,0,0
205800,-142.857142857143,4,2,1,15,0,0
206121,-142.857142857143,4,2,1,13,0,0
206443,-142.857142857143,4,2,1,11,0,0
206764,-142.857142857143,4,2,1,9,0,0
207086,-142.857142857143,4,2,1,7,0,0
207407,-142.857142857143,4,2,1,5,0,0
208264,-142.857142857143,4,2,1,7,0,0
208371,-142.857142857143,4,2,1,20,0,0
209228,-142.857142857143,4,2,1,10,0,0
212657,-142.857142857143,4,2,1,20,0,0
213086,-142.857142857143,4,2,1,19,0,0
213514,-142.857142857143,4,2,1,18,0,0
213943,-142.857142857143,4,2,1,17,0,0
214371,-142.857142857143,4,2,1,16,0,0
214800,-142.857142857143,4,2,1,15,0,0
215228,-142.857142857143,4,2,1,14,0,0
215657,-142.857142857143,4,2,1,13,0,0
216086,-142.857142857143,4,2,1,10,0,0
217800,-142.857142857143,4,2,1,20,0,0
218228,-142.857142857143,4,2,1,18,0,0
218657,-142.857142857143,4,2,1,16,0,0
219139,-142.857142857143,4,2,1,14,0,0
219407,-142.857142857143,4,2,1,5,0,0
219514,-142.857142857143,4,2,1,25,0,0
219943,-142.857142857143,4,2,1,24,0,0
220371,-142.857142857143,4,2,1,23,0,0
220800,-142.857142857143,4,2,1,22,0,0
221121,-142.857142857143,4,2,1,5,0,0
221228,-142.857142857143,4,2,1,15,0,0
221550,-142.857142857143,4,2,1,13,0,0
221871,-142.857142857143,4,2,1,11,0,0
222086,-142.857142857143,4,2,1,20,0,0
222407,-142.857142857143,4,2,1,21,0,0
222728,-142.857142857143,4,2,1,22,0,0
222836,-142.857142857143,4,2,1,5,0,0
222943,-142.857142857143,4,2,1,15,0,0
223371,-86.2068965517241,4,2,1,6,0,0
223800,-86.2068965517241,4,2,1,7,0,0
224228,-86.2068965517241,4,2,1,8,0,0
224657,-86.2068965517241,4,2,1,9,0,0
225086,-86.2068965517241,4,2,1,10,0,0
225514,-86.2068965517241,4,2,1,11,0,0
225943,-86.2068965517241,4,2,1,12,0,0
226264,-86.2068965517241,4,2,1,5,0,0
226371,-133.333333333333,4,2,1,15,0,0
226425,-133.333333333333,4,2,1,14,0,0
226478,-133.333333333333,4,2,1,13,0,0
226532,-133.333333333333,4,2,1,12,0,0
226586,-133.333333333333,4,2,1,11,0,0
226639,-133.333333333333,4,2,1,10,0,0
229693,-133.333333333333,4,2,1,5,0,0
229800,-131.578947368421,4,2,1,16,0,0
229853,-131.578947368421,4,2,1,15,0,0
229907,-131.578947368421,4,2,1,14,0,0
229961,-131.578947368421,4,2,1,13,0,0
230014,-131.578947368421,4,2,1,12,0,0
230068,-131.578947368421,4,2,1,11,0,0
230121,-131.578947368421,4,2,1,10,0,0
231514,-131.578947368421,4,2,1,20,0,0
231568,-131.578947368421,4,2,1,18,0,0
231621,-131.578947368421,4,2,1,16,0,0
231675,-131.578947368421,4,2,1,14,0,0
231728,-131.578947368421,4,2,1,12,0,0
231782,-131.578947368421,4,2,1,10,0,0
233121,-131.578947368421,4,2,1,5,0,0
233228,-125,4,2,1,20,0,0
233336,-125,4,2,1,18,0,0
233443,-125,4,2,1,16,0,0
233550,-125,4,2,1,14,0,0
233657,-125,4,2,1,12,0,0
233764,-125,4,2,1,10,0,0
235800,-125,4,2,1,15,0,0
235907,-125,4,2,1,14,0,0
236014,-125,4,2,1,13,0,0
236121,-125,4,2,1,12,0,0
236228,-125,4,2,1,11,0,0
236336,-125,4,2,1,10,0,0
236657,-125,4,2,1,12,0,0
240085,-153.846153846154,4,2,1,20,0,0
240193,-153.846153846154,4,2,1,19,0,0
240300,-153.846153846154,4,2,1,18,0,0
240407,-153.846153846154,4,2,1,17,0,0
240514,-153.846153846154,4,2,1,16,0,0
240621,-153.846153846154,4,2,1,15,0,0
240728,-153.846153846154,4,2,1,14,0,0
240836,-153.846153846154,4,2,1,13,0,0
240943,-153.846153846154,4,2,1,12,0,0
241050,-153.846153846154,4,2,1,11,0,0
241157,-153.846153846154,4,2,1,10,0,0
241264,-153.846153846154,4,2,1,9,0,0
241371,-153.846153846154,4,2,1,8,0,0
241478,-153.846153846154,4,2,1,7,0,0
241586,-153.846153846154,4,2,1,6,0,0
241693,-153.846153846154,4,2,1,5,0,0
245121,-153.846153846154,4,2,1,5,0,0
245228,-142.857142857143,4,2,1,15,0,0
245657,-142.857142857143,4,2,1,16,0,0
246086,-142.857142857143,4,2,1,17,0,0
246514,-142.857142857143,4,2,1,18,0,0
246836,-142.857142857143,4,2,1,5,0,0
246943,-147.058823529412,4,2,1,15,0,0
247371,-147.058823529412,4,2,1,17,0,0
247800,-147.058823529412,4,2,1,19,0,0
248228,-147.058823529412,4,2,1,21,0,0
248657,-147.058823529412,4,2,1,23,0,0
249086,-147.058823529412,4,2,1,25,0,0
249407,-147.058823529412,4,2,1,5,0,0
249514,-147.058823529412,4,2,1,27,0,0
249621,-147.058823529412,4,2,1,5,0,0
249943,-147.058823529412,4,2,1,25,0,0
250157,-147.058823529412,4,2,1,27,0,0
250371,-147.058823529412,4,2,1,29,0,0
250586,-147.058823529412,4,2,1,31,0,0
250800,-147.058823529412,4,2,1,33,0,0
251014,-147.058823529412,4,2,1,35,0,0
251228,-147.058823529412,4,2,1,37,0,0
251443,-147.058823529412,4,2,1,39,0,0
251657,-147.058823529412,4,2,1,41,0,0
251871,-147.058823529412,4,2,1,43,0,0
252086,-147.058823529412,4,2,1,45,0,0
252300,-147.058823529412,4,2,1,47,0,0
252514,-147.058823529412,4,2,1,49,0,0
252728,-147.058823529412,4,2,1,51,0,0
252943,-147.058823529412,4,2,1,53,0,0
253157,-147.058823529412,4,2,1,55,0,0
253371,-147.058823529412,4,2,1,57,0,0
253586,-147.058823529412,4,2,1,59,0,0
253693,-147.058823529412,4,2,1,5,0,0
253800,-52.6315789473684,4,2,1,60,0,0
254121,-52.6315789473684,4,2,1,5,0,0
254228,-52.6315789473684,4,2,1,65,0,0
254443,-52.6315789473684,4,2,1,15,0,0
254550,-52.6315789473684,4,2,1,55,0,0
254871,-52.6315789473684,4,2,1,70,0,0
255086,-52.6315789473684,4,2,1,15,0,0
255193,-52.6315789473684,4,2,1,60,0,0
255514,-100,4,2,1,50,0,0
255621,-100,4,2,1,65,0,0
255728,-100,4,2,1,50,0,0
255836,-100,4,2,1,35,0,0
255943,-100,4,2,1,65,0,0
256157,-100,4,2,1,80,0,0
256478,-100,4,2,1,65,0,0
256693,-100,4,2,1,60,0,0
256800,-100,4,2,1,50,0,0
256907,-100,4,2,1,45,0,0
257014,-55.5555555555556,4,2,1,65,0,0
257121,-55.5555555555556,4,2,1,35,0,0
257228,-66.6666666666667,4,2,1,60,0,0
257443,-66.6666666666667,4,2,1,5,0,0
257550,-66.6666666666667,4,2,1,70,0,0
258193,-100,4,2,1,35,0,0
258407,-100,4,2,1,35,0,0
258621,-333.333333333333,4,2,1,35,0,0
258943,-66.6666666666667,4,2,1,50,0,0
259157,-66.6666666666667,4,2,1,5,0,0
259371,-66.6666666666667,4,2,1,75,0,0
259586,-66.6666666666667,4,2,1,15,0,0
259693,-66.6666666666667,4,2,1,65,0,0
259907,-66.6666666666667,4,2,1,60,0,0
260014,-66.6666666666667,4,2,1,75,0,0
260335,-66.6666666666667,4,2,1,5,0,0
260443,-58.8235294117647,4,2,1,60,0,0
260657,-58.8235294117647,4,2,1,60,0,0
260764,-72.463768115942,4,2,1,60,0,0
262157,-72.463768115942,4,2,1,5,0,0
262264,-72.463768115942,4,2,1,50,0,0
262800,-72.463768115942,4,2,1,45,0,0
262907,-72.463768115942,4,2,1,5,0,0
263014,-83.3333333333333,4,2,1,65,0,0
263443,-83.3333333333333,4,2,1,50,0,0
263550,-83.3333333333333,4,2,1,65,0,0
263657,-100,4,2,1,50,0,0
263764,-100,4,2,1,25,0,0
263871,-100,4,2,1,65,0,0
263898,-100,4,2,1,50,0,0
264085,-100,4,2,1,55,0,0
264514,-100,4,2,1,70,0,0
264728,-125,4,2,1,45,0,0
264835,-66.6666666666667,4,2,1,65,0,0
265050,-55.5555555555556,4,2,1,60,0,0
265157,-66.6666666666667,4,2,1,50,0,0
265264,-66.6666666666667,4,2,1,50,0,0
265371,-66.6666666666667,4,2,1,45,0,0
265478,-66.6666666666667,4,2,1,65,0,0
265585,-66.6666666666667,4,2,1,50,0,0
265692,-66.6666666666667,4,2,1,35,0,0
265800,-76.9230769230769,4,2,1,50,0,0
265907,-76.9230769230769,4,2,1,65,0,0
266014,-76.9230769230769,4,2,1,50,0,0
266121,-76.9230769230769,4,2,1,55,0,0
266228,-66.6666666666667,4,2,1,65,0,0
266657,-90.9090909090909,4,2,1,5,0,0
266764,-90.9090909090909,4,2,1,60,0,0
266871,-90.9090909090909,4,2,1,65,0,0
266925,-90.9090909090909,4,2,1,35,0,0
267085,-58.8235294117647,4,2,1,65,0,0
267300,-58.8235294117647,4,2,1,35,0,0
267353,-100,4,2,1,35,0,0
267407,-58.8235294117647,4,2,1,65,0,0
267461,-58.8235294117647,4,2,1,25,0,0
267514,-71.4285714285714,4,2,1,50,0,0
267943,-58.8235294117647,4,2,1,65,0,0
268157,-58.8235294117647,4,2,1,35,0,0
268264,-58.8235294117647,4,2,1,60,0,0
268478,-58.8235294117647,4,2,1,65,0,0
268585,-58.8235294117647,4,2,1,70,0,0
268800,-58.8235294117647,4,2,1,35,0,0
268907,-58.8235294117647,4,2,1,60,0,0
269121,-71.4285714285714,4,2,1,65,0,0
269228,-71.4285714285714,4,2,1,35,0,0
269335,-71.4285714285714,4,2,1,60,0,0
269442,-71.4285714285714,4,2,1,50,0,0
269550,-71.4285714285714,4,2,1,35,0,0
269657,-71.4285714285714,4,2,1,65,0,0
269871,-71.4285714285714,4,2,1,70,0,0
270192,-71.4285714285714,4,2,1,60,0,0
270407,-71.4285714285714,4,2,1,55,0,0
270514,-71.4285714285714,4,2,1,57,0,0
270621,-71.4285714285714,4,2,1,25,0,0
270728,-71.4285714285714,4,2,1,65,0,0
270943,-53.1914893617021,4,2,1,55,0,0
271264,-53.1914893617021,4,2,1,50,0,0
271371,-58.8235294117647,4,2,1,70,0,0
271585,-58.8235294117647,4,2,1,25,0,0
271692,-58.8235294117647,4,2,1,55,0,0
271907,-58.8235294117647,4,2,1,60,0,0
272014,-58.8235294117647,4,2,1,70,0,0
272228,-58.8235294117647,4,2,1,25,0,0
272335,-58.8235294117647,4,2,1,55,0,0
272550,-58.8235294117647,4,2,1,60,0,0
272657,-58.8235294117647,4,2,1,70,0,0
272871,-58.8235294117647,4,2,1,25,0,0
272978,-58.8235294117647,4,2,1,55,0,0
273192,-58.8235294117647,4,2,1,60,0,0
273299,-76.9230769230769,4,2,1,60,0,0
273728,-76.9230769230769,4,2,1,25,0,0
273835,-76.9230769230769,4,2,1,50,0,0
273942,-76.9230769230769,4,2,1,70,0,0
274050,-76.9230769230769,4,2,1,25,0,0
274157,-76.9230769230769,4,2,1,50,0,0
274264,-76.9230769230769,4,2,1,25,0,0
274371,-100,4,2,1,35,0,0
274585,-100,4,2,1,40,0,0
274800,-100,4,2,1,45,0,0
275014,-100,4,2,1,50,0,0
275121,-100,4,2,1,55,0,0
275228,-100,4,2,1,25,0,0
275282,-100,4,2,1,26,0,0
275335,-100,4,2,1,27,0,0
275389,-100,4,2,1,28,0,0
275442,-100,4,2,1,29,0,0
275496,-100,4,2,1,30,0,0
275550,-100,4,2,1,31,0,0
275603,-100,4,2,1,32,0,0
275657,-100,4,2,1,33,0,0
275710,-100,4,2,1,34,0,0
275764,-100,4,2,1,35,0,0
275871,-100,4,2,1,5,0,0
275925,-100,4,2,1,15,0,0
275978,-100,4,2,1,25,0,0
276032,-100,4,2,1,35,0,0
276085,-100,4,2,1,45,0,0
276193,-62.5,4,2,1,65,0,0
276300,-62.5,4,2,1,5,0,0
276407,-62.5,4,2,1,50,0,0
276514,-62.5,4,2,1,45,0,0
276621,-62.5,4,2,1,40,0,0
276728,-58.8235294117647,4,2,1,65,0,0
277157,-58.8235294117647,4,2,1,35,0,0
277264,-58.8235294117647,4,2,1,60,0,0
277371,-58.8235294117647,4,2,1,50,0,0
277478,-58.8235294117647,4,2,1,40,0,0
277585,-58.8235294117647,4,2,1,65,0,0
277800,-58.8235294117647,4,2,1,55,0,0
278228,-58.8235294117647,4,2,1,70,0,0
278443,-62.5,4,2,1,50,0,0
278550,-62.5,4,2,1,70,0,0
278657,-100,4,2,1,25,0,0
278764,-100,4,2,1,55,0,0
278871,-62.5,4,2,1,60,0,0
278978,-62.5,4,2,1,45,0,0
279085,-62.5,4,2,1,47,0,0
279192,-62.5,4,2,1,49,0,0
279300,-62.5,4,2,1,51,0,0
279407,-62.5,4,2,1,55,0,0
279514,-62.5,4,2,1,57,0,0
279621,-62.5,4,2,1,59,0,0
279728,-62.5,4,2,1,61,0,0
279835,-62.5,4,2,1,63,0,0
279943,-62.5,4,2,1,70,0,1
280050,-62.5,4,2,1,72,0,1
280157,-62.5,4,2,1,74,0,1
280264,-62.5,4,2,1,76,0,1
280371,-62.5,4,2,1,78,0,1
280478,-62.5,4,2,1,80,0,1
280585,-62.5,4,2,1,82,0,1
280692,-62.5,4,2,1,84,0,1
280800,-90.9090909090909,4,2,1,85,0,1
281121,-90.9090909090909,4,2,1,25,0,1
281228,-62.5,4,2,1,70,0,0
281764,-62.5,4,2,1,15,0,0
281871,-62.5,4,2,1,65,0,0
282085,-62.5,4,2,1,75,0,0
282407,-62.5,4,2,1,5,0,0
282514,-62.5,4,2,1,70,0,0
282942,-62.5,4,2,1,5,0,0
283157,-62.5,4,2,1,80,0,0
283371,-62.5,4,2,1,70,0,0
283585,-62.5,4,2,1,35,0,0
283800,-62.5,4,2,1,85,0,0
283907,-62.5,4,2,1,75,0,0
284157,-62.5,4,2,1,55,0,0
284228,-62.5,4,2,1,75,0,0
284550,-62.5,4,2,1,15,0,0
284657,-62.5,4,2,1,70,0,0
284871,-62.5,4,2,1,65,0,0
285085,-62.5,4,2,1,85,0,0
285192,-62.5,4,2,1,35,0,0
285300,-62.5,4,2,1,45,0,0
285407,-62.5,4,2,1,65,0,0
285514,-62.5,4,2,1,55,0,0
285728,-62.5,4,2,1,70,0,0
285942,-62.5,4,2,1,65,0,0
286050,-62.5,4,2,1,60,0,0
286157,-62.5,4,2,1,80,0,0
286371,-62.5,4,2,1,45,0,0
286443,-62.5,4,2,1,50,0,0
286585,-58.8235294117647,4,2,1,85,0,0
286800,-58.8235294117647,4,2,1,80,0,0
287228,-58.8235294117647,4,2,1,85,0,0
287442,-58.8235294117647,4,2,1,80,0,0
287657,-58.8235294117647,4,2,1,65,0,0
287871,-58.8235294117647,4,2,1,55,0,0
288085,-71.4285714285714,4,2,1,70,0,0
288300,-71.4285714285714,4,2,1,45,0,0
288514,-71.4285714285714,4,2,1,75,0,0
288836,-71.4285714285714,4,2,1,5,0,0
288943,-67.5675675675676,4,2,1,85,0,0
289692,-67.5675675675676,4,2,1,5,0,0
290014,-67.5675675675676,4,2,1,85,0,0
290228,-101.010101010101,4,2,1,70,0,0
290657,-58.8235294117647,4,2,1,85,0,0
290871,-58.8235294117647,4,2,1,45,0,0
291085,-58.8235294117647,4,2,1,65,0,0
291300,-58.8235294117647,4,2,1,55,0,0
291514,-63.2911392405063,4,2,1,75,0,0
291835,-63.2911392405063,4,2,1,45,0,0
291942,-63.2911392405063,4,2,1,75,0,0
292264,-63.2911392405063,4,2,1,35,0,0
292371,-56.1797752808989,4,2,1,85,0,0
292692,-56.1797752808989,4,2,1,15,0,0
292800,-100,4,2,1,50,0,0
293014,-100,4,2,1,5,0,0
293121,-100,4,2,1,50,0,0
293335,-100,4,2,1,15,0,0
293442,-100,4,2,1,85,0,0
293657,-66.6666666666667,4,2,1,75,0,0
293978,-66.6666666666667,4,2,1,15,0,0
294085,-66.6666666666667,4,2,1,85,0,0
294300,-66.6666666666667,4,2,1,75,0,0
294514,-66.6666666666667,4,2,1,45,0,0
294621,-66.6666666666667,4,2,1,85,0,0
294835,-71.4285714285714,4,2,1,50,0,0
294889,-71.4285714285714,4,2,1,5,0,0
294943,-71.4285714285714,4,2,1,60,0,0
295264,-71.4285714285714,4,2,1,15,0,0
295371,-71.4285714285714,4,2,1,70,0,0
295692,-71.4285714285714,4,2,1,15,0,0
295800,-58.8235294117647,4,2,1,85,0,0
296121,-58.8235294117647,4,2,1,45,0,0
296228,-66.6666666666667,4,2,1,50,0,0
296657,-66.6666666666667,4,2,1,25,0,0
296871,-66.6666666666667,4,2,1,85,0,0
297085,-66.6666666666667,4,2,1,75,0,0
297407,-66.6666666666667,4,2,1,15,0,0
297514,-55.5555555555556,4,2,1,85,0,0
297728,-55.5555555555556,4,2,1,70,0,0
297943,-76.9230769230769,4,2,1,50,0,0
298050,-76.9230769230769,4,2,1,15,0,0
298157,-76.9230769230769,4,2,1,50,0,0
298264,-76.9230769230769,4,2,1,15,0,0
298371,-62.5,4,2,1,75,0,0
298692,-62.5,4,2,1,35,0,0
298800,-62.5,4,2,1,75,0,0
299121,-62.5,4,2,1,25,0,0
299228,-55.5555555555556,4,2,1,85,0,0
299550,-55.5555555555556,4,2,1,15,0,0
299657,-66.6666666666667,4,2,1,50,0,0
300192,-66.6666666666667,4,2,1,15,0,0
300300,-55.5555555555556,4,2,1,85,0,0
300514,-71.4285714285714,4,2,1,70,0,0
300835,-71.4285714285714,4,2,1,15,0,0
300942,-71.4285714285714,4,2,1,85,0,0
301157,-62.5,4,2,1,60,0,0
301586,-62.5,4,2,1,35,0,0
301800,-62.5,4,2,1,60,0,0
302014,-62.5,4,2,1,65,0,0
302228,-71.4285714285714,4,2,1,60,0,0
302550,-71.4285714285714,4,2,1,15,0,0
302657,-58.8235294117647,4,2,1,85,0,0
303514,-58.8235294117647,4,2,1,35,0,0
303728,-58.8235294117647,4,2,1,85,0,0
303943,-66.6666666666667,4,2,1,65,0,0
304264,-66.6666666666667,4,2,1,25,0,0
304371,-62.5,4,2,1,85,0,0
304585,-66.6666666666667,4,2,1,70,0,0
305121,-66.6666666666667,4,2,1,25,0,0
305228,-66.6666666666667,4,2,1,75,0,0
305443,-66.6666666666667,4,2,1,70,0,0
305550,-66.6666666666667,4,2,1,15,0,0
305657,-66.6666666666667,4,2,1,75,0,0
305978,-66.6666666666667,4,2,1,25,0,0
306085,-55.5555555555556,4,2,1,85,0,0
306407,-55.5555555555556,4,2,1,15,0,0
306514,-100,4,2,1,50,0,0
306728,-100,4,2,1,15,0,0
306835,-100,4,2,1,50,0,0
307050,-100,4,2,1,25,0,0
307157,-100,4,2,1,85,0,0
307371,-62.5,4,2,1,70,0,0
307585,-62.5,4,2,1,80,0,0
307800,-62.5,4,2,1,85,0,0
308014,-76.9230769230769,4,2,1,70,0,0
308228,-76.9230769230769,4,2,1,15,0,0
308335,-58.8235294117647,4,2,1,70,0,0
308550,-58.8235294117647,4,2,1,25,0,0
308657,-66.6666666666667,4,2,1,80,0,0
308978,-66.6666666666667,4,2,1,35,0,0
309193,-100,4,2,1,70,0,0
309300,-100,4,2,1,80,0,0
309407,-100,4,2,1,50,0,0
309514,-55.5555555555556,4,2,1,85,0,0
309835,-55.5555555555556,4,2,1,25,0,0
309943,-62.5,4,2,1,70,0,0
310478,-62.5,4,2,1,25,0,0
310585,-55.5555555555556,4,2,1,85,0,0
310692,-55.5555555555556,4,2,1,35,0,0
310800,-68.4931506849315,4,2,1,80,0,0
311121,-68.4931506849315,4,2,1,35,0,0
311228,-55.5555555555556,4,2,1,85,0,0
311550,-55.5555555555556,4,2,1,70,0,0
311657,-62.5,4,2,1,75,0,0
311978,-62.5,4,2,1,35,0,0
312085,-58.8235294117647,4,2,1,70,0,0
312407,-58.8235294117647,4,2,1,60,0,0
312514,-55.5555555555556,4,2,1,85,0,0
312621,-55.5555555555556,4,2,1,15,0,0
312728,-55.5555555555556,4,2,1,45,0,0
312835,-66.6666666666667,4,2,1,70,0,0
313050,-66.6666666666667,4,2,1,35,0,0
313157,-66.6666666666667,4,2,1,70,0,0
313478,-66.6666666666667,4,2,1,50,0,0
313585,-55.5555555555556,4,2,1,85,0,0
313692,-55.5555555555556,4,2,1,35,0,0
313800,-66.6666666666667,4,2,1,75,0,0
313871,-66.6666666666667,4,2,1,30,0,0
314014,-55.5555555555556,4,2,1,85,0,0
314121,-55.5555555555556,4,2,1,80,0,0
314228,-55.5555555555556,4,2,1,80,0,0
314442,-55.5555555555556,4,2,1,75,0,0
314657,-55.5555555555556,4,2,1,85,0,0
314764,-55.5555555555556,4,2,1,45,0,0
314871,-55.5555555555556,4,2,1,80,0,0
315085,-62.5,4,2,1,75,0,0
315407,-62.5,4,2,1,25,0,0
315514,-66.6666666666667,4,2,1,75,0,0
315835,-66.6666666666667,4,2,1,35,0,0
315942,-66.6666666666667,4,2,1,70,0,0
316264,-66.6666666666667,4,2,1,25,0,0
316371,-71.4285714285714,4,2,1,85,0,0
317121,-71.4285714285714,4,2,1,15,0,0
317442,-71.4285714285714,4,2,1,90,0,0
317657,-66.6666666666667,4,2,1,80,0,0
317978,-66.6666666666667,4,2,1,35,0,0
318085,-58.8235294117647,4,2,1,90,0,0
318300,-58.8235294117647,4,2,1,75,0,0
318514,-58.8235294117647,4,2,1,65,0,0
318728,-58.8235294117647,4,2,1,65,0,0
318943,-66.6666666666667,4,2,1,75,0,0
319264,-66.6666666666667,4,2,1,35,0,0
319371,-83.3333333333333,4,2,1,75,0,0
319692,-83.3333333333333,4,2,1,35,0,0
319800,-55.5555555555556,4,2,1,90,0,0
320121,-55.5555555555556,4,2,1,15,0,0
320228,-71.4285714285714,4,2,1,50,0,0
320443,-333.333333333333,4,2,1,75,0,0
320764,-333.333333333333,4,2,1,80,0,0
320871,-40,4,2,1,90,0,0
320978,-40,4,2,1,80,0,0
321085,-50,4,2,1,85,0,0
321407,-50,4,2,1,35,0,0
321514,-55.5555555555556,4,2,1,90,0,0
321728,-55.5555555555556,4,2,1,75,0,0
321943,-55.5555555555556,4,2,1,55,0,0
322050,-55.2486187845304,4,2,1,90,0,0
322264,-54.9450549450549,4,2,1,75,0,0
322318,-54.9450549450549,4,2,1,25,0,0
322371,-65.7894736842105,4,2,1,80,0,0
322692,-65.7894736842105,4,2,1,35,0,0
322800,-65.7894736842105,4,2,1,80,0,0
323121,-65.7894736842105,4,2,1,45,0,0
323228,-55.5555555555556,4,2,1,90,0,0
323550,-55.5555555555556,4,2,1,70,0,0
323657,-55.5555555555556,4,2,1,75,0,0
324300,-55.5555555555556,4,2,1,90,0,0
324514,-66.6666666666667,4,2,1,80,0,0
324835,-66.6666666666667,4,2,1,45,0,0
324943,-58.8235294117647,4,2,1,90,0,0
325157,-58.8235294117647,4,2,1,85,0,0
325371,-58.8235294117647,4,2,1,75,0,0
325585,-58.8235294117647,4,2,1,80,0,0
325800,-66.6666666666667,4,2,1,80,0,0
326121,-66.6666666666667,4,2,1,25,0,0
326228,-66.6666666666667,4,2,1,80,0,0
326550,-66.6666666666667,4,2,1,25,0,0
326657,-55.5555555555556,4,2,1,90,0,0
326978,-55.5555555555556,4,2,1,60,0,0
327085,-55.5555555555556,4,2,1,60,0,0
327728,-55.5555555555556,4,2,1,90,0,0
327943,-66.6666666666667,4,2,1,80,0,0
328264,-66.6666666666667,4,2,1,35,0,0
328371,-58.8235294117647,4,2,1,90,0,0
328585,-58.8235294117647,4,2,1,80,0,0
328800,-58.8235294117647,4,2,1,75,0,0
329014,-58.8235294117647,4,2,1,80,0,0
329228,-66.6666666666667,4,2,1,80,0,0
329442,-66.6666666666667,4,2,1,85,0,0
329657,-66.6666666666667,4,2,1,80,0,0
329978,-66.6666666666667,4,2,1,35,0,0
330085,-55.5555555555556,4,2,1,90,0,0
330407,-55.5555555555556,4,2,1,35,0,0
330514,-55.5555555555556,4,2,1,60,0,0
330942,-55.5555555555556,4,2,1,65,0,0
331157,-55.5555555555556,4,2,1,90,0,0
331371,-66.6666666666667,4,2,1,80,0,0
331692,-66.6666666666667,4,2,1,45,0,0
331800,-55.5555555555556,4,2,1,90,0,0
332014,-55.5555555555556,4,2,1,80,0,0
332228,-66.6666666666667,4,2,1,70,0,0
332550,-66.6666666666667,4,2,1,35,0,0
332657,-66.6666666666667,4,2,1,80,0,0
332978,-66.6666666666667,4,2,1,45,0,0
333085,-66.6666666666667,4,2,1,80,0,0
333407,-66.6666666666667,4,2,1,45,0,0
333514,-55.5555555555556,4,2,1,90,0,0
333728,-55.5555555555556,4,2,1,45,0,0
333942,-55.5555555555556,4,2,1,50,0,0
334157,-55.5555555555556,4,2,1,80,0,0
334264,-55.5555555555556,4,2,1,65,0,0
334371,-55.5555555555556,4,2,1,35,0,0
334478,-76.9230769230769,4,2,1,80,0,0
334585,-52.6315789473684,4,2,1,90,0,0
334692,-40,4,2,1,75,0,0
334800,-50,4,2,1,80,0,0
335121,-38.4615384615385,4,2,1,25,0,0
335228,-50,4,2,1,90,0,0
335442,-50,4,2,1,80,0,0
335657,-50,4,2,1,55,0,0
336085,-200,4,2,1,5,0,0
339514,-188.679245283019,4,2,1,30,0,0
339943,-188.679245283019,4,2,1,28,0,0
340371,-188.679245283019,4,2,1,26,0,0
340800,-188.679245283019,4,2,1,24,0,0
341228,-188.679245283019,4,2,1,22,0,0
341657,-188.679245283019,4,2,1,20,0,0
342086,-188.679245283019,4,2,1,18,0,0
342514,-188.679245283019,4,2,1,16,0,0
342835,-188.679245283019,4,2,1,5,0,0
342943,-200,4,2,1,30,0,0
343371,-200,4,2,1,28,0,0
343800,-200,4,2,1,26,0,0
344228,-200,4,2,1,24,0,0
344657,-200,4,2,1,22,0,0
345086,-200,4,2,1,20,0,0
345514,-200,4,2,1,25,0,0
345943,-200,4,2,1,23,0,0
346050,-200,4,2,1,21,0,0
346157,-200,4,2,1,19,0,0
346264,-200,4,2,1,5,0,0
346371,-200,4,2,1,25,0,0
346693,-200,4,2,1,23,0,0
347014,-200,4,2,1,21,0,0
347336,-200,4,2,1,19,0,0
347657,-200,4,2,1,17,0,0
347978,-200,4,2,1,15,0,0
348300,-200,4,2,1,13,0,0
348621,-200,4,2,1,11,0,0
348943,-200,4,2,1,9,0,0
349264,-200,4,2,1,7,0,0
349586,-200,4,2,1,5,0,0
349692,-200,4,2,1,5,0,0
349800,-200,4,2,1,30,0,0
350228,-200,4,2,1,28,0,0
350657,-200,4,2,1,26,0,0
351086,-200,4,2,1,24,0,0
351407,-200,4,2,1,5,0,0
351514,-200,4,2,1,20,0,0
351728,-200,4,2,1,18,0,0
352050,-200,4,2,1,16,0,0
352371,-200,4,2,1,14,0,0
352693,-200,4,2,1,12,0,0
353014,-200,4,2,1,10,0,0
353121,-200,4,2,1,5,0,0
353228,-200,4,2,1,18,0,0
353336,-200,4,2,1,16,0,0
353443,-200,4,2,1,14,0,0
353550,-200,4,2,1,12,0,0
353657,-200,4,2,1,17,0,0
353764,-200,4,2,1,15,0,0
353871,-200,4,2,1,17,0,0
353978,-200,4,2,1,15,0,0
354086,-200,4,2,1,13,0,0
354193,-200,4,2,1,16,0,0
354300,-200,4,2,1,14,0,0
354407,-200,4,2,1,12,0,0
354514,-200,4,2,1,15,0,0
354621,-200,4,2,1,13,0,0
354728,-200,4,2,1,11,0,0
354835,-200,4,2,1,5,0,0
354942,-200,4,2,1,25,0,0
355157,-200,4,2,1,23,0,0
355478,-200,4,2,1,21,0,0
355800,-200,4,2,1,19,0,0
356121,-200,4,2,1,17,0,0
356443,-200,4,2,1,15,0,0
356550,-200,4,2,1,5,0,0
356657,-208.333333333333,4,2,1,20,0,0
356711,-208.333333333333,4,2,1,19,0,0
356764,-208.333333333333,4,2,1,18,0,0
356818,-208.333333333333,4,2,1,17,0,0
356871,-208.333333333333,4,2,1,16,0,0
356925,-208.333333333333,4,2,1,15,0,0
356978,-208.333333333333,4,2,1,18,0,0
357032,-208.333333333333,4,2,1,16,0,0
357086,-208.333333333333,4,2,1,15,0,0
357139,-208.333333333333,4,2,1,14,0,0
357193,-208.333333333333,4,2,1,13,0,0
357246,-208.333333333333,4,2,1,12,0,0
357300,-208.333333333333,4,2,1,11,0,0
357353,-208.333333333333,4,2,1,10,0,0
357407,-208.333333333333,4,2,1,10,0,0
357514,-208.333333333333,4,2,1,9,0,0
357943,-208.333333333333,4,2,1,8,0,0
358586,-208.333333333333,4,2,1,7,0,0
359014,-208.333333333333,4,2,1,6,0,0
359121,-208.333333333333,4,2,1,5,0,0
359228,-208.333333333333,4,2,1,25,0,0
360586,-200,4,2,1,27,0,0
362014,-200,4,2,1,29,0,0
363728,-200,4,2,1,25,0,0
365442,-200,4,2,1,20,0,0
367157,-200,4,2,1,15,0,0
368871,-200,4,2,1,10,0,0
369835,-200,4,2,1,9,0,0
369942,-200,4,2,1,8,0,0
370050,-200,4,2,1,7,0,0
370157,-200,4,2,1,6,0,0
370264,-200,4,2,1,5,0,0
370371,-200,4,2,1,5,0,0

[Colours]
Combo1 : 128,0,255
Combo2 : 166,221,210
Combo3 : 232,219,145
SliderBorder : 100,100,150
SliderTrackOverride : 0,0,0

[HitObjects]
465,355,86,6,0,B|436:259|321:268|326:297|313:318|307:337|293:346|269:366|226:366|208:301|139:336|172:295|149:198|164:167|155:151|134:135|106:151|43:140|27:154|20:200|18:250|59:304|116:285|140:267|170:161|217:218|244:252|265:263|265:263|292:239|312:224|364:219|347:166|314:131|246:111|271:175|251:194|257:206|277:209|284:205,1,1007.99997596741
397,214,6943,6,0,B|403:169|391:132|364:99|319:73|284:72|241:81|211:117|198:157|198:157|171:121|140:98|104:95|79:95|51:108|28:125|28:125|32:88|54:51|91:41|119:44|156:48|189:86|189:86|198:43|219:30|253:14|278:8|308:18|344:15|368:25|416:61|429:83,1,1007.99997596741
466,151,13800,22,0,B|473:202|477:232|458:301|390:288|364:276|364:276|378:332|478:313|478:313|468:367|423:367|396:381|337:371|305:342|289:304|249:314|256:364|278:371|293:369,1,619.999985218049,2|0,0:0|0:0,0:0:0:0:
289,262,17228,6,0,B|257:265|226:268|189:315|198:360|198:360|166:314|136:230|283:200|301:197|344:145|316:65|266:30|220:38|171:52|152:95|174:148|189:178|236:167|250:132|245:117|227:121,1,657.19998533394,2|0,0:0|0:0,0:0:0:0:
170,22,20657,22,0,B|231:-13|292:-2|347:37|367:92|363:162|333:206|333:206|363:185|380:108|380:108|382:80|373:158|372:200|422:238|483:247|536:187|526:143,1,719.200004801179,2|0,0:0|0:0,0:0:0:0:
456,144,24086,5,2,0:0:0:0:
256,192,24193,12,0,27407,0:0:0:0:
76,89,27514,22,0,P|111:76|157:82,1,71.9999978027344,2|0,0:0|0:0,0:0:0:0:
121,147,27836,2,0,L|103:185,2,35.9999989013672,0|2|0,0:0|0:0|0:0,0:0:0:0:
217,104,28157,2,0,P|209:125|196:140,1,35.9999989013672
184,208,28371,2,0,B|241:214|258:188|286:155|304:107|372:121,1,215.999988258363,2|0,0:0|0:0,0:0:0:0:
302,244,29228,6,0,P|328:215|356:188,1,71.9999960861209,2|0,0:0|0:0,0:0:0:0:
369,120,29550,2,0,P|389:131|409:150,2,35.9999980430604,0|2|0,0:0|0:0|0:0,0:0:0:0:
420,211,29871,2,0,P|416:227|398:243,1,35.9999980430604
352,292,30086,2,0,B|316:327|294:340|255:347|245:346|200:351|200:351|197:363|248:376,1,215.999988258363,2|0,0:0|0:0,0:0:0:0:
132,365,30943,22,0,P|142:309|161:292,1,71.9999960861209,2|0,0:0|0:0,0:0:0:0:
219,276,31264,2,0,P|210:257|191:240,2,35.9999980430604,0|2|0,0:0|0:0|0:0,0:0:0:0:
146,199,31586,2,0,P|135:216|127:237,1,35.9999980430604
79,288,31800,2,0,B|59:262|46:238|65:191|65:191|82:155|58:134|25:134|14:189|42:192,1,215.999988258363,2|0,0:0|0:0,0:0:0:0:
212,24,32657,6,0,P|251:22|296:40,1,71.9999978027344,2|0,0:0|0:0,0:0:0:0:
339,77,32978,2,0,P|320:95|300:103,2,35.9999989013672,0|2|0,0:0|0:0|0:0,0:0:0:0:
242,94,33300,2,0,P|241:115|252:143,1,35.9999989013672
308,176,33514,2,0,B|322:176|337:169|354:164|364:157|377:142|387:132|404:116|432:107|459:123|463:156|453:182|430:183|404:169,1,215.999988258363,2|0,0:0|0:0,0:0:0:0:
372,268,34371,22,0,P|409:254|453:247,1,71.9999978027344,2|0,0:0|0:0,0:0:0:0:
473,318,34693,2,0,P|444:321|428:328,2,35.9999989013672,0|2|0,0:0|0:0|0:0,0:0:0:0:
366,342,35014,2,0,P|344:335|327:329,1,35.9999989013672
296,264,35228,2,0,B|241:307|266:363|266:363|247:322|210:303|176:298,1,215.999988258363,2|0,0:0|0:0,0:0:0:0:
20,248,36086,6,0,P|51:210|60:176,1,71.9999978027344,2|0,0:0|0:0,0:0:0:0:
11,131,36407,2,0,P|25:122|56:117,2,35.9999989013672,0|2|0,0:0|0:0|0:0,0:0:0:0:
116,128,36728,2,0,P|115:101|111:81,1,35.9999989013672
61,42,36943,2,0,B|75:24|93:16|122:6|146:21|165:26|172:38|186:58|196:90|185:108|192:126|192:126|197:106|207:88,1,251.999992309571,2|0,0:0|0:0,0:0:0:0:
249,28,37800,22,0,P|269:52|282:99,1,71.9999978027344,2|0,0:0|0:0,0:0:0:0:
255,162,38121,2,0,P|271:165|301:165,2,35.9999989013672,0|2|0,0:0|0:0|0:0,0:0:0:0:
352,120,38443,2,0,P|361:96|366:71,1,35.9999989013672
337,17,38657,2,0,B|364:5|414:10|441:52|438:99,1,143.999995605469,2|0,0:0|0:0,0:0:0:0:
296,336,39514,6,0,P|241:313|225:298,1,71.9999978027344,2|0,0:0|0:0,0:0:0:0:
174,351,39836,2,0,P|161:328|157:316,2,35.9999989013672,0|2|0,0:0|0:0|0:0,0:0:0:0:
184,253,40157,2,0,P|174:230|161:213,1,35.9999989013672
108,266,40371,2,0,B|93:238|80:212|106:166|118:157|139:147|171:138|200:150|221:172,1,215.999993408203,2|0,0:0|0:0,0:0:0:0:
312,48,41228,22,0,P|336:74|378:99,1,71.9999978027344,2|0,0:0|0:0,0:0:0:0:
384,20,41550,2,0,P|406:34|419:42,2,35.9999989013672,0|2|0,0:0|0:0|0:0,0:0:0:0:
440,110,41871,2,0,P|435:126|414:147,1,35.9999989013672
355,165,42086,2,0,B|375:216|438:214|438:214|368:217|340:271,1,215.999988258363,2|0,0:0|0:0,0:0:0:0:
264,336,42943,6,0,P|216:348|187:351,1,71.9999978027344,2|0,0:0|0:0,0:0:0:0:
120,352,43264,2,0,P|126:324|134:304,2,35.9999989013672,0|2|0,0:0|0:0|0:0,0:0:0:0:
192,278,43586,2,0,P|170:256|154:247,1,35.9999989013672
94,253,43800,2,0,B|89:231|108:198|128:184|157:177|184:184|184:184|143:157|101:172,1,215.999988258363,2|0,0:0|0:0,0:0:0:0:
268,83,44657,22,0,P|229:79|188:59,1,71.9999978027344,2|0,0:0|0:0,0:0:0:0:
251,9,44978,2,0,P|274:8|296:12,2,35.9999989013672,0|2|0,0:0|0:0|0:0,0:0:0:0:
340,64,45300,2,0,P|354:42|355:25,1,35.9999989013672
424,0,45514,2,0,B|426:19|437:31|430:57|426:69|417:84|416:95|408:102|401:111|395:118|384:127|381:148|391:186|419:194|438:181,1,215.999988258363,2|0,0:0|0:0,0:0:0:0:
204,252,46371,6,0,P|177:226|140:203,1,71.9999978027344,2|0,0:0|0:0,0:0:0:0:
90,165,46693,2,0,P|79:183|76:200,2,35.9999989013672,0|2|0,0:0|0:0|0:0,0:0:0:0:
105,264,47014,2,0,P|127:279|142:291,1,35.9999989013672
196,327,47228,2,0,B|216:327|259:317|279:293|279:251|275:232|275:232|303:204|293:156,1,215.999988258363,2|0,0:0|0:0,0:0:0:0:
188,44,48086,22,0,P|228:35|272:28,1,71.9999978027344,2|0,0:0|0:0,0:0:0:0:
334,16,48407,2,0,P|333:34|329:52,2,35.9999989013672,0|2|0,0:0|0:0|0:0,0:0:0:0:
274,103,48728,2,0,P|292:115|316:122,1,35.9999989013672
381,107,48943,2,0,B|383:176|345:182|320:203|313:200|289:184|254:200|227:215|240:243,1,215.999988258363,2|0,0:0|0:0,0:0:0:0:
84,324,49800,6,0,P|62:291|52:260,1,71.9999978027344,2|0,0:0|0:0,0:0:0:0:
117,226,50121,2,0,P|120:239|132:269,2,35.9999989013672,0|2|0,0:0|0:0|0:0,0:0:0:0:
156,332,50443,2,0,P|174:342|203:347,1,35.9999989013672
201,274,50657,2,0,B|231:281|254:302|261:332|261:332|291:304|299:235|371:246|399:266,1,251.999986301423,2|0,0:0|0:0,0:0:0:0:
356,325,51514,21,4,0:3:0:0:
256,192,51621,12,0,54514,0:0:0:0:
296,354,54943,6,0,B|362:338|364:276,1,95.9999970703126,4|0,0:3|0:0,0:0:0:0:
355,220,55264,2,0,P|326:229|301:250,1,47.9999985351563
201,290,55514,1,0,0:3:0:0:
201,290,55586,2,0,P|202:338|191:354,1,47.9999985351563
39,323,55800,2,0,B|85:347|144:319,1,95.9999970703126,4|0,0:3|0:0,0:0:0:0:
36,228,56121,22,0,B|41:227|48:257|81:261|81:261|131:260|151:178|139:161|139:161|115:118|61:117|106:170,1,271.999998703003,12|0,0:3|0:0,0:0:0:0:
144,68,56657,6,0,B|198:98|212:154,1,95.9999970703126,4|0,0:3|0:0,0:0:0:0:
242,207,56978,2,0,P|267:204|298:188,1,47.9999985351563
379,111,57228,1,0,0:0:0:0:
379,111,57300,2,0,P|376:139|355:173,1,47.9999985351563
436,189,57514,2,0,B|401:238|348:227,1,95.9999970703126,4|0,0:3|0:0,0:0:0:0:
455,115,57836,22,0,B|475:121|487:131|497:140|509:155|519:170|516:192|533:231|509:240|461:245|459:257|436:307|461:311|484:349|510:321|491:281,1,271.999998703003,12|0,0:3|0:0,0:0:0:0:
396,308,58371,6,0,B|397:337|419:366|440:378|440:378|412:374,1,95.9999970703126,4|0,0:3|0:0,0:0:0:0:
333,353,58693,2,0,P|326:325|325:299,1,47.9999985351563
273,189,58943,1,0,0:0:0:0:
273,189,59014,2,0,P|253:213|245:229,1,47.9999985351563
250,311,59228,2,0,B|248:302|248:302|239:299|206:297|196:281|185:269|180:256,1,95.9999970703126,4|0,0:3|0:0,0:0:0:0:
184,355,59550,22,0,B|152:343|139:324|127:312|105:283|104:256|113:223|113:223|82:279|92:314|93:337,1,272.000005187988,12|0,0:3|0:0,0:0:0:0:
20,277,60086,6,0,P|33:225|52:183,1,95.9999947814945,4|0,0:3|0:0,0:0:0:0:
124,76,60407,1,0,0:0:0:0:
124,76,60514,2,0,P|155:42|180:32,1,63.9999965209963,4|0,0:3|0:0,0:0:0:0:
191,104,60728,2,0,L|186:155,1,47.9999973907472
228,213,60943,2,0,B|179:240|134:205,1,95.9999947814945,4|0,0:3|0:0,0:0:0:0:
269,151,61264,22,0,B|289:123|290:88|305:73|305:73|328:116,2,136.000002593994,12|2|0,0:3|0:3|0:0,0:0:0:0:
357,184,61800,6,0,P|398:135|397:91,1,95.9999970703126,4|0,0:3|0:0,0:0:0:0:
460,64,62121,2,0,P|470:86|473:113,1,47.9999973907472
462,193,62371,1,0,0:0:0:0:
462,193,62443,2,0,P|437:223|421:244,1,47.9999973907472
387,288,62657,2,0,P|451:300|485:282,1,95.9999970703126,4|0,0:3|0:0,0:0:0:0:
317,254,62978,22,0,B|309:282|312:328|337:351|391:369|391:369|321:372|289:364|264:328,1,271.999998703003,12|0,0:3|0:0,0:0:0:0:
241,247,63514,6,0,P|214:294|173:326,1,95.9999947814945,4|0,0:3|0:0,0:0:0:0:
95,345,63836,2,0,P|66:348|38:340,1,47.9999985351563
62,217,64086,1,0,0:0:0:0:
62,217,64157,2,0,P|83:206|107:200,1,47.9999985351563
179,214,64371,2,0,P|154:254|111:273,1,95.9999970703126,4|0,0:3|0:0,0:0:0:0:
161,142,64693,22,0,B|195:135|227:157|227:157|206:115|167:89|131:104|96:110|74:72|68:48,1,272.000005187988,12|0,0:3|0:0,0:0:0:0:
140,28,65228,6,0,B|196:35|225:48|246:68,1,95.9999970703126,4|0,0:3|0:0,0:0:0:0:
286,113,65550,2,0,P|298:142|302:167,1,47.9999985351563
280,288,65800,1,0,0:0:0:0:
280,288,65871,2,0,P|320:302|346:296,1,47.9999985351563
441,278,66086,2,0,B|406:268|389:230|393:191,1,95.9999947814945,4|0,0:3|0:0,0:0:0:0:
509,243,66407,22,0,B|510:217|477:153|406:128|406:128|424:133|454:150|465:174|466:212,1,271.999998703003,12|0,0:3|0:0,0:0:0:0:
443,278,66943,5,4,0:3:0:0:
412,316,67050,1,0,0:0:0:0:
376,348,67157,2,0,L|316:351,1,47.9999985351563,4|0,0:3|0:0,0:0:0:0:
232,352,67371,1,4,0:3:0:0:
318,225,67514,2,0,B|328:189|303:143,1,79.9999975585938,4|0,0:3|0:0,0:0:0:0:
167,247,67800,2,0,B|189:247|210:220|229:196|255:193,1,95.9999970703126,4|0,0:3|0:0,0:0:0:0:
153,172,68121,22,0,P|116:194|92:226,1,68.0000012969971,12|0,0:3|0:0,0:0:0:0:
72,252,68336,1,8,0:3:0:0:
60,296,68443,2,0,P|60:332|76:364,1,67.9999996757508,4|0,0:3|0:0,0:0:0:0:
156,360,68657,6,0,B|202:353|262:381,1,95.9999970703126,4|0,0:3|0:0,0:0:0:0:
201,288,68978,2,0,P|166:285|135:286,1,47.9999973907472
279,309,69228,1,0,0:0:0:0:
279,309,69299,2,0,P|304:313|328:312,1,47.9999973907472
404,267,69514,2,0,B|425:337|380:373,1,95.9999947814945,4|0,0:3|0:0,0:0:0:0:
482,264,69836,22,0,B|472:228|447:177|386:187|356:209|356:209|373:146|317:115,1,271.999998703003,12|0,0:3|0:0,0:0:0:0:
288,183,70371,6,0,P|247:131|247:89,1,95.9999947814945,4|0,0:3|0:0,0:0:0:0:
292,36,70693,2,0,P|263:29|227:30,1,47.9999985351563
367,49,70943,1,0,0:0:0:0:
367,49,71014,2,0,P|390:50|414:56,1,47.9999985351563
452,120,71228,2,0,B|464:113|499:76|479:22,1,95.9999947814945,4|0,0:3|0:0,0:0:0:0:
384,147,71550,22,0,B|392:167|397:173|417:195|446:201|478:192|478:192|467:248|421:248|359:251|337:214|336:207,1,272.000005187988,12|0,0:3|0:0,0:0:0:0:
314,161,72086,6,0,P|282:203|288:262,1,95.9999970703126,4|0,0:3|0:0,0:0:0:0:
280,320,72407,2,0,P|252:340|220:348,1,47.9999985351563
80,332,72657,1,0,0:0:0:0:
80,332,72728,2,0,P|92:281|96:267,1,47.9999985351563
62,215,72943,2,0,B|116:203|152:239,1,95.9999970703126,4|0,0:3|0:0,0:0:0:0:
110,142,73264,22,0,B|98:138|65:135|30:145|30:145|21:127|56:103|81:78|111:79|111:86|126:59|118:41|111:24|78:27|56:54,1,271.999998703003,12|0,0:3|0:0,0:0:0:0:
175,12,73800,6,0,P|185:60|167:116,1,95.9999947814945,4|0,0:3|0:0,0:0:0:0:
264,172,74121,1,0,0:0:0:0:
264,172,74228,2,0,P|252:138|261:92,1,63.9999965209963,4|0,0:3|0:0,0:0:0:0:
298,46,74443,2,0,P|320:56|344:60,1,47.9999973907472
406,93,74657,2,0,P|372:126|326:130,1,95.9999970703126,4|0,0:3|0:0,0:0:0:0:
405,18,74978,22,0,P|457:40|473:126,2,135.999999351502,12|2|0,0:3|0:3|0:0,0:0:0:0:
436,172,75514,6,0,P|398:199|365:241,1,95.9999970703126,4|0,0:3|0:0,0:0:0:0:
312,288,75836,2,0,P|321:311|341:337,1,47.9999985351563
227,352,76086,1,0,0:0:0:0:
227,352,76157,2,0,P|191:347|160:333,1,47.9999985351563
140,271,76371,2,0,P|108:307|100:361,1,95.9999970703126,4|0,0:3|0:0,0:0:0:0:
212,276,76693,22,0,B|215:219|156:177|106:187|57:251|57:251|50:245|48:221|51:198,1,272.000005187988,12|0,0:3|0:0,0:0:0:0:
7,127,77228,6,0,P|41:120|103:132,1,95.9999970703126,4|0,0:3|0:0,0:0:0:0:
96,53,77550,2,0,P|70:49|46:47,1,47.9999985351563
184,108,77800,1,0,0:0:0:0:
184,108,77871,2,0,P|190:129|175:170,1,47.9999985351563
228,217,78086,2,0,B|266:187|264:128,1,95.9999970703126,4|0,0:3|0:0,0:0:0:0:
205,6,78407,22,0,B|200:32|227:44|246:55|276:55|273:30|289:23|309:4|341:-2|376:0|421:14|375:39|361:56|311:36,1,272.000005187988,12|0,0:3|0:0,0:0:0:0:
336,115,78943,6,0,P|404:98|435:71,1,95.9999970703126,4|0,0:3|0:0,0:0:0:0:
450,15,79264,2,0,P|466:24|493:59,1,47.9999985351563
477,149,79514,1,0,0:0:0:0:
477,149,79586,2,0,P|449:157|424:175,1,47.9999985351563
406,251,79800,2,0,B|346:232|306:253,1,95.9999947814945,4|0,0:3|0:0,0:0:0:0:
478,232,80121,22,0,B|482:273|475:304|442:329|423:343|381:327|368:321|376:304|354:300|330:306|321:313|331:335|343:344|354:352|364:358|391:331,1,271.999998703003,12|0,0:3|0:0,0:0:0:0:
287,383,80657,6,0,L|250:327,1,47.9999973907472,4|0,0:3|0:0,0:0:0:0:
240,272,80871,2,0,L|191:308,1,47.9999973907472,4|0,0:3|0:0,0:0:0:0:
144,384,81086,1,4,0:3:0:0:
28,304,81228,2,0,P|51:270|94:242,1,79.9999956512454,4|0,0:3|0:0,0:0:0:0:
196,207,81514,2,0,P|246:196|295:212,1,95.9999947814945,4|0,0:3|0:0,0:0:0:0:
408,180,81836,22,0,B|328:172|324:89,2,135.999999351502,12|2|0,0:3|0:3|0:0,0:0:0:0:
399,104,82371,6,0,P|386:55|353:24,1,95.9999947814945,4|0,0:3|0:0,0:0:0:0:
212,36,82693,2,0,P|183:45|164:53,1,47.9999985351563
48,128,82943,1,0,0:0:0:0:
48,128,83014,2,0,P|70:152|83:179,1,47.9999985351563
104,260,83228,2,0,P|58:273|14:257,1,95.9999970703126,4|0,0:3|0:0,0:0:0:0:
160,324,83550,21,0,0:0:0:0:
160,324,83657,2,0,B|184:349|235:363|277:365|339:355|351:330|372:373,1,204.000003890991,4|0,0:3|0:0,0:0:0:0:
433,351,84086,6,0,B|426:318|417:306|392:279|363:280,1,95.9999970703126,4|0,0:3|0:0,0:0:0:0:
328,264,84407,1,4,0:3:0:0:
288,236,84514,2,0,P|269:217|240:180,1,63.9999980468751,2|0,0:3|0:0,0:0:0:0:
258,118,84728,2,0,P|283:128|307:151,1,47.9999973907472,4|0,0:3|0:0,0:0:0:0:
386,112,84943,2,0,P|382:165|414:211,1,95.9999947814945,4|0,0:3|0:0,0:0:0:0:
353,46,85264,22,0,B|391:28|433:45|452:63|471:100|450:146|450:146|481:124|495:97|491:71,1,271.999998703003,12|0,0:3|0:0,0:0:0:0:
500,232,85800,6,0,B|472:261|488:297|439:295,1,95.9999970703126,4|0,0:3|0:0,0:0:0:0:
396,320,86121,1,4,0:3:0:0:
360,340,86228,2,0,P|326:365|304:376,1,63.9999980468751,2|0,0:3|0:0,0:0:0:0:
233,327,86443,2,0,P|250:310|272:300,1,47.9999973907472,4|0,0:3|0:0,0:0:0:0:
148,332,86657,2,0,P|161:286|196:254,1,95.9999970703126,4|0,0:3|0:0,0:0:0:0:
64,334,86978,22,0,B|67:298|87:239|108:216|131:206|141:191|118:176|114:134|66:147|58:157|26:161|12:232|66:214|79:196,1,294.666665261587,12|0,0:3|0:0,0:0:0:0:
1,122,87514,6,0,P|39:97|98:91,1,95.9999970703126,4|0,0:3|0:0,0:0:0:0:
136,100,87836,1,4,0:3:0:0:
180,112,87943,2,0,L|206:178,1,63.9999980468751,2|0,0:3|0:0,0:0:0:0:
272,108,88157,2,0,P|263:82|244:44,1,47.9999985351563,4|0,0:3|0:0,0:0:0:0:
364,104,88371,2,0,P|344:72|350:11,1,95.9999947814945,4|0,0:3|0:0,0:0:0:0:
415,50,88693,22,0,B|453:98|443:138|416:168|384:176|384:176|414:200|464:187|476:151,1,249.33333214442,12|0,0:3|0:0,0:0:0:0:
426,260,89228,6,0,P|375:252|333:228,1,95.9999947814945,4|0,0:3|0:0,0:0:0:0:
284,224,89550,1,4,0:3:0:0:
236,224,89657,2,0,L|230:301,1,63.9999980468751,2|0,0:3|0:0,0:0:0:0:
160,336,89871,2,0,P|140:324|125:305,1,47.9999985351563,4|0,0:3|0:0,0:0:0:0:
74,209,90086,2,0,B|100:205|125:207|141:216|160:240,1,95.9999970703126,4|0,0:3|0:0,0:0:0:0:
56,281,90407,22,0,B|36:275|25:270|11:256|2:243|-3:231|-3:220|-2:208|-6:197|-8:181|4:151|24:143|36:133|57:127|73:126|82:113|66:101|44:99|29:101|14:106|1:125,1,272.000005187988,12|0,0:3|0:0,0:0:0:0:
66,37,90943,6,0,P|108:61|131:111,1,95.9999970703126,4|0,0:3|0:0,0:0:0:0:
156,140,91264,1,4,0:3:0:0:
184,180,91371,2,0,P|210:193|264:191,1,63.9999980468751,2|0,0:3|0:0,0:0:0:0:
252,120,91586,2,0,P|239:99|228:72,1,47.9999985351563,4|0,0:3|0:0,0:0:0:0:
356,100,91800,2,0,P|325:47|307:9,1,95.9999947814945,4|0,0:3|0:0,0:0:0:0:
436,144,92121,22,0,B|460:122|486:132|509:134|497:151|490:185|462:206|444:179|408:205|386:211|382:239|401:256|421:268|443:266|464:257|505:268,1,272.000005187988,12|0,0:3|0:0,0:0:0:0:
460,336,92657,6,0,P|397:326|360:303,1,95.9999970703126,4|0,0:3|0:0,0:0:0:0:
324,292,92978,1,4,0:3:0:0:
276,296,93086,2,0,P|239:323|212:340,1,63.9999980468751,2|0,0:3|0:0,0:0:0:0:
148,318,93300,2,0,L|156:271,1,47.9999985351563,4|0,0:3|0:0,0:0:0:0:
78,262,93514,2,0,P|97:217|140:193,1,95.9999970703126,4|0,0:3|0:0,0:0:0:0:
7,239,93836,22,0,B|23:160|109:123|109:123|79:99|32:119|1:146,1,271.999998703003,12|0,0:3|0:0,0:0:0:0:
7,55,94371,6,0,P|28:48|56:40,1,47.9999973907472,4|0,0:3|0:0,0:0:0:0:
128,40,94586,1,0,0:3:0:0:
176,36,94693,1,0,0:3:0:0:
224,32,94800,1,6,0:3:0:0:
272,28,94907,1,0,0:3:0:0:
320,24,95014,2,0,P|348:15|374:10,1,47.9999973907472,0|0,0:3|0:3,0:0:0:0:
437,11,95228,2,0,P|413:66|378:82,1,95.9999947814945,4|0,0:3|0:0,0:0:0:0:
370,194,95550,22,0,B|356:165|356:165|397:160|435:156|478:170,1,135.999999351502,12|2,0:3|0:3,0:0:0:0:
504,228,95871,1,0,0:0:0:0:
302,237,96086,6,0,P|329:268|386:291,1,95.9999947814945,4|0,0:3|0:0,0:0:0:0:
420,316,96407,1,4,0:3:0:0:
444,356,96514,2,0,P|408:376|375:387,1,63.9999965209963,2|0,0:3|0:0,0:0:0:0:
317,367,96728,2,0,P|288:370|263:362,1,47.9999973907472,4|0,0:3|0:0,0:0:0:0:
217,286,96943,2,0,B|197:288|171:333|120:320,1,95.9999970703126,4|0,0:3|0:0,0:0:0:0:
292,296,97264,22,0,B|294:237|249:192|190:194|155:240|141:248|141:248|143:217|157:204|200:199,1,271.999998703003,12|0,0:3|0:0,0:0:0:0:
216,139,97800,6,0,P|174:127|124:142,1,95.9999970703126,4|0,0:3|0:0,0:0:0:0:
88,160,98121,1,4,0:3:0:0:
48,176,98228,2,0,B|12:144|16:113,1,63.9999965209963,2|0,0:3|0:0,0:0:0:0:
80,84,98443,2,0,P|50:58|28:47,1,47.9999973907472,4|0,0:3|0:0,0:0:0:0:
160,56,98657,2,0,P|194:32|264:20,1,95.9999970703126,4|0,0:3|0:0,0:0:0:0:
377,13,98978,22,0,B|380:42|431:60|431:60|394:57|363:66|346:88|343:109|343:134|347:163|343:172|343:172|316:161|331:137,1,272.000005187988,12|0,0:3|0:0,0:0:0:0:
416,132,99514,6,0,B|417:177|415:217|387:240,1,95.9999970703126,4|0,0:3|0:0,0:0:0:0:
380,268,99836,1,4,0:3:0:0:
360,308,99943,2,0,P|355:334|332:371,1,63.9999965209963,2|0,0:3|0:0,0:0:0:0:
260,360,100157,2,0,P|270:331|291:307,1,47.9999973907472,4|0,0:3|0:0,0:0:0:0:
166,246,100371,2,0,B|158:260|158:276|155:294|132:312|112:321,1,95.9999970703126,4|0,0:3|0:0,0:0:0:0:
27,251,100693,22,0,B|34:280|35:316|35:316|39:308|45:270|88:252|88:252|91:229|100:212|108:199|120:179|152:171|176:174,1,272.000005187988,12|0,0:3|0:0,0:0:0:0:
264,206,101228,6,0,P|267:152|227:110,1,95.9999970703126,4|0,0:3|0:0,0:0:0:0:
212,84,101550,1,4,0:3:0:0:
172,60,101657,2,0,P|132:39|104:36,1,63.9999980468751,2|0,0:3|0:0,0:0:0:0:
44,21,101871,2,0,P|43:52|55:78,1,47.9999973907472,4|0,0:3|0:0,0:0:0:0:
87,221,102086,2,0,P|47:170|5:152,1,95.9999970703126,4|0,0:3|0:0,0:0:0:0:
11,293,102407,22,0,B|28:268|28:268|50:293|76:304|106:298|129:289|132:276,2,136.000002593994,12|2|0,0:3|0:3|0:0,0:0:0:0:
176,220,102943,6,0,P|207:232|271:247,1,95.9999970703126,4|0,0:3|0:0,0:0:0:0:
312,228,103264,1,4,0:3:0:0:
360,224,103371,2,0,P|394:245|415:273,1,63.9999965209963,2|0,0:3|0:0,0:0:0:0:
444,330,103586,2,0,P|424:346|394:365,1,47.9999973907472,4|0,0:3|0:0,0:0:0:0:
270,351,103800,2,0,P|316:341|341:302,1,95.9999970703126,4|0,0:3|0:0,0:0:0:0:
194,352,104121,22,0,B|195:305|231:282|251:278|251:278|216:269|153:283|132:322|106:288|110:260|114:247,1,272.000005187988,12|0,0:3|0:0,0:0:0:0:
211,205,104657,6,0,P|263:207|317:228,1,95.9999970703126,4|0,0:3|0:0,0:0:0:0:
352,212,104978,1,4,0:3:0:0:
396,196,105086,2,0,P|429:184|456:158,1,63.9999965209963,2|0,0:3|0:0,0:0:0:0:
499,95,105300,2,0,P|465:85|441:85,1,47.9999973907472,4|0,0:3|0:0,0:0:0:0:
352,60,105514,21,8,0:3:0:0:
316,68,105621,1,8,0:3:0:0:
280,76,105728,1,8,0:3:0:0:
244,84,105836,1,8,0:3:0:0:
196,96,105943,5,4,0:3:0:0:
182,141,106050,1,4,0:3:0:0:
144,168,106157,1,4,0:3:0:0:
98,163,106264,1,4,0:3:0:0:
68,124,106371,22,0,B|42:69|63:20|114:-8|154:-15|199:13|216:54|247:80|227:153|183:145|149:160|132:171|84:180|92:216|92:216|177:166|244:207,1,599.999985694886,4|0,0:3|0:0,0:0:0:0:
278,139,108086,2,0,B|321:167|310:214|309:234|298:277|298:277|326:250|336:223|364:200|395:194|439:207|474:231|500:281|500:281|476:257|468:245|421:230|404:234|366:263|345:302|360:325,1,599.999985694886,4|0,0:3|0:3,0:3:0:0:
432,316,109800,6,0,B|427:321|421:345|417:369|407:387|349:401|338:391|302:378|301:359|298:347|287:348|287:348|266:343|258:336|246:331|240:312,1,240.000003433228,4|0,0:3|0:0,0:0:0:0:
78,333,110443,2,0,P|46:335|23:328,1,55.9999969558718,4|0,0:3|0:0,0:0:0:0:
56,264,110657,2,0,B|23:226|10:176|25:118,1,135.999999351502,12|0,0:3|0:0,0:0:0:0:
45,69,110978,2,0,P|73:88|90:118,1,67.9999996757508,2|4,0:3|0:3,0:0:0:0:
94,191,111193,2,0,P|154:152|156:89,1,135.999999351502,2|0,0:3|0:0,0:0:0:0:
160,20,111514,22,0,P|211:45|227:105,1,103.999992759705,4|0,0:3|0:0,0:0:0:0:
222,182,111835,1,2,0:0:0:0:
200,216,111943,1,2,0:0:0:0:
172,240,112050,1,2,0:0:0:0:
136,260,112157,2,0,P|104:271|66:273,1,51.9999963798526,4|0,0:3|0:0,0:0:0:0:
260,336,112371,2,0,B|281:362|312:372|365:357|389:328|383:261|383:261|409:330|461:335|501:318|517:268|499:236|473:212|437:234|419:259|451:270,1,447.999989318848,12|0,0:3|0:0,0:0:0:0:
405,218,113228,2,0,P|466:322|384:259,1,335.999981735231,4|4,0:3|0:3,0:0:0:0:
352,4,114086,6,0,L|352:144,1,135.999999351502,12|0,0:3|0:0,0:0:0:0:
426,142,114407,1,0,0:3:0:0:
426,142,114514,2,0,P|403:193|325:208,1,135.999999351502
72,132,114943,22,0,P|138:112|187:216,1,203.999999027253,4|0,0:3|0:0,0:0:0:0:
124,182,115371,2,0,P|139:268|252:244,1,215.999988258363,4|0,0:3|0:0,0:0:0:0:
360,273,115800,2,0,B|340:259|302:245|302:202|314:180|348:72|348:72|282:117|282:117|352:138|380:199,1,407.999998054505,12|0,0:3|0:0,0:0:0:0:
244,180,116657,6,0,B|222:161|191:120|215:78|243:58|243:58|211:50|172:74|157:108|148:147|154:182|163:201|196:229,1,360.000005149842,4|4,0:3|0:3,0:0:0:0:
428,192,117514,2,0,B|439:212|449:243|457:279|416:340|384:327|348:355|271:345|264:273|260:223|302:186|361:163|405:217|412:279|365:290|344:265,1,431.999976516725,12|0,0:3|0:0,0:0:0:0:
188,360,118371,21,4,0:3:0:0:
172,240,118586,1,0,0:0:0:0:
228,132,118800,1,0,0:0:0:0:
368,114,119014,1,4,0:3:0:0:
451,222,119228,6,0,B|413:199|353:193|323:289|323:289|326:243|284:200|240:206|240:206|292:195|314:132|290:93,1,431.999976516725,12|0,0:3|0:0,0:0:0:0:
72,48,120086,21,4,0:3:0:0:
148,140,120300,1,0,0:0:0:0:
56,216,120514,1,0,0:0:0:0:
200,288,120728,1,4,0:3:0:0:
28,360,120943,2,0,P|117:361|166:373,1,135.999999351502,12|0,0:3|0:0,0:0:0:0:
303,333,121264,5,0,0:3:0:0:
303,333,121371,2,0,P|364:371|474:357,1,180.000002574921
468,260,121800,2,0,P|357:189|422:303,1,360.000013732911,4|4,0:3|0:3,0:0:0:0:
512,152,122657,2,0,B|469:103|422:89|372:101|358:107|337:117|337:117|356:81|386:73|446:74|462:88|462:88|437:65|411:58,1,383.999990844727,12|0,0:3|0:0,0:0:0:0:
280,64,123514,21,4,0:3:0:0:
216,164,123728,1,0,0:0:0:0:
308,240,123943,1,0,0:0:0:0:
204,364,124157,1,4,0:3:0:0:
45,224,124371,2,0,P|68:286|129:309,1,135.999999351502,12|0,0:3|0:0,0:0:0:0:
98,172,124693,6,0,P|115:201|119:234,1,67.9999996757508,2|0,0:0|0:0,0:0:0:0:
28,147,124907,2,0,P|66:105|142:113,1,135.999999351502,2|0,0:0|0:0,0:0:0:0:
227,119,125228,21,4,0:3:0:0:
312,34,125443,1,0,0:0:0:0:
396,119,125657,1,0,0:0:0:0:
304,236,125871,1,4,0:3:0:0:
376,349,126086,6,0,B|433:367|468:357|519:311|512:247|501:232|501:232|453:272|433:285|408:276|374:244|382:231|367:212|391:185|415:173|432:165|441:195|444:206|431:240,1,462.000004405975,12|0,0:3|0:0,0:0:0:0:
493,186,126943,2,0,P|375:231|501:230,1,355.200008671875,4|4,0:3|0:3,0:0:0:0:
323,38,127800,22,0,P|251:7|196:42,1,143.999992172242,12|0,0:3|0:0,0:0:0:0:
264,84,128121,1,0,0:3:0:0:
264,84,128228,2,0,P|209:137|207:205,1,143.999992172242,0|4,0:0|0:3,0:0:0:0:
433,311,128657,6,0,P|513:244|433:170,1,215.999988258363,4|0,0:3|0:0,0:0:0:0:
440,239,129085,2,0,P|370:276|415:382,1,215.999988258363,4|0,0:3|0:0,0:0:0:0:
306,244,129514,2,0,B|299:255|287:285|293:330|227:333|216:315|198:321|201:318|201:318|178:332|160:334|160:334|91:342|91:342|45:340|2:302|7:262|18:236|45:216|50:220|89:242|89:276|99:278,1,479.999988555909,12|0,0:3|0:0,0:0:0:0:
226,251,130371,22,0,B|211:247|196:244|171:251|153:264|153:264|93:271|93:271|79:265|78:212|87:187|111:135|182:95|244:113,1,384,4|4,0:3|0:3,0:0:0:0:
203,318,131228,2,0,B|136:296|147:228|143:191|198:178|216:166|267:166|290:217|293:241|293:241|258:242|219:253,1,364.799995546875,12|0,0:3|0:0,0:0:0:0:
44,240,132085,5,4,0:3:0:0:
72,124,132300,1,0,0:0:0:0:
176,64,132514,1,0,0:0:0:0:
312,88,132728,1,4,0:3:0:0:
376,201,132943,2,0,B|396:145|458:173|477:113|504:138|518:50|471:-21|412:6|378:26|326:79|370:119|431:135|451:101|428:80,1,383.999990844727,12|0,0:3|0:0,0:0:0:0:
440,236,133800,21,4,0:3:0:0:
344,308,134014,1,0,0:0:0:0:
224,316,134228,1,0,0:0:0:0:
52,264,134443,1,4,0:3:0:0:
54,108,134657,2,0,P|132:53|235:57,1,191.999995422364,12|0,0:3|0:0,0:0:0:0:
282,98,135086,6,0,P|334:80|274:142,1,239.999994277955
226,54,135514,2,0,P|410:47|344:246,1,459.199996058656,4|0,0:3|0:0,0:0:0:0:
91,285,136693,2,0,B|120:280|157:250|157:250|145:273|144:298|149:333|173:359|210:365|243:358|270:355|282:352|282:352|322:341,1,319.999992370606
243,284,137228,21,0,0:0:0:0:
233,284,137336,1,0,0:0:0:0:
223,284,137443,2,0,B|261:291|322:278|331:229|303:166|303:166|308:221|270:256,1,279.999991455078,4|4,0:3|0:3,0:0:0:0:
232,184,138085,2,0,B|224:129|253:106|277:98|277:98|307:28|388:41|418:92,1,255.999993896485,12|0,0:3|0:0,0:0:0:0:
348,132,138621,22,0,L|347:116,12,10
424,152,139050,6,0,P|408:176|376:200,1,51.9999963798526
356,312,139264,5,0,0:0:0:0:
356,312,139371,2,0,P|289:278|191:379,1,203.999999027253,4|4,0:3|0:3,0:0:0:0:
81,368,139800,2,0,B|140:338|133:282|99:228,1,135.999999351502,12|0,0:3|0:0,0:0:0:0:
53,215,140121,22,0,P|40:252|55:292,1,63.9999984741212,2|0,0:0|0:0,0:0:0:0:
119,182,140336,2,0,P|96:156|54:142,1,63.9999984741212,2|0,0:0|0:0,0:0:0:0:
96,44,140550,5,0,0:3:0:0:
96,44,140657,2,0,P|124:36|176:40,1,60.0000022888184,4|0,0:3|0:0,0:0:0:0:
228,33,140871,2,0,P|258:39|292:57,1,60.000000858307
289,170,141086,2,0,B|268:147|268:147|442:148,1,180.000002574921,0|4,0:0|0:3,0:0:0:0:
468,202,141514,22,0,P|490:135|440:78,1,151.9999923172,12|0,0:3|0:0,0:0:0:0:
397,219,141836,2,0,P|347:153|378:88,1,135.999999351502,4|0,0:3|0:0,0:0:0:0:
418,148,142157,1,4,0:3:0:0:
440,273,142371,1,4,0:3:0:0:
207,219,142693,5,0,0:3:0:0:
207,219,142800,2,0,B|186:197|174:181|123:172|89:208,1,136.000002593994,0|4,0:0|0:3,0:0:0:0:
143,259,143228,2,0,B|156:112|156:112|78:112|43:157|43:157|95:215,1,343.200004713135,12|0,0:3|0:0,0:0:0:0:
68,328,143978,21,0,0:3:0:0:
68,328,144085,2,0,B|108:348|116:362|116:362|132:364|132:364|140:376|140:376|156:376|156:376|172:388|172:388|192:400,1,120.000004577637,4|0,0:3|0:0,0:0:0:0:
290,336,144407,2,0,B|336:323|353:271|292:240|292:240|256:224|232:232|232:232|264:262|296:268,1,255.999993896485,4|4,0:3|0:3,0:0:0:0:
377,217,144943,2,0,B|358:192|304:155|243:157,1,143.999992172242,12|0,0:3|0:0,0:0:0:0:
184,176,145371,1,0,0:0:0:0:
136,232,145478,22,0,L|136:242,8,10
184,296,145800,22,0,L|184:172,1,120.000004577637,4|0,0:3|0:0,0:0:0:0:
151,39,146121,2,0,B|136:75|119:102|74:143|74:143|128:105|160:96|203:94,1,256,4|4,0:3|0:3,0:0:0:0:
275,108,146657,2,0,P|301:69|400:74,1,143.999992172242,12|2,0:3|0:0,0:0:0:0:
347,126,147085,6,0,L|344:136,8,10
372,204,147406,5,0,0:3:0:0:
196,265,147657,6,0,P|167:309|116:346,1,100.000001430512
88,346,147943,2,0,P|30:307|75:206,1,180.000002574921,4|0,0:3|0:0,0:0:0:0:
95,274,148371,2,0,P|123:241|84:146,1,135.999999351502,12|0,0:3|0:0,0:0:0:0:
64,136,148693,1,4,0:3:0:0:
28,116,148800,2,0,P|51:47|172:37,1,180.000002574921,0|0,0:3|0:0,0:0:0:0:
216,46,149228,22,0,P|176:89|118:89,1,120.000001716614,4|0,0:3|0:0,0:0:0:0:
102,157,149550,1,0,0:0:0:0:
140,178,149657,1,0,0:0:0:0:
180,200,149764,1,0,0:0:0:0:
224,224,149871,1,0,0:0:0:0:
268,248,149978,1,4,0:3:0:0:
276,312,150086,2,0,P|327:263|407:292,1,143.999992172242,12|0,0:3|0:0,0:0:0:0:
347,331,150514,6,0,B|370:351|398:355|429:344|441:332|459:313|459:313|410:298|393:277,1,203.999999027253,8|8,0:3|0:3,0:0:0:0:
416,168,150943,22,0,P|438:223|521:240,1,127.999996948242,0|0,0:3|0:0,0:0:0:0:
491,171,151264,1,0,0:3:0:0:
491,171,151371,2,0,P|456:106|349:131,1,191.999995422364,4|4,0:3|0:3,0:0:0:0:
352,204,151800,2,0,P|262:270|206:232,1,191.999989562989,12|0,0:3|0:0,0:0:0:0:
265,187,152336,22,0,L|277:200,8,10
200,160,152657,6,0,P|170:139|138:125,2,60.000000858307
141,205,152978,5,0,0:3:0:0:
141,205,153086,2,0,P|75:143|113:61,1,191.999995422364,4|4,0:3|0:3,0:0:0:0:
185,67,153514,2,0,P|214:82|242:102,1,60.000000858307,12|0,0:3|0:0,0:0:0:0:
317,131,153728,2,0,P|290:148|272:174,1,63.9999984741212,2|0,0:0|0:0,0:0:0:0:
297,63,153943,2,0,P|360:74|384:157,1,151.9999923172,2|0,0:0|0:0,0:0:0:0:
336,240,154264,21,0,0:3:0:0:
336,240,154371,2,0,P|380:298|372:345,1,120.000001716614,4|0,0:3|0:0,0:0:0:0:
308,308,154693,2,0,B|267:389|212:387|159:376|159:376|211:366|223:326,1,240.000003433228,4|0,0:3|0:0,0:0:0:0:
150,306,155228,2,0,P|96:344|89:383,1,103.999992759705,12|0,0:3|0:0,0:0:0:0:
55,279,155550,2,0,P|100:247|154:234,1,103.999992759705,4|0,0:3|0:3,0:3:0:0:
220,252,155871,1,4,0:3:0:0:
350,355,156086,1,4,0:3:0:0:
350,355,156407,5,0,0:3:0:0:
350,355,156514,2,0,B|288:368|274:341|235:325|198:371,1,143.999995605469,4|0,0:3|0:0,0:0:0:0:
108,356,156836,21,0,0:3:0:0:
108,356,156943,2,0,P|112:301|90:339,1,136.000002593994,12|0,0:3|0:0,0:0:0:0:
110,229,157264,2,0,P|194:267|212:358,1,191.999995422364
233,204,157693,5,0,0:3:0:0:
233,204,157800,2,0,B|190:161|105:154,1,128,4|0,0:3|0:0,0:0:0:0:
46,131,158121,2,0,B|78:77|104:82|146:77|226:113|226:113|218:78|161:45,1,287.999984344483,4|4,0:3|0:3,0:0:0:0:
231,6,158657,2,0,B|281:44|299:90|297:127|297:127|332:76,1,191.999989562989,12|0,0:3|0:0,0:0:0:0:
400,44,159193,6,0,L|398:33,8,10
473,50,159514,6,0,P|454:94|385:117,1,120.000001716614,4|0,0:3|0:0,0:0:0:0:
329,159,159836,2,0,P|386:248|308:368,1,255.999993896485,4|4,0:3|0:3,0:0:0:0:
295,296,160371,2,0,B|268:306|239:331|244:378|244:378|198:374|182:361|148:340,1,180.000002574921,12|2,0:3|0:3,0:0:0:0:
197,282,160800,22,0,L|197:272,8,10
125,299,161121,22,0,P|100:340|98:363,1,60.000000858307,0|4,0:0|0:3,0:0:0:0:
50,173,161336,21,0,0:0:0:0:
62,103,161443,2,0,P|70:77|99:48,1,60.000000858307,0|4,0:0|0:3,0:0:0:0:
239,16,161657,2,0,P|236:100|132:109,1,203.999999027253,0|0,0:3|0:0,0:0:0:0:
180,56,162085,2,0,P|267:17|313:122,1,204.000003890991,12|4,0:3|0:3,0:0:0:0:
248,85,162514,2,0,P|255:122|277:150,1,67.9999996757508
392,104,162728,2,0,P|372:142|342:162,1,67.9999996757508
248,219,162943,2,0,P|207:179|181:130,1,111.999993911744,4|0,0:3|0:0,0:0:0:0:
223,19,163264,5,0,0:3:0:0:
223,19,163371,2,0,P|291:30|320:94,1,143.999992172242,0|4,0:0|0:3,0:0:0:0:
180,296,163800,22,0,B|152:306|104:302|51:299|9:247|-8:178|-18:129|47:86|47:86|93:130|84:172|75:218|75:218|170:268|240:187|189:105|110:118|101:188|140:189,1,748.800007283937,12|0,0:3|0:0,0:0:0:0:
161,73,165407,2,0,B|214:74|263:124|278:193|235:250|235:250|297:213|294:132,1,371.200002478028
256,192,166371,12,2,171514,0:0:0:0:
0,308,185228,38,0,B|22:330|45:363|93:369|128:370|160:358|183:372|231:317|233:300|251:294|270:244|289:235|258:129|224:106|171:82|161:81|161:81|161:124|201:173|219:222|198:271|168:287|145:297|94:311|69:291|38:258|35:228|31:195|63:161,1,942.399988496094,2|0,0:0|0:0,0:0:0:0:
117,211,188657,2,0,B|123:154|85:115|57:70|86:48|104:27|112:-1|132:-8|165:-15|190:-3|220:12|238:32|251:54|260:54|274:86|278:80|288:91|308:71|350:74|358:23|326:-11|292:-14|262:-7|250:17|261:41|289:40,1,531.199995035401,2|2,0:0|0:0,0:0:0:0:
328,344,192086,6,0,B|372:342|416:347|466:292|478:276|486:247|521:213|502:157|508:131|490:86|457:49|411:11|374:16|336:10|285:20|266:28|236:59|214:71|188:98|176:163|176:163|184:124|221:111|248:114|286:153|286:184|273:222|245:223|215:227|182:206|200:178|223:173,1,972.799964931643,2|2,0:2|0:2,0:0:0:0:
347,253,198943,22,0,P|211:272|347:308,1,384,2|0,0:2|0:0,0:0:0:0:
402,205,200657,2,0,P|255:142|151:338,1,419.999987182618,2|0,0:2|0:0,0:0:0:0:
211,292,202371,2,0,B|198:285|189:272|167:239|93:246|72:310|78:345|78:345|75:331|101:225|30:212|-45:254|-13:304|6:321|24:309|37:295,1,407.999992762757,2|0,0:2|0:2,0:0:0:0:
150,334,204086,2,0,B|186:372|230:386|278:366|302:319|299:278|283:267|278:254|275:244|263:230|269:202|267:180|268:170|285:153|296:125|328:105|362:98,1,419.999977169038,2|0,0:2|0:0,0:0:0:0:
452,152,205800,2,0,B|434:147|426:132|428:110|432:90|472:78|513:83|508:142|506:187|490:232|457:266|426:285|390:285|390:285|478:209|451:131|372:119|323:163|294:212|343:268|394:246|398:223|389:202,1,643.999964992525,2|0,0:0|0:0,0:0:0:0:
356,95,208371,2,0,B|322:105|281:133|269:167|262:204|265:226|280:248|287:263|298:276,1,223.999987823487,2|0,0:2|0:0,0:0:0:0:
68,210,212657,6,0,B|93:199|127:196|151:217|168:228|188:259|194:306|194:306|208:282|191:224|158:206|151:186|120:152|134:118|160:45|163:16|235:3|271:2|299:7|351:17|374:56|405:75|407:152|411:191|351:240|306:259|265:253,1,895.999951293948,2|0,0:0|0:0,0:0:0:0:
439,261,217800,22,0,B|450:252|462:226|458:178|458:178|487:242|479:271|480:289|470:311|455:328|448:347|421:376|381:376|337:368|313:352|298:334,1,419.999977169038,2|0,0:2|0:0,0:0:0:0:
354,289,219514,2,0,B|345:278|329:266|308:248|264:256|254:274|220:287|222:326|218:343|239:376|239:376|169:316|212:251|242:233|279:223,1,419.999977169038,2|0,0:2|0:0,0:0:0:0:
299,334,221228,2,0,B|322:358|342:365|378:376|438:353|443:281|410:244|410:244|454:244|475:218|490:187|490:156|470:116|424:104,1,419.999977169038,2|0,0:2|0:0,0:0:0:0:
409,174,222943,1,2,0:2:0:0:
256,192,223050,12,0,226264,0:0:0:0:
420,112,226371,6,0,B|408:98|403:62|401:38|401:38|453:41|479:55|524:83|500:136|511:229|387:191|346:218|329:39|329:39|284:78|280:118|258:178|357:245|357:245|408:291|337:361|273:301|305:255,1,930.000035476686,2|0,0:2|0:0,0:0:0:0:
236,224,229800,2,0,B|218:258|218:289|230:305|226:328|249:345|257:358|257:358|185:327|221:258|192:248|176:210|137:191|68:195|36:247|45:285|42:301|42:301|22:268|18:246|29:185|61:174|120:180|138:179|176:141|201:135|197:92|189:27|158:-1|78:4|52:40,1,942.399966027529,2|0,0:0|0:0,0:0:0:0:
104,92,233228,2,0,B|205:-1|258:127|301:142|376:173|396:87|353:65|333:61|311:73|311:73|341:8|420:37|437:86|436:127|415:151|386:190|350:190|323:202|305:222|300:275|333:314|344:327|344:327|345:240|381:215|415:194|436:201|454:212|462:244|455:263|439:278|414:284|408:248,1,1023.99997558594,2|2,0:0|0:0,0:0:0:0:
333,272,240086,22,0,B|300:316|249:342|212:331|212:331|252:324|296:307|312:251|313:220|311:201|291:148|275:136|240:114|208:103|168:110|137:122|104:140|77:190|78:235|98:281|128:305|128:305|72:290|46:253|33:193|61:137|94:99|142:104|134:63|130:60|129:51|130:45|128:11|123:-6|75:-11|59:-6|43:3|19:14|15:45|11:99|64:105|99:81|77:48,1,1221.99991492653,2|0,0:2|0:0,0:0:0:0:
200,55,245228,2,0,B|240:55|274:70|304:82|341:107|367:165|366:196|369:212|369:212|382:188|384:140|361:102|349:88|329:73|308:63,1,419.999977169038,2|0,0:2|0:0,0:0:0:0:
385,29,246943,2,0,B|413:57|433:84|438:107|458:150|452:189|451:212|440:235|436:253|411:272|386:285|386:285|447:284|486:220|486:220|481:284|449:294|425:299|401:317|398:330|390:358|399:378|407:398,1,625.599988902894,2|0,0:0|0:0,0:0:0:0:
469,362,249514,5,2,0:0:0:0:
256,192,249621,12,0,253693,0:0:0:0:
160,160,253800,22,0,P|241:145|173:192,1,227.999993911743,12|0,0:3|0:0,0:0:0:0:
256,62,254228,6,0,P|303:108|301:215,1,151.9999923172,2|0,0:3|0:3,0:3:0:0:
272,288,254550,1,2,0:3:0:0:
89,187,254764,1,2,0:3:0:0:
89,187,254871,2,0,P|93:126|155:58,1,151.9999923172,2|0,0:3|0:3,0:3:0:0:
256,62,255193,1,2,0:3:0:0:
408,132,255407,1,2,0:3:0:0:
408,132,255514,22,0,L|397:88,1,40,2|2,0:3|0:3,0:0:0:0:
460,188,255728,2,0,L|469:226,1,40,0|0,0:3|0:0,0:0:0:0:
392,296,255943,1,2,0:3:0:0:
159,192,256157,1,2,0:3:0:0:
159,192,256478,5,2,0:3:0:0:
212,104,256693,2,0,L|227:57,2,40,2|0|2,0:3|0:3|0:3,0:0:0:0:
301,176,257014,2,0,B|231:201,1,71.9999960861209,2|0,0:3|0:0,0:0:0:0:
159,192,257228,22,0,P|167:235|245:275,1,120.000001716614,0|0,0:3|0:0,0:0:0:0:
363,234,257550,5,2,0:3:0:0:
363,234,257871,1,2,0:3:0:0:
436,84,258193,6,0,L|452:78,4,9.99999976158144,2|0|0|0|0,0:3|0:3|0:3|0:3|0:3,0:3:0:0:
468,124,258407,2,0,L|488:116,8,20,0|4|4|4|4|4|4|4|0,0:3|0:3|0:3|0:3|0:3|0:3|0:3|0:3|0:3,0:3:0:0:
461,181,258943,6,0,P|392:198|357:256,1,120.000001716614,0|0,0:3|0:0,0:0:0:0:
184,136,259371,6,0,P|185:187|153:247,1,120.000001716614,2|0,0:3|0:0,0:0:0:0:
96,332,259693,1,2,0:3:0:0:
109,177,259907,1,2,0:3:0:0:
109,177,260014,2,0,P|121:84|206:56,1,180.000006866455,2|0,0:3|0:0,0:0:0:0:
324,55,260443,22,0,P|368:63|415:83,1,90.6666662343345,2|0,0:0|0:0,0:0:0:0:
440,100,260657,1,2,0:0:0:0:
481,141,260764,2,0,B|464:171|444:185|417:196|400:201|373:203|347:193|312:180|312:180|337:192|353:200|368:226|376:231|385:263|398:302|373:337|354:351|329:362|305:371|285:378|261:382|229:377|189:338|176:314|178:284|180:255|187:220|202:202|239:179|274:173,1,717.599983986055,2|0,0:0|0:0,0:0:0:0:
282,269,262264,5,2,0:3:0:0:
204,104,262478,1,2,0:3:0:0:
80,92,262693,2,0,L|41:33,2,55.1999987681581,2|2|2,0:3|0:3|0:3,0:0:0:0:
112,228,263014,2,0,P|174:294|271:341,1,191.999989562989,2|0,0:3|0:3,0:3:0:0:
408,344,263550,1,2,0:3:0:0:
408,344,263657,2,0,L|420:296,1,39.9999990463258,0|0,0:3|0:0,0:0:0:0:
456,212,263871,6,0,L|464:220,4,10,2|2|2|2|0,0:3|0:3|0:3|0:3|0:3,0:3:0:0:
432,192,264085,21,0,0:3:0:0:
256,192,264300,21,0,0:3:0:0:
360,76,264514,22,0,L|376:76,8,10,0|0|0|0|0|0|0|0|0,0:3|0:3|0:3|0:3|0:3|0:3|0:3|0:3|0:3,0:3:0:0:
321,77,264836,22,0,L|292:129,1,60.0000022888184,0|0,0:3|0:3,0:0:0:0:
256,192,265050,1,2,0:3:0:0:
184,192,265157,2,0,L|124:192,2,60.0000022888184,2|0|0,0:3|0:3|0:0,0:0:0:0:
256,192,265478,1,2,0:3:0:0:
292,254,265586,2,0,B|324:309,2,60.0000022888185,0|0|2,0:3|0:3|0:3,0:0:0:0:
292,129,265907,2,0,L|325:70,2,51.999997619629,2|2|0,0:3|0:3|0:0,0:0:0:0:
256,192,266228,1,2,0:3:0:0:
183,283,266442,22,0,P|161:230|113:190,1,120.000001716614,0|0,0:3|0:0,0:0:0:0:
73,178,266764,1,2,0:3:0:0:
29,165,266871,2,0,L|28:137,2,22.0000001468659,2|0|0,0:3|0:0|0:0,0:0:0:0:
135,110,267085,2,0,P|156:89|167:34,1,67.9999996757508,2|0,0:3|0:0,0:0:0:0:
96,49,267300,2,0,L|92:16,2,34.0000006484985,0|2|2,0:0|0:3|0:3,0:0:0:0:
24,53,267514,6,0,L|29:174,1,111.999993911744,0|0,0:3|0:0,0:0:0:0:
136,364,267943,2,0,B|229:246,1,135.999999351502,2|0,0:3|0:3,0:0:0:0:
264,192,268264,1,2,0:3:0:0:
356,20,268478,21,2,0:3:0:0:
356,20,268585,2,0,B|392:33|392:33|445:3|499:53,1,136.000002593994,2|0,0:3|0:0,0:0:0:0:
432,97,268907,1,2,0:3:0:0:
312,120,269121,6,0,B|348:181,1,55.9999969558718,2|2,0:3|0:3,0:0:0:0:
380,188,269335,1,2,0:3:0:0:
420,208,269443,2,0,B|456:268,1,55.9999969558718,2|0,0:3|0:3,0:0:0:0:
464,300,269657,1,2,0:3:0:0:
168,384,269871,1,2,0:3:0:0:
168,384,270193,21,2,0:3:0:0:
236,292,270407,1,2,0:3:0:0:
236,292,270514,2,0,B|215:297|215:297|189:292|189:292|170:292|170:292|162:295,1,55.9999982910157,2|0,0:3|0:0,0:0:0:0:
119,290,270728,1,2,0:3:0:0:
142,120,270943,6,0,P|181:154|137:128,1,150.399997705078,0|0,0:3|0:0,0:0:0:0:
132,79,271264,1,0,0:0:0:0:
124,36,271371,22,0,P|186:32|252:79,1,136.000002593994,2|0,0:3|0:0,0:0:0:0:
268,155,271693,1,2,0:3:0:0:
94,219,271907,5,2,0:3:0:0:
94,219,272014,2,0,P|59:167|67:86,1,136.000002593994,2|0,0:3|0:0,0:0:0:0:
124,36,272335,1,2,0:3:0:0:
268,155,272550,21,2,0:3:0:0:
268,155,272657,2,0,P|240:210|166:244,1,136.000002593994,2|0,0:3|0:0,0:0:0:0:
94,219,272978,1,2,0:3:0:0:
124,36,273193,5,2,0:3:0:0:
124,36,273299,2,0,P|205:54|268:158,1,207.99998551941,2|0,0:3|0:0,0:0:0:0:
175,243,273836,1,0,0:0:0:0:
94,219,273943,22,0,P|67:189|56:156,1,51.9999963798526,2|0,0:3|0:3,0:3:0:0:
47,108,274157,2,0,P|22:120|-4:148,1,51.9999963798526,0|0,0:3|0:0,0:0:0:0:
0,229,274371,22,0,L|12:229,28,10,0|0|0|0|0|0|0|0|0|0|0|0|0|0|0|0|0|0|0|0|0|0|0|0|0|0|0|0|0,0:2|0:2|0:2|0:2|0:2|0:2|0:2|0:2|0:2|0:2|0:2|0:2|0:2|0:2|0:2|0:2|0:2|0:2|0:2|0:2|0:2|0:2|0:2|0:2|0:2|0:2|0:2|0:2|0:2,0:2:0:0:
18,280,275228,2,0,L|30:276,20,9.99999976158144,0|0|0|0|0|0|0|0|0|0|0|0|0|0|0|0|0|0|0|0|0,0:2|0:2|0:2|0:2|0:2|0:2|0:2|0:2|0:2|0:2|0:2|0:2|0:2|0:2|0:2|0:2|0:2|0:2|0:2|0:2|0:2,0:2:0:0:
36,328,275871,2,0,L|48:324,8,10,0|0|0|0|0|0|0|0|0,0:2|0:2|0:2|0:2|0:2|0:2|0:2|0:2|0:2,0:2:0:0:
81,315,276193,6,0,B|162:335,1,63.9999984741212,2|0,0:0|0:0,0:0:0:0:
200,344,276407,1,2,0:0:0:0:
231,351,276514,1,2,0:0:0:0:
262,358,276621,1,2,0:0:0:0:
294,366,276728,6,0,P|361:368|304:232,1,272.000005187988,2|0,0:0|0:3,0:0:0:0:
330,302,277263,21,2,0:2:0:0:
362,310,277371,1,2,0:2:0:0:
394,318,277478,1,2,0:2:0:0:
426,326,277586,2,0,B|433:332|433:332|289:298,1,135.999999351502,2|0,0:3|0:0,0:0:0:0:
140,264,278014,1,0,0:3:0:0:
372,188,278228,6,0,B|346:161|346:161|287:149|287:149|260:121,1,135.999999351502,2|0,0:3|0:0,0:0:0:0:
292,56,278550,2,0,P|256:48|225:57,1,63.9999984741212,2|0,0:3|0:0,0:0:0:0:
144,104,278764,1,2,0:3:0:0:
123,118,278871,21,2,0:3:0:0:
151,128,278978,1,2,0:0:0:0:
169,104,279086,1,2,0:0:0:0:
152,80,279193,1,2,0:3:0:0:
123,89,279300,1,2,0:0:0:0:
99,136,279407,5,2,0:0:0:0:
160,155,279515,1,2,0:0:0:0:
198,104,279621,1,2,0:0:0:0:
160,52,279728,1,2,0:0:0:0:
99,72,279836,1,2,0:0:0:0:
36,104,279942,21,2,0:3:0:0:
28,148,280050,1,2,0:2:0:0:
52,192,280157,1,2,0:2:0:0:
100,224,280264,1,2,0:2:0:0:
164,228,280371,1,2,0:2:0:0:
228,200,280478,1,2,0:3:0:0:
288,152,280585,1,2,0:2:0:0:
364,116,280693,1,2,0:2:0:0:
451,113,280800,6,0,B|435:117|386:157|357:214,1,132.000000881195,2|0,0:3|0:0,0:0:0:0:
436,262,281228,22,0,B|413:226|479:179|479:179|506:272|465:319|465:319|436:343|379:336,1,319.999992370606,4|4,0:3|0:3,0:0:0:0:
328,336,281871,1,4,0:3:0:0:
176,264,282085,2,0,P|87:253|73:165,1,191.999995422364,6|0,0:3|0:0,0:0:0:0:
140,200,282514,2,0,P|91:92|-1:150,1,256,4|0,0:3|0:0,0:0:0:0:
108,384,283157,5,6,0:3:0:0:
197,251,283371,2,0,P|216:207|215:122,1,128,4|0,0:3|0:3,0:0:0:0:
128,48,283800,1,4,0:3:0:0:
128,48,283907,2,0,B|209:33|209:33|241:1|272:8,1,149.333329772949,4|0,0:3|0:0,0:0:0:0:
268,78,284228,2,0,B|301:117|301:117|352:49|431:96,1,191.999995422364,4|0,0:3|0:0,0:0:0:0:
372,152,284657,22,0,P|318:199|254:222,1,127.999996948242,4|0,0:3|0:3,0:0:0:0:
120,364,285085,2,0,P|145:357|200:362,1,63.9999984741212,6|0,0:3|0:0,0:0:0:0:
253,362,285299,1,0,0:0:0:0:
322,338,285407,2,0,P|296:305|258:288,1,63.9999984741212,2|2,0:3|0:2,0:0:0:0:
124,176,285728,6,0,L|10:241,1,128,4|0,0:3|0:3,0:0:0:0:
0,166,286050,1,0,0:3:0:0:
60,128,286157,2,0,L|180:60,1,128,6|0,0:3|0:3,0:0:0:0:
220,64,286443,1,2,0:0:0:0:
335,124,286585,2,0,L|218:192,1,136.000002593994,6|4,0:3|0:3,0:0:0:0:
214,211,287228,22,0,L|331:143,1,136.000002593994,6|4,0:3|0:3,0:0:0:0:
412,92,287657,1,2,0:0:0:0:
492,40,287871,1,2,0:0:0:0:
484,204,288085,6,0,P|444:254|420:320,1,111.999996582031,4|0,0:3|0:0,0:0:0:0:
205,171,288514,2,0,B|238:250|309:265|351:271,1,167.999990867615,4|0,0:3|0:0,0:0:0:0:
396,224,288943,2,0,B|372:180|342:209|270:197|252:190|207:99|243:27|324:7|371:32|411:99|397:143|353:180|308:171|296:124|311:103|324:105,1,414.400000237122,6|0,0:3|0:0,0:0:0:0:
314,109,290014,21,6,0:3:0:0:
185,264,290228,2,0,L|253:377,1,118.799999637451,4|2,0:3|0:0,0:0:0:0:
296,304,290657,6,0,L|221:182,1,135.999999351502,6|4,0:3|0:3,0:0:0:0:
180,104,291085,1,2,0:2:0:0:
108,40,291300,1,2,0:2:0:0:
43,150,291514,22,0,B|62:212|62:295|62:295|91:254,1,189.60000010849,4|0,0:3|0:3,0:0:0:0:
207,186,291943,2,0,P|211:280|170:368,1,189.600004628906,4|0,0:3|0:0,0:0:0:0:
87,261,292371,2,0,P|198:281|306:258,1,213.600000162964,6|0,0:3|0:0,0:0:0:0:
419,163,292800,6,0,P|452:133|471:99,1,80,2|0,0:0|0:0,0:0:0:0:
373,106,293121,2,0,P|399:81|405:30,1,80,2|0,0:0|0:0,0:0:0:0:
236,80,293443,21,6,0:3:0:0:
285,232,293657,2,0,P|223:332|164:311,1,180.000002574921,4|0,0:3|0:0,0:0:0:0:
48,212,294085,1,6,0:3:0:0:
216,260,294300,6,0,P|194:188|140:136,1,120.000001716614,4|0,0:3|0:0,0:0:0:0:
64,68,294621,1,6,0:3:0:0:
244,21,294836,21,0,0:0:0:0:
244,21,294943,2,0,P|337:43|408:76,1,167.999994873047,4|0,0:3|0:0,0:0:0:0:
338,162,295371,2,0,P|431:184|502:217,1,167.999994873047,4|0,0:3|0:0,0:0:0:0:
403,73,295800,2,0,P|419:192|357:269,1,204.000003890991,6|0,0:3|0:0,0:0:0:0:
338,162,296228,2,0,B|280:182|236:257|276:308|291:335|330:369|384:359|407:354,1,300.000011444092,2|0,0:2|0:0,0:0:0:0:
508,168,296871,1,6,0:3:0:0:
374,257,297085,6,0,B|362:267|259:279|248:198|242:157,1,180.000006866455,4|0,0:3|0:0,0:0:0:0:
321,19,297514,2,0,L|338:162,1,143.999995605469,6|4,0:3|0:3,0:0:0:0:
393,354,297943,2,0,P|361:351|328:360,1,51.9999963798526,2|0,0:0|0:0,0:0:0:0:
173,330,298157,2,0,P|200:319|220:300,1,51.9999963798526,2|0,0:0|0:0,0:0:0:0:
168,200,298371,22,0,P|137:78|137:2,1,192,4|0,0:3|0:0,0:0:0:0:
40,223,298800,2,0,P|40:128|60:34,1,192,4|0,0:3|0:0,0:0:0:0:
216,72,299228,2,0,P|154:138|112:277,1,215.999993408203,6|0,0:3|0:0,0:0:0:0:
213,194,299657,2,0,P|325:188|232:266,1,300.000011444092,2|0,0:2|0:0,0:0:0:0:
216,72,300300,1,6,0:3:0:0:
64,204,300514,6,0,P|28:218|31:130,1,167.999990867615,4|0,0:3|0:0,0:0:0:0:
216,72,300943,1,6,0:3:0:0:
240,272,301157,2,0,P|181:243|112:253,2,127.999996948242,4|2|4,0:3|0:3|0:3,0:0:0:0:
376,364,301800,1,4,0:3:0:0:
500,224,302014,1,2,0:3:0:0:
333,179,302228,2,0,P|420:244|472:304,1,167.999990867615,4|0,0:3|0:0,0:0:0:0:
444,168,302657,2,0,B|409:144|379:102|304:88|289:89|221:48|272:-28|317:-48|341:-39|406:-24|421:72|356:119|277:144|190:115,1,544.000010375977,6|0,0:3|0:3,0:0:0:0:
436,24,303728,21,6,0:3:0:0:
333,179,303943,2,0,P|237:196|138:171,1,180.000002574921,4|0,0:3|0:0,0:0:0:0:
124,40,304371,1,6,0:3:0:0:
31,180,304586,2,0,B|35:243|61:263|91:282|112:304|112:304|78:288|30:291|3:333|3:366,1,300.000004291535,4|0,0:3|0:3,0:3:0:0:
76,368,305228,5,4,0:3:0:0:
155,245,305443,2,0,P|122:217|94:187,1,60.000000858307,2|0,0:0|0:0,0:0:0:0:
154,114,305657,2,0,P|104:75|140:128,1,180.000006866455,4|0,0:3|0:0,0:0:0:0:
225,179,306085,2,0,P|277:269|246:371,1,215.999988258363,6|0,0:3|0:0,0:0:0:0:
350,278,306514,22,0,P|342:220|328:192,1,80,2|0,0:0|0:0,0:0:0:0:
420,252,306835,2,0,P|408:194|394:166,1,80,2|0,0:0|0:0,0:0:0:0:
316,0,307157,5,6,0:3:0:0:
457,133,307371,2,0,B|477:163|490:228|490:228|497:218|501:196,1,128,4|2,0:3|0:2,0:0:0:0:
360,372,307800,1,6,0:3:0:0:
248,312,308014,2,0,P|190:287|141:277,1,103.999995239258,4|0,0:3|0:0,0:0:0:0:
115,206,308335,2,0,B|170:204|211:218|211:218|166:187,1,136.000002593994,0|2,0:3|0:0,0:0:0:0:
48,344,308657,22,0,P|39:223|45:145,1,180.000006866455,4|0,0:3|0:0,0:0:0:0:
96,8,309193,1,4,0:3:0:0:
120,40,309300,2,0,P|133:66|137:81,1,40,4|0,0:3|0:0,0:0:0:0:
179,196,309514,2,0,B|272:141|299:93|299:93|287:120|283:152,1,215.999993408203,6|0,0:3|0:0,0:0:0:0:
340,36,309943,2,0,B|382:66|368:125|368:125|373:103|385:79|395:68|432:56|438:57|472:61|487:75|508:92|508:92|504:68|475:50,1,319.999992370606,4|0,0:3|0:0,0:0:0:0:
442,134,310585,6,0,B|436:181|436:181|416:227,1,71.9999978027344,6|0,0:3|0:0,0:0:0:0:
347,196,310800,2,0,B|297:179|289:132|300:97|300:97|278:165,1,175.200004812012,4|0,0:3|0:0,0:0:0:0:
368,124,311228,2,0,B|377:97|377:82|370:28|318:17|303:15|268:27|249:39|249:39|259:32|274:9,1,215.999993408203,6|0,0:3|0:0,0:0:0:0:
179,7,311657,2,0,B|121:12|50:30|50:30|72:32|111:29|139:28,1,191.999995422364,4|0,0:3|0:0,0:0:0:0:
212,72,312085,22,0,B|162:201|162:201|183:160|225:137,1,204.000003890991,4|0,0:3|0:0,0:0:0:0:
120,100,312514,6,0,B|81:189,1,71.9999978027344,6|0,0:3|0:0,0:0:0:0:
69,234,312728,1,0,0:0:0:0:
49,305,312835,2,0,B|83:313|111:296|111:296|90:329|105:365,1,120.000001716614,4|0,0:3|0:0,0:0:0:0:
172,336,313157,2,0,B|216:269|258:232|258:232|240:260|241:293,1,180.000006866455,4|4,0:3|0:3,0:0:0:0:
168,223,313585,2,0,P|195:195|236:149,1,71.9999978027344,6|0,0:3|0:0,0:0:0:0:
299,320,313800,2,0,P|274:340|252:347,1,40.000001525879,4|0,0:3|0:0,0:0:0:0:
487,383,314014,2,0,L|492:288,1,71.9999978027344,6|4,0:3|0:3,0:0:0:0:
484,128,314228,1,4,0:3:0:0:
289,178,314443,1,4,0:3:0:0:
376,16,314657,22,0,L|284:11,1,71.9999978027344,6|4,0:3|0:3,0:0:0:0:
192,12,314871,1,4,0:3:0:0:
289,178,315085,2,0,B|315:128|315:128|351:263,1,192,4|0,0:3|0:0,0:0:0:0:
212,284,315514,6,0,P|99:290|12:282,1,180.000006866455,4|0,0:3|0:0,0:0:0:0:
0,176,315943,2,0,B|86:152|104:147|104:147|138:132|163:137|163:137|175:134,1,180.000006866455,4|0,0:3|0:0,0:0:0:0:
147,208,316371,2,0,B|178:211|201:202|201:202|228:190|271:147|245:92|205:67|205:67|238:78|273:106|294:148|255:219,1,391.999978691102,6|0,0:3|0:0,0:0:0:0:
364,4,317443,21,6,0:3:0:0:
461,126,317657,2,0,B|451:149|399:214|394:230|394:230|363:240|347:265|347:265|330:277,1,180.000006866455,4|0,0:3|0:0,0:0:0:0:
413,302,318086,2,0,L|308:180,1,135.999999351502,6|4,0:3|0:3,0:0:0:0:
268,120,318514,1,2,0:0:0:0:
196,56,318728,1,2,0:0:0:0:
163,172,318943,6,0,B|157:202|157:202|166:254|157:271|150:277|129:286|137:319|137:333|137:333|125:314,1,180.000002574921,4|0,0:3|0:0,0:0:0:0:
76,267,319371,2,0,B|106:245|145:246|166:260|166:260|187:244|208:244|224:245,1,143.999992172242,4|0,0:3|0:0,0:0:0:0:
210,317,319800,2,0,P|331:323|432:323,1,215.999993408203,6|0,0:3|0:0,0:0:0:0:
384,248,320228,2,0,L|327:248,1,55.9999982910157,2|0,0:0|0:0,0:0:0:0:
507,146,320443,22,0,B|521:158|521:158|512:174,1,35.9999989013672,2|4,0:3|0:3,0:0:0:0:
456,224,320871,6,0,P|422:183|361:175,1,99.9999976158144,6|0,0:3|0:0,0:0:0:0:
394,101,321086,2,0,B|364:96|322:111|314:137|304:164|304:164|312:109|279:79|242:60|207:81,1,239.999994277955,4|0,0:3|0:0,0:0:0:0:
232,144,321514,2,0,B|243:240|243:240|214:285,2,143.999995605469,6|4|0,0:3|0:3|0:0,0:0:0:0:
200,12,322050,1,6,0:3:0:0:
90,103,322264,21,0,0:0:0:0:
91,103,322371,2,0,B|132:55|171:76|194:83|212:105|219:134|219:134|232:144,1,182.399993424683,4|0,0:3|0:0,0:0:0:0:
260,212,322800,2,0,B|235:222|209:214|194:206|194:206|168:227|120:228|102:209|80:180,1,182.399993424683,4|0,0:3|0:0,0:0:0:0:
148,148,323228,2,0,B|163:307|163:307|157:334|167:364,1,215.999993408203,6|0,0:3|0:0,0:0:0:0:
234,331,323657,1,2,0:0:0:0:
234,331,324300,5,6,0:3:0:0:
72,348,324514,2,0,P|31:326|87:337,1,180.000006866455,4|0,0:3|0:0,0:0:0:0:
72,348,324943,2,0,L|93:182,1,135.999999351502,6|4,0:3|0:3,0:0:0:0:
144,136,325371,1,2,0:0:0:0:
212,68,325586,1,2,0:0:0:0:
368,56,325800,22,0,P|400:137|431:249,1,180.000006866455,4|0,0:3|0:0,0:0:0:0:
292,160,326228,2,0,P|324:241|355:353,1,180.000006866455,4|0,0:3|0:0,0:0:0:0:
425,226,326657,2,0,B|269:262|269:262|238:259|213:269|213:269|229:253,1,215.999993408203,6|0,0:3|0:0,0:0:0:0:
251,338,327085,1,2,0:0:0:0:
251,338,327728,5,6,0:3:0:0:
216,108,327943,2,0,P|284:95|219:128,1,180.000006866455,4|0,0:3|0:0,0:0:0:0:
216,108,328371,2,0,L|292:232,1,135.999999351502,6|4,0:3|0:3,0:0:0:0:
352,292,328800,1,2,0:0:0:0:
436,336,329014,1,2,0:0:0:0:
472,204,329228,22,0,P|433:147|439:85,1,120.000001716614,4|2,0:3|0:0,0:0:0:0:
300,32,329657,2,0,P|208:80|223:165,1,180.000006866455,4|0,0:3|0:0,0:0:0:0:
280,108,330085,2,0,L|123:278,1,215.999993408203,6|0,0:3|0:0,0:0:0:0:
120,340,330514,1,2,0:0:0:0:
100,48,330943,5,2,0:0:0:0:
40,264,331157,1,6,0:3:0:0:
215,147,331371,2,0,P|126:193|72:123,1,180.000002574921,4|0,0:3|0:0,0:0:0:0:
146,122,331800,2,0,L|131:281,1,143.999995605469,6|4,0:3|0:3,0:0:0:0:
55,349,332228,2,0,B|85:322|85:322|100:331|126:348|158:335|170:328|170:328|186:353|221:367,1,180.000002574921,2|0,0:0|0:0,0:0:0:0:
232,290,332657,22,0,B|264:309|277:327|284:344|278:367|286:383|286:383|301:348|301:348|308:318|299:298,1,180.000002574921,4|0,0:3|0:0,0:0:0:0:
367,382,333085,2,0,B|395:308|370:280|352:258|341:247|306:243|292:248,1,180.000002574921,4|0,0:3|0:0,0:0:0:0:
232,290,333514,2,0,L|231:144,1,143.999995605469,6|0,0:3|0:0,0:0:0:0:
188,0,333943,1,2,0:0:0:0:
96,124,334157,5,4,0:3:0:0:
96,124,334264,2,0,B|99:142|74:147|74:147|72:165|53:178|53:178|33:191,1,71.9999960861209,2|0,0:0|0:3,0:0:0:0:
16,260,334478,21,4,0:3:0:0:
16,260,334586,2,0,P|48:296|100:317,1,75.9999979705811,6|0,0:3|0:3,0:0:0:0:
231,343,334800,2,0,B|249:302|269:293|293:281|293:281|245:270|227:226|227:226|218:200|227:181|238:159,1,239.999994277955,4|0,0:3|0:0,0:0:0:0:
300,203,335228,2,0,L|308:367,1,160,6|4,0:3|0:3,0:0:0:0:
400,200,335657,1,2,0:0:0:0:
231,343,335871,1,2,0:0:0:0:
452,312,336085,6,0,B|470:306|478:328|499:344|488:389|426:391|392:383|366:362|374:258|454:238|477:274|494:250|511:153|442:102|362:132|362:132|368:124|381:120|396:98|418:94|449:101|452:101|451:111|476:128|507:128|535:109,1,619.999985218049,4|0,0:3|0:0,0:0:0:0:
496,50,339514,2,0,B|440:20|392:19|329:47|309:73|307:113|263:113|237:102|203:38|203:38|215:61|236:116|212:161|153:189|116:177|62:148|63:103|69:60|92:41,1,657.19998533394,2|0,0:0|0:0,0:0:0:0:
144,88,342943,2,0,B|195:205|8:208|21:297|34:344|75:373|130:383|148:354|171:333|196:290|139:243|139:243|172:252|204:268|204:359,1,620,2|0,0:0|0:0,0:0:0:0:
276,360,346371,2,0,B|278:316|272:256|241:220|222:205|206:191|206:191|244:207|299:293|372:286|372:286|296:230|284:205|287:168|311:149|345:150|365:159|366:191|356:207|338:195,1,619.999985218049,2|0,0:0|0:0,0:0:0:0:
256,125,349800,22,0,B|286:97|341:73|397:117|397:117|371:57|325:45|279:52,1,299.999992847443,2|0,0:0|0:0,0:0:0:0:
212,69,351514,2,0,B|182:93|170:133|191:166|212:184|212:184|189:167|156:163|121:171|100:202|96:236|101:256,1,299.999992847443,2|0,0:0|0:0,0:0:0:0:
171,243,353228,2,0,B|207:286|245:296|297:321|317:310|359:290|390:255|458:281|464:298|464:298|433:284|403:280|364:305|323:331|289:372|216:346|182:312,1,619.999985218049,2|0,0:0|0:0,0:0:0:0:
115,287,356657,6,0,B|97:260|92:242|101:198|121:182|167:167|167:167|149:96|168:59|229:43|229:43|206:52|179:78|175:118|197:152,1,441.600000252686,2|0,0:0|0:0,0:0:0:0:
257,109,359228,21,2,0:0:0:0:
256,192,360586,12,0,370371,2:0:0:0:
