osu file format v14

[General]
AudioFilename: audio.mp3
AudioLeadIn: 0
PreviewTime: 51237
Countdown: 0
SampleSet: Soft
StackLeniency: 0.2
Mode: 0
LetterboxInBreaks: 0
WidescreenStoryboard: 1

[Editor]
Bookmarks: 9869,30237,45869,47764,50606,70816,88501,91027,93553
DistanceSpacing: 2
BeatDivisor: 4
GridSize: 16
TimelineZoom: 2

[Metadata]
Title:Sentient
TitleUnicode:Sentient
Artist:KOAN Sound
ArtistUnicode:KOAN Sound
Creator:Sonix
Version:Normal
Source:
Tags:
BeatmapID:1468768
BeatmapSetID:691646

[Difficulty]
HPDrainRate:4
CircleSize:3.6
OverallDifficulty:4
ApproachRate:5
SliderMultiplier:0.999999999999999
SliderTickRate:1

[Events]
//Background and Video events
0,0,"Magnificent-kanchanjhunga-mountain-range-in-nepal-.jpg",0,0
//Break Periods
//Storyboard Layer 0 (Background)
//Storyboard Layer 1 (Fail)
//Storyboard Layer 2 (Pass)
//Storyboard Layer 3 (Foreground)
//Storyboard Sound Samples

[TimingPoints]
80,315.789473684211,4,2,1,50,1,0
80,-133.333333333333,4,2,1,50,0,0
27869,-125,4,2,1,50,0,0
28501,-117.647058823529,4,2,1,50,0,0
29132,-111.111111111111,4,2,1,50,0,0
29764,-105.263157894737,4,2,1,50,0,0
30395,-100,4,2,1,50,0,0
53132,-100,4,2,1,100,0,1
65764,-100,4,2,1,100,0,0
93553,-100,4,2,1,100,0,1
106185,-100,4,2,1,100,0,0

[Colours]
Combo1 : 253,255,255
Combo2 : 255,0,66
Combo3 : 141,123,196
SliderBorder : 220,220,220
SliderTrackOverride : 51,117,224

[HitObjects]
439,87,10185,6,0,L|429:167,1,75.000002861023,0|0,0:0|3:0,0:0:0:0:
336,152,10658,1,0,0:0:0:0:
336,152,10816,2,0,P|349:210|368:233,1,75.000002861023,0|0,3:0|0:0,0:0:0:0:
468,323,11448,6,0,L|305:307,1,150.000005722046,0|0,0:0|3:0,0:0:0:0:
193,246,12711,6,0,L|268:239,1,75.000002861023,0|0,0:0|3:0,0:0:0:0:
228,153,13185,1,0,0:0:0:0:
228,153,13343,6,0,L|153:146,1,75.000002861023,0|0,3:0|0:0,0:0:0:0:
15,218,13974,6,0,P|62:226|94:219,1,75.000002861023
99,68,14606,2,0,P|68:104|58:135,1,75.000002861023,0|0,3:3|0:3,0:3:0:0:
44,323,15237,6,0,L|207:307,1,150.000005722046,0|0,0:0|3:0,0:0:0:0:
287,304,16027,1,0,0:0:0:0:
287,304,16185,1,0,0:0:0:0:
414,224,16501,6,0,L|251:208,1,150.000005722046,0|0,0:0|3:0,0:0:0:0:
171,205,17291,1,0,0:0:0:0:
171,205,17449,1,0,0:0:0:0:
44,125,17764,6,0,P|99:71|178:54,2,150.000005722046,0|0|0,0:0|3:0|0:0,0:0:0:0:
19,272,19658,6,0,P|59:274|97:265,1,75.000002861023,0|0,3:0|0:0,0:0:0:0:
252,311,20290,6,0,P|212:313|174:304,2,75.000002861023,0|0|0,0:0|0:0|3:0,0:0:0:0:
304,289,21080,1,0,0:0:0:0:
357,273,21237,2,0,P|376:271|398:273,1,37.5000014305115
483,302,21553,5,0,3:0:0:0:
483,302,21711,2,0,P|486:253|478:228,1,75.000002861023
396,182,22185,2,0,P|393:133|401:108,1,75.000002861023,0|0,3:0|0:0,0:0:0:0:
252,131,22816,6,0,P|171:125|142:107,1,112.500004291534
75,46,23448,1,0,3:0:0:0:
100,194,23764,1,0,0:0:0:0:
30,131,23922,1,0,0:0:0:0:
30,131,24080,6,0,P|6:185|23:249,1,112.500004291534
93,288,24711,2,0,L|145:284,2,37.5000014305115,0|0|0,3:0|0:0|0:0,0:0:0:0:
230,349,25343,6,0,L|319:342,1,75.000002861023,0|0,3:0|0:0,0:0:0:0:
365,205,25974,6,0,L|276:198,1,75.000002861023,0|0,3:0|0:0,0:0:0:0:
225,344,26606,6,0,L|314:343,1,75.000002861023,0|0,3:0|0:0,0:0:0:0:
369,209,27237,6,0,L|281:196,1,75.000002861023,0|0,3:0|0:0,0:0:0:0:
220,338,27869,6,0,L|311:344,1,79.9999999999999,0|0,3:0|0:0,0:0:0:0:
374,215,28500,6,0,L|281:193,1,79.9999999999999,0|0,3:0|0:0,0:0:0:0:
216,333,29132,6,0,L|308:346,1,89.999997253418,0|0,3:0|0:0,0:0:0:0:
378,220,29763,6,0,L|288:193,1,89.999997253418,0|0,3:0|0:0,0:0:0:0:
491,276,30395,6,0,P|502:206|488:162,1,99.9999999999999,0|2,3:0|0:0,0:0:0:0:
439,94,30869,1,0,0:0:0:0:
439,94,31027,2,0,B|390:110|390:110|327:91,1,99.9999999999999,8|2,3:0|0:0,0:0:0:0:
286,77,31501,1,0,0:0:0:0:
230,56,31658,6,0,P|195:54|166:60,1,50,0|2,0:0|0:0,0:0:0:0:
90,102,31974,2,0,P|70:131|61:159,1,50,0|2,3:0|0:0,0:0:0:0:
16,233,32290,2,0,P|63:245|117:230,1,99.9999999999999,10|0,3:0|0:0,0:0:0:0:
305,199,32922,6,0,P|256:186|208:199,1,99.9999999999999,0|2,3:0|0:0,0:0:0:0:
260,284,33395,1,0,0:0:0:0:
260,284,33553,2,0,L|260:335,2,50,8|0|2,3:0|0:0|0:0,0:0:0:0:
452,328,34185,6,0,L|332:300,1,99.9999999999999,0|8,0:0|3:0,0:0:0:0:
418,228,34658,1,0,0:0:0:0:
418,228,34816,2,0,B|512:204|512:204|486:187|475:160|474:132|480:106,1,200,10|0,3:0|3:0,0:0:0:0:
