osu file format v14

[General]
AudioFilename: audio.mp3
AudioLeadIn: 0
PreviewTime: 51237
Countdown: 0
SampleSet: Soft
StackLeniency: 0.2
Mode: 0
LetterboxInBreaks: 0
WidescreenStoryboard: 1

[Editor]
Bookmarks: 9869,30237,45869,47764,50606,70816,88501,91027,93553
DistanceSpacing: 1.5
BeatDivisor: 4
GridSize: 16
TimelineZoom: 2

[Metadata]
Title:Sentient
TitleUnicode:Sentient
Artist:KOAN Sound
ArtistUnicode:KOAN Sound
Creator:Sonix
Version:Forgotten Myth
Source:
Tags:
BeatmapID:1463608
BeatmapSetID:691646

[Difficulty]
HPDrainRate:5
CircleSize:4
OverallDifficulty:8.5
ApproachRate:9
SliderMultiplier:1.8
SliderTickRate:1

[Events]
//Background and Video events
0,0,"Magnificent-kanchanjhunga-mountain-range-in-nepal-.jpg",0,0
//Break Periods
2,68132,68922
//Storyboard Layer 0 (Background)
//Storyboard Layer 1 (Fail)
//Storyboard Layer 2 (Pass)
//Storyboard Layer 3 (Foreground)
//Storyboard Sound Samples

[TimingPoints]
80,315.789473684211,4,2,1,50,1,0
80,-200,4,2,1,50,0,0
10185,-133.333333333333,4,2,1,50,0,0
10816,-90.9090909090909,4,2,1,50,0,0
11290,-133.333333333333,4,2,1,50,0,0
11448,-100,4,2,1,50,0,0
12711,-133.333333333333,4,2,1,50,0,0
13501,-133.333333333333,4,2,1,50,0,0
13974,-133.333333333333,4,2,1,50,0,0
15869,-90.9090909090909,4,2,1,50,0,0
16501,-100,4,2,1,50,0,0
17764,-133.333333333333,4,2,1,50,0,0
18395,-90.9090909090909,4,2,1,50,0,0
18869,-133.333333333333,4,2,1,50,0,0
19501,-90.9090909090909,4,2,1,50,0,0
19816,-133.333333333333,4,2,1,50,0,0
20290,-133.333333333333,4,2,1,50,0,0
20764,-90.9090909090909,4,2,1,50,0,0
21553,-100,4,2,1,50,0,0
22816,-133.333333333333,4,2,1,50,0,0
25343,-133.333333333333,4,2,1,30,0,0
25974,-133.333333333333,4,2,1,40,0,0
26606,-111.111111111111,4,2,1,50,0,0
27237,-100,4,2,1,60,0,0
27869,-90.9090909090909,4,2,1,70,0,0
28501,-83.3333333333333,4,2,1,80,0,0
29132,-76.9230769230769,4,2,1,90,0,0
29764,-71.4285714285714,4,2,1,100,0,0
30395,-200,4,2,1,100,0,0
31343,-66.6666666666667,4,2,1,100,0,0
32290,-100,4,2,1,100,0,0
33553,-66.6666666666667,4,2,1,100,0,0
34816,-133.333333333333,4,2,1,100,0,0
35764,-66.6666666666667,4,2,1,100,0,0
37343,-100,4,2,1,100,0,0
38606,-66.6666666666667,4,2,1,100,0,0
42395,-100,4,2,1,100,0,0
43658,-66.6666666666667,4,2,1,100,0,0
44290,-200,4,2,1,100,0,0
45869,-66.6666666666667,4,2,1,100,0,0
48395,-50,4,2,1,100,0,0
48869,-66.6666666666667,4,2,1,100,0,0
49343,-100,4,2,1,100,0,0
50922,-66.6666666666667,4,2,1,100,0,0
51711,-100,4,2,1,100,0,0
52501,-133.333333333333,4,2,1,100,0,0
53132,-100,4,2,1,100,0,1
53764,-66.6666666666667,4,2,1,100,0,1
55343,-100,4,2,1,100,0,1
55658,-200,4,2,1,100,0,1
56132,-66.6666666666667,4,2,1,100,0,1
56764,-100,4,2,1,100,0,1
57553,-133.333333333333,4,2,1,100,0,1
58185,-50,4,2,1,100,0,1
58343,-100,4,2,1,100,0,1
58816,-66.6666666666667,4,2,1,100,0,1
59290,-133.333333333333,4,2,1,100,0,1
60080,-66.6666666666667,4,2,1,100,0,1
61816,-100,4,2,1,100,0,1
62606,-133.333333333333,4,2,1,100,0,1
63869,-66.6666666666667,4,2,1,100,0,1
65448,-100,4,2,1,100,0,1
65764,-100,4,2,1,100,0,0
67658,-100,4,2,1,100,0,0
70816,-100,4,2,1,100,0,0
71132,-66.6666666666667,4,2,1,100,0,0
71922,-100,4,2,1,100,0,0
72711,-133.333333333333,4,2,1,100,0,0
73343,-100,4,2,1,100,0,0
73658,-133.333333333333,4,2,1,100,0,0
74606,-66.6666666666667,4,2,1,100,0,0
77447,-100,4,2,1,100,0,0
77764,-100,4,2,1,100,0,0
79027,-66.6666666666667,4,2,1,100,0,0
81080,-66.6666666666667,4,2,1,100,0,0
82027,-100,4,2,1,100,0,0
82501,-133.333333333333,4,2,1,100,0,0
82816,-100,4,2,1,100,0,0
84080,-133.333333333333,4,2,1,100,0,0
84711,-66.6666666666667,4,2,1,100,0,0
86290,-66.6666666666667,4,2,1,100,0,0
86922,-100,4,2,1,100,0,0
88816,-50,4,2,1,100,0,0
89290,-66.6666666666667,4,2,1,100,0,0
89764,-100,4,2,1,100,0,0
91027,-100,4,2,1,100,0,0
91343,-66.6666666666667,4,2,1,100,0,0
91658,-100,4,2,1,100,0,0
92922,-133.333333333333,4,2,1,100,0,0
93553,-100,4,2,1,100,0,1
94185,-66.6666666666667,4,2,1,100,0,1
95764,-100,4,2,1,100,0,1
96080,-200,4,2,1,100,0,1
96711,-66.6666666666667,4,2,1,100,0,1
97185,-100,4,2,1,100,0,1
97974,-133.333333333333,4,2,1,100,0,1
98606,-50,4,2,1,100,0,1
98922,-100,4,2,1,100,0,1
99237,-66.6666666666667,4,2,1,100,0,1
99711,-100,4,2,1,100,0,1
100501,-66.6666666666667,4,2,1,100,0,1
102237,-100,4,2,1,100,0,1
103027,-133.333333333333,4,2,1,100,0,1
104290,-66.6666666666667,4,2,1,100,0,1
105869,-100,4,2,1,100,0,1
106185,-100,4,2,1,100,0,0
108080,-100,4,2,1,100,0,0

[Colours]
Combo1 : 253,255,255
Combo2 : 255,0,66
Combo3 : 141,123,196
SliderBorder : 220,220,220
SliderTrackOverride : 51,117,224

[HitObjects]
135,231,10185,6,0,P|121:189|141:90,1,135.000005149842
204,59,10658,1,0,0:0:0:0:
282,77,10816,2,0,B|328:77|328:77|389:48,2,99.0000030212403,8|0|0,2:0|0:0|0:0,0:0:0:0:
282,77,11290,1,0,0:0:0:0:
388,160,11448,2,0,L|388:254,1,90
388,160,11922,5,0,0:0:0:0:
388,340,12080,2,0,L|388:248,1,90,8|0,2:0|0:0,0:0:0:0:
388,70,12395,2,0,L|388:162,1,90
318,277,12711,6,0,P|254:290|166:267,1,135.000005149842
113,241,13185,1,0,0:0:0:0:
186,276,13343,1,8,2:0:0:0:
113,241,13501,6,0,P|89:180|93:122,1,101.250003862381
92,126,13816,1,0,0:0:0:0:
222,162,13974,2,0,B|255:160|255:169|290:162,3,67.5000025749208
256,80,14606,2,0,L|256:6,1,67.5000025749208,8|0,2:0|0:0,0:0:0:0:
256,12,14922,1,0,0:0:0:0:
186,277,15237,6,0,P|252:290|318:277,1,135.000005149842
385,231,15711,1,0,0:0:0:0:
385,149,15869,2,0,B|385:98|385:98|410:44,1,99.0000030212403,8|0,2:0|0:0,0:0:0:0:
492,119,16185,2,0,B|492:170|492:170|467:224,1,99.0000030212403
295,149,16501,2,0,L|394:149,1,90
295,149,16974,5,0,0:0:0:0:
115,149,17132,2,0,L|214:149,2,90,8|0|0,2:0|0:0|0:0,0:0:0:0:
49,326,17764,6,0,P|124:340|186:323,1,135.000005149842
252,289,18237,1,0,0:0:0:0:
327,262,18395,2,0,B|377:262|377:262|434:290,2,99.0000030212403,8|0|0,2:0|0:0|0:0,0:0:0:0:
251,288,18869,1,0,0:0:0:0:
307,184,19027,2,0,P|250:235|257:301,1,135.000005149842
327,262,19501,2,0,B|377:262|377:262|434:290,1,99.0000030212403,0|8,0:0|2:0,0:0:0:0:
493,319,19816,1,0,0:0:0:0:
420,283,19974,1,0,0:0:0:0:
307,184,20290,6,0,P|289:127|315:44,1,135.000005149842
382,24,20764,2,0,B|430:39|430:39|496:20,2,99.0000030212403,0|8|0,0:0|2:0|0:0,0:0:0:0:
382,119,21237,1,0,0:0:0:0:
382,24,21395,1,0,0:0:0:0:
306,55,21553,2,0,L|187:55,1,90
306,55,22027,5,0,0:0:0:0:
126,55,22185,2,0,L|216:55,2,90,8|0|0,2:0|0:0|0:0,0:0:0:0:
21,162,22816,6,0,P|7:230|25:301,1,135.000005149842
21,293,23290,1,0,0:0:0:0:
117,224,23448,2,0,P|151:219|188:225,1,67.5000025749208,8|0,2:0|0:0,0:0:0:0:
260,251,23764,2,0,P|293:255|326:250,1,67.5000025749208
342,245,24001,1,0,0:0:0:0:
358,243,24080,2,0,P|417:244|491:282,2,135.000005149842,0|0|8,0:0|0:0|2:0,0:0:0:0:
391,371,24869,1,0,0:0:0:0:
447,171,25027,1,0,0:0:0:0:
274,55,25343,6,0,L|250:142,2,67.5000025749208
49,55,25974,6,0,L|73:142,2,67.5000025749208
274,55,26448,1,0,0:0:0:0:
274,55,26606,6,0,L|256:150,1,80.9999975280763,0|0,0:3|0:3,0:3:0:0:
259,134,26922,1,0,0:0:0:0:
49,55,27080,1,0,0:0:0:0:
49,55,27238,6,0,L|66:152,1,90
64,143,27554,1,0,0:0:0:0:
274,55,27711,1,0,0:0:0:0:
274,55,27869,6,0,B|275:106|275:106|264:157,1,99.0000030212403
265,153,28185,1,0,0:0:0:0:
49,55,28343,1,0,0:0:0:0:
49,55,28501,6,0,B|47:110|47:110|59:168,1,107.999996704102
58,161,28817,1,0,0:0:0:0:
274,55,28974,1,0,0:0:0:0:
274,55,29132,6,0,B|289:114|289:114|272:180,1,116.999994644165
275,168,29448,1,0,0:0:0:0:
49,55,29606,1,0,0:0:0:0:
49,55,29764,6,0,B|33:123|33:123|49:184,1,125.999996154785
47,177,30080,1,0,0:0:0:0:
311,38,30237,5,0,0:0:0:0:
116,244,30395,6,0,B|70:235|70:253|25:244,1,90,0|0,3:0|0:0,0:0:0:0:
205,243,30869,1,0,0:0:0:0:
26,244,31027,1,8,3:0:0:0:
205,243,31343,6,0,B|273:243|273:243|342:213,1,135.000005149842
253,100,31658,2,0,B|185:100|185:100|116:130,1,135.000005149842
205,243,31974,1,0,3:0:0:0:
253,100,32132,1,0,0:0:0:0:
133,322,32290,2,0,B|160:345|191:352|213:356|250:346|275:324|275:324|236:324,1,180,8|0,0:0|0:0,0:0:0:0:
249,324,32764,1,0,0:0:0:0:
72,244,32922,6,0,P|51:164|76:65,1,180,0|0,3:0|0:0,0:0:0:0:
104,86,33316,1,0,0:0:0:0:
139,95,33395,1,0,0:0:0:0:
175,95,33474,1,0,0:0:0:0:
210,87,33553,2,0,B|275:69|275:69|347:90,1,135.000005149842,8|0,3:0|0:0,0:0:0:0:
470,88,33869,2,0,B|405:106|405:106|333:85,1,135.000005149842
340,172,34185,2,0,L|469:209,2,135.000005149842
340,87,34658,1,0,0:0:0:0:
340,257,34816,1,8,0:0:0:0:
256,192,34895,12,0,35448,3:0:0:0:
340,257,35764,6,0,B|278:280|278:280|200:250,1,135.000005149842
213,255,36080,1,8,3:0:0:0:
340,257,36395,5,0,0:0:0:0:
86,256,36553,2,0,B|150:231|150:231|212:254,1,135.000005149842
149,343,36869,1,0,0:0:0:0:
23,169,37027,2,0,L|23:25,1,135.000005149842,0|0,3:0|0:0,0:0:0:0:
249,100,37343,2,0,B|222:123|191:130|169:134|132:124|107:102|107:102|146:102,1,180,8|0,0:0|0:0,0:0:0:0:
132,102,37816,1,0,0:0:0:0:
324,45,37974,6,0,P|413:24|505:53,1,180
477,78,38370,1,0,0:0:0:0:
465,112,38448,1,0,0:0:0:0:
460,147,38527,1,0,0:0:0:0:
462,183,38606,2,0,B|481:251|481:251|458:326,1,135.000005149842,8|0,3:0|0:0,0:0:0:0:
461,313,38922,1,0,0:0:0:0:
247,250,39080,1,0,0:0:0:0:
247,250,39237,2,0,L|385:250,2,135.000005149842
315,337,39711,1,0,0:0:0:0:
315,163,39869,1,8,0:0:0:0:
256,192,39948,12,0,40501,3:0:0:0:
134,93,40816,6,0,B|97:150|97:150|97:220,1,135.000005149842
97,217,41132,1,8,3:0:0:0:
134,93,41448,5,0,0:0:0:0:
97,217,41606,1,0,0:0:0:0:
223,188,41764,1,0,0:3:0:0:
134,93,41922,1,0,0:0:0:0:
97,217,42080,2,0,L|97:358,1,135.000005149842
364,318,42395,2,0,B|275:287|275:349|172:318,1,180,8|0,0:0|0:0,0:0:0:0:
187,322,42869,1,0,0:0:0:0:
260,63,43027,6,0,P|334:120|347:226,1,180
352,210,43422,1,0,0:0:0:0:
352,219,43501,1,0,0:0:0:0:
352,228,43580,1,0,0:0:0:0:
351,237,43658,1,8,3:0:0:0:
223,188,43816,2,0,B|160:165|160:165|85:192,2,135.000005149842
160,350,44290,2,0,B|148:304|168:304|160:261,1,90
160,350,44764,1,0,0:0:0:0:
160,165,44922,1,8,0:0:0:0:
256,192,45001,12,0,45553,3:0:0:0:
25,165,45869,6,0,L|160:165,1,135.000005149842
241,165,46185,1,8,3:0:0:0:
160,165,46343,1,0,0:0:0:0:
376,165,46501,2,0,L|214:165,1,135.000005149842
160,84,46816,2,0,L|322:84,1,135.000005149842
376,84,47132,1,0,3:0:0:0:
360,6,47290,1,0,0:0:0:0:
394,189,47448,1,8,3:0:0:0:
394,189,48080,5,0,3:0:0:0:
394,189,48395,2,0,P|480:174|425:167,1,360
149,266,48869,2,0,B|211:289|211:289|289:259,2,135.000005149842
254,26,49343,2,0,P|312:127|305:197,1,180
398,74,49816,1,0,0:0:0:0:
165,148,49974,1,8,0:0:0:0:
256,192,50053,12,0,50606,3:0:0:0:
149,266,50922,6,0,B|212:288|212:288|289:259,1,135.000005149842
275,264,51237,1,0,0:0:0:0:
149,266,51553,5,0,0:0:0:0:
350,218,51711,2,0,P|361:273|350:310,1,90
74,310,52027,2,0,P|63:255|74:218,1,90
0,338,52343,1,0,0:0:0:0:
142,108,52501,2,0,L|123:142,1,33.7500012874604,8|0,0:0|0:0,0:0:0:0:
244,73,52658,2,0,L|210:92,1,33.7500012874604
349,93,52816,2,0,L|310:93,1,33.7500012874604
0,338,53132,5,0,3:0:0:0:
349,93,53448,5,0,0:0:0:0:
315,93,53527,1,0,0:0:0:0:
244,73,53606,1,0,0:0:0:0:
215,90,53685,1,0,0:0:0:0:
142,108,53764,2,0,B|77:127|77:127|9:108,1,135.000005149842,8|0,3:0|0:0,0:0:0:0:
12,108,54080,1,0,0:0:0:0:
12,233,54237,2,0,L|141:195,2,135.000005149842
229,195,54711,5,0,3:0:0:0:
229,108,54869,1,0,0:0:0:0:
142,108,55027,1,8,0:0:0:0:
141,195,55185,1,0,0:0:0:0:
316,195,55343,2,0,P|250:188|224:197,1,90
272,378,55658,6,0,B|287:334|260:333|276:282,1,90,0|0,3:0|0:0,0:0:0:0:
273,289,56132,1,0,0:0:0:0:
496,290,56290,2,0,L|357:290,2,135.000005149842,8|0|0,3:0|0:0|0:0,0:0:0:0:
316,195,56764,2,0,P|250:188|224:197,1,90
53,194,57080,2,0,P|119:201|145:192,1,90,8|0,3:0|0:0,0:0:0:0:
96,100,57395,1,0,3:0:0:0:
96,335,57553,2,0,L|96:302,1,33.7500012874604,8|0,0:0|0:0,0:0:0:0:
204,353,57711,2,0,L|187:323,1,33.7500012874604
302,305,57869,2,0,L|272:288,1,33.7500012874604
379,111,58027,1,0,3:0:0:0:
379,111,58185,6,0,B|429:121|456:154|456:154|425:191|378:196,1,180,0|0,3:0|0:0,0:0:0:0:
180,40,58501,1,0,0:0:0:0:
230,25,58580,1,0,0:0:0:0:
282,30,58658,1,0,0:0:0:0:
331,52,58737,1,0,0:0:0:0:
379,111,58816,2,0,L|379:247,1,135.000005149842,8|0,3:0|0:0,0:0:0:0:
379,246,59132,5,0,0:0:0:0:
458,52,59290,2,0,B|457:67|462:80|462:80|452:80|452:80|458:94|458:112,1,67.5000025749208,0|0,3:0|0:0,0:0:0:0:
300,305,59606,2,0,B|300:289|295:276|295:276|305:276|305:276|299:262|299:244,1,67.5000025749208,8|0,3:0|0:0,0:0:0:0:
300,305,59922,1,0,3:0:0:0:
97,305,60080,2,0,B|160:283|160:283|228:307,2,135.000005149842,8|0|0,0:0|0:0|0:0,0:0:0:0:
256,192,60553,12,4,61343,0:0:0:0:
300,305,61658,5,0,3:0:0:0:
511,252,61816,2,0,P|461:243|416:255,1,90
212,304,62132,2,0,P|262:313|307:301,1,90
182,372,62448,1,0,0:0:0:0:
315,172,62606,2,0,L|284:217,1,33.7500012874604,8|0,0:0|0:0,0:0:0:0:
217,87,62764,2,0,L|248:132,1,33.7500012874604
315,2,62922,2,0,L|284:47,1,33.7500012874604
182,372,63237,5,0,3:0:0:0:
295,29,63553,6,0,L|315:2,1,33.7500012874604
236,114,63711,2,0,L|217:87,1,33.7500012874604
315,172,63869,2,0,B|380:193|380:193|451:170,1,135.000005149842,8|0,3:0|0:0,0:0:0:0:
443,172,64185,1,0,0:0:0:0:
443,299,64343,2,0,L|314:256,2,135.000005149842
269,346,64816,5,0,3:0:0:0:
315,172,64974,1,0,0:0:0:0:
443,299,65132,1,8,0:0:0:0:
269,346,65290,1,0,0:0:0:0:
337,84,65448,2,0,L|311:183,1,90
69,299,65764,6,0,P|24:176|197:173,1,360,0|8,3:0|3:0,0:0:0:0:
101,253,66869,2,0,P|71:215|147:233,2,180
101,253,67658,1,4,2:0:0:0:
256,192,69553,12,0,70816,3:0:0:0:
322,75,71132,6,0,B|256:57|256:57|184:77,2,135.000005149842
452,74,71606,2,0,B|386:92|386:92|314:72,1,135.000005149842
105,31,71922,2,0,P|95:85|110:126,1,90
255,257,72237,2,0,P|266:214|256:171,1,90,8|0,3:0|0:0,0:0:0:0:
360,257,72553,1,0,0:0:0:0:
169,214,72711,2,0,B|100:196|100:234|36:216,1,135.000005149842,8|0,0:0|0:0,0:0:0:0:
36,216,73185,1,0,0:0:0:0:
213,344,73343,6,0,P|284:350|302:342,1,90,0|0,3:0|0:0,0:0:0:0:
174,118,73658,2,0,L|155:83,1,33.7500012874604
169,214,73816,2,0,L|150:249,1,33.7500012874604
256,169,73974,2,0,B|290:162|290:174|325:169,2,67.5000025749208,8|0|0,3:0|0:0|0:0,0:0:0:0:
256,169,74448,1,0,0:0:0:0:
412,103,74606,2,0,B|355:64|355:64|277:65,1,135.000005149842
207,65,74922,1,0,3:0:0:0:
289,64,75080,1,0,0:0:0:0:
125,66,75237,1,8,0:0:0:0:
256,192,75316,12,0,75869,3:0:0:0:
412,281,76185,6,0,B|355:320|355:320|277:319,1,135.000005149842
289,319,76501,1,8,3:0:0:0:
289,104,76658,1,0,0:0:0:0:
289,104,76816,2,0,L|289:249,1,135.000005149842
179,319,77132,6,0,L|179:184,1,135.000005149842
23,133,77448,2,0,P|66:123|116:136,1,90,0|0,3:0|0:0,0:0:0:0:
179,319,77764,2,0,P|81:342|0:315,1,180,8|0,0:0|0:0,0:0:0:0:
7,319,78237,1,0,0:0:0:0:
179,184,78395,6,0,P|277:161|358:188,1,180,0|0,3:0|0:0,0:0:0:0:
381,202,78790,1,0,0:0:0:0:
381,220,78869,1,0,0:0:0:0:
381,238,78948,1,0,0:0:0:0:
381,256,79027,2,0,B|381:324|381:324|436:380,1,135.000005149842,8|0,3:0|0:0,0:0:0:0:
427,371,79343,1,0,0:0:0:0:
497,274,79501,1,0,0:0:0:0:
308,353,79658,2,0,L|171:353,2,135.000005149842
308,353,80132,1,0,0:0:0:0:
91,353,80290,1,8,0:0:0:0:
256,192,80369,12,0,80922,3:0:0:0:
136,154,81237,6,0,B|91:203|91:203|91:280,1,135.000005149842
226,353,81553,2,0,L|86:353,2,135.000005149842,8|0|0,3:0|0:0|0:0,0:0:0:0:
223,153,82027,2,0,P|179:143|135:153,1,90
267,76,82343,1,0,0:0:0:0:
267,229,82501,1,0,3:0:0:0:
135,153,82658,1,0,0:0:0:0:
267,76,82816,2,0,P|312:68|373:84,1,90,8|0,0:0|0:0,0:0:0:0:
355,228,83132,2,0,P|310:236|249:220,1,90
46,153,83448,6,0,P|90:145|135:153,1,90,0|0,3:0|0:0,0:0:0:0:
266,304,83764,1,0,0:0:0:0:
266,285,83843,1,0,0:0:0:0:
266,266,83922,1,0,0:0:0:0:
266,247,84001,1,0,0:0:0:0:
266,228,84080,2,0,B|261:194|274:194|266:160,2,67.5000025749208,8|0|0,3:0|0:0|0:0,0:0:0:0:
484,227,84553,1,0,0:0:0:0:
484,227,84711,2,0,B|419:208|419:208|349:229,2,135.000005149842
419,326,85185,1,0,0:0:0:0:
419,124,85343,1,8,0:0:0:0:
256,192,85422,12,0,85974,3:0:0:0:
293,241,86290,6,0,B|248:192|248:192|248:115,1,135.000005149842
248,42,86605,1,8,3:0:0:0:
248,124,86764,1,0,0:0:0:0:
419,124,86922,2,0,L|319:124,1,90
158,124,87238,2,0,L|248:124,1,90,0|8,0:0|3:0,0:0:0:0:
329,124,87553,1,0,0:0:0:0:
248,42,87711,1,0,3:0:0:0:
248,267,87869,1,8,0:0:0:0:
248,267,88501,5,0,3:0:0:0:
248,267,88816,2,0,P|200:325|227:208,1,360
456,290,89290,2,0,B|390:309|390:309|307:283,2,135.000005149842
221,125,89764,2,0,P|111:134|58:185,1,180
129,39,90237,1,0,0:0:0:0:
179,258,90395,1,8,0:0:0:0:
256,192,90474,12,0,91027,3:0:0:0:
456,290,91343,6,0,B|390:309|390:309|307:283,1,135.000005149842
326,289,91658,1,0,0:0:0:0:
456,290,91974,5,0,0:0:0:0:
221,246,92132,2,0,P|213:302|234:357,1,90
391,193,92448,2,0,P|399:137|378:82,1,90
508,186,92764,1,0,0:0:0:0:
286,33,92922,2,0,L|324:58,1,33.7500012874604,8|0,0:0|0:0,0:0:0:0:
177,43,93080,2,0,L|222:45,1,33.7500012874604
87,106,93237,2,0,L|127:85,1,33.7500012874604
508,186,93553,5,0,3:0:0:0:
87,106,93869,5,0,0:0:0:0:
117,90,93948,1,0,0:0:0:0:
177,43,94027,1,0,0:0:0:0:
210,44,94106,1,0,0:0:0:0:
286,33,94185,2,0,B|351:48|351:48|427:31,1,135.000005149842,8|0,3:0|0:0,0:0:0:0:
417,33,94501,1,0,0:0:0:0:
418,146,94658,2,0,L|286:115,2,135.000005149842
387,278,95132,1,0,3:0:0:0:
255,247,95290,1,0,0:0:0:0:
286,115,95448,1,8,0:0:0:0:
418,146,95606,1,0,0:0:0:0:
254,334,95764,2,0,P|245:282|261:236,1,90
476,277,96080,6,0,B|431:270|431:288|387:278,1,90,0|0,3:0|0:0,0:0:0:0:
386,277,96553,1,0,0:0:0:0:
119,334,96711,2,0,L|257:334,2,135.000005149842,8|0|0,3:0|0:0|0:0,0:0:0:0:
254,246,97185,2,0,P|264:202|254:158,1,90
21,290,97501,2,0,P|10:333|20:377,1,90,8|0,3:0|0:0,0:0:0:0:
20,377,97816,1,0,3:0:0:0:
21,197,97974,2,0,L|62:212,1,33.7500012874604,8|0,0:0|0:0,0:0:0:0:
67,107,98132,2,0,L|95:140,1,33.7500012874604,0|0,0:3|0:3,0:3:0:0:
152,52,98290,2,0,L|159:95,1,33.7500012874604,0|0,0:3|0:3,0:3:0:0:
254,246,98448,1,0,3:0:0:0:
254,246,98606,6,0,P|325:234|266:200,1,180,0|0,3:0|0:0,0:0:0:0:
119,334,98922,1,0,0:0:0:0:
173,334,99001,1,0,0:0:0:0:
227,334,99080,1,0,0:0:0:0:
280,335,99158,1,0,0:0:0:0:
347,334,99237,2,0,L|493:334,1,135.000005149842,8|0,0:0|0:0,0:0:0:0:
482,334,99553,5,0,0:0:0:0:
361,150,99711,2,0,P|391:196|396:232,1,90
496,79,100027,2,0,P|466:125|461:161,1,90,8|0,3:0|0:0,0:0:0:0:
293,53,100343,1,0,0:0:0:0:
293,53,100501,2,0,B|358:33|358:33|425:54,2,135.000005149842,8|0|0,0:0|0:0|0:0,0:0:0:0:
256,192,100974,12,0,101764,3:0:0:0:
145,246,102080,5,0,0:0:0:0:
92,35,102238,2,0,P|83:85|95:130,1,90
144,334,102554,2,0,P|153:284|141:239,1,90
44,289,102869,1,0,0:0:0:0:
244,203,103027,2,0,L|194:225,1,33.7500012874604,8|0,3:0|0:0,0:0:0:0:
332,268,103185,2,0,L|282:246,1,33.7500012874604
420,203,103343,2,0,L|370:225,1,33.7500012874604
44,289,103658,5,0,3:0:0:0:
420,203,103974,6,0,L|389:216,1,33.7500012874604
332,268,104132,2,0,L|301:254,1,33.7500012874604
244,203,104290,2,0,B|220:139|220:139|246:72,1,135.000005149842,8|0,3:0|0:0,0:0:0:0:
244,76,104606,1,0,0:0:0:0:
112,77,104764,2,0,L|160:203,2,135.000005149842
68,254,105237,1,0,3:0:0:0:
244,203,105395,1,0,0:0:0:0:
112,77,105553,1,8,0:0:0:0:
68,254,105711,1,0,0:0:0:0:
244,203,105869,1,4,0:0:0:0:
196,285,106185,6,0,P|337:223|233:108,1,360,0|8,3:0|3:0,0:0:0:0:
271,232,107290,2,0,P|203:204|266:168,2,180
271,232,108079,5,4,2:0:0:0:
256,192,108395,12,0,113764,0:0:0:0:
