osu file format v14

[General]
AudioFilename: audio.mp3
AudioLeadIn: 0
PreviewTime: 59593
Countdown: 0
SampleSet: Normal
StackLeniency: 0.7
Mode: 3
LetterboxInBreaks: 0
SpecialStyle: 0
WidescreenStoryboard: 0

[Editor]
DistanceSpacing: 1.2
BeatDivisor: 12
GridSize: 8
TimelineZoom: 2.5

[Metadata]
Title:Chronos (Cut Ver.)
TitleUnicode:Chronos (Cut Ver.)
Artist:KOAN Sound
ArtistUnicode:KOAN Sound
Creator:Dreamwalker
Version:shattered will swirling into the dead soul
Source:
Tags:dragolord dergo kamuy nimis thefunk wintmin wintersnow electronic instrumental neurohop ep hybrid ln dump tech
BeatmapID:3404772
BeatmapSetID:1667473

[Difficulty]
HPDrainRate:9.5
CircleSize:4
OverallDifficulty:6.6
ApproachRate:5
SliderMultiplier:1.4
SliderTickRate:1

[Events]
//Background and Video events
0,0,"maxresdefault.jpg",0,0
//Break Periods
//Storyboard Layer 0 (Background)
//Storyboard Layer 1 (Fail)
//Storyboard Layer 2 (Pass)
//Storyboard Layer 3 (Foreground)
//Storyboard Layer 4 (Overlay)
//Storyboard Sound Samples

[TimingPoints]
2031,300,4,1,1,10,1,0
59631,-100,4,1,1,10,0,1
98031,-100,4,1,1,10,0,0

[HitObjects]
192,192,2031,5,0,0:0:0:0:
64,192,2031,128,0,2256:0:0:0:0:
320,192,2068,1,0,0:0:0:0:
192,192,2106,1,0,0:0:0:0:
320,192,2231,1,0,0:0:0:0:
448,192,2331,1,0,0:0:0:0:
448,192,2593,1,0,0:0:0:0:
320,192,2631,1,0,0:0:0:0:
192,192,2656,1,0,0:0:0:0:
64,192,2831,1,0,0:0:0:0:
320,192,2931,128,0,3106:0:0:0:0:
64,192,2931,1,0,0:0:0:0:
192,192,3131,1,0,0:0:0:0:
320,192,3156,1,0,0:0:0:0:
320,192,3256,1,0,0:0:0:0:
64,192,3431,1,0,0:0:0:0:
64,192,3531,128,0,3731:0:0:0:0:
64,192,3793,1,0,0:0:0:0:
192,192,3831,128,0,4006:0:0:0:0:
320,192,3856,1,0,0:0:0:0:
320,192,4031,1,0,0:0:0:0:
192,192,4056,1,0,0:0:0:0:
448,192,4131,1,0,0:0:0:0:
192,192,4331,1,0,0:0:0:0:
448,192,4356,1,0,0:0:0:0:
320,192,4631,1,0,0:0:0:0:
320,192,4731,1,0,0:0:0:0:
448,192,4731,128,0,4831:0:0:0:0:
64,192,4781,1,0,0:0:0:0:
192,192,4806,1,0,0:0:0:0:
448,192,4993,1,0,0:0:0:0:
320,192,5031,1,0,0:0:0:0:
192,192,5056,1,0,0:0:0:0:
192,192,5231,1,0,0:0:0:0:
320,192,5256,128,0,5306:0:0:0:0:
448,192,5268,1,0,0:0:0:0:
448,192,5356,1,0,0:0:0:0:
64,192,5531,1,0,0:0:0:0:
192,192,5531,1,0,0:0:0:0:
320,192,5631,128,0,5681:0:0:0:0:
448,192,5631,128,0,5681:0:0:0:0:
64,192,5656,1,0,0:0:0:0:
192,192,5681,1,0,0:0:0:0:
448,192,5831,1,0,0:0:0:0:
64,192,5918,1,0,0:0:0:0:
320,192,5931,128,0,6031:0:0:0:0:
192,192,5943,1,0,0:0:0:0:
320,192,6131,1,0,0:0:0:0:
64,192,6193,1,0,0:0:0:0:
192,192,6231,128,0,6331:0:0:0:0:
320,192,6256,1,0,0:0:0:0:
320,192,6406,1,0,0:0:0:0:
192,192,6431,1,0,0:0:0:0:
64,192,6531,128,0,6643:0:0:0:0:
320,192,6531,1,0,0:0:0:0:
448,192,6568,128,0,6681:0:0:0:0:
320,192,6731,128,0,6806:0:0:0:0:
448,192,6731,128,0,6831:0:0:0:0:
64,192,6831,128,0,7156:0:0:0:0:
64,192,7393,1,0,0:0:0:0:
192,192,7431,1,0,0:0:0:0:
320,192,7456,1,0,0:0:0:0:
448,192,7631,1,0,0:0:0:0:
192,192,7693,1,0,0:0:0:0:
448,192,7731,1,0,0:0:0:0:
320,192,7781,1,0,0:0:0:0:
320,192,7881,1,0,0:0:0:0:
448,192,7906,1,0,0:0:0:0:
64,192,7931,1,0,0:0:0:0:
64,192,8031,1,0,0:0:0:0:
448,192,8231,1,0,0:0:0:0:
64,192,8331,1,0,0:0:0:0:
448,192,8331,1,0,0:0:0:0:
320,192,8368,128,0,8481:0:0:0:0:
64,192,8456,1,0,0:0:0:0:
320,192,8531,1,0,0:0:0:0:
64,192,8593,1,0,0:0:0:0:
320,192,8631,1,0,0:0:0:0:
448,192,8656,1,0,0:0:0:0:
320,192,8831,128,0,8881:0:0:0:0:
192,192,8856,1,0,0:0:0:0:
64,192,8931,1,0,0:0:0:0:
320,192,8956,1,0,0:0:0:0:
320,192,9118,128,0,9193:0:0:0:0:
64,192,9143,1,0,0:0:0:0:
448,192,9143,128,0,9193:0:0:0:0:
448,192,9231,1,0,0:0:0:0:
320,192,9431,1,0,0:0:0:0:
192,192,9431,1,0,0:0:0:0:
192,192,9531,128,0,9606:0:0:0:0:
448,192,9531,1,0,0:0:0:0:
64,192,9581,128,0,9631:0:0:0:0:
192,192,9731,128,0,9806:0:0:0:0:
448,192,9793,1,0,0:0:0:0:
320,192,9831,1,0,0:0:0:0:
64,192,9856,1,0,0:0:0:0:
64,192,10031,1,0,0:0:0:0:
192,192,10031,128,0,10068:0:0:0:0:
448,192,10031,128,0,10081:0:0:0:0:
64,192,10131,128,0,10231:0:0:0:0:
192,192,10331,128,0,10406:0:0:0:0:
448,192,10331,128,0,10431:0:0:0:0:
64,192,10331,128,0,10381:0:0:0:0:
64,192,10431,128,0,10531:0:0:0:0:
320,192,10431,1,0,0:0:0:0:
448,192,10631,128,0,10681:0:0:0:0:
64,192,10731,128,0,10831:0:0:0:0:
192,192,10731,128,0,10843:0:0:0:0:
448,192,10731,128,0,10881:0:0:0:0:
192,192,10931,1,0,0:0:0:0:
64,192,10993,1,0,0:0:0:0:
320,192,11031,128,0,11081:0:0:0:0:
448,192,11056,1,0,0:0:0:0:
64,192,11231,128,0,11306:0:0:0:0:
192,192,11231,128,0,11331:0:0:0:0:
448,192,11231,128,0,11297:0:0:0:0:
448,192,11331,128,0,11481:0:0:0:0:
192,192,11481,1,0,0:0:0:0:
64,192,11531,1,0,0:0:0:0:
448,192,11581,1,0,0:0:0:0:
64,192,11631,128,0,11831:0:0:0:0:
192,192,11631,1,0,0:0:0:0:
448,192,11668,1,0,0:0:0:0:
320,192,11706,1,0,0:0:0:0:
320,192,11831,1,0,0:0:0:0:
64,192,11931,1,0,0:0:0:0:
448,192,11931,1,0,0:0:0:0:
64,192,12193,1,0,0:0:0:0:
192,192,12231,1,0,0:0:0:0:
320,192,12256,1,0,0:0:0:0:
448,192,12356,128,0,12431:0:0:0:0:
320,192,12431,1,0,0:0:0:0:
192,192,12481,1,0,0:0:0:0:
64,192,12531,1,0,0:0:0:0:
448,192,12531,128,0,12681:0:0:0:0:
320,192,12581,1,0,0:0:0:0:
64,192,12656,1,0,0:0:0:0:
192,192,12706,1,0,0:0:0:0:
448,192,12731,1,0,0:0:0:0:
320,192,12831,1,0,0:0:0:0:
64,192,13031,1,0,0:0:0:0:
64,192,13131,128,0,13356:0:0:0:0:
320,192,13131,1,0,0:0:0:0:
320,192,13331,1,0,0:0:0:0:
448,192,13393,1,0,0:0:0:0:
192,192,13431,128,0,13556:0:0:0:0:
64,192,13456,1,0,0:0:0:0:
320,192,13631,1,0,0:0:0:0:
448,192,13631,1,0,0:0:0:0:
192,192,13656,1,0,0:0:0:0:
448,192,13731,1,0,0:0:0:0:
192,192,13931,1,0,0:0:0:0:
448,192,13956,1,0,0:0:0:0:
320,192,14231,1,0,0:0:0:0:
320,192,14331,1,0,0:0:0:0:
448,192,14331,128,0,14431:0:0:0:0:
192,192,14381,1,0,0:0:0:0:
64,192,14406,128,0,14456:0:0:0:0:
448,192,14593,1,0,0:0:0:0:
320,192,14631,1,0,0:0:0:0:
192,192,14656,1,0,0:0:0:0:
192,192,14806,1,0,0:0:0:0:
320,192,14831,128,0,14881:0:0:0:0:
448,192,14843,1,0,0:0:0:0:
448,192,14931,1,0,0:0:0:0:
64,192,15131,1,0,0:0:0:0:
192,192,15131,1,0,0:0:0:0:
320,192,15231,128,0,15281:0:0:0:0:
448,192,15231,128,0,15331:0:0:0:0:
64,192,15256,1,0,0:0:0:0:
192,192,15281,1,0,0:0:0:0:
448,192,15381,128,0,15431:0:0:0:0:
64,192,15518,1,0,0:0:0:0:
320,192,15531,128,0,15631:0:0:0:0:
192,192,15543,1,0,0:0:0:0:
320,192,15731,1,0,0:0:0:0:
64,192,15793,1,0,0:0:0:0:
448,192,15793,1,0,0:0:0:0:
192,192,15831,128,0,15931:0:0:0:0:
320,192,15856,1,0,0:0:0:0:
320,192,16006,1,0,0:0:0:0:
192,192,16031,1,0,0:0:0:0:
192,192,16131,128,0,16281:0:0:0:0:
448,192,16131,1,0,0:0:0:0:
64,192,16168,128,0,16281:0:0:0:0:
192,192,16331,128,0,16431:0:0:0:0:
320,192,16331,128,0,16393:0:0:0:0:
448,192,16331,128,0,16431:0:0:0:0:
64,192,16431,128,0,16731:0:0:0:0:
192,192,16631,1,0,0:0:0:0:
320,192,16731,1,0,0:0:0:0:
320,192,16931,1,0,0:0:0:0:
64,192,16993,1,0,0:0:0:0:
320,192,17031,128,0,17206:0:0:0:0:
448,192,17056,1,0,0:0:0:0:
448,192,17231,1,0,0:0:0:0:
320,192,17297,1,0,0:0:0:0:
64,192,17331,128,0,17431:0:0:0:0:
192,192,17331,1,0,0:0:0:0:
448,192,17506,128,0,17756:0:0:0:0:
64,192,17531,1,0,0:0:0:0:
320,192,17581,128,0,17706:0:0:0:0:
64,192,17631,1,0,0:0:0:0:
320,192,17781,1,0,0:0:0:0:
448,192,17806,1,0,0:0:0:0:
192,192,17831,1,0,0:0:0:0:
64,192,17931,128,0,18131:0:0:0:0:
192,192,17931,128,0,18056:0:0:0:0:
448,192,17956,1,0,0:0:0:0:
320,192,18131,1,0,0:0:0:0:
64,192,18231,128,0,18356:0:0:0:0:
320,192,18231,1,0,0:0:0:0:
448,192,18256,128,0,18443:0:0:0:0:
320,192,18431,128,0,18481:0:0:0:0:
192,192,18456,1,0,0:0:0:0:
64,192,18531,128,0,18606:0:0:0:0:
192,192,18531,128,0,18581:0:0:0:0:
320,192,18556,1,0,0:0:0:0:
64,192,18731,128,0,18781:0:0:0:0:
320,192,18731,128,0,18806:0:0:0:0:
448,192,18731,128,0,18781:0:0:0:0:
192,192,19031,1,0,0:0:0:0:
320,192,19056,128,0,19181:0:0:0:0:
192,192,19131,128,0,19206:0:0:0:0:
448,192,19131,1,0,0:0:0:0:
64,192,19168,128,0,19218:0:0:0:0:
64,192,19393,1,0,0:0:0:0:
192,192,19431,1,0,0:0:0:0:
320,192,19456,1,0,0:0:0:0:
192,192,19631,128,0,19668:0:0:0:0:
448,192,19631,128,0,19681:0:0:0:0:
320,192,19656,1,0,0:0:0:0:
448,192,19731,1,0,0:0:0:0:
192,192,19931,1,0,0:0:0:0:
64,192,19943,128,0,20043:0:0:0:0:
192,192,20018,128,0,20068:0:0:0:0:
448,192,20043,128,0,20093:0:0:0:0:
448,192,20231,128,0,20281:0:0:0:0:
448,192,20331,128,0,20531:0:0:0:0:
64,192,20331,1,0,0:0:0:0:
192,192,20356,128,0,20456:0:0:0:0:
192,192,20531,1,0,0:0:0:0:
448,192,20618,128,0,20693:0:0:0:0:
192,192,20631,128,0,20681:0:0:0:0:
64,192,20656,128,0,20706:0:0:0:0:
64,192,20806,128,0,20931:0:0:0:0:
320,192,20831,128,0,20881:0:0:0:0:
448,192,20856,128,0,20906:0:0:0:0:
192,192,20931,128,0,21081:0:0:0:0:
448,192,20956,1,0,0:0:0:0:
320,192,21131,1,0,0:0:0:0:
64,192,21231,128,0,21381:0:0:0:0:
192,192,21231,1,0,0:0:0:0:
448,192,21268,128,0,21481:0:0:0:0:
192,192,21343,128,0,21443:0:0:0:0:
320,192,21431,1,0,0:0:0:0:
448,192,21531,1,0,0:0:0:0:
320,192,21731,1,0,0:0:0:0:
64,192,21793,1,0,0:0:0:0:
320,192,21831,1,0,0:0:0:0:
448,192,21856,1,0,0:0:0:0:
448,192,22031,1,0,0:0:0:0:
192,192,22131,128,0,22281:0:0:0:0:
320,192,22131,128,0,22206:0:0:0:0:
64,192,22156,128,0,22381:0:0:0:0:
192,192,22331,1,0,0:0:0:0:
320,192,22431,1,0,0:0:0:0:
448,192,22456,1,0,0:0:0:0:
448,192,22631,1,0,0:0:0:0:
64,192,22731,128,0,22945:0:0:0:0:
192,192,22731,1,0,0:0:0:0:
448,192,22931,1,0,0:0:0:0:
64,192,22993,1,0,0:0:0:0:
192,192,23031,128,0,23231:0:0:0:0:
320,192,23031,1,0,0:0:0:0:
448,192,23056,128,0,23118:0:0:0:0:
320,192,23156,128,0,23381:0:0:0:0:
64,192,23231,1,0,0:0:0:0:
448,192,23331,1,0,0:0:0:0:
192,192,23531,1,0,0:0:0:0:
320,192,23556,1,0,0:0:0:0:
448,192,23556,1,0,0:0:0:0:
448,192,23831,1,0,0:0:0:0:
192,192,23931,128,0,24006:0:0:0:0:
448,192,23931,128,0,24131:0:0:0:0:
64,192,23981,128,0,24031:0:0:0:0:
320,192,24131,128,0,24181:0:0:0:0:
192,192,24231,1,0,0:0:0:0:
320,192,24231,128,0,24431:0:0:0:0:
448,192,24256,1,0,0:0:0:0:
192,192,24431,1,0,0:0:0:0:
64,192,24456,1,0,0:0:0:0:
320,192,24506,1,0,0:0:0:0:
448,192,24531,128,0,24606:0:0:0:0:
192,192,24731,1,0,0:0:0:0:
64,192,24731,1,0,0:0:0:0:
320,192,24831,128,0,24906:0:0:0:0:
448,192,24831,128,0,25031:0:0:0:0:
64,192,24856,1,0,0:0:0:0:
192,192,24881,1,0,0:0:0:0:
64,192,25031,1,0,0:0:0:0:
192,192,25093,1,0,0:0:0:0:
320,192,25131,128,0,25231:0:0:0:0:
448,192,25156,1,0,0:0:0:0:
320,192,25331,1,0,0:0:0:0:
448,192,25393,1,0,0:0:0:0:
64,192,25393,1,0,0:0:0:0:
192,192,25431,128,0,25531:0:0:0:0:
320,192,25456,1,0,0:0:0:0:
192,192,25631,1,0,0:0:0:0:
448,192,25656,1,0,0:0:0:0:
192,192,25731,128,0,25843:0:0:0:0:
320,192,25731,1,0,0:0:0:0:
64,192,25768,128,0,25881:0:0:0:0:
448,192,25931,128,0,26031:0:0:0:0:
320,192,25931,128,0,26006:0:0:0:0:
64,192,26031,128,0,26331:0:0:0:0:
192,192,26031,1,0,0:0:0:0:
320,192,26068,128,0,26231:0:0:0:0:
448,192,26231,1,0,0:0:0:0:
320,192,26331,128,0,26381:0:0:0:0:
448,192,26356,128,0,26431:0:0:0:0:
192,192,26531,1,0,0:0:0:0:
448,192,26593,1,0,0:0:0:0:
192,192,26631,1,0,0:0:0:0:
64,192,26656,1,0,0:0:0:0:
320,192,26831,1,0,0:0:0:0:
192,192,26931,128,0,27031:0:0:0:0:
320,192,26931,128,0,27031:0:0:0:0:
320,192,27106,128,0,27306:0:0:0:0:
448,192,27131,128,0,27281:0:0:0:0:
64,192,27131,1,0,0:0:0:0:
64,192,27231,1,0,0:0:0:0:
192,192,27231,128,0,27331:0:0:0:0:
448,192,27431,128,0,27481:0:0:0:0:
64,192,27531,1,0,0:0:0:0:
448,192,27531,1,0,0:0:0:0:
320,192,27556,1,0,0:0:0:0:
448,192,27731,128,0,27781:0:0:0:0:
192,192,27731,1,0,0:0:0:0:
320,192,27831,1,0,0:0:0:0:
448,192,27856,1,0,0:0:0:0:
192,192,28006,128,0,28056:0:0:0:0:
320,192,28031,1,0,0:0:0:0:
64,192,28056,1,0,0:0:0:0:
320,192,28131,1,0,0:0:0:0:
448,192,28131,128,0,28181:0:0:0:0:
192,192,28318,128,0,28393:0:0:0:0:
320,192,28343,128,0,28393:0:0:0:0:
448,192,28381,1,0,0:0:0:0:
192,192,28431,1,0,0:0:0:0:
192,192,28631,1,0,0:0:0:0:
192,192,28731,128,0,28806:0:0:0:0:
320,192,28731,1,0,0:0:0:0:
64,192,28756,128,0,28806:0:0:0:0:
448,192,28756,128,0,28831:0:0:0:0:
320,192,28931,1,0,0:0:0:0:
448,192,28993,1,0,0:0:0:0:
192,192,29031,1,0,0:0:0:0:
64,192,29056,1,0,0:0:0:0:
64,192,29231,128,0,29281:0:0:0:0:
448,192,29231,1,0,0:0:0:0:
320,192,29231,128,0,29268:0:0:0:0:
448,192,29331,128,0,29431:0:0:0:0:
64,192,29531,128,0,29631:0:0:0:0:
320,192,29531,128,0,29606:0:0:0:0:
448,192,29531,128,0,29581:0:0:0:0:
192,192,29631,1,0,0:0:0:0:
448,192,29631,128,0,29731:0:0:0:0:
64,192,29831,128,0,29881:0:0:0:0:
64,192,29931,128,0,30081:0:0:0:0:
448,192,29931,128,0,30031:0:0:0:0:
320,192,29931,128,0,30043:0:0:0:0:
320,192,30131,1,0,0:0:0:0:
448,192,30131,128,0,30331:0:0:0:0:
64,192,30218,128,0,30268:0:0:0:0:
192,192,30243,1,0,0:0:0:0:
192,192,30381,1,0,0:0:0:0:
64,192,30431,128,0,30481:0:0:0:0:
320,192,30431,128,0,30656:0:0:0:0:
448,192,30431,128,0,30606:0:0:0:0:
64,192,30531,128,0,30681:0:0:0:0:
192,192,30656,128,0,30706:0:0:0:0:
448,192,30706,1,0,0:0:0:0:
320,192,30731,1,0,0:0:0:0:
64,192,30831,128,0,31031:0:0:0:0:
192,192,30831,1,0,0:0:0:0:
320,192,30868,128,0,30918:0:0:0:0:
448,192,30906,128,0,30968:0:0:0:0:
320,192,31006,128,0,31081:0:0:0:0:
448,192,31031,128,0,31231:0:0:0:0:
64,192,31131,1,0,0:0:0:0:
192,192,31156,1,0,0:0:0:0:
192,192,31331,1,0,0:0:0:0:
448,192,31393,1,0,0:0:0:0:
192,192,31431,1,0,0:0:0:0:
64,192,31456,128,0,31631:0:0:0:0:
320,192,31631,1,0,0:0:0:0:
320,192,31731,128,0,31931:0:0:0:0:
64,192,31756,128,0,32031:0:0:0:0:
192,192,31781,128,0,31881:0:0:0:0:
448,192,31906,128,0,31968:0:0:0:0:
448,192,32031,128,0,32256:0:0:0:0:
64,192,32231,1,0,0:0:0:0:
320,192,32231,128,0,32331:0:0:0:0:
192,192,32331,128,0,32381:0:0:0:0:
64,192,32356,1,0,0:0:0:0:
320,192,32531,1,0,0:0:0:0:
64,192,32631,128,0,32731:0:0:0:0:
320,192,32631,128,0,32756:0:0:0:0:
448,192,32656,128,0,32831:0:0:0:0:
320,192,32831,1,0,0:0:0:0:
64,192,32831,128,0,33056:0:0:0:0:
448,192,32931,128,0,33056:0:0:0:0:
64,192,33131,128,0,33206:0:0:0:0:
448,192,33131,128,0,33256:0:0:0:0:
320,192,33431,1,0,0:0:0:0:
448,192,33431,128,0,33506:0:0:0:0:
64,192,33531,1,0,0:0:0:0:
320,192,33531,128,0,33731:0:0:0:0:
192,192,33556,128,0,33781:0:0:0:0:
448,192,33581,128,0,33681:0:0:0:0:
64,192,33793,1,0,0:0:0:0:
192,192,33831,128,0,34031:0:0:0:0:
448,192,33856,128,0,33956:0:0:0:0:
448,192,34031,128,0,34081:0:0:0:0:
320,192,34131,1,0,0:0:0:0:
192,192,34131,128,0,34206:0:0:0:0:
448,192,34156,128,0,34256:0:0:0:0:
64,192,34331,1,0,0:0:0:0:
192,192,34331,1,0,0:0:0:0:
64,192,34431,128,0,34531:0:0:0:0:
448,192,34431,128,0,34531:0:0:0:0:
192,192,34456,128,0,34631:0:0:0:0:
320,192,34456,128,0,34556:0:0:0:0:
64,192,34631,1,0,0:0:0:0:
192,192,34693,1,0,0:0:0:0:
320,192,34731,128,0,34831:0:0:0:0:
448,192,34756,1,0,0:0:0:0:
320,192,34931,1,0,0:0:0:0:
64,192,34993,1,0,0:0:0:0:
448,192,34993,1,0,0:0:0:0:
192,192,35031,1,0,0:0:0:0:
320,192,35056,1,0,0:0:0:0:
448,192,35131,1,0,0:0:0:0:
192,192,35218,1,0,0:0:0:0:
448,192,35243,1,0,0:0:0:0:
64,192,35331,128,0,35556:0:0:0:0:
192,192,35331,128,0,35406:0:0:0:0:
320,192,35531,1,0,0:0:0:0:
448,192,35556,128,0,35631:0:0:0:0:
64,192,35631,128,0,35831:0:0:0:0:
192,192,35631,1,0,0:0:0:0:
320,192,35631,128,0,35731:0:0:0:0:
192,192,35831,1,0,0:0:0:0:
64,192,35931,128,0,36056:0:0:0:0:
448,192,35931,1,0,0:0:0:0:
320,192,35956,128,0,36193:0:0:0:0:
192,192,36131,1,0,0:0:0:0:
448,192,36193,1,0,0:0:0:0:
192,192,36231,1,0,0:0:0:0:
64,192,36256,128,0,36331:0:0:0:0:
320,192,36431,1,0,0:0:0:0:
64,192,36531,128,0,36631:0:0:0:0:
320,192,36531,128,0,36631:0:0:0:0:
192,192,36706,1,0,0:0:0:0:
320,192,36731,128,0,36931:0:0:0:0:
448,192,36756,128,0,36906:0:0:0:0:
64,192,36831,128,0,37081:0:0:0:0:
448,192,37031,128,0,37081:0:0:0:0:
64,192,37131,128,0,37318:0:0:0:0:
448,192,37131,1,0,0:0:0:0:
320,192,37156,128,0,37331:0:0:0:0:
448,192,37331,128,0,37381:0:0:0:0:
64,192,37393,1,0,0:0:0:0:
192,192,37431,1,0,0:0:0:0:
448,192,37456,1,0,0:0:0:0:
320,192,37606,128,0,37656:0:0:0:0:
192,192,37631,1,0,0:0:0:0:
448,192,37656,128,0,37731:0:0:0:0:
64,192,37731,128,0,37781:0:0:0:0:
320,192,37731,128,0,37856:0:0:0:0:
192,192,37918,128,0,37993:0:0:0:0:
320,192,37943,128,0,37993:0:0:0:0:
448,192,37981,1,0,0:0:0:0:
192,192,38031,128,0,38181:0:0:0:0:
320,192,38231,1,0,0:0:0:0:
192,192,38331,128,0,38431:0:0:0:0:
320,192,38331,1,0,0:0:0:0:
64,192,38356,128,0,38406:0:0:0:0:
448,192,38356,128,0,38481:0:0:0:0:
448,192,38531,1,0,0:0:0:0:
320,192,38593,128,0,38743:0:0:0:0:
192,192,38631,1,0,0:0:0:0:
64,192,38656,1,0,0:0:0:0:
64,192,38831,128,0,38931:0:0:0:0:
192,192,38831,1,0,0:0:0:0:
320,192,38831,128,0,38981:0:0:0:0:
448,192,38931,128,0,39081:0:0:0:0:
192,192,39131,1,0,0:0:0:0:
64,192,39156,128,0,39231:0:0:0:0:
448,192,39231,128,0,39306:0:0:0:0:
320,192,39256,128,0,39381:0:0:0:0:
192,192,39306,128,0,39406:0:0:0:0:
320,192,39431,1,0,0:0:0:0:
192,192,39493,1,0,0:0:0:0:
64,192,39531,128,0,39681:0:0:0:0:
448,192,39606,1,0,0:0:0:0:
320,192,39631,1,0,0:0:0:0:
192,192,39681,1,0,0:0:0:0:
448,192,39731,128,0,39806:0:0:0:0:
320,192,39756,128,0,39856:0:0:0:0:
64,192,39768,1,0,0:0:0:0:
64,192,39881,1,0,0:0:0:0:
192,192,39918,1,0,0:0:0:0:
320,192,39968,1,0,0:0:0:0:
448,192,40031,1,0,0:0:0:0:
192,192,40093,1,0,0:0:0:0:
448,192,40131,1,0,0:0:0:0:
64,192,40131,1,0,0:0:0:0:
320,192,40181,1,0,0:0:0:0:
192,192,40231,1,0,0:0:0:0:
320,192,40281,1,0,0:0:0:0:
64,192,40331,1,0,0:0:0:0:
64,192,40431,128,0,40581:0:0:0:0:
320,192,40431,1,0,0:0:0:0:
448,192,40431,1,0,0:0:0:0:
192,192,40531,128,0,40606:0:0:0:0:
448,192,40531,128,0,40931:0:0:0:0:
192,192,40681,128,0,40806:0:0:0:0:
64,192,40731,1,0,0:0:0:0:
320,192,40768,128,0,40856:0:0:0:0:
320,192,40906,128,0,40981:0:0:0:0:
64,192,41031,128,0,41231:0:0:0:0:
320,192,41031,128,0,41256:0:0:0:0:
448,192,41256,1,0,0:0:0:0:
320,192,41306,1,0,0:0:0:0:
64,192,41331,128,0,41381:0:0:0:0:
64,192,41431,128,0,41931:0:0:0:0:
320,192,41506,1,0,0:0:0:0:
448,192,41531,128,0,41881:0:0:0:0:
448,192,41931,128,0,42006:0:0:0:0:
320,192,42006,128,0,42081:0:0:0:0:
64,192,42081,1,0,0:0:0:0:
448,192,42081,128,0,42156:0:0:0:0:
320,192,42131,1,0,0:0:0:0:
64,192,42181,1,0,0:0:0:0:
192,192,42231,128,0,42306:0:0:0:0:
320,192,42281,128,0,42331:0:0:0:0:
192,192,42368,128,0,42431:0:0:0:0:
320,192,42393,128,0,42456:0:0:0:0:
192,192,42506,128,0,42556:0:0:0:0:
320,192,42506,128,0,42581:0:0:0:0:
320,192,42643,128,0,42831:0:0:0:0:
448,192,42831,128,0,42906:0:0:0:0:
320,192,42906,128,0,42981:0:0:0:0:
64,192,42981,128,0,43056:0:0:0:0:
192,192,43006,1,0,0:0:0:0:
320,192,43056,1,0,0:0:0:0:
64,192,43131,128,0,43181:0:0:0:0:
192,192,43131,128,0,44031:0:0:0:0:
448,192,43131,128,0,43206:0:0:0:0:
448,192,43731,128,0,43831:0:0:0:0:
64,192,43806,128,0,43881:0:0:0:0:
320,192,43881,128,0,43981:0:0:0:0:
64,192,43956,128,0,44031:0:0:0:0:
320,192,44031,128,0,44306:0:0:0:0:
64,192,44081,128,0,44381:0:0:0:0:
192,192,44306,128,0,44406:0:0:0:0:
320,192,44356,128,0,44431:0:0:0:0:
448,192,44381,128,0,44581:0:0:0:0:
448,192,44631,128,0,44731:0:0:0:0:
448,192,44781,128,0,44831:0:0:0:0:
448,192,44881,128,0,44931:0:0:0:0:
320,192,44931,1,0,0:0:0:0:
64,192,44981,1,0,0:0:0:0:
192,192,45031,1,0,0:0:0:0:
320,192,45081,1,0,0:0:0:0:
192,192,45118,1,0,0:0:0:0:
320,192,45156,1,0,0:0:0:0:
448,192,45193,1,0,0:0:0:0:
64,192,45231,128,0,45793:0:0:0:0:
64,192,45831,128,0,45943:0:0:0:0:
64,192,45981,128,0,46243:0:0:0:0:
64,192,46293,128,0,46518:0:0:0:0:
448,192,46556,1,0,0:0:0:0:
64,192,46593,128,0,46668:0:0:0:0:
192,192,46631,128,0,46693:0:0:0:0:
320,192,46681,1,0,0:0:0:0:
448,192,46806,1,0,0:0:0:0:
192,192,46931,128,0,46981:0:0:0:0:
320,192,46931,1,0,0:0:0:0:
320,192,47056,1,0,0:0:0:0:
448,192,47181,1,0,0:0:0:0:
448,192,47306,1,0,0:0:0:0:
64,192,47331,128,0,47381:0:0:0:0:
320,192,47431,1,0,0:0:0:0:
64,192,47531,128,0,47581:0:0:0:0:
320,192,47531,1,0,0:0:0:0:
448,192,47631,1,0,0:0:0:0:
448,192,47731,1,0,0:0:0:0:
320,192,47831,1,0,0:0:0:0:
64,192,47931,128,0,48006:0:0:0:0:
320,192,47931,1,0,0:0:0:0:
448,192,48031,1,0,0:0:0:0:
448,192,48131,1,0,0:0:0:0:
320,192,48231,1,0,0:0:0:0:
192,192,48281,1,0,0:0:0:0:
192,192,48362,1,0,0:0:0:0:
320,192,48456,1,0,0:0:0:0:
448,192,48481,1,0,0:0:0:0:
448,192,48568,1,0,0:0:0:0:
320,192,48656,1,0,0:0:0:0:
64,192,48681,1,0,0:0:0:0:
64,192,48771,1,0,0:0:0:0:
192,192,48806,128,0,48881:0:0:0:0:
448,192,48831,1,0,0:0:0:0:
448,192,48916,1,0,0:0:0:0:
320,192,49006,128,0,49081:0:0:0:0:
64,192,49031,1,0,0:0:0:0:
64,192,49106,1,0,0:0:0:0:
192,192,49206,128,0,49281:0:0:0:0:
320,192,49231,1,0,0:0:0:0:
448,192,49231,1,0,0:0:0:0:
448,192,49306,1,0,0:0:0:0:
320,192,49406,128,0,49481:0:0:0:0:
64,192,49431,1,0,0:0:0:0:
192,192,49431,1,0,0:0:0:0:
64,192,49506,1,0,0:0:0:0:
192,192,49606,128,0,49681:0:0:0:0:
320,192,49631,1,0,0:0:0:0:
448,192,49631,1,0,0:0:0:0:
448,192,49706,1,0,0:0:0:0:
64,192,49806,128,0,49862:0:0:0:0:
192,192,49831,1,0,0:0:0:0:
320,192,49856,1,0,0:0:0:0:
64,192,49906,1,0,0:0:0:0:
64,192,50031,128,0,50181:0:0:0:0:
320,192,50031,1,0,0:0:0:0:
448,192,50031,1,0,0:0:0:0:
192,192,50131,128,0,50206:0:0:0:0:
448,192,50131,128,0,50531:0:0:0:0:
192,192,50281,128,0,50406:0:0:0:0:
64,192,50331,1,0,0:0:0:0:
320,192,50368,128,0,50456:0:0:0:0:
320,192,50506,128,0,50581:0:0:0:0:
192,192,50631,128,0,50856:0:0:0:0:
320,192,50631,128,0,50831:0:0:0:0:
448,192,50856,1,0,0:0:0:0:
320,192,50906,1,0,0:0:0:0:
192,192,50931,128,0,50987:0:0:0:0:
64,192,51031,128,0,51531:0:0:0:0:
192,192,51031,128,0,51156:0:0:0:0:
192,192,51231,1,0,0:0:0:0:
448,192,51231,1,0,0:0:0:0:
448,192,51531,128,0,51606:0:0:0:0:
320,192,51606,128,0,51681:0:0:0:0:
192,192,51681,1,0,0:0:0:0:
64,192,51706,128,0,51806:0:0:0:0:
320,192,51831,128,0,51931:0:0:0:0:
192,192,51831,1,0,0:0:0:0:
64,192,51893,128,0,51968:0:0:0:0:
320,192,51968,128,0,52068:0:0:0:0:
64,192,52018,128,0,52093:0:0:0:0:
320,192,52106,128,0,52206:0:0:0:0:
64,192,52143,128,0,52218:0:0:0:0:
320,192,52243,128,0,52431:0:0:0:0:
192,192,52431,1,0,0:0:0:0:
448,192,52431,128,0,52506:0:0:0:0:
320,192,52506,128,0,52581:0:0:0:0:
64,192,52581,128,0,52681:0:0:0:0:
64,192,52731,128,0,53331:0:0:0:0:
320,192,52731,128,0,52806:0:0:0:0:
192,192,52731,128,0,52781:0:0:0:0:
192,192,53031,1,0,0:0:0:0:
448,192,53031,1,0,0:0:0:0:
448,192,53331,128,0,53431:0:0:0:0:
64,192,53406,128,0,53481:0:0:0:0:
320,192,53481,128,0,53581:0:0:0:0:
64,192,53556,128,0,53631:0:0:0:0:
192,192,53631,1,0,0:0:0:0:
448,192,53631,128,0,53781:0:0:0:0:
64,192,53681,128,0,53956:0:0:0:0:
448,192,53831,128,0,53931:0:0:0:0:
192,192,53881,128,0,54006:0:0:0:0:
320,192,53931,128,0,54031:0:0:0:0:
448,192,53981,128,0,54181:0:0:0:0:
192,192,54231,1,0,0:0:0:0:
448,192,54231,1,0,0:0:0:0:
320,192,54256,128,0,54331:0:0:0:0:
320,192,54381,128,0,54431:0:0:0:0:
320,192,54481,1,0,0:0:0:0:
192,192,54531,1,0,0:0:0:0:
64,192,54581,1,0,0:0:0:0:
192,192,54631,1,0,0:0:0:0:
448,192,54664,1,0,0:0:0:0:
192,192,54718,1,0,0:0:0:0:
448,192,54771,128,0,55011:0:0:0:0:
64,192,54831,128,0,55081:0:0:0:0:
320,192,54831,128,0,55081:0:0:0:0:
64,192,55131,128,0,55306:0:0:0:0:
320,192,55131,128,0,55381:0:0:0:0:
64,192,55431,128,0,55531:0:0:0:0:
320,192,55431,128,0,55631:0:0:0:0:
64,192,55731,1,0,0:0:0:0:
320,192,55731,128,0,55881:0:0:0:0:
64,192,56031,1,0,0:0:0:0:
320,192,56031,128,0,56131:0:0:0:0:
64,192,56331,1,0,0:0:0:0:
320,192,56331,128,0,56431:0:0:0:0:
64,192,56631,1,0,0:0:0:0:
320,192,56631,128,0,56731:0:0:0:0:
64,192,56931,1,0,0:0:0:0:
320,192,56931,128,0,57031:0:0:0:0:
64,192,57231,1,0,0:0:0:0:
320,192,57231,128,0,57331:0:0:0:0:
64,192,57331,1,0,0:0:0:0:
192,192,57431,128,0,57481:0:0:0:0:
448,192,57531,1,0,0:0:0:0:
192,192,57531,128,0,57631:0:0:0:0:
448,192,57631,1,0,0:0:0:0:
320,192,57731,128,0,57781:0:0:0:0:
64,192,57831,1,0,0:0:0:0:
320,192,57831,128,0,57931:0:0:0:0:
64,192,57931,1,0,0:0:0:0:
192,192,58031,128,0,58081:0:0:0:0:
192,192,58131,128,0,58231:0:0:0:0:
448,192,58131,1,0,0:0:0:0:
448,192,58231,1,0,0:0:0:0:
320,192,58331,128,0,58381:0:0:0:0:
64,192,58431,1,0,0:0:0:0:
320,192,58431,128,0,58531:0:0:0:0:
64,192,58531,128,0,58581:0:0:0:0:
192,192,58631,1,0,0:0:0:0:
320,192,58631,128,0,58731:0:0:0:0:
64,192,58731,1,0,0:0:0:0:
448,192,58731,128,0,58781:0:0:0:0:
448,192,58831,1,0,0:0:0:0:
320,192,58931,1,0,0:0:0:0:
192,192,58931,128,0,58981:0:0:0:0:
64,192,59031,128,0,59256:0:0:0:0:
192,192,59031,1,0,0:0:0:0:
448,192,59031,128,0,59256:0:0:0:0:
320,192,59206,128,0,59318:0:0:0:0:
192,192,59281,128,0,59356:0:0:0:0:
64,192,59331,128,0,59381:0:0:0:0:
192,192,59406,1,0,0:0:0:0:
320,192,59431,1,0,0:0:0:0:
448,192,59481,1,0,0:0:0:0:
448,192,59556,1,0,0:0:0:0:
64,192,59631,1,0,0:0:0:0:
192,192,59631,128,0,59806:0:0:0:0:
320,192,59706,128,0,59831:0:0:0:0:
64,192,59706,128,0,59781:0:0:0:0:
448,192,59731,128,0,59831:0:0:0:0:
192,192,59856,1,0,0:0:0:0:
448,192,59881,128,0,59956:0:0:0:0:
320,192,59906,128,0,60006:0:0:0:0:
192,192,59943,128,0,60031:0:0:0:0:
64,192,59997,128,0,60047:0:0:0:0:
192,192,60131,1,0,0:0:0:0:
64,192,60131,1,0,0:0:0:0:
64,192,60231,1,0,0:0:0:0:
320,192,60231,1,0,0:0:0:0:
448,192,60256,128,0,60356:0:0:0:0:
192,192,60456,128,0,60531:0:0:0:0:
64,192,60531,128,0,60806:0:0:0:0:
320,192,60531,1,0,0:0:0:0:
448,192,60531,1,0,0:0:0:0:
192,192,60606,128,0,60756:0:0:0:0:
320,192,60631,128,0,60731:0:0:0:0:
320,192,60781,1,0,0:0:0:0:
192,192,60831,128,0,60906:0:0:0:0:
64,192,60856,128,0,60981:0:0:0:0:
320,192,60906,128,0,61081:0:0:0:0:
448,192,60931,128,0,61156:0:0:0:0:
320,192,61131,128,0,61356:0:0:0:0:
192,192,61168,128,0,61231:0:0:0:0:
64,192,61181,128,0,61281:0:0:0:0:
448,192,61206,128,0,61431:0:0:0:0:
64,192,61431,128,0,61506:0:0:0:0:
192,192,61431,1,0,0:0:0:0:
448,192,61481,128,0,61681:0:0:0:0:
320,192,61506,1,0,0:0:0:0:
64,192,61556,1,0,0:0:0:0:
192,192,61606,1,0,0:0:0:0:
448,192,61731,128,0,62006:0:0:0:0:
64,192,61756,1,0,0:0:0:0:
320,192,61756,128,0,61956:0:0:0:0:
192,192,61806,1,0,0:0:0:0:
192,192,61931,1,0,0:0:0:0:
64,192,61993,1,0,0:0:0:0:
320,192,62031,1,0,0:0:0:0:
448,192,62056,1,0,0:0:0:0:
64,192,62531,1,0,0:0:0:0:
192,192,62531,1,0,0:0:0:0:
64,192,62631,1,0,0:0:0:0:
320,192,62631,1,0,0:0:0:0:
448,192,62656,128,0,62756:0:0:0:0:
64,192,62931,1,0,0:0:0:0:
320,192,62931,128,0,63281:0:0:0:0:
448,192,62931,1,0,0:0:0:0:
448,192,63031,128,0,63231:0:0:0:0:
64,192,63106,1,0,0:0:0:0:
192,192,63168,1,0,0:0:0:0:
64,192,63231,1,0,0:0:0:0:
448,192,63281,1,0,0:0:0:0:
320,192,63331,1,0,0:0:0:0:
192,192,63431,1,0,0:0:0:0:
192,192,63531,128,0,63581:0:0:0:0:
320,192,63531,128,0,63606:0:0:0:0:
448,192,63531,1,0,0:0:0:0:
64,192,63556,128,0,63681:0:0:0:0:
448,192,63606,1,0,0:0:0:0:
320,192,63656,128,0,63756:0:0:0:0:
448,192,63718,128,0,63781:0:0:0:0:
64,192,63831,1,0,0:0:0:0:
320,192,63831,1,0,0:0:0:0:
448,192,63856,128,0,63956:0:0:0:0:
64,192,63956,128,0,64081:0:0:0:0:
192,192,64031,128,0,64106:0:0:0:0:
320,192,64081,128,0,64156:0:0:0:0:
448,192,64106,128,0,64181:0:0:0:0:
64,192,64131,128,0,64281:0:0:0:0:
448,192,64231,1,0,0:0:0:0:
192,192,64281,1,0,0:0:0:0:
320,192,64331,1,0,0:0:0:0:
448,192,64381,1,0,0:0:0:0:
64,192,64431,1,0,0:0:0:0:
192,192,64431,128,0,64768:0:0:0:0:
448,192,64506,128,0,64631:0:0:0:0:
64,192,64531,128,0,64831:0:0:0:0:
320,192,64631,1,0,0:0:0:0:
448,192,64706,1,0,0:0:0:0:
320,192,64768,1,0,0:0:0:0:
192,192,64831,1,0,0:0:0:0:
64,192,64881,1,0,0:0:0:0:
320,192,64931,1,0,0:0:0:0:
64,192,65031,1,0,0:0:0:0:
320,192,65031,1,0,0:0:0:0:
448,192,65056,128,0,65156:0:0:0:0:
448,192,65231,1,0,0:0:0:0:
192,192,65331,1,0,0:0:0:0:
320,192,65406,1,0,0:0:0:0:
192,192,65481,1,0,0:0:0:0:
320,192,65531,1,0,0:0:0:0:
448,192,65581,1,0,0:0:0:0:
64,192,65631,128,0,65756:0:0:0:0:
192,192,65631,1,0,0:0:0:0:
448,192,65668,128,0,65831:0:0:0:0:
64,192,65806,1,0,0:0:0:0:
320,192,65831,1,0,0:0:0:0:
64,192,65931,128,0,65981:0:0:0:0:
320,192,65931,128,0,65981:0:0:0:0:
448,192,66131,128,0,66206:0:0:0:0:
192,192,66181,1,0,0:0:0:0:
64,192,66206,1,0,0:0:0:0:
320,192,66231,1,0,0:0:0:0:
448,192,66256,128,0,66356:0:0:0:0:
64,192,66431,128,0,66481:0:0:0:0:
320,192,66431,128,0,66481:0:0:0:0:
64,192,66531,1,0,0:0:0:0:
320,192,66531,128,0,66681:0:0:0:0:
448,192,66556,128,0,66731:0:0:0:0:
192,192,66681,1,0,0:0:0:0:
64,192,66731,1,0,0:0:0:0:
448,192,66781,128,0,66856:0:0:0:0:
64,192,66831,128,0,66881:0:0:0:0:
320,192,66831,128,0,66881:0:0:0:0:
64,192,67431,1,0,0:0:0:0:
320,192,67431,1,0,0:0:0:0:
448,192,67456,128,0,67556:0:0:0:0:
192,192,67631,128,0,67681:0:0:0:0:
448,192,67631,128,0,67681:0:0:0:0:
192,192,67731,128,0,67781:0:0:0:0:
320,192,67756,128,0,67793:0:0:0:0:
448,192,67831,128,0,67931:0:0:0:0:
192,192,67906,128,0,67956:0:0:0:0:
64,192,67931,128,0,67981:0:0:0:0:
64,192,68031,1,0,0:0:0:0:
320,192,68056,1,0,0:0:0:0:
320,192,68231,1,0,0:0:0:0:
64,192,68331,128,0,68381:0:0:0:0:
192,192,68331,128,0,68406:0:0:0:0:
320,192,68331,128,0,68381:0:0:0:0:
64,192,68431,1,0,0:0:0:0:
448,192,68531,128,0,68581:0:0:0:0:
320,192,68531,1,0,0:0:0:0:
192,192,68631,1,0,0:0:0:0:
448,192,68631,1,0,0:0:0:0:
64,192,68656,128,0,68781:0:0:0:0:
320,192,68731,128,0,68881:0:0:0:0:
64,192,68831,128,0,69006:0:0:0:0:
192,192,68831,1,0,0:0:0:0:
448,192,68831,128,0,68931:0:0:0:0:
320,192,68931,128,0,69131:0:0:0:0:
448,192,69006,128,0,69106:0:0:0:0:
64,192,69056,1,0,0:0:0:0:
192,192,69081,1,0,0:0:0:0:
448,192,69156,1,0,0:0:0:0:
320,192,69181,1,0,0:0:0:0:
64,192,69231,1,0,0:0:0:0:
192,192,69231,128,0,69381:0:0:0:0:
320,192,69306,128,0,69431:0:0:0:0:
64,192,69331,128,0,69406:0:0:0:0:
448,192,69331,128,0,69431:0:0:0:0:
448,192,69481,128,0,69547:0:0:0:0:
192,192,69506,1,0,0:0:0:0:
320,192,69531,128,0,69606:0:0:0:0:
192,192,69581,128,0,69647:0:0:0:0:
64,192,69631,128,0,69681:0:0:0:0:
64,192,69731,1,0,0:0:0:0:
192,192,69731,1,0,0:0:0:0:
64,192,69831,1,0,0:0:0:0:
320,192,69831,1,0,0:0:0:0:
448,192,69856,128,0,69956:0:0:0:0:
448,192,70131,128,0,70281:0:0:0:0:
192,192,70131,1,0,0:0:0:0:
64,192,70131,128,0,70331:0:0:0:0:
192,192,70231,128,0,70356:0:0:0:0:
448,192,70331,1,0,0:0:0:0:
320,192,70381,1,0,0:0:0:0:
64,192,70406,1,0,0:0:0:0:
192,192,70431,128,0,70506:0:0:0:0:
320,192,70481,128,0,70681:0:0:0:0:
448,192,70506,128,0,70631:0:0:0:0:
192,192,70581,1,0,0:0:0:0:
64,192,70631,1,0,0:0:0:0:
64,192,70731,128,0,70787:0:0:0:0:
192,192,70731,128,0,70824:0:0:0:0:
320,192,70756,1,0,0:0:0:0:
192,192,70881,128,0,70956:0:0:0:0:
448,192,70906,128,0,70981:0:0:0:0:
320,192,70956,1,0,0:0:0:0:
64,192,71031,128,0,71162:0:0:0:0:
192,192,71031,1,0,0:0:0:0:
448,192,71056,128,0,71131:0:0:0:0:
320,192,71164,1,0,0:0:0:0:
64,192,71206,1,0,0:0:0:0:
192,192,71264,128,0,71397:0:0:0:0:
320,192,71312,128,0,71368:0:0:0:0:
448,192,71356,1,0,0:0:0:0:
320,192,71424,1,0,0:0:0:0:
192,192,71464,1,0,0:0:0:0:
64,192,71493,1,0,0:0:0:0:
192,192,71631,1,0,0:0:0:0:
448,192,71631,128,0,71806:0:0:0:0:
64,192,72131,1,0,0:0:0:0:
192,192,72131,1,0,0:0:0:0:
64,192,72231,1,0,0:0:0:0:
320,192,72231,1,0,0:0:0:0:
448,192,72256,128,0,72356:0:0:0:0:
64,192,72531,1,0,0:0:0:0:
448,192,72531,1,0,0:0:0:0:
320,192,72531,128,0,72881:0:0:0:0:
448,192,72631,128,0,72831:0:0:0:0:
64,192,72706,1,0,0:0:0:0:
192,192,72768,1,0,0:0:0:0:
64,192,72831,1,0,0:0:0:0:
448,192,72881,1,0,0:0:0:0:
320,192,72931,1,0,0:0:0:0:
192,192,73031,1,0,0:0:0:0:
320,192,73131,128,0,73206:0:0:0:0:
448,192,73131,1,0,0:0:0:0:
192,192,73131,128,0,73181:0:0:0:0:
64,192,73156,128,0,73281:0:0:0:0:
448,192,73206,1,0,0:0:0:0:
320,192,73256,128,0,73356:0:0:0:0:
448,192,73318,128,0,73381:0:0:0:0:
64,192,73431,1,0,0:0:0:0:
320,192,73431,1,0,0:0:0:0:
448,192,73456,128,0,73556:0:0:0:0:
192,192,73506,128,0,73606:0:0:0:0:
320,192,73556,128,0,73631:0:0:0:0:
64,192,73631,128,0,73706:0:0:0:0:
448,192,73656,128,0,73731:0:0:0:0:
192,192,73656,128,0,73981:0:0:0:0:
320,192,73681,128,0,73881:0:0:0:0:
320,192,73931,128,0,74031:0:0:0:0:
64,192,74031,1,0,0:0:0:0:
192,192,74031,128,0,74368:0:0:0:0:
448,192,74106,128,0,74231:0:0:0:0:
64,192,74131,128,0,74431:0:0:0:0:
320,192,74231,1,0,0:0:0:0:
448,192,74306,1,0,0:0:0:0:
320,192,74368,1,0,0:0:0:0:
192,192,74431,1,0,0:0:0:0:
64,192,74481,1,0,0:0:0:0:
320,192,74531,1,0,0:0:0:0:
64,192,74631,1,0,0:0:0:0:
320,192,74631,1,0,0:0:0:0:
448,192,74656,128,0,74756:0:0:0:0:
448,192,74856,1,0,0:0:0:0:
320,192,74931,1,0,0:0:0:0:
192,192,74981,1,0,0:0:0:0:
448,192,75031,1,0,0:0:0:0:
320,192,75081,1,0,0:0:0:0:
192,192,75131,1,0,0:0:0:0:
320,192,75156,1,0,0:0:0:0:
448,192,75206,128,0,75281:0:0:0:0:
64,192,75231,128,0,75331:0:0:0:0:
192,192,75231,128,0,75281:0:0:0:0:
64,192,75406,1,0,0:0:0:0:
192,192,75431,1,0,0:0:0:0:
192,192,75531,1,0,0:0:0:0:
448,192,75556,128,0,75631:0:0:0:0:
320,192,75581,128,0,75706:0:0:0:0:
64,192,75731,1,0,0:0:0:0:
64,192,75831,1,0,0:0:0:0:
320,192,75831,1,0,0:0:0:0:
448,192,75856,128,0,75956:0:0:0:0:
192,192,76006,128,0,76056:0:0:0:0:
448,192,76031,1,0,0:0:0:0:
320,192,76131,128,0,76181:0:0:0:0:
192,192,76149,128,0,76199:0:0:0:0:
64,192,76168,1,0,0:0:0:0:
320,192,76331,128,0,76381:0:0:0:0:
192,192,76331,128,0,76381:0:0:0:0:
448,192,76331,128,0,76418:0:0:0:0:
64,192,76331,128,0,76418:0:0:0:0:
64,192,76931,128,0,77006:0:0:0:0:
448,192,77031,1,0,0:0:0:0:
64,192,77056,1,0,0:0:0:0:
320,192,77056,128,0,77256:0:0:0:0:
192,192,77256,1,0,0:0:0:0:
64,192,77331,1,0,0:0:0:0:
192,192,77381,128,0,77456:0:0:0:0:
320,192,77431,128,0,77531:0:0:0:0:
192,192,77531,1,0,0:0:0:0:
64,192,77631,1,0,0:0:0:0:
192,192,77681,128,0,77731:0:0:0:0:
448,192,77731,128,0,77781:0:0:0:0:
192,192,77781,128,0,77831:0:0:0:0:
448,192,77831,128,0,77931:0:0:0:0:
64,192,77931,128,0,78006:0:0:0:0:
192,192,77931,128,0,78031:0:0:0:0:
320,192,77956,128,0,78031:0:0:0:0:
448,192,78006,128,0,78056:0:0:0:0:
192,192,78081,128,0,78156:0:0:0:0:
320,192,78131,128,0,78181:0:0:0:0:
64,192,78231,1,0,0:0:0:0:
320,192,78231,1,0,0:0:0:0:
448,192,78256,128,0,78356:0:0:0:0:
192,192,78318,128,0,78593:0:0:0:0:
64,192,78381,128,0,78756:0:0:0:0:
320,192,78431,128,0,78543:0:0:0:0:
448,192,78506,128,0,78706:0:0:0:0:
320,192,78593,1,0,0:0:0:0:
192,192,78656,1,0,0:0:0:0:
320,192,78706,1,0,0:0:0:0:
448,192,78756,1,0,0:0:0:0:
64,192,78831,1,0,0:0:0:0:
192,192,78831,128,0,79106:0:0:0:0:
320,192,78906,128,0,79006:0:0:0:0:
64,192,78931,128,0,79081:0:0:0:0:
448,192,78931,128,0,79031:0:0:0:0:
448,192,79081,128,0,79147:0:0:0:0:
320,192,79131,128,0,79206:0:0:0:0:
192,192,79168,128,0,79256:0:0:0:0:
64,192,79197,128,0,79297:0:0:0:0:
320,192,79281,1,0,0:0:0:0:
448,192,79331,1,0,0:0:0:0:
192,192,79406,1,0,0:0:0:0:
64,192,79431,128,0,79506:0:0:0:0:
448,192,79443,1,0,0:0:0:0:
320,192,79493,1,0,0:0:0:0:
192,192,79531,1,0,0:0:0:0:
64,192,79568,1,0,0:0:0:0:
448,192,79731,128,0,79956:0:0:0:0:
320,192,79731,1,0,0:0:0:0:
64,192,79731,128,0,79806:0:0:0:0:
320,192,79831,128,0,79931:0:0:0:0:
64,192,79868,128,0,80006:0:0:0:0:
192,192,79943,128,0,80043:0:0:0:0:
320,192,79997,128,0,80064:0:0:0:0:
448,192,80031,128,0,80081:0:0:0:0:
192,192,80131,1,0,0:0:0:0:
64,192,80156,128,0,80231:0:0:0:0:
192,192,80231,1,0,0:0:0:0:
320,192,80297,128,0,80364:0:0:0:0:
448,192,80331,128,0,80381:0:0:0:0:
192,192,80431,1,0,0:0:0:0:
64,192,80456,128,0,80531:0:0:0:0:
192,192,80531,1,0,0:0:0:0:
448,192,80631,1,0,0:0:0:0:
192,192,80631,128,0,80856:0:0:0:0:
448,192,80731,128,0,80981:0:0:0:0:
320,192,80756,1,0,0:0:0:0:
64,192,80806,128,0,80931:0:0:0:0:
320,192,80888,1,0,0:0:0:0:
192,192,80956,1,0,0:0:0:0:
64,192,81006,1,0,0:0:0:0:
448,192,81031,128,0,81156:0:0:0:0:
320,192,81093,1,0,0:0:0:0:
64,192,81131,128,0,81281:0:0:0:0:
192,192,81156,1,0,0:0:0:0:
320,192,81206,1,0,0:0:0:0:
448,192,81256,1,0,0:0:0:0:
320,192,81297,1,0,0:0:0:0:
64,192,81331,1,0,0:0:0:0:
320,192,81531,128,0,81606:0:0:0:0:
192,192,81531,128,0,81581:0:0:0:0:
64,192,81731,1,0,0:0:0:0:
192,192,81731,1,0,0:0:0:0:
64,192,81831,1,0,0:0:0:0:
320,192,81831,1,0,0:0:0:0:
448,192,81856,128,0,81956:0:0:0:0:
320,192,82031,1,0,0:0:0:0:
192,192,82131,1,0,0:0:0:0:
320,192,82131,1,0,0:0:0:0:
192,192,82331,1,0,0:0:0:0:
448,192,82331,128,0,82381:0:0:0:0:
448,192,82431,128,0,82631:0:0:0:0:
320,192,82456,128,0,82606:0:0:0:0:
64,192,82481,1,0,0:0:0:0:
192,192,82543,1,0,0:0:0:0:
64,192,82606,1,0,0:0:0:0:
320,192,82731,128,0,82906:0:0:0:0:
448,192,82731,1,0,0:0:0:0:
192,192,82781,1,0,0:0:0:0:
448,192,82831,128,0,82931:0:0:0:0:
192,192,82906,1,0,0:0:0:0:
64,192,82931,1,0,0:0:0:0:
64,192,83031,1,0,0:0:0:0:
320,192,83031,1,0,0:0:0:0:
448,192,83056,128,0,83156:0:0:0:0:
192,192,83206,128,0,83281:0:0:0:0:
320,192,83256,1,0,0:0:0:0:
448,192,83281,128,0,83356:0:0:0:0:
320,192,83331,1,0,0:0:0:0:
192,192,83356,1,0,0:0:0:0:
320,192,83531,128,0,83581:0:0:0:0:
64,192,83631,128,0,84031:0:0:0:0:
192,192,83631,1,0,0:0:0:0:
448,192,83706,128,0,83831:0:0:0:0:
192,192,83731,128,0,83968:0:0:0:0:
320,192,83831,1,0,0:0:0:0:
448,192,83906,128,0,83956:0:0:0:0:
320,192,83968,1,0,0:0:0:0:
192,192,84031,1,0,0:0:0:0:
64,192,84081,1,0,0:0:0:0:
320,192,84131,1,0,0:0:0:0:
320,192,84231,1,0,0:0:0:0:
64,192,84231,1,0,0:0:0:0:
448,192,84256,128,0,84356:0:0:0:0:
64,192,84531,128,0,84631:0:0:0:0:
448,192,84556,1,0,0:0:0:0:
320,192,84606,1,0,0:0:0:0:
64,192,84681,1,0,0:0:0:0:
320,192,84731,128,0,84781:0:0:0:0:
448,192,84781,1,0,0:0:0:0:
192,192,84831,128,0,84906:0:0:0:0:
448,192,84856,128,0,84981:0:0:0:0:
64,192,84931,1,0,0:0:0:0:
192,192,84981,1,0,0:0:0:0:
448,192,85031,1,0,0:0:0:0:
64,192,85131,128,0,85181:0:0:0:0:
320,192,85131,128,0,85181:0:0:0:0:
448,192,85331,128,0,85406:0:0:0:0:
192,192,85381,1,0,0:0:0:0:
64,192,85406,1,0,0:0:0:0:
320,192,85431,1,0,0:0:0:0:
448,192,85456,128,0,85556:0:0:0:0:
320,192,85631,128,0,85681:0:0:0:0:
64,192,85631,128,0,85681:0:0:0:0:
64,192,85731,1,0,0:0:0:0:
320,192,85731,128,0,85881:0:0:0:0:
448,192,85756,128,0,85931:0:0:0:0:
192,192,85881,1,0,0:0:0:0:
64,192,85931,1,0,0:0:0:0:
448,192,85981,128,0,86056:0:0:0:0:
64,192,86031,128,0,86081:0:0:0:0:
320,192,86031,128,0,86081:0:0:0:0:
320,192,86331,128,0,86406:0:0:0:0:
448,192,86331,128,0,86431:0:0:0:0:
64,192,86631,1,0,0:0:0:0:
320,192,86631,1,0,0:0:0:0:
448,192,86656,128,0,86756:0:0:0:0:
64,192,86831,128,0,86956:0:0:0:0:
448,192,86831,128,0,86881:0:0:0:0:
192,192,86906,1,0,0:0:0:0:
448,192,86931,128,0,87006:0:0:0:0:
320,192,86956,1,0,0:0:0:0:
192,192,87006,1,0,0:0:0:0:
64,192,87131,128,0,87181:0:0:0:0:
320,192,87131,1,0,0:0:0:0:
64,192,87231,128,0,87381:0:0:0:0:
320,192,87231,1,0,0:0:0:0:
448,192,87431,1,0,0:0:0:0:
192,192,87531,128,0,87631:0:0:0:0:
64,192,87531,128,0,87681:0:0:0:0:
448,192,87631,1,0,0:0:0:0:
320,192,87681,1,0,0:0:0:0:
64,192,87731,1,0,0:0:0:0:
320,192,87781,1,0,0:0:0:0:
192,192,87831,1,0,0:0:0:0:
448,192,87831,1,0,0:0:0:0:
64,192,87856,128,0,87956:0:0:0:0:
320,192,87931,128,0,88131:0:0:0:0:
448,192,87981,128,0,88081:0:0:0:0:
192,192,88081,128,0,88181:0:0:0:0:
64,192,88131,128,0,88206:0:0:0:0:
448,192,88156,128,0,88256:0:0:0:0:
320,192,88206,128,0,88306:0:0:0:0:
192,192,88256,128,0,88331:0:0:0:0:
448,192,88306,128,0,88381:0:0:0:0:
320,192,88356,128,0,88406:0:0:0:0:
192,192,88431,128,0,88581:0:0:0:0:
64,192,88431,1,0,0:0:0:0:
320,192,88506,128,0,88631:0:0:0:0:
64,192,88531,128,0,88981:0:0:0:0:
448,192,88531,128,0,88631:0:0:0:0:
448,192,88681,128,0,88756:0:0:0:0:
320,192,88731,128,0,88818:0:0:0:0:
192,192,88781,128,0,88881:0:0:0:0:
448,192,88831,1,0,0:0:0:0:
320,192,88881,1,0,0:0:0:0:
192,192,88931,1,0,0:0:0:0:
64,192,89031,1,0,0:0:0:0:
320,192,89031,1,0,0:0:0:0:
448,192,89056,128,0,89156:0:0:0:0:
192,192,89331,128,0,89431:0:0:0:0:
320,192,89331,128,0,89543:0:0:0:0:
448,192,89331,1,0,0:0:0:0:
448,192,89431,128,0,89656:0:0:0:0:
64,192,89456,1,0,0:0:0:0:
192,192,89518,128,0,89593:0:0:0:0:
64,192,89568,128,0,89618:0:0:0:0:
320,192,89618,128,0,89693:0:0:0:0:
192,192,89656,128,0,89731:0:0:0:0:
320,192,89731,1,0,0:0:0:0:
448,192,89756,1,0,0:0:0:0:
192,192,89881,128,0,89956:0:0:0:0:
320,192,89931,128,0,90006:0:0:0:0:
448,192,89968,128,0,90131:0:0:0:0:
192,192,90031,128,0,90106:0:0:0:0:
64,192,90056,128,0,90306:0:0:0:0:
448,192,90181,1,0,0:0:0:0:
320,192,90231,1,0,0:0:0:0:
192,192,90231,128,0,90364:0:0:0:0:
320,192,90331,128,0,90406:0:0:0:0:
64,192,90381,1,0,0:0:0:0:
448,192,90381,128,0,90431:0:0:0:0:
192,192,90431,1,0,0:0:0:0:
320,192,90481,1,0,0:0:0:0:
192,192,90531,1,0,0:0:0:0:
320,192,90631,128,0,90706:0:0:0:0:
448,192,90681,128,0,90731:0:0:0:0:
192,192,90681,1,0,0:0:0:0:
64,192,90743,1,0,0:0:0:0:
192,192,90793,1,0,0:0:0:0:
320,192,90831,1,0,0:0:0:0:
448,192,90856,1,0,0:0:0:0:
448,192,91131,128,0,91381:0:0:0:0:
192,192,91156,128,0,91281:0:0:0:0:
64,192,91331,1,0,0:0:0:0:
192,192,91331,1,0,0:0:0:0:
320,192,91431,1,0,0:0:0:0:
64,192,91431,1,0,0:0:0:0:
448,192,91456,128,0,91556:0:0:0:0:
64,192,91731,1,0,0:0:0:0:
320,192,91731,128,0,92081:0:0:0:0:
448,192,91731,1,0,0:0:0:0:
448,192,91831,128,0,92031:0:0:0:0:
64,192,91906,1,0,0:0:0:0:
192,192,91968,1,0,0:0:0:0:
64,192,92031,1,0,0:0:0:0:
448,192,92081,1,0,0:0:0:0:
320,192,92131,1,0,0:0:0:0:
192,192,92181,1,0,0:0:0:0:
320,192,92231,128,0,92556:0:0:0:0:
192,192,92281,1,0,0:0:0:0:
448,192,92281,128,0,92456:0:0:0:0:
64,192,92331,128,0,92431:0:0:0:0:
64,192,92481,128,0,92581:0:0:0:0:
64,192,92631,1,0,0:0:0:0:
320,192,92631,1,0,0:0:0:0:
448,192,92656,128,0,92756:0:0:0:0:
192,192,92706,128,0,92806:0:0:0:0:
320,192,92756,128,0,92831:0:0:0:0:
64,192,92831,128,0,92906:0:0:0:0:
192,192,92856,128,0,93181:0:0:0:0:
448,192,92856,128,0,92931:0:0:0:0:
320,192,92881,128,0,93081:0:0:0:0:
320,192,93131,128,0,93231:0:0:0:0:
64,192,93231,1,0,0:0:0:0:
192,192,93231,128,0,93568:0:0:0:0:
448,192,93306,128,0,93431:0:0:0:0:
64,192,93331,128,0,93631:0:0:0:0:
320,192,93431,1,0,0:0:0:0:
448,192,93506,1,0,0:0:0:0:
320,192,93568,1,0,0:0:0:0:
192,192,93631,1,0,0:0:0:0:
64,192,93681,1,0,0:0:0:0:
320,192,93731,1,0,0:0:0:0:
320,192,93831,1,0,0:0:0:0:
448,192,93831,128,0,93881:0:0:0:0:
64,192,93856,128,0,93906:0:0:0:0:
64,192,94131,128,0,94331:0:0:0:0:
192,192,94131,1,0,0:0:0:0:
192,192,94256,1,0,0:0:0:0:
448,192,94306,1,0,0:0:0:0:
320,192,94331,128,0,94381:0:0:0:0:
64,192,94381,1,0,0:0:0:0:
448,192,94431,128,0,94581:0:0:0:0:
64,192,94456,128,0,94556:0:0:0:0:
320,192,94518,1,0,0:0:0:0:
192,192,94568,1,0,0:0:0:0:
320,192,94606,1,0,0:0:0:0:
448,192,94631,128,0,94706:0:0:0:0:
64,192,94731,128,0,94806:0:0:0:0:
192,192,94931,128,0,95006:0:0:0:0:
448,192,95031,1,0,0:0:0:0:
192,192,95056,1,0,0:0:0:0:
64,192,95231,128,0,95281:0:0:0:0:
64,192,95331,128,0,95431:0:0:0:0:
448,192,95331,1,0,0:0:0:0:
320,192,95381,1,0,0:0:0:0:
448,192,95431,128,0,95556:0:0:0:0:
64,192,95493,1,0,0:0:0:0:
192,192,95543,1,0,0:0:0:0:
320,192,95581,1,0,0:0:0:0:
448,192,95606,1,0,0:0:0:0:
64,192,95931,128,0,96056:0:0:0:0:
320,192,95931,128,0,96031:0:0:0:0:
448,192,95956,128,0,96131:0:0:0:0:
448,192,96206,128,0,96256:0:0:0:0:
320,192,96231,1,0,0:0:0:0:
192,192,96268,1,0,0:0:0:0:
64,192,96431,128,0,96631:0:0:0:0:
192,192,96506,1,0,0:0:0:0:
320,192,96531,128,0,96681:0:0:0:0:
448,192,96568,1,0,0:0:0:0:
64,192,96706,128,0,96881:0:0:0:0:
192,192,96806,128,0,96906:0:0:0:0:
448,192,96831,128,0,96956:0:0:0:0:
448,192,97006,1,0,0:0:0:0:
192,192,97031,1,0,0:0:0:0:
64,192,97131,128,0,97281:0:0:0:0:
192,192,97131,1,0,0:0:0:0:
192,192,97256,128,0,97331:0:0:0:0:
320,192,97306,128,0,97356:0:0:0:0:
448,192,97331,1,0,0:0:0:0:
64,192,97406,128,0,97531:0:0:0:0:
320,192,97431,128,0,97556:0:0:0:0:
448,192,97449,128,0,97656:0:0:0:0:
192,192,97531,128,0,97606:0:0:0:0:
192,192,97656,128,0,97756:0:0:0:0:
64,192,97731,128,0,97781:0:0:0:0:
320,192,97731,1,0,0:0:0:0:
64,192,98031,128,0,98073:0:0:0:0:
64,192,98606,1,0,0:0:0:0:
192,192,98631,1,0,0:0:0:0:
320,192,98668,1,0,0:0:0:0:
64,192,98706,128,0,98893:0:0:0:0:
320,192,98781,128,0,98856:0:0:0:0:
448,192,98864,1,0,0:0:0:0:
320,192,98900,1,0,0:0:0:0:
192,192,98931,128,0,98993:0:0:0:0:
64,192,98949,128,0,98996:0:0:0:0:
448,192,99131,1,0,0:0:0:0:
448,192,99231,128,0,99381:0:0:0:0:
192,192,99268,128,0,99456:0:0:0:0:
448,192,99431,1,0,0:0:0:0:
64,192,99531,1,0,0:0:0:0:
192,192,99531,128,0,99581:0:0:0:0:
192,192,99631,1,0,0:0:0:0:
320,192,99681,1,0,0:0:0:0:
448,192,99718,128,0,99793:0:0:0:0:
192,192,99831,1,0,0:0:0:0:
448,192,99856,1,0,0:0:0:0:
448,192,100031,1,0,0:0:0:0:
192,192,100131,1,0,0:0:0:0:
192,192,100331,1,0,0:0:0:0:
320,192,100431,128,0,100581:0:0:0:0:
192,192,100431,1,0,0:0:0:0:
64,192,100468,128,0,100656:0:0:0:0:
320,192,100631,1,0,0:0:0:0:
320,192,100731,128,0,100856:0:0:0:0:
64,192,100731,1,0,0:0:0:0:
64,192,100831,128,0,100931:0:0:0:0:
320,192,100893,1,0,0:0:0:0:
448,192,100931,128,0,100981:0:0:0:0:
448,192,101031,1,0,0:0:0:0:
192,192,101056,1,0,0:0:0:0:
192,192,101231,1,0,0:0:0:0:
448,192,101331,128,0,101431:0:0:0:0:
192,192,101331,128,0,101556:0:0:0:0:
320,192,101531,1,0,0:0:0:0:
320,192,101631,128,0,101781:0:0:0:0:
192,192,101631,128,0,101856:0:0:0:0:
320,192,101831,1,0,0:0:0:0:
320,192,101931,128,0,102131:0:0:0:0:
192,192,101968,128,0,102043:0:0:0:0:
64,192,102006,1,0,0:0:0:0:
64,192,102131,128,0,102181:0:0:0:0:
192,192,102131,128,0,102206:0:0:0:0:
64,192,102231,1,0,0:0:0:0:
448,192,102256,1,0,0:0:0:0:
320,192,102306,1,0,0:0:0:0:
320,192,102406,1,0,0:0:0:0:
192,192,102456,1,0,0:0:0:0:
64,192,102531,1,0,0:0:0:0:
320,192,102556,1,0,0:0:0:0:
448,192,102581,128,0,102656:0:0:0:0:
64,192,102731,1,0,0:0:0:0:
64,192,102831,1,0,0:0:0:0:
320,192,102931,1,0,0:0:0:0:
448,192,102981,1,0,0:0:0:0:
64,192,103031,1,0,0:0:0:0:
192,192,103081,1,0,0:0:0:0:
448,192,103131,1,0,0:0:0:0:
192,192,103206,1,0,0:0:0:0:
448,192,103243,1,0,0:0:0:0:
64,192,103281,1,0,0:0:0:0:
320,192,103318,1,0,0:0:0:0:
192,192,103356,1,0,0:0:0:0:
64,192,103431,1,0,0:0:0:0:
320,192,103456,1,0,0:0:0:0:
192,192,103506,128,0,103656:0:0:0:0:
320,192,103602,1,0,0:0:0:0:
448,192,103645,1,0,0:0:0:0:
320,192,103681,128,0,103756:0:0:0:0:
192,192,103712,128,0,103787:0:0:0:0:
64,192,103731,128,0,103787:0:0:0:0:
320,192,103931,1,0,0:0:0:0:
192,192,104031,1,0,0:0:0:0:
64,192,104056,128,0,104256:0:0:0:0:
448,192,104081,1,0,0:0:0:0:
320,192,104131,1,0,0:0:0:0:
320,192,104231,1,0,0:0:0:0:
192,192,104331,128,0,104431:0:0:0:0:
64,192,104331,128,0,104406:0:0:0:0:
320,192,104431,1,0,0:0:0:0:
448,192,104481,1,0,0:0:0:0:
192,192,104531,1,0,0:0:0:0:
64,192,104631,1,0,0:0:0:0:
192,192,104631,128,0,104731:0:0:0:0:
320,192,104668,128,0,104743:0:0:0:0:
448,192,104681,1,0,0:0:0:0:
320,192,104831,1,0,0:0:0:0:
448,192,104931,1,0,0:0:0:0:
448,192,105131,1,0,0:0:0:0:
192,192,105231,1,0,0:0:0:0:
320,192,105231,1,0,0:0:0:0:
64,192,105256,128,0,105456:0:0:0:0:
448,192,105281,1,0,0:0:0:0:
448,192,105381,1,0,0:0:0:0:
320,192,105431,1,0,0:0:0:0:
64,192,105531,128,0,105606:0:0:0:0:
192,192,105531,128,0,105631:0:0:0:0:
448,192,105731,128,0,105806:0:0:0:0:
192,192,105731,1,0,0:0:0:0:
192,192,105831,1,0,0:0:0:0:
64,192,105831,128,0,105931:0:0:0:0:
448,192,105881,128,0,105956:0:0:0:0:
192,192,106031,1,0,0:0:0:0:
64,192,106131,1,0,0:0:0:0:
448,192,106331,1,0,0:0:0:0:
192,192,106431,1,0,0:0:0:0:
448,192,106431,1,0,0:0:0:0:
64,192,106456,128,0,106656:0:0:0:0:
320,192,106481,1,0,0:0:0:0:
320,192,106581,1,0,0:0:0:0:
192,192,106631,1,0,0:0:0:0:
192,192,106731,128,0,106856:0:0:0:0:
320,192,106781,1,0,0:0:0:0:
64,192,106806,128,0,106906:0:0:0:0:
448,192,106831,1,0,0:0:0:0:
448,192,106931,128,0,107006:0:0:0:0:
192,192,107031,1,0,0:0:0:0:
64,192,107031,128,0,107131:0:0:0:0:
448,192,107081,128,0,107156:0:0:0:0:
64,192,107231,1,0,0:0:0:0:
192,192,107331,1,0,0:0:0:0:
320,192,107531,1,0,0:0:0:0:
192,192,107631,128,0,107781:0:0:0:0:
320,192,107631,128,0,107806:0:0:0:0:
64,192,107681,128,0,107756:0:0:0:0:
448,192,107831,1,0,0:0:0:0:
64,192,107831,1,0,0:0:0:0:
64,192,108206,1,0,0:0:0:0:
192,192,108231,1,0,0:0:0:0:
320,192,108268,1,0,0:0:0:0:
64,192,108306,128,0,108493:0:0:0:0:
320,192,108381,128,0,108456:0:0:0:0:
448,192,108464,1,0,0:0:0:0:
320,192,108500,1,0,0:0:0:0:
192,192,108531,128,0,108593:0:0:0:0:
64,192,108549,128,0,108596:0:0:0:0:
448,192,108731,1,0,0:0:0:0:
448,192,108831,128,0,108981:0:0:0:0:
192,192,108868,128,0,109056:0:0:0:0:
448,192,109031,1,0,0:0:0:0:
64,192,109131,1,0,0:0:0:0:
192,192,109131,128,0,109181:0:0:0:0:
192,192,109231,1,0,0:0:0:0:
320,192,109281,1,0,0:0:0:0:
448,192,109318,128,0,109393:0:0:0:0:
192,192,109431,1,0,0:0:0:0:
448,192,109456,1,0,0:0:0:0:
448,192,109631,1,0,0:0:0:0:
192,192,109731,1,0,0:0:0:0:
192,192,109931,1,0,0:0:0:0:
320,192,110031,128,0,110181:0:0:0:0:
192,192,110031,1,0,0:0:0:0:
64,192,110068,128,0,110256:0:0:0:0:
320,192,110231,1,0,0:0:0:0:
320,192,110331,128,0,110456:0:0:0:0:
64,192,110331,1,0,0:0:0:0:
64,192,110431,128,0,110531:0:0:0:0:
320,192,110493,1,0,0:0:0:0:
448,192,110531,128,0,110581:0:0:0:0:
448,192,110631,1,0,0:0:0:0:
192,192,110656,1,0,0:0:0:0:
192,192,110831,1,0,0:0:0:0:
448,192,110931,128,0,111031:0:0:0:0:
192,192,110931,128,0,111156:0:0:0:0:
320,192,111131,1,0,0:0:0:0:
320,192,111231,128,0,111306:0:0:0:0:
192,192,111231,128,0,111456:0:0:0:0:
448,192,111268,1,0,0:0:0:0:
320,192,111431,1,0,0:0:0:0:
320,192,111531,128,0,111731:0:0:0:0:
64,192,111568,128,0,111643:0:0:0:0:
192,192,111606,1,0,0:0:0:0:
448,192,111631,128,0,111697:0:0:0:0:
192,192,111697,1,0,0:0:0:0:
64,192,111731,128,0,111793:0:0:0:0:
64,192,111831,1,0,0:0:0:0:
448,192,111856,1,0,0:0:0:0:
320,192,111906,1,0,0:0:0:0:
320,192,112006,1,0,0:0:0:0:
192,192,112056,1,0,0:0:0:0:
64,192,112131,1,0,0:0:0:0:
320,192,112156,1,0,0:0:0:0:
448,192,112181,128,0,112256:0:0:0:0:
64,192,112331,1,0,0:0:0:0:
64,192,112431,1,0,0:0:0:0:
320,192,112531,1,0,0:0:0:0:
448,192,112581,1,0,0:0:0:0:
320,192,112631,1,0,0:0:0:0:
192,192,112681,1,0,0:0:0:0:
448,192,112731,1,0,0:0:0:0:
192,192,112806,1,0,0:0:0:0:
448,192,112843,1,0,0:0:0:0:
64,192,112881,1,0,0:0:0:0:
448,192,112956,1,0,0:0:0:0:
64,192,113031,1,0,0:0:0:0:
320,192,113056,128,0,113202:0:0:0:0:
192,192,113106,1,0,0:0:0:0:
64,192,113181,1,0,0:0:0:0:
448,192,113245,1,0,0:0:0:0:
320,192,113281,128,0,113356:0:0:0:0:
192,192,113312,128,0,113387:0:0:0:0:
64,192,113331,128,0,113387:0:0:0:0:
320,192,113531,1,0,0:0:0:0:
192,192,113631,1,0,0:0:0:0:
64,192,113656,128,0,113856:0:0:0:0:
448,192,113681,1,0,0:0:0:0:
320,192,113731,1,0,0:0:0:0:
192,192,113781,1,0,0:0:0:0:
320,192,113831,1,0,0:0:0:0:
192,192,113931,128,0,114031:0:0:0:0:
64,192,113931,128,0,114006:0:0:0:0:
448,192,113931,1,0,0:0:0:0:
448,192,114031,1,0,0:0:0:0:
320,192,114097,1,0,0:0:0:0:
192,192,114131,1,0,0:0:0:0:
64,192,114231,1,0,0:0:0:0:
192,192,114231,128,0,114331:0:0:0:0:
320,192,114268,128,0,114343:0:0:0:0:
448,192,114281,1,0,0:0:0:0:
64,192,114431,128,0,114481:0:0:0:0:
192,192,114531,1,0,0:0:0:0:
192,192,114731,128,0,114781:0:0:0:0:
192,192,114831,1,0,0:0:0:0:
448,192,114831,1,0,0:0:0:0:
64,192,114856,128,0,115056:0:0:0:0:
320,192,114881,1,0,0:0:0:0:
320,192,114981,1,0,0:0:0:0:
448,192,115031,1,0,0:0:0:0:
192,192,115131,128,0,115231:0:0:0:0:
64,192,115131,1,0,0:0:0:0:
448,192,115131,1,0,0:0:0:0:
320,192,115168,128,0,115243:0:0:0:0:
192,192,115331,1,0,0:0:0:0:
192,192,115431,1,0,0:0:0:0:
64,192,115431,128,0,115531:0:0:0:0:
320,192,115468,128,0,115543:0:0:0:0:
448,192,115481,1,0,0:0:0:0:
64,192,115631,1,0,0:0:0:0:
320,192,115664,1,0,0:0:0:0:
64,192,115731,1,0,0:0:0:0:
448,192,115931,1,0,0:0:0:0:
192,192,116031,1,0,0:0:0:0:
448,192,116031,1,0,0:0:0:0:
64,192,116056,128,0,116256:0:0:0:0:
320,192,116081,1,0,0:0:0:0:
320,192,116181,1,0,0:0:0:0:
448,192,116231,1,0,0:0:0:0:
64,192,116331,128,0,116431:0:0:0:0:
448,192,116331,1,0,0:0:0:0:
320,192,116364,128,0,116497:0:0:0:0:
192,192,116531,1,0,0:0:0:0:
192,192,116631,1,0,0:0:0:0:
64,192,116631,128,0,116731:0:0:0:0:
448,192,116681,128,0,116756:0:0:0:0:
64,192,116797,1,0,0:0:0:0:
320,192,116831,1,0,0:0:0:0:
320,192,116931,128,0,116981:0:0:0:0:
320,192,117106,1,0,0:0:0:0:
192,192,117131,1,0,0:0:0:0:
192,192,117230,128,0,117273:0:0:0:0:
