osu file format v14

[General]
AudioFilename: audio.mp3
AudioLeadIn: 0
PreviewTime: 59593
Countdown: 0
SampleSet: Normal
StackLeniency: 0.7
Mode: 3
LetterboxInBreaks: 0
SpecialStyle: 0
WidescreenStoryboard: 1

[Editor]
DistanceSpacing: 1.2
BeatDivisor: 12
GridSize: 8
TimelineZoom: 2.599999

[Metadata]
Title:Chronos (Cut Ver.)
TitleUnicode:Chronos (Cut Ver.)
Artist:KOAN Sound
ArtistUnicode:KOAN Sound
Creator:Dreamwalker
Version:Wint's Advanced
Source:
Tags:dragolord dergo kamuy nimis thefunk wintmin wintersnow electronic instrumental neurohop ep hybrid ln dump tech
BeatmapID:3441873
BeatmapSetID:1667473

[Difficulty]
HPDrainRate:7
CircleSize:4
OverallDifficulty:7
ApproachRate:5
SliderMultiplier:1.4
SliderTickRate:1

[Events]
//Background and Video events
0,0,"maxresdefault.jpg",0,0
//Break Periods
//Storyboard Layer 0 (Background)
//Storyboard Layer 1 (Fail)
//Storyboard Layer 2 (Pass)
//Storyboard Layer 3 (Foreground)
//Storyboard Layer 4 (Overlay)
//Storyboard Sound Samples

[TimingPoints]
2031,300,4,1,1,10,1,0
59631,-100,4,1,1,10,0,1
98031,-100,4,1,1,10,0,0

[HitObjects]
64,192,2031,128,0,2231:0:0:0:0:
192,192,2031,1,0,0:0:0:0:
320,192,2331,1,0,0:0:0:0:
64,192,2631,1,0,0:0:0:0:
192,192,2631,1,0,0:0:0:0:
320,192,2831,1,0,0:0:0:0:
448,192,2931,128,0,3131:0:0:0:0:
320,192,3231,1,0,0:0:0:0:
192,192,3431,1,0,0:0:0:0:
64,192,3531,128,0,3781:0:0:0:0:
448,192,3831,128,0,3981:0:0:0:0:
320,192,3831,1,0,0:0:0:0:
192,192,4031,1,0,0:0:0:0:
64,192,4131,1,0,0:0:0:0:
448,192,4331,1,0,0:0:0:0:
320,192,4631,1,0,0:0:0:0:
448,192,4731,128,0,4831:0:0:0:0:
192,192,5031,1,0,0:0:0:0:
320,192,5231,1,0,0:0:0:0:
448,192,5231,1,0,0:0:0:0:
64,192,5531,1,0,0:0:0:0:
448,192,5631,128,0,5931:0:0:0:0:
320,192,5631,1,0,0:0:0:0:
64,192,5931,128,0,6031:0:0:0:0:
64,192,6231,1,0,0:0:0:0:
192,192,6231,1,0,0:0:0:0:
192,192,6431,1,0,0:0:0:0:
320,192,6531,128,0,6731:0:0:0:0:
448,192,6531,1,0,0:0:0:0:
64,192,6731,128,0,7131:0:0:0:0:
192,192,6731,1,0,0:0:0:0:
448,192,6831,1,0,0:0:0:0:
192,192,7431,1,0,0:0:0:0:
64,192,7431,1,0,0:0:0:0:
448,192,7631,1,0,0:0:0:0:
320,192,7731,1,0,0:0:0:0:
64,192,7731,1,0,0:0:0:0:
192,192,7881,1,0,0:0:0:0:
448,192,8031,1,0,0:0:0:0:
64,192,8231,1,0,0:0:0:0:
448,192,8331,128,0,8531:0:0:0:0:
320,192,8531,1,0,0:0:0:0:
64,192,8631,1,0,0:0:0:0:
192,192,8631,1,0,0:0:0:0:
448,192,8831,1,0,0:0:0:0:
320,192,8931,1,0,0:0:0:0:
64,192,8931,1,0,0:0:0:0:
448,192,9131,128,0,9231:0:0:0:0:
320,192,9131,1,0,0:0:0:0:
64,192,9231,1,0,0:0:0:0:
320,192,9431,1,0,0:0:0:0:
64,192,9531,128,0,9731:0:0:0:0:
192,192,9531,1,0,0:0:0:0:
448,192,9731,1,0,0:0:0:0:
320,192,9831,1,0,0:0:0:0:
192,192,10031,1,0,0:0:0:0:
64,192,10031,1,0,0:0:0:0:
320,192,10131,1,0,0:0:0:0:
448,192,10331,128,0,10531:0:0:0:0:
64,192,10431,128,0,10531:0:0:0:0:
320,192,10631,128,0,10731:0:0:0:0:
64,192,10731,128,0,10931:0:0:0:0:
192,192,10931,1,0,0:0:0:0:
448,192,11031,1,0,0:0:0:0:
320,192,11031,1,0,0:0:0:0:
448,192,11231,128,0,11431:0:0:0:0:
320,192,11331,128,0,11431:0:0:0:0:
192,192,11531,1,0,0:0:0:0:
448,192,11631,1,0,0:0:0:0:
64,192,11631,128,0,11831:0:0:0:0:
320,192,11831,1,0,0:0:0:0:
448,192,11931,1,0,0:0:0:0:
192,192,11931,1,0,0:0:0:0:
64,192,12231,1,0,0:0:0:0:
320,192,12231,1,0,0:0:0:0:
192,192,12431,1,0,0:0:0:0:
320,192,12531,128,0,12831:0:0:0:0:
448,192,12531,1,0,0:0:0:0:
64,192,12731,1,0,0:0:0:0:
192,192,12831,1,0,0:0:0:0:
448,192,13031,1,0,0:0:0:0:
64,192,13131,128,0,13331:0:0:0:0:
320,192,13131,1,0,0:0:0:0:
192,192,13331,1,0,0:0:0:0:
448,192,13431,128,0,13631:0:0:0:0:
320,192,13431,1,0,0:0:0:0:
64,192,13431,1,0,0:0:0:0:
192,192,13631,1,0,0:0:0:0:
64,192,13631,1,0,0:0:0:0:
320,192,13731,1,0,0:0:0:0:
64,192,13931,1,0,0:0:0:0:
192,192,13931,1,0,0:0:0:0:
320,192,14231,1,0,0:0:0:0:
448,192,14331,128,0,14531:0:0:0:0:
64,192,14331,1,0,0:0:0:0:
192,192,14431,1,0,0:0:0:0:
64,192,14631,128,0,14831:0:0:0:0:
192,192,14631,1,0,0:0:0:0:
320,192,14831,1,0,0:0:0:0:
448,192,14831,1,0,0:0:0:0:
64,192,15131,1,0,0:0:0:0:
448,192,15231,128,0,15331:0:0:0:0:
320,192,15231,1,0,0:0:0:0:
64,192,15381,1,0,0:0:0:0:
192,192,15531,128,0,15831:0:0:0:0:
448,192,15531,1,0,0:0:0:0:
448,192,15731,1,0,0:0:0:0:
320,192,15831,128,0,16031:0:0:0:0:
64,192,15831,1,0,0:0:0:0:
448,192,16031,1,0,0:0:0:0:
64,192,16131,128,0,16331:0:0:0:0:
192,192,16131,1,0,0:0:0:0:
448,192,16331,1,0,0:0:0:0:
320,192,16331,1,0,0:0:0:0:
64,192,16431,128,0,16731:0:0:0:0:
192,192,16431,1,0,0:0:0:0:
448,192,16731,1,0,0:0:0:0:
192,192,16931,1,0,0:0:0:0:
448,192,17031,128,0,17331:0:0:0:0:
192,192,17231,1,0,0:0:0:0:
320,192,17331,1,0,0:0:0:0:
64,192,17331,128,0,17456:0:0:0:0:
448,192,17481,128,0,17631:0:0:0:0:
320,192,17631,1,0,0:0:0:0:
64,192,17831,128,0,17931:0:0:0:0:
320,192,17931,1,0,0:0:0:0:
448,192,18131,128,0,18231:0:0:0:0:
320,192,18231,1,0,0:0:0:0:
192,192,18431,128,0,18531:0:0:0:0:
320,192,18531,1,0,0:0:0:0:
64,192,18731,128,0,18931:0:0:0:0:
192,192,18731,1,0,0:0:0:0:
320,192,19031,128,0,19131:0:0:0:0:
448,192,19131,1,0,0:0:0:0:
64,192,19131,128,0,19231:0:0:0:0:
448,192,19431,1,0,0:0:0:0:
320,192,19431,1,0,0:0:0:0:
64,192,19631,1,0,0:0:0:0:
320,192,19631,1,0,0:0:0:0:
64,192,19931,128,0,20031:0:0:0:0:
448,192,20031,128,0,20131:0:0:0:0:
192,192,20231,1,0,0:0:0:0:
448,192,20331,128,0,20531:0:0:0:0:
64,192,20331,1,0,0:0:0:0:
192,192,20531,1,0,0:0:0:0:
64,192,20631,1,0,0:0:0:0:
320,192,20631,1,0,0:0:0:0:
64,192,20831,128,0,21131:0:0:0:0:
192,192,20831,1,0,0:0:0:0:
192,192,21131,1,0,0:0:0:0:
320,192,21231,1,0,0:0:0:0:
448,192,21231,128,0,21431:0:0:0:0:
64,192,21431,1,0,0:0:0:0:
320,192,21531,1,0,0:0:0:0:
448,192,21731,1,0,0:0:0:0:
192,192,21831,1,0,0:0:0:0:
64,192,21831,1,0,0:0:0:0:
320,192,22031,1,0,0:0:0:0:
64,192,22131,128,0,22331:0:0:0:0:
192,192,22131,1,0,0:0:0:0:
320,192,22331,1,0,0:0:0:0:
192,192,22431,1,0,0:0:0:0:
448,192,22431,1,0,0:0:0:0:
64,192,22631,1,0,0:0:0:0:
320,192,22731,128,0,22931:0:0:0:0:
192,192,22731,1,0,0:0:0:0:
448,192,22931,1,0,0:0:0:0:
64,192,23031,128,0,23331:0:0:0:0:
192,192,23031,1,0,0:0:0:0:
320,192,23231,1,0,0:0:0:0:
448,192,23331,1,0,0:0:0:0:
320,192,23531,1,0,0:0:0:0:
64,192,23531,1,0,0:0:0:0:
320,192,23831,1,0,0:0:0:0:
64,192,23931,128,0,24131:0:0:0:0:
448,192,23931,1,0,0:0:0:0:
192,192,24131,1,0,0:0:0:0:
320,192,24231,128,0,24431:0:0:0:0:
192,192,24431,1,0,0:0:0:0:
64,192,24531,1,0,0:0:0:0:
320,192,24731,1,0,0:0:0:0:
448,192,24831,128,0,25031:0:0:0:0:
192,192,24831,1,0,0:0:0:0:
64,192,25031,1,0,0:0:0:0:
192,192,25131,1,0,0:0:0:0:
320,192,25331,1,0,0:0:0:0:
448,192,25431,1,0,0:0:0:0:
64,192,25431,1,0,0:0:0:0:
320,192,25631,1,0,0:0:0:0:
64,192,25731,128,0,25881:0:0:0:0:
192,192,25731,1,0,0:0:0:0:
448,192,25931,1,0,0:0:0:0:
320,192,25931,1,0,0:0:0:0:
64,192,26031,128,0,26331:0:0:0:0:
192,192,26031,1,0,0:0:0:0:
320,192,26231,1,0,0:0:0:0:
448,192,26331,128,0,26431:0:0:0:0:
192,192,26331,1,0,0:0:0:0:
320,192,26531,1,0,0:0:0:0:
192,192,26631,1,0,0:0:0:0:
64,192,26631,1,0,0:0:0:0:
192,192,26831,1,0,0:0:0:0:
448,192,26931,128,0,27031:0:0:0:0:
320,192,26931,1,0,0:0:0:0:
64,192,27131,128,0,27331:0:0:0:0:
192,192,27131,1,0,0:0:0:0:
448,192,27231,1,0,0:0:0:0:
320,192,27431,1,0,0:0:0:0:
192,192,27531,1,0,0:0:0:0:
64,192,27531,1,0,0:0:0:0:
320,192,27731,1,0,0:0:0:0:
448,192,27831,1,0,0:0:0:0:
192,192,27831,1,0,0:0:0:0:
64,192,28031,1,0,0:0:0:0:
192,192,28031,1,0,0:0:0:0:
320,192,28131,1,0,0:0:0:0:
448,192,28131,128,0,28231:0:0:0:0:
64,192,28331,1,0,0:0:0:0:
192,192,28431,1,0,0:0:0:0:
448,192,28431,1,0,0:0:0:0:
320,192,28631,1,0,0:0:0:0:
448,192,28631,1,0,0:0:0:0:
64,192,28731,128,0,28931:0:0:0:0:
192,192,28731,1,0,0:0:0:0:
320,192,28931,128,0,29031:0:0:0:0:
448,192,29031,1,0,0:0:0:0:
64,192,29231,1,0,0:0:0:0:
448,192,29331,128,0,29481:0:0:0:0:
320,192,29331,1,0,0:0:0:0:
64,192,29531,1,0,0:0:0:0:
448,192,29631,128,0,29781:0:0:0:0:
320,192,29631,1,0,0:0:0:0:
192,192,29831,1,0,0:0:0:0:
64,192,29931,128,0,30131:0:0:0:0:
448,192,29931,1,0,0:0:0:0:
448,192,30131,128,0,30431:0:0:0:0:
320,192,30131,1,0,0:0:0:0:
64,192,30431,128,0,30731:0:0:0:0:
448,192,30731,1,0,0:0:0:0:
192,192,30831,1,0,0:0:0:0:
64,192,30831,128,0,31031:0:0:0:0:
320,192,31031,1,0,0:0:0:0:
448,192,31131,1,0,0:0:0:0:
192,192,31131,1,0,0:0:0:0:
320,192,31331,1,0,0:0:0:0:
192,192,31431,1,0,0:0:0:0:
64,192,31431,128,0,31631:0:0:0:0:
448,192,31631,1,0,0:0:0:0:
320,192,31731,128,0,32031:0:0:0:0:
192,192,31731,1,0,0:0:0:0:
448,192,32031,128,0,32231:0:0:0:0:
192,192,32231,128,0,32331:0:0:0:0:
64,192,32331,1,0,0:0:0:0:
192,192,32531,1,0,0:0:0:0:
448,192,32631,128,0,32831:0:0:0:0:
64,192,32631,128,0,33131:0:0:0:0:
320,192,32831,1,0,0:0:0:0:
192,192,32931,1,0,0:0:0:0:
448,192,33131,1,0,0:0:0:0:
320,192,33131,1,0,0:0:0:0:
64,192,33431,1,0,0:0:0:0:
192,192,33431,1,0,0:0:0:0:
448,192,33531,128,0,33731:0:0:0:0:
64,192,33731,1,0,0:0:0:0:
192,192,33831,128,0,34031:0:0:0:0:
320,192,34031,1,0,0:0:0:0:
448,192,34131,1,0,0:0:0:0:
64,192,34131,1,0,0:0:0:0:
192,192,34331,1,0,0:0:0:0:
64,192,34331,1,0,0:0:0:0:
448,192,34431,128,0,34731:0:0:0:0:
320,192,34431,128,0,34731:0:0:0:0:
192,192,34631,1,0,0:0:0:0:
64,192,34731,1,0,0:0:0:0:
192,192,34931,128,0,35031:0:0:0:0:
320,192,35031,1,0,0:0:0:0:
448,192,35231,128,0,35331:0:0:0:0:
64,192,35331,128,0,35631:0:0:0:0:
320,192,35331,1,0,0:0:0:0:
192,192,35531,128,0,35631:0:0:0:0:
448,192,35631,128,0,35831:0:0:0:0:
320,192,35631,1,0,0:0:0:0:
320,192,35831,1,0,0:0:0:0:
64,192,35931,128,0,36231:0:0:0:0:
192,192,35931,1,0,0:0:0:0:
320,192,36131,1,0,0:0:0:0:
448,192,36231,1,0,0:0:0:0:
192,192,36231,1,0,0:0:0:0:
320,192,36431,1,0,0:0:0:0:
192,192,36531,128,0,36731:0:0:0:0:
64,192,36531,1,0,0:0:0:0:
448,192,36731,1,0,0:0:0:0:
320,192,36731,128,0,36831:0:0:0:0:
64,192,36831,128,0,37131:0:0:0:0:
448,192,37031,1,0,0:0:0:0:
192,192,37131,128,0,37331:0:0:0:0:
320,192,37131,1,0,0:0:0:0:
448,192,37331,1,0,0:0:0:0:
64,192,37431,1,0,0:0:0:0:
448,192,37631,128,0,37731:0:0:0:0:
320,192,37731,128,0,37931:0:0:0:0:
64,192,37731,1,0,0:0:0:0:
64,192,37931,128,0,38031:0:0:0:0:
192,192,38031,128,0,38181:0:0:0:0:
448,192,38231,1,0,0:0:0:0:
192,192,38331,1,0,0:0:0:0:
64,192,38331,128,0,38481:0:0:0:0:
448,192,38531,1,0,0:0:0:0:
192,192,38631,1,0,0:0:0:0:
64,192,38631,1,0,0:0:0:0:
320,192,38831,1,0,0:0:0:0:
448,192,38931,128,0,39081:0:0:0:0:
64,192,39131,1,0,0:0:0:0:
192,192,39231,128,0,39431:0:0:0:0:
448,192,39431,1,0,0:0:0:0:
320,192,39531,128,0,39731:0:0:0:0:
448,192,39731,1,0,0:0:0:0:
64,192,39831,5,0,0:0:0:0:
192,192,39931,1,0,0:0:0:0:
448,192,40031,1,0,0:0:0:0:
64,192,40131,1,0,0:0:0:0:
320,192,40231,1,0,0:0:0:0:
448,192,40331,1,0,0:0:0:0:
320,192,40431,128,0,40531:0:0:0:0:
64,192,40431,128,0,41031:0:0:0:0:
448,192,40531,128,0,40631:0:0:0:0:
192,192,40631,128,0,41031:0:0:0:0:
320,192,41031,128,0,41331:0:0:0:0:
448,192,41331,128,0,41931:0:0:0:0:
64,192,41331,128,0,41931:0:0:0:0:
320,192,41931,1,0,0:0:0:0:
192,192,42006,1,0,0:0:0:0:
64,192,42081,128,0,42831:0:0:0:0:
320,192,42231,128,0,42631:0:0:0:0:
448,192,42831,1,0,0:0:0:0:
320,192,42906,1,0,0:0:0:0:
192,192,42981,128,0,43131:0:0:0:0:
64,192,42981,128,0,43131:0:0:0:0:
448,192,43131,128,0,43731:0:0:0:0:
320,192,43131,1,0,0:0:0:0:
192,192,43731,128,0,43881:0:0:0:0:
320,192,43881,128,0,44031:0:0:0:0:
192,192,44031,128,0,44631:0:0:0:0:
64,192,44031,128,0,44931:0:0:0:0:
320,192,44631,128,0,44931:0:0:0:0:
448,192,44931,128,0,45231:0:0:0:0:
192,192,45031,1,0,0:0:0:0:
64,192,45131,1,0,0:0:0:0:
192,192,45231,128,0,47631:0:0:0:0:
448,192,47631,1,0,0:0:0:0:
64,192,47831,1,0,0:0:0:0:
192,192,47931,1,0,0:0:0:0:
448,192,48131,1,0,0:0:0:0:
192,192,48231,1,0,0:0:0:0:
320,192,48431,1,0,0:0:0:0:
64,192,48531,1,0,0:0:0:0:
320,192,48731,1,0,0:0:0:0:
448,192,48831,1,0,0:0:0:0:
192,192,48931,1,0,0:0:0:0:
64,192,49031,1,0,0:0:0:0:
448,192,49131,1,0,0:0:0:0:
192,192,49231,1,0,0:0:0:0:
64,192,49331,1,0,0:0:0:0:
320,192,49431,1,0,0:0:0:0:
64,192,49531,1,0,0:0:0:0:
448,192,49631,1,0,0:0:0:0:
64,192,49731,1,0,0:0:0:0:
192,192,49831,1,0,0:0:0:0:
320,192,49931,1,0,0:0:0:0:
448,192,50031,128,0,50131:0:0:0:0:
64,192,50031,128,0,50631:0:0:0:0:
192,192,50131,128,0,50231:0:0:0:0:
320,192,50231,128,0,50631:0:0:0:0:
448,192,50631,128,0,50931:0:0:0:0:
192,192,50931,128,0,51531:0:0:0:0:
64,192,50931,128,0,51531:0:0:0:0:
448,192,51531,1,0,0:0:0:0:
320,192,51606,1,0,0:0:0:0:
64,192,51681,128,0,52431:0:0:0:0:
320,192,51831,128,0,52231:0:0:0:0:
448,192,52431,1,0,0:0:0:0:
320,192,52506,1,0,0:0:0:0:
192,192,52581,128,0,52731:0:0:0:0:
64,192,52581,128,0,52731:0:0:0:0:
448,192,52731,128,0,53331:0:0:0:0:
320,192,52731,1,0,0:0:0:0:
192,192,53331,128,0,53481:0:0:0:0:
448,192,53481,128,0,53631:0:0:0:0:
320,192,53631,128,0,54231:0:0:0:0:
64,192,53631,128,0,54531:0:0:0:0:
448,192,54231,128,0,54531:0:0:0:0:
320,192,54531,128,0,54831:0:0:0:0:
192,192,54631,1,0,0:0:0:0:
64,192,54731,1,0,0:0:0:0:
192,192,54831,128,0,57231:0:0:0:0:
64,192,57231,1,0,0:0:0:0:
320,192,57331,1,0,0:0:0:0:
192,192,57431,1,0,0:0:0:0:
64,192,57531,1,0,0:0:0:0:
320,192,57631,1,0,0:0:0:0:
448,192,57731,1,0,0:0:0:0:
192,192,57831,1,0,0:0:0:0:
448,192,57931,1,0,0:0:0:0:
64,192,58031,1,0,0:0:0:0:
192,192,58131,1,0,0:0:0:0:
448,192,58231,1,0,0:0:0:0:
320,192,58331,1,0,0:0:0:0:
64,192,58431,1,0,0:0:0:0:
448,192,58531,1,0,0:0:0:0:
192,192,58631,5,0,0:0:0:0:
448,192,58731,1,0,0:0:0:0:
320,192,58831,1,0,0:0:0:0:
64,192,58931,1,0,0:0:0:0:
448,192,59031,128,0,59231:0:0:0:0:
192,192,59031,1,0,0:0:0:0:
320,192,59231,128,0,59631:0:0:0:0:
64,192,59631,128,0,60131:0:0:0:0:
192,192,59631,128,0,59881:0:0:0:0:
320,192,59881,1,0,0:0:0:0:
192,192,60131,1,0,0:0:0:0:
448,192,60231,1,0,0:0:0:0:
320,192,60231,1,0,0:0:0:0:
448,192,60531,128,0,61431:0:0:0:0:
192,192,60531,128,0,60831:0:0:0:0:
64,192,60831,128,0,61131:0:0:0:0:
320,192,61131,128,0,61431:0:0:0:0:
192,192,61431,1,0,0:0:0:0:
64,192,61531,128,0,62031:0:0:0:0:
320,192,61781,128,0,62031:0:0:0:0:
64,192,62531,1,0,0:0:0:0:
320,192,62631,1,0,0:0:0:0:
448,192,62631,1,0,0:0:0:0:
64,192,62931,128,0,63431:0:0:0:0:
320,192,62931,1,0,0:0:0:0:
192,192,63031,128,0,63231:0:0:0:0:
192,192,63431,1,0,0:0:0:0:
448,192,63531,128,0,63731:0:0:0:0:
320,192,63531,128,0,63731:0:0:0:0:
64,192,63831,128,0,64131:0:0:0:0:
320,192,63831,1,0,0:0:0:0:
192,192,64031,128,0,64131:0:0:0:0:
320,192,64131,128,0,64431:0:0:0:0:
448,192,64331,128,0,64431:0:0:0:0:
192,192,64431,1,0,0:0:0:0:
64,192,64431,128,0,64931:0:0:0:0:
192,192,64931,1,0,0:0:0:0:
320,192,65031,1,0,0:0:0:0:
448,192,65031,1,0,0:0:0:0:
64,192,65331,1,0,0:0:0:0:
448,192,65431,1,0,0:0:0:0:
320,192,65531,1,0,0:0:0:0:
448,192,65631,128,0,65831:0:0:0:0:
192,192,65631,1,0,0:0:0:0:
320,192,65831,1,0,0:0:0:0:
64,192,65931,1,0,0:0:0:0:
192,192,65931,1,0,0:0:0:0:
320,192,66131,1,0,0:0:0:0:
448,192,66231,1,0,0:0:0:0:
64,192,66231,1,0,0:0:0:0:
192,192,66431,1,0,0:0:0:0:
64,192,66431,1,0,0:0:0:0:
448,192,66531,128,0,66831:0:0:0:0:
320,192,66531,1,0,0:0:0:0:
192,192,66831,1,0,0:0:0:0:
64,192,66831,1,0,0:0:0:0:
192,192,67431,1,0,0:0:0:0:
64,192,67431,1,0,0:0:0:0:
320,192,67631,1,0,0:0:0:0:
192,192,67631,1,0,0:0:0:0:
448,192,67731,1,0,0:0:0:0:
192,192,67931,1,0,0:0:0:0:
320,192,67931,1,0,0:0:0:0:
64,192,68031,1,0,0:0:0:0:
448,192,68031,1,0,0:0:0:0:
192,192,68231,1,0,0:0:0:0:
448,192,68331,128,0,68531:0:0:0:0:
320,192,68331,1,0,0:0:0:0:
64,192,68531,1,0,0:0:0:0:
448,192,68631,128,0,68831:0:0:0:0:
192,192,68631,1,0,0:0:0:0:
64,192,68831,128,0,69081:0:0:0:0:
320,192,68931,1,0,0:0:0:0:
192,192,69081,1,0,0:0:0:0:
448,192,69156,1,0,0:0:0:0:
64,192,69231,128,0,69431:0:0:0:0:
320,192,69231,1,0,0:0:0:0:
192,192,69331,128,0,69431:0:0:0:0:
448,192,69531,128,0,69731:0:0:0:0:
320,192,69631,128,0,69731:0:0:0:0:
64,192,69731,1,0,0:0:0:0:
448,192,69831,1,0,0:0:0:0:
192,192,69831,1,0,0:0:0:0:
448,192,70131,128,0,70431:0:0:0:0:
320,192,70131,1,0,0:0:0:0:
192,192,70231,128,0,70431:0:0:0:0:
64,192,70431,128,0,70731:0:0:0:0:
320,192,70731,128,0,70881:0:0:0:0:
64,192,70881,1,0,0:0:0:0:
192,192,70956,1,0,0:0:0:0:
448,192,71031,128,0,71281:0:0:0:0:
320,192,71031,1,0,0:0:0:0:
320,192,71281,128,0,71531:0:0:0:0:
320,192,71631,128,0,71781:0:0:0:0:
64,192,71631,1,0,0:0:0:0:
192,192,72131,1,0,0:0:0:0:
320,192,72231,1,0,0:0:0:0:
448,192,72231,1,0,0:0:0:0:
64,192,72531,128,0,73031:0:0:0:0:
320,192,72531,1,0,0:0:0:0:
192,192,72631,128,0,72831:0:0:0:0:
192,192,73031,1,0,0:0:0:0:
448,192,73131,128,0,73331:0:0:0:0:
320,192,73131,128,0,73331:0:0:0:0:
192,192,73331,1,0,0:0:0:0:
64,192,73431,1,0,0:0:0:0:
448,192,73431,1,0,0:0:0:0:
192,192,73531,1,0,0:0:0:0:
64,192,73681,128,0,74031:0:0:0:0:
448,192,73681,128,0,73931:0:0:0:0:
320,192,74031,1,0,0:0:0:0:
448,192,74031,128,0,74431:0:0:0:0:
320,192,74531,1,0,0:0:0:0:
192,192,74631,1,0,0:0:0:0:
64,192,74631,1,0,0:0:0:0:
448,192,75006,128,0,75231:0:0:0:0:
64,192,75081,1,0,0:0:0:0:
192,192,75156,1,0,0:0:0:0:
64,192,75231,128,0,75418:0:0:0:0:
320,192,75231,1,0,0:0:0:0:
320,192,75418,1,0,0:0:0:0:
448,192,75418,1,0,0:0:0:0:
192,192,75531,1,0,0:0:0:0:
64,192,75731,1,0,0:0:0:0:
320,192,75831,1,0,0:0:0:0:
448,192,75831,1,0,0:0:0:0:
320,192,76031,1,0,0:0:0:0:
64,192,76131,1,0,0:0:0:0:
192,192,76131,1,0,0:0:0:0:
448,192,76331,1,0,0:0:0:0:
64,192,76931,1,0,0:0:0:0:
448,192,77031,1,0,0:0:0:0:
320,192,77031,128,0,77231:0:0:0:0:
192,192,77231,1,0,0:0:0:0:
64,192,77331,1,0,0:0:0:0:
320,192,77481,1,0,0:0:0:0:
448,192,77631,1,0,0:0:0:0:
192,192,77631,1,0,0:0:0:0:
448,192,77831,1,0,0:0:0:0:
64,192,77931,128,0,78131:0:0:0:0:
320,192,77931,128,0,78031:0:0:0:0:
192,192,78131,1,0,0:0:0:0:
448,192,78231,128,0,78831:0:0:0:0:
320,192,78231,1,0,0:0:0:0:
320,192,78456,128,0,78831:0:0:0:0:
192,192,78831,1,0,0:0:0:0:
64,192,78831,128,0,79081:0:0:0:0:
320,192,78931,1,0,0:0:0:0:
448,192,79081,128,0,79331:0:0:0:0:
192,192,79331,1,0,0:0:0:0:
64,192,79431,1,0,0:0:0:0:
320,192,79431,128,0,79581:0:0:0:0:
64,192,79731,128,0,80031:0:0:0:0:
448,192,79731,1,0,0:0:0:0:
192,192,79831,128,0,80031:0:0:0:0:
448,192,80031,128,0,80131:0:0:0:0:
192,192,80131,1,0,0:0:0:0:
64,192,80131,128,0,80231:0:0:0:0:
448,192,80331,128,0,80431:0:0:0:0:
192,192,80431,1,0,0:0:0:0:
64,192,80431,128,0,80531:0:0:0:0:
64,192,80631,1,0,0:0:0:0:
192,192,80681,1,0,0:0:0:0:
448,192,80781,128,0,81231:0:0:0:0:
320,192,80781,1,0,0:0:0:0:
320,192,81031,128,0,81231:0:0:0:0:
64,192,81231,128,0,81306:0:0:0:0:
192,192,81231,1,0,0:0:0:0:
448,192,81531,1,0,0:0:0:0:
64,192,81731,1,0,0:0:0:0:
320,192,81831,1,0,0:0:0:0:
448,192,81831,1,0,0:0:0:0:
320,192,82031,1,0,0:0:0:0:
192,192,82131,1,0,0:0:0:0:
64,192,82131,1,0,0:0:0:0:
320,192,82331,1,0,0:0:0:0:
192,192,82331,1,0,0:0:0:0:
64,192,82431,128,0,82531:0:0:0:0:
448,192,82431,128,0,82631:0:0:0:0:
192,192,82631,1,0,0:0:0:0:
64,192,82731,128,0,82931:0:0:0:0:
320,192,82731,128,0,82931:0:0:0:0:
448,192,82931,1,0,0:0:0:0:
64,192,83031,1,0,0:0:0:0:
192,192,83031,1,0,0:0:0:0:
320,192,83231,1,0,0:0:0:0:
448,192,83331,1,0,0:0:0:0:
320,192,83531,1,0,0:0:0:0:
64,192,83631,128,0,84131:0:0:0:0:
192,192,83631,128,0,84131:0:0:0:0:
320,192,83931,1,0,0:0:0:0:
448,192,84131,1,0,0:0:0:0:
192,192,84231,1,0,0:0:0:0:
64,192,84231,1,0,0:0:0:0:
64,192,84531,128,0,84731:0:0:0:0:
192,192,84731,128,0,84831:0:0:0:0:
448,192,84831,128,0,84981:0:0:0:0:
320,192,84831,128,0,84981:0:0:0:0:
64,192,84981,1,0,0:0:0:0:
448,192,85131,1,0,0:0:0:0:
320,192,85131,1,0,0:0:0:0:
192,192,85331,128,0,85431:0:0:0:0:
320,192,85431,1,0,0:0:0:0:
64,192,85431,1,0,0:0:0:0:
192,192,85631,1,0,0:0:0:0:
64,192,85631,1,0,0:0:0:0:
320,192,85731,128,0,85931:0:0:0:0:
448,192,85731,128,0,85931:0:0:0:0:
192,192,85931,1,0,0:0:0:0:
320,192,86031,1,0,0:0:0:0:
64,192,86031,1,0,0:0:0:0:
64,192,86331,1,0,0:0:0:0:
192,192,86631,1,0,0:0:0:0:
448,192,86631,1,0,0:0:0:0:
64,192,86831,128,0,87031:0:0:0:0:
192,192,86831,128,0,86931:0:0:0:0:
448,192,86931,128,0,87031:0:0:0:0:
320,192,86931,1,0,0:0:0:0:
192,192,87131,1,0,0:0:0:0:
320,192,87231,1,0,0:0:0:0:
64,192,87231,128,0,87431:0:0:0:0:
192,192,87431,1,0,0:0:0:0:
448,192,87531,128,0,87631:0:0:0:0:
320,192,87531,128,0,87631:0:0:0:0:
192,192,87631,128,0,87831:0:0:0:0:
320,192,87831,1,0,0:0:0:0:
448,192,87931,128,0,88431:0:0:0:0:
64,192,87931,128,0,88131:0:0:0:0:
320,192,88131,128,0,88431:0:0:0:0:
192,192,88431,1,0,0:0:0:0:
64,192,88431,128,0,88931:0:0:0:0:
192,192,88931,1,0,0:0:0:0:
320,192,89031,1,0,0:0:0:0:
448,192,89031,1,0,0:0:0:0:
64,192,89331,1,0,0:0:0:0:
320,192,89331,1,0,0:0:0:0:
448,192,89431,128,0,89731:0:0:0:0:
192,192,89431,128,0,89631:0:0:0:0:
320,192,89631,128,0,89731:0:0:0:0:
64,192,89731,1,0,0:0:0:0:
192,192,89931,128,0,90031:0:0:0:0:
448,192,90031,128,0,90231:0:0:0:0:
320,192,90031,1,0,0:0:0:0:
192,192,90231,1,0,0:0:0:0:
64,192,90231,128,0,90831:0:0:0:0:
192,192,90631,128,0,90831:0:0:0:0:
448,192,90831,1,0,0:0:0:0:
448,192,91131,128,0,91731:0:0:0:0:
64,192,91331,1,0,0:0:0:0:
192,192,91431,1,0,0:0:0:0:
320,192,91431,1,0,0:0:0:0:
64,192,91731,128,0,92031:0:0:0:0:
192,192,91731,128,0,92031:0:0:0:0:
448,192,92031,128,0,92231:0:0:0:0:
64,192,92231,128,0,92331:0:0:0:0:
320,192,92331,128,0,92531:0:0:0:0:
192,192,92331,1,0,0:0:0:0:
448,192,92531,128,0,92631:0:0:0:0:
192,192,92631,1,0,0:0:0:0:
64,192,92631,128,0,92881:0:0:0:0:
320,192,92881,128,0,93231:0:0:0:0:
448,192,92881,128,0,93231:0:0:0:0:
192,192,93231,128,0,93831:0:0:0:0:
64,192,93231,128,0,93831:0:0:0:0:
320,192,93531,1,0,0:0:0:0:
448,192,93831,1,0,0:0:0:0:
64,192,94131,128,0,94431:0:0:0:0:
192,192,94331,128,0,94431:0:0:0:0:
320,192,94431,128,0,94631:0:0:0:0:
448,192,94431,128,0,94631:0:0:0:0:
64,192,94631,1,0,0:0:0:0:
192,192,94731,1,0,0:0:0:0:
64,192,94931,1,0,0:0:0:0:
192,192,95031,1,0,0:0:0:0:
448,192,95031,1,0,0:0:0:0:
320,192,95231,1,0,0:0:0:0:
192,192,95331,1,0,0:0:0:0:
448,192,95331,128,0,95631:0:0:0:0:
320,192,95531,128,0,95631:0:0:0:0:
64,192,95631,1,0,0:0:0:0:
448,192,95931,128,0,96081:0:0:0:0:
448,192,96231,1,0,0:0:0:0:
320,192,96431,128,0,96531:0:0:0:0:
64,192,96531,128,0,96731:0:0:0:0:
192,192,96531,1,0,0:0:0:0:
448,192,96731,1,0,0:0:0:0:
320,192,96831,1,0,0:0:0:0:
64,192,97031,1,0,0:0:0:0:
448,192,97131,128,0,97431:0:0:0:0:
192,192,97331,128,0,97431:0:0:0:0:
320,192,97431,128,0,97731:0:0:0:0:
64,192,97631,1,0,0:0:0:0:
192,192,97731,1,0,0:0:0:0:
64,192,98031,1,0,0:0:0:0:
64,192,98631,128,0,98931:0:0:0:0:
192,192,98631,1,0,0:0:0:0:
320,192,98931,1,0,0:0:0:0:
448,192,98931,1,0,0:0:0:0:
320,192,99131,1,0,0:0:0:0:
192,192,99231,1,0,0:0:0:0:
448,192,99231,128,0,99431:0:0:0:0:
320,192,99431,1,0,0:0:0:0:
192,192,99531,1,0,0:0:0:0:
64,192,99531,1,0,0:0:0:0:
448,192,99631,1,0,0:0:0:0:
64,192,99731,128,0,99831:0:0:0:0:
320,192,99831,1,0,0:0:0:0:
448,192,99831,1,0,0:0:0:0:
320,192,100031,1,0,0:0:0:0:
64,192,100131,1,0,0:0:0:0:
192,192,100331,1,0,0:0:0:0:
320,192,100431,1,0,0:0:0:0:
448,192,100431,128,0,100631:0:0:0:0:
64,192,100631,1,0,0:0:0:0:
192,192,100731,128,0,100931:0:0:0:0:
320,192,100731,1,0,0:0:0:0:
448,192,100931,1,0,0:0:0:0:
320,192,101031,1,0,0:0:0:0:
64,192,101031,1,0,0:0:0:0:
192,192,101231,1,0,0:0:0:0:
448,192,101331,128,0,101531:0:0:0:0:
320,192,101531,1,0,0:0:0:0:
64,192,101631,128,0,101831:0:0:0:0:
192,192,101631,1,0,0:0:0:0:
320,192,101831,1,0,0:0:0:0:
448,192,101931,128,0,102231:0:0:0:0:
192,192,102006,1,0,0:0:0:0:
320,192,102106,128,0,102231:0:0:0:0:
64,192,102231,1,0,0:0:0:0:
192,192,102231,1,0,0:0:0:0:
448,192,102331,1,0,0:0:0:0:
320,192,102431,1,0,0:0:0:0:
64,192,102531,1,0,0:0:0:0:
320,192,102731,1,0,0:0:0:0:
64,192,102831,1,0,0:0:0:0:
448,192,102831,128,0,103431:0:0:0:0:
64,192,103431,1,0,0:0:0:0:
320,192,103431,128,0,103631:0:0:0:0:
448,192,103631,1,0,0:0:0:0:
64,192,103731,1,0,0:0:0:0:
192,192,103731,1,0,0:0:0:0:
320,192,103931,1,0,0:0:0:0:
192,192,104031,1,0,0:0:0:0:
448,192,104031,128,0,104231:0:0:0:0:
320,192,104231,1,0,0:0:0:0:
192,192,104331,1,0,0:0:0:0:
64,192,104331,1,0,0:0:0:0:
320,192,104531,1,0,0:0:0:0:
192,192,104631,1,0,0:0:0:0:
448,192,104631,128,0,104731:0:0:0:0:
320,192,104831,1,0,0:0:0:0:
64,192,104931,1,0,0:0:0:0:
192,192,105131,1,0,0:0:0:0:
448,192,105231,128,0,105431:0:0:0:0:
320,192,105231,1,0,0:0:0:0:
192,192,105431,1,0,0:0:0:0:
64,192,105531,128,0,105631:0:0:0:0:
320,192,105531,1,0,0:0:0:0:
320,192,105731,1,0,0:0:0:0:
448,192,105831,128,0,105931:0:0:0:0:
192,192,105831,1,0,0:0:0:0:
320,192,106031,1,0,0:0:0:0:
64,192,106131,1,0,0:0:0:0:
448,192,106331,1,0,0:0:0:0:
64,192,106431,128,0,106631:0:0:0:0:
192,192,106431,1,0,0:0:0:0:
320,192,106731,1,0,0:0:0:0:
448,192,106731,128,0,107031:0:0:0:0:
192,192,106931,1,0,0:0:0:0:
64,192,107031,128,0,107131:0:0:0:0:
320,192,107031,1,0,0:0:0:0:
320,192,107331,1,0,0:0:0:0:
448,192,107531,1,0,0:0:0:0:
64,192,107631,128,0,107831:0:0:0:0:
192,192,107631,1,0,0:0:0:0:
448,192,107831,1,0,0:0:0:0:
448,192,108231,128,0,108456:0:0:0:0:
64,192,108231,1,0,0:0:0:0:
192,192,108306,1,0,0:0:0:0:
320,192,108381,1,0,0:0:0:0:
320,192,108531,1,0,0:0:0:0:
448,192,108731,1,0,0:0:0:0:
192,192,108831,128,0,109031:0:0:0:0:
320,192,108831,1,0,0:0:0:0:
64,192,109031,1,0,0:0:0:0:
448,192,109131,1,0,0:0:0:0:
320,192,109131,1,0,0:0:0:0:
192,192,109231,1,0,0:0:0:0:
64,192,109331,128,0,109431:0:0:0:0:
448,192,109431,1,0,0:0:0:0:
192,192,109431,1,0,0:0:0:0:
448,192,109631,1,0,0:0:0:0:
320,192,109731,1,0,0:0:0:0:
64,192,109931,1,0,0:0:0:0:
448,192,110031,128,0,110231:0:0:0:0:
192,192,110031,1,0,0:0:0:0:
320,192,110231,1,0,0:0:0:0:
64,192,110331,128,0,110531:0:0:0:0:
192,192,110331,1,0,0:0:0:0:
320,192,110531,1,0,0:0:0:0:
448,192,110631,1,0,0:0:0:0:
192,192,110631,1,0,0:0:0:0:
320,192,110831,1,0,0:0:0:0:
192,192,110931,128,0,111131:0:0:0:0:
448,192,111131,1,0,0:0:0:0:
320,192,111231,128,0,111431:0:0:0:0:
64,192,111231,1,0,0:0:0:0:
192,192,111431,1,0,0:0:0:0:
320,192,111531,1,0,0:0:0:0:
448,192,111531,128,0,111731:0:0:0:0:
64,192,111631,1,0,0:0:0:0:
192,192,111731,1,0,0:0:0:0:
320,192,111831,1,0,0:0:0:0:
64,192,111831,1,0,0:0:0:0:
192,192,112031,1,0,0:0:0:0:
448,192,112131,1,0,0:0:0:0:
320,192,112331,1,0,0:0:0:0:
64,192,112431,128,0,112731:0:0:0:0:
448,192,112731,128,0,113031:0:0:0:0:
64,192,113031,128,0,113231:0:0:0:0:
320,192,113031,1,0,0:0:0:0:
192,192,113231,1,0,0:0:0:0:
448,192,113331,1,0,0:0:0:0:
320,192,113331,1,0,0:0:0:0:
64,192,113531,1,0,0:0:0:0:
448,192,113631,128,0,113831:0:0:0:0:
192,192,113631,1,0,0:0:0:0:
320,192,113831,1,0,0:0:0:0:
192,192,113931,1,0,0:0:0:0:
64,192,113931,1,0,0:0:0:0:
320,192,114131,1,0,0:0:0:0:
448,192,114231,1,0,0:0:0:0:
192,192,114231,1,0,0:0:0:0:
320,192,114431,1,0,0:0:0:0:
448,192,114531,1,0,0:0:0:0:
64,192,114731,1,0,0:0:0:0:
448,192,114831,128,0,115031:0:0:0:0:
192,192,114831,1,0,0:0:0:0:
320,192,115031,1,0,0:0:0:0:
192,192,115131,1,0,0:0:0:0:
64,192,115131,128,0,115231:0:0:0:0:
192,192,115331,1,0,0:0:0:0:
448,192,115431,1,0,0:0:0:0:
320,192,115431,1,0,0:0:0:0:
192,192,115631,1,0,0:0:0:0:
64,192,115731,1,0,0:0:0:0:
320,192,115931,1,0,0:0:0:0:
192,192,116031,1,0,0:0:0:0:
448,192,116031,128,0,116231:0:0:0:0:
320,192,116231,5,0,0:0:0:0:
192,192,116331,1,0,0:0:0:0:
64,192,116331,128,0,116531:0:0:0:0:
320,192,116531,1,0,0:0:0:0:
448,192,116631,1,0,0:0:0:0:
192,192,116631,1,0,0:0:0:0:
320,192,116781,1,0,0:0:0:0:
64,192,116931,1,0,0:0:0:0:
320,192,117081,1,0,0:0:0:0:
192,192,117231,5,0,0:0:0:0:
