osu file format v14

[General]
AudioFilename: audio.mp3
AudioLeadIn: 0
PreviewTime: 59593
Countdown: 0
SampleSet: Normal
StackLeniency: 0.7
Mode: 3
LetterboxInBreaks: 0
SpecialStyle: 0
WidescreenStoryboard: 1

[Editor]
DistanceSpacing: 1.2
BeatDivisor: 12
GridSize: 8
TimelineZoom: 2.599999

[Metadata]
Title:Chronos (Cut Ver.)
TitleUnicode:Chronos (Cut Ver.)
Artist:KOAN Sound
ArtistUnicode:KOAN Sound
Creator:Dreamwalker
Version:Drago's Insane
Source:
Tags:dragolord dergo kamuy nimis thefunk wintmin wintersnow electronic instrumental neurohop ep hybrid ln dump tech
BeatmapID:3419828
BeatmapSetID:1667473

[Difficulty]
HPDrainRate:8.5
CircleSize:4
OverallDifficulty:6.3
ApproachRate:5
SliderMultiplier:1.4
SliderTickRate:1

[Events]
//Background and Video events
0,0,"maxresdefault.jpg",0,0
//Break Periods
//Storyboard Layer 0 (Background)
//Storyboard Layer 1 (Fail)
//Storyboard Layer 2 (Pass)
//Storyboard Layer 3 (Foreground)
//Storyboard Layer 4 (Overlay)
//Storyboard Sound Samples

[TimingPoints]
2031,300,4,1,1,10,1,0
59631,-100,4,1,1,10,0,1
98031,-100,4,1,1,10,0,0

[HitObjects]
64,192,2031,128,0,2231:0:0:0:0:
192,192,2031,1,0,0:0:0:0:
192,192,2131,1,0,0:0:0:0:
448,192,2231,1,0,0:0:0:0:
320,192,2331,1,0,0:0:0:0:
64,192,2631,1,0,0:0:0:0:
192,192,2656,1,0,0:0:0:0:
448,192,2831,1,0,0:0:0:0:
320,192,2931,128,0,3131:0:0:0:0:
448,192,3131,1,0,0:0:0:0:
192,192,3231,1,0,0:0:0:0:
448,192,3431,1,0,0:0:0:0:
320,192,3531,128,0,3656:0:0:0:0:
320,192,3731,1,0,0:0:0:0:
64,192,3831,1,0,0:0:0:0:
192,192,3856,128,0,4031:0:0:0:0:
448,192,4031,1,0,0:0:0:0:
192,192,4131,1,0,0:0:0:0:
320,192,4331,1,0,0:0:0:0:
448,192,4356,1,0,0:0:0:0:
192,192,4631,1,0,0:0:0:0:
448,192,4731,128,0,4931:0:0:0:0:
320,192,4756,1,0,0:0:0:0:
192,192,4781,1,0,0:0:0:0:
64,192,5031,1,0,0:0:0:0:
192,192,5056,1,0,0:0:0:0:
320,192,5231,1,0,0:0:0:0:
448,192,5256,1,0,0:0:0:0:
320,192,5331,1,0,0:0:0:0:
192,192,5531,1,0,0:0:0:0:
320,192,5631,128,0,5731:0:0:0:0:
448,192,5631,128,0,5731:0:0:0:0:
320,192,5931,1,0,0:0:0:0:
192,192,5956,1,0,0:0:0:0:
64,192,6231,1,0,0:0:0:0:
192,192,6256,1,0,0:0:0:0:
320,192,6281,1,0,0:0:0:0:
320,192,6431,1,0,0:0:0:0:
192,192,6456,1,0,0:0:0:0:
64,192,6531,128,0,6656:0:0:0:0:
320,192,6581,128,0,6731:0:0:0:0:
192,192,6731,128,0,6831:0:0:0:0:
64,192,6731,128,0,6831:0:0:0:0:
448,192,6831,128,0,7106:0:0:0:0:
448,192,7181,1,0,0:0:0:0:
64,192,7431,1,0,0:0:0:0:
192,192,7456,1,0,0:0:0:0:
320,192,7631,1,0,0:0:0:0:
192,192,7731,1,0,0:0:0:0:
448,192,7731,1,0,0:0:0:0:
320,192,7781,1,0,0:0:0:0:
192,192,7881,1,0,0:0:0:0:
320,192,7931,1,0,0:0:0:0:
64,192,7931,1,0,0:0:0:0:
192,192,8031,1,0,0:0:0:0:
448,192,8031,1,0,0:0:0:0:
320,192,8231,1,0,0:0:0:0:
192,192,8331,1,0,0:0:0:0:
64,192,8331,1,0,0:0:0:0:
448,192,8381,1,0,0:0:0:0:
320,192,8431,1,0,0:0:0:0:
448,192,8481,1,0,0:0:0:0:
192,192,8531,1,0,0:0:0:0:
320,192,8531,1,0,0:0:0:0:
64,192,8631,1,0,0:0:0:0:
192,192,8656,1,0,0:0:0:0:
448,192,8831,1,0,0:0:0:0:
192,192,8856,1,0,0:0:0:0:
448,192,8931,1,0,0:0:0:0:
320,192,8931,1,0,0:0:0:0:
192,192,9131,1,0,0:0:0:0:
320,192,9156,1,0,0:0:0:0:
448,192,9231,1,0,0:0:0:0:
448,192,9431,1,0,0:0:0:0:
320,192,9531,1,0,0:0:0:0:
192,192,9556,1,0,0:0:0:0:
320,192,9631,1,0,0:0:0:0:
448,192,9731,1,0,0:0:0:0:
64,192,9831,1,0,0:0:0:0:
192,192,9856,1,0,0:0:0:0:
320,192,10031,128,0,10081:0:0:0:0:
448,192,10031,128,0,10081:0:0:0:0:
64,192,10131,1,0,0:0:0:0:
192,192,10206,1,0,0:0:0:0:
64,192,10281,1,0,0:0:0:0:
320,192,10331,128,0,10431:0:0:0:0:
448,192,10331,128,0,10431:0:0:0:0:
192,192,10431,1,0,0:0:0:0:
64,192,10506,1,0,0:0:0:0:
192,192,10581,1,0,0:0:0:0:
320,192,10631,1,0,0:0:0:0:
320,192,10731,128,0,10931:0:0:0:0:
448,192,10731,128,0,10931:0:0:0:0:
64,192,10781,1,0,0:0:0:0:
192,192,10856,1,0,0:0:0:0:
64,192,10931,1,0,0:0:0:0:
448,192,11031,1,0,0:0:0:0:
320,192,11056,1,0,0:0:0:0:
320,192,11231,128,0,11456:0:0:0:0:
448,192,11231,128,0,11456:0:0:0:0:
64,192,11331,1,0,0:0:0:0:
64,192,11431,1,0,0:0:0:0:
192,192,11456,1,0,0:0:0:0:
320,192,11531,1,0,0:0:0:0:
448,192,11581,1,0,0:0:0:0:
192,192,11631,1,0,0:0:0:0:
64,192,11631,128,0,11831:0:0:0:0:
192,192,11731,1,0,0:0:0:0:
448,192,11831,1,0,0:0:0:0:
320,192,11931,1,0,0:0:0:0:
64,192,12231,1,0,0:0:0:0:
192,192,12256,1,0,0:0:0:0:
448,192,12431,1,0,0:0:0:0:
192,192,12481,1,0,0:0:0:0:
320,192,12531,128,0,12731:0:0:0:0:
448,192,12581,1,0,0:0:0:0:
192,192,12631,1,0,0:0:0:0:
64,192,12681,1,0,0:0:0:0:
448,192,12731,1,0,0:0:0:0:
192,192,12831,1,0,0:0:0:0:
448,192,13031,1,0,0:0:0:0:
320,192,13131,1,0,0:0:0:0:
192,192,13181,1,0,0:0:0:0:
320,192,13231,1,0,0:0:0:0:
448,192,13281,1,0,0:0:0:0:
320,192,13331,1,0,0:0:0:0:
64,192,13431,1,0,0:0:0:0:
192,192,13456,128,0,13631:0:0:0:0:
448,192,13631,1,0,0:0:0:0:
192,192,13731,1,0,0:0:0:0:
320,192,13931,1,0,0:0:0:0:
448,192,13956,1,0,0:0:0:0:
192,192,14231,1,0,0:0:0:0:
448,192,14331,128,0,14531:0:0:0:0:
320,192,14356,1,0,0:0:0:0:
192,192,14381,1,0,0:0:0:0:
64,192,14631,1,0,0:0:0:0:
192,192,14656,1,0,0:0:0:0:
320,192,14831,1,0,0:0:0:0:
448,192,14856,1,0,0:0:0:0:
320,192,14931,1,0,0:0:0:0:
192,192,15131,1,0,0:0:0:0:
448,192,15231,128,0,15431:0:0:0:0:
320,192,15231,128,0,15306:0:0:0:0:
320,192,15381,128,0,15431:0:0:0:0:
320,192,15531,1,0,0:0:0:0:
192,192,15556,1,0,0:0:0:0:
64,192,15581,1,0,0:0:0:0:
448,192,15606,1,0,0:0:0:0:
320,192,15681,1,0,0:0:0:0:
448,192,15756,1,0,0:0:0:0:
64,192,15806,1,0,0:0:0:0:
192,192,15831,1,0,0:0:0:0:
320,192,15856,1,0,0:0:0:0:
320,192,16031,1,0,0:0:0:0:
192,192,16056,1,0,0:0:0:0:
64,192,16131,128,0,16256:0:0:0:0:
320,192,16181,128,0,16331:0:0:0:0:
64,192,16331,128,0,16431:0:0:0:0:
192,192,16331,128,0,16431:0:0:0:0:
448,192,16431,1,0,0:0:0:0:
320,192,16481,1,0,0:0:0:0:
448,192,16531,1,0,0:0:0:0:
64,192,16581,1,0,0:0:0:0:
448,192,16631,1,0,0:0:0:0:
192,192,16731,1,0,0:0:0:0:
320,192,16931,1,0,0:0:0:0:
64,192,17031,1,0,0:0:0:0:
192,192,17056,1,0,0:0:0:0:
448,192,17131,1,0,0:0:0:0:
320,192,17231,1,0,0:0:0:0:
448,192,17331,1,0,0:0:0:0:
192,192,17331,1,0,0:0:0:0:
64,192,17431,1,0,0:0:0:0:
192,192,17531,1,0,0:0:0:0:
448,192,17531,1,0,0:0:0:0:
320,192,17631,1,0,0:0:0:0:
64,192,17631,1,0,0:0:0:0:
448,192,17731,1,0,0:0:0:0:
320,192,17831,1,0,0:0:0:0:
192,192,17856,1,0,0:0:0:0:
448,192,17931,1,0,0:0:0:0:
320,192,17931,1,0,0:0:0:0:
64,192,17981,1,0,0:0:0:0:
192,192,18031,1,0,0:0:0:0:
64,192,18081,1,0,0:0:0:0:
192,192,18131,1,0,0:0:0:0:
320,192,18131,1,0,0:0:0:0:
448,192,18231,1,0,0:0:0:0:
320,192,18256,1,0,0:0:0:0:
192,192,18331,1,0,0:0:0:0:
64,192,18406,1,0,0:0:0:0:
320,192,18431,1,0,0:0:0:0:
192,192,18531,1,0,0:0:0:0:
64,192,18531,1,0,0:0:0:0:
448,192,18581,1,0,0:0:0:0:
320,192,18631,1,0,0:0:0:0:
192,192,18681,1,0,0:0:0:0:
448,192,18731,1,0,0:0:0:0:
64,192,18731,1,0,0:0:0:0:
448,192,19031,1,0,0:0:0:0:
192,192,19081,1,0,0:0:0:0:
448,192,19131,1,0,0:0:0:0:
192,192,19156,1,0,0:0:0:0:
64,192,19181,1,0,0:0:0:0:
320,192,19231,1,0,0:0:0:0:
448,192,19331,1,0,0:0:0:0:
64,192,19431,1,0,0:0:0:0:
192,192,19456,1,0,0:0:0:0:
448,192,19631,1,0,0:0:0:0:
320,192,19631,1,0,0:0:0:0:
64,192,19731,1,0,0:0:0:0:
320,192,19931,128,0,19981:0:0:0:0:
448,192,19931,128,0,19981:0:0:0:0:
64,192,20031,1,0,0:0:0:0:
192,192,20056,1,0,0:0:0:0:
320,192,20081,1,0,0:0:0:0:
448,192,20231,1,0,0:0:0:0:
64,192,20331,128,0,20481:0:0:0:0:
192,192,20331,128,0,20481:0:0:0:0:
320,192,20406,1,0,0:0:0:0:
448,192,20481,1,0,0:0:0:0:
64,192,20581,1,0,0:0:0:0:
448,192,20631,128,0,20731:0:0:0:0:
320,192,20631,128,0,20731:0:0:0:0:
192,192,20706,1,0,0:0:0:0:
320,192,20831,128,0,20981:0:0:0:0:
448,192,20831,128,0,20981:0:0:0:0:
192,192,20906,1,0,0:0:0:0:
64,192,20981,1,0,0:0:0:0:
320,192,21131,1,0,0:0:0:0:
448,192,21131,1,0,0:0:0:0:
192,192,21231,1,0,0:0:0:0:
64,192,21231,128,0,21431:0:0:0:0:
320,192,21281,1,0,0:0:0:0:
192,192,21331,1,0,0:0:0:0:
448,192,21431,1,0,0:0:0:0:
320,192,21431,1,0,0:0:0:0:
320,192,21531,1,0,0:0:0:0:
192,192,21731,1,0,0:0:0:0:
448,192,21731,1,0,0:0:0:0:
64,192,21831,1,0,0:0:0:0:
320,192,21831,1,0,0:0:0:0:
192,192,21856,1,0,0:0:0:0:
448,192,22031,1,0,0:0:0:0:
320,192,22131,128,0,22331:0:0:0:0:
64,192,22181,1,0,0:0:0:0:
192,192,22231,1,0,0:0:0:0:
448,192,22331,1,0,0:0:0:0:
192,192,22431,1,0,0:0:0:0:
64,192,22631,1,0,0:0:0:0:
192,192,22631,1,0,0:0:0:0:
320,192,22731,1,0,0:0:0:0:
448,192,22731,1,0,0:0:0:0:
320,192,22831,1,0,0:0:0:0:
448,192,22931,1,0,0:0:0:0:
192,192,22931,1,0,0:0:0:0:
64,192,23031,1,0,0:0:0:0:
192,192,23056,128,0,23231:0:0:0:0:
448,192,23231,1,0,0:0:0:0:
320,192,23231,1,0,0:0:0:0:
192,192,23331,1,0,0:0:0:0:
448,192,23531,1,0,0:0:0:0:
192,192,23531,1,0,0:0:0:0:
192,192,23831,1,0,0:0:0:0:
64,192,23831,1,0,0:0:0:0:
448,192,23931,128,0,24131:0:0:0:0:
320,192,23956,1,0,0:0:0:0:
192,192,23981,1,0,0:0:0:0:
64,192,24131,1,0,0:0:0:0:
64,192,24231,1,0,0:0:0:0:
192,192,24256,1,0,0:0:0:0:
320,192,24431,1,0,0:0:0:0:
448,192,24456,1,0,0:0:0:0:
320,192,24531,1,0,0:0:0:0:
192,192,24731,1,0,0:0:0:0:
64,192,24731,1,0,0:0:0:0:
448,192,24831,128,0,24931:0:0:0:0:
320,192,24831,128,0,24931:0:0:0:0:
320,192,25131,1,0,0:0:0:0:
192,192,25156,1,0,0:0:0:0:
448,192,25331,1,0,0:0:0:0:
64,192,25431,1,0,0:0:0:0:
192,192,25456,1,0,0:0:0:0:
320,192,25481,1,0,0:0:0:0:
320,192,25631,1,0,0:0:0:0:
192,192,25656,1,0,0:0:0:0:
64,192,25731,128,0,25856:0:0:0:0:
320,192,25781,128,0,25931:0:0:0:0:
64,192,25931,1,0,0:0:0:0:
192,192,25931,1,0,0:0:0:0:
448,192,26031,1,0,0:0:0:0:
192,192,26031,128,0,26231:0:0:0:0:
64,192,26031,128,0,26156:0:0:0:0:
448,192,26131,1,0,0:0:0:0:
64,192,26231,1,0,0:0:0:0:
320,192,26231,1,0,0:0:0:0:
192,192,26331,1,0,0:0:0:0:
320,192,26331,128,0,26431:0:0:0:0:
320,192,26531,1,0,0:0:0:0:
64,192,26631,1,0,0:0:0:0:
192,192,26656,1,0,0:0:0:0:
320,192,26831,1,0,0:0:0:0:
448,192,26831,1,0,0:0:0:0:
448,192,26931,128,0,27056:0:0:0:0:
192,192,26981,128,0,27131:0:0:0:0:
320,192,27131,128,0,27356:0:0:0:0:
448,192,27131,128,0,27356:0:0:0:0:
192,192,27231,1,0,0:0:0:0:
64,192,27231,1,0,0:0:0:0:
448,192,27431,128,0,27531:0:0:0:0:
64,192,27531,1,0,0:0:0:0:
192,192,27531,1,0,0:0:0:0:
192,192,27731,1,0,0:0:0:0:
320,192,27731,1,0,0:0:0:0:
64,192,27831,1,0,0:0:0:0:
192,192,27856,1,0,0:0:0:0:
448,192,28031,1,0,0:0:0:0:
192,192,28056,1,0,0:0:0:0:
320,192,28131,1,0,0:0:0:0:
448,192,28131,1,0,0:0:0:0:
192,192,28331,1,0,0:0:0:0:
320,192,28356,1,0,0:0:0:0:
448,192,28431,1,0,0:0:0:0:
64,192,28431,1,0,0:0:0:0:
448,192,28631,1,0,0:0:0:0:
192,192,28631,1,0,0:0:0:0:
320,192,28731,1,0,0:0:0:0:
192,192,28756,1,0,0:0:0:0:
320,192,28831,1,0,0:0:0:0:
448,192,28931,1,0,0:0:0:0:
64,192,29031,1,0,0:0:0:0:
192,192,29056,1,0,0:0:0:0:
320,192,29231,128,0,29281:0:0:0:0:
448,192,29231,1,0,0:0:0:0:
64,192,29331,1,0,0:0:0:0:
448,192,29331,128,0,29431:0:0:0:0:
192,192,29406,1,0,0:0:0:0:
64,192,29481,1,0,0:0:0:0:
448,192,29531,128,0,29631:0:0:0:0:
320,192,29531,128,0,29631:0:0:0:0:
192,192,29631,1,0,0:0:0:0:
64,192,29706,1,0,0:0:0:0:
192,192,29831,1,0,0:0:0:0:
320,192,29831,1,0,0:0:0:0:
320,192,29931,128,0,30031:0:0:0:0:
448,192,29931,128,0,30031:0:0:0:0:
64,192,30006,1,0,0:0:0:0:
64,192,30131,1,0,0:0:0:0:
448,192,30131,128,0,30281:0:0:0:0:
320,192,30231,1,0,0:0:0:0:
192,192,30256,1,0,0:0:0:0:
448,192,30431,128,0,30631:0:0:0:0:
320,192,30431,128,0,30631:0:0:0:0:
64,192,30531,1,0,0:0:0:0:
192,192,30531,1,0,0:0:0:0:
64,192,30631,1,0,0:0:0:0:
192,192,30681,1,0,0:0:0:0:
320,192,30731,1,0,0:0:0:0:
448,192,30781,1,0,0:0:0:0:
64,192,30831,1,0,0:0:0:0:
192,192,30831,128,0,31031:0:0:0:0:
320,192,30931,1,0,0:0:0:0:
64,192,31031,1,0,0:0:0:0:
448,192,31131,1,0,0:0:0:0:
320,192,31156,1,0,0:0:0:0:
192,192,31331,1,0,0:0:0:0:
448,192,31331,1,0,0:0:0:0:
64,192,31431,1,0,0:0:0:0:
192,192,31456,1,0,0:0:0:0:
448,192,31631,1,0,0:0:0:0:
192,192,31681,1,0,0:0:0:0:
320,192,31731,128,0,31931:0:0:0:0:
448,192,31781,1,0,0:0:0:0:
192,192,31831,1,0,0:0:0:0:
448,192,31881,1,0,0:0:0:0:
64,192,31931,1,0,0:0:0:0:
192,192,32031,1,0,0:0:0:0:
448,192,32231,1,0,0:0:0:0:
64,192,32231,1,0,0:0:0:0:
320,192,32331,1,0,0:0:0:0:
64,192,32331,1,0,0:0:0:0:
192,192,32381,1,0,0:0:0:0:
320,192,32431,1,0,0:0:0:0:
448,192,32481,1,0,0:0:0:0:
320,192,32531,1,0,0:0:0:0:
64,192,32631,1,0,0:0:0:0:
192,192,32656,128,0,32831:0:0:0:0:
448,192,32831,1,0,0:0:0:0:
320,192,32831,1,0,0:0:0:0:
448,192,33131,1,0,0:0:0:0:
192,192,33131,1,0,0:0:0:0:
192,192,33431,1,0,0:0:0:0:
64,192,33431,1,0,0:0:0:0:
448,192,33531,128,0,33731:0:0:0:0:
320,192,33556,1,0,0:0:0:0:
192,192,33581,1,0,0:0:0:0:
320,192,33731,1,0,0:0:0:0:
64,192,33831,1,0,0:0:0:0:
192,192,33856,1,0,0:0:0:0:
320,192,34031,1,0,0:0:0:0:
448,192,34056,1,0,0:0:0:0:
320,192,34131,1,0,0:0:0:0:
192,192,34331,1,0,0:0:0:0:
64,192,34331,1,0,0:0:0:0:
448,192,34431,128,0,34631:0:0:0:0:
192,192,34431,128,0,34631:0:0:0:0:
320,192,34731,1,0,0:0:0:0:
192,192,34756,1,0,0:0:0:0:
64,192,34781,1,0,0:0:0:0:
320,192,34931,1,0,0:0:0:0:
448,192,34931,1,0,0:0:0:0:
64,192,35031,1,0,0:0:0:0:
192,192,35056,1,0,0:0:0:0:
320,192,35081,1,0,0:0:0:0:
320,192,35231,1,0,0:0:0:0:
192,192,35256,1,0,0:0:0:0:
64,192,35331,128,0,35456:0:0:0:0:
320,192,35381,128,0,35531:0:0:0:0:
192,192,35531,1,0,0:0:0:0:
64,192,35531,1,0,0:0:0:0:
448,192,35631,1,0,0:0:0:0:
192,192,35631,128,0,35831:0:0:0:0:
64,192,35631,128,0,35756:0:0:0:0:
448,192,35731,1,0,0:0:0:0:
64,192,35831,1,0,0:0:0:0:
320,192,35831,1,0,0:0:0:0:
192,192,35931,1,0,0:0:0:0:
320,192,36131,1,0,0:0:0:0:
448,192,36131,1,0,0:0:0:0:
64,192,36231,1,0,0:0:0:0:
192,192,36256,1,0,0:0:0:0:
320,192,36431,1,0,0:0:0:0:
448,192,36431,1,0,0:0:0:0:
448,192,36531,1,0,0:0:0:0:
192,192,36531,128,0,36631:0:0:0:0:
64,192,36631,1,0,0:0:0:0:
192,192,36731,1,0,0:0:0:0:
448,192,36731,128,0,36831:0:0:0:0:
64,192,36831,1,0,0:0:0:0:
320,192,36831,128,0,37031:0:0:0:0:
192,192,36931,1,0,0:0:0:0:
448,192,37031,128,0,37131:0:0:0:0:
192,192,37131,1,0,0:0:0:0:
64,192,37131,1,0,0:0:0:0:
320,192,37331,128,0,37431:0:0:0:0:
64,192,37431,1,0,0:0:0:0:
192,192,37456,1,0,0:0:0:0:
448,192,37631,1,0,0:0:0:0:
192,192,37656,1,0,0:0:0:0:
320,192,37731,1,0,0:0:0:0:
448,192,37731,128,0,37831:0:0:0:0:
448,192,37931,1,0,0:0:0:0:
64,192,37931,1,0,0:0:0:0:
192,192,38031,1,0,0:0:0:0:
448,192,38231,1,0,0:0:0:0:
320,192,38231,1,0,0:0:0:0:
448,192,38331,128,0,38431:0:0:0:0:
448,192,38531,1,0,0:0:0:0:
64,192,38631,1,0,0:0:0:0:
192,192,38656,1,0,0:0:0:0:
320,192,38831,1,0,0:0:0:0:
448,192,38831,1,0,0:0:0:0:
448,192,38931,128,0,39056:0:0:0:0:
192,192,39131,1,0,0:0:0:0:
448,192,39231,128,0,39381:0:0:0:0:
64,192,39331,1,0,0:0:0:0:
320,192,39431,1,0,0:0:0:0:
448,192,39431,1,0,0:0:0:0:
192,192,39531,1,0,0:0:0:0:
320,192,39631,1,0,0:0:0:0:
448,192,39731,128,0,39906:0:0:0:0:
64,192,39831,1,0,0:0:0:0:
192,192,39881,1,0,0:0:0:0:
320,192,39931,1,0,0:0:0:0:
448,192,39981,1,0,0:0:0:0:
192,192,40031,1,0,0:0:0:0:
448,192,40081,1,0,0:0:0:0:
64,192,40131,1,0,0:0:0:0:
320,192,40181,1,0,0:0:0:0:
64,192,40231,1,0,0:0:0:0:
448,192,40281,1,0,0:0:0:0:
320,192,40331,1,0,0:0:0:0:
192,192,40381,1,0,0:0:0:0:
64,192,40431,128,0,40531:0:0:0:0:
448,192,40431,128,0,40631:0:0:0:0:
320,192,40531,1,0,0:0:0:0:
192,192,40531,128,0,40631:0:0:0:0:
320,192,40631,1,0,0:0:0:0:
64,192,40631,128,0,40731:0:0:0:0:
192,192,40731,128,0,41031:0:0:0:0:
448,192,40731,128,0,40831:0:0:0:0:
320,192,40831,128,0,40931:0:0:0:0:
448,192,40931,128,0,41031:0:0:0:0:
64,192,40931,1,0,0:0:0:0:
320,192,41031,1,0,0:0:0:0:
320,192,41131,128,0,41256:0:0:0:0:
192,192,41181,128,0,41256:0:0:0:0:
448,192,41256,128,0,41331:0:0:0:0:
192,192,41331,128,0,41406:0:0:0:0:
64,192,41356,128,0,41931:0:0:0:0:
192,192,41481,128,0,41931:0:0:0:0:
320,192,41931,128,0,42006:0:0:0:0:
192,192,42006,128,0,42081:0:0:0:0:
64,192,42081,128,0,42231:0:0:0:0:
320,192,42081,128,0,42231:0:0:0:0:
448,192,42231,128,0,42306:0:0:0:0:
192,192,42231,128,0,42306:0:0:0:0:
448,192,42381,128,0,42456:0:0:0:0:
192,192,42381,128,0,42456:0:0:0:0:
448,192,42531,128,0,42881:0:0:0:0:
192,192,42531,128,0,42681:0:0:0:0:
320,192,42831,128,0,42906:0:0:0:0:
64,192,42906,128,0,42981:0:0:0:0:
320,192,42981,128,0,43131:0:0:0:0:
192,192,42981,128,0,43131:0:0:0:0:
448,192,43131,128,0,43731:0:0:0:0:
64,192,43131,128,0,43731:0:0:0:0:
192,192,43731,128,0,43881:0:0:0:0:
320,192,43806,128,0,43881:0:0:0:0:
64,192,43881,128,0,44031:0:0:0:0:
192,192,43956,128,0,44031:0:0:0:0:
320,192,44031,128,0,44331:0:0:0:0:
448,192,44031,128,0,44181:0:0:0:0:
448,192,44256,128,0,44331:0:0:0:0:
192,192,44331,128,0,44631:0:0:0:0:
448,192,44406,128,0,44931:0:0:0:0:
320,192,44631,128,0,44781:0:0:0:0:
192,192,44781,128,0,44881:0:0:0:0:
320,192,44881,128,0,44931:0:0:0:0:
192,192,44931,1,0,0:0:0:0:
320,192,44981,1,0,0:0:0:0:
64,192,45031,1,0,0:0:0:0:
192,192,45081,1,0,0:0:0:0:
320,192,45131,1,0,0:0:0:0:
448,192,45181,1,0,0:0:0:0:
64,192,45231,128,0,46731:0:0:0:0:
192,192,45831,128,0,45906:0:0:0:0:
192,192,45981,128,0,46056:0:0:0:0:
192,192,46281,128,0,46356:0:0:0:0:
192,192,46581,128,0,46656:0:0:0:0:
448,192,46731,1,0,0:0:0:0:
320,192,46831,1,0,0:0:0:0:
192,192,46931,1,0,0:0:0:0:
64,192,47031,1,0,0:0:0:0:
448,192,47131,1,0,0:0:0:0:
64,192,47231,1,0,0:0:0:0:
320,192,47331,1,0,0:0:0:0:
192,192,47431,1,0,0:0:0:0:
320,192,47531,1,0,0:0:0:0:
64,192,47631,1,0,0:0:0:0:
64,192,47731,1,0,0:0:0:0:
448,192,47831,1,0,0:0:0:0:
448,192,47931,1,0,0:0:0:0:
64,192,48031,1,0,0:0:0:0:
64,192,48131,1,0,0:0:0:0:
320,192,48231,1,0,0:0:0:0:
320,192,48331,1,0,0:0:0:0:
192,192,48431,1,0,0:0:0:0:
192,192,48531,1,0,0:0:0:0:
320,192,48631,1,0,0:0:0:0:
64,192,48631,1,0,0:0:0:0:
448,192,48731,1,0,0:0:0:0:
320,192,48831,1,0,0:0:0:0:
64,192,48831,1,0,0:0:0:0:
192,192,48906,1,0,0:0:0:0:
448,192,48906,1,0,0:0:0:0:
320,192,49031,1,0,0:0:0:0:
192,192,49081,1,0,0:0:0:0:
64,192,49131,1,0,0:0:0:0:
320,192,49231,1,0,0:0:0:0:
448,192,49231,1,0,0:0:0:0:
448,192,49331,1,0,0:0:0:0:
192,192,49431,1,0,0:0:0:0:
64,192,49431,1,0,0:0:0:0:
64,192,49531,1,0,0:0:0:0:
320,192,49631,1,0,0:0:0:0:
448,192,49631,1,0,0:0:0:0:
320,192,49731,1,0,0:0:0:0:
192,192,49831,1,0,0:0:0:0:
320,192,49931,1,0,0:0:0:0:
192,192,49931,1,0,0:0:0:0:
64,192,50031,128,0,50131:0:0:0:0:
448,192,50031,128,0,50231:0:0:0:0:
320,192,50131,1,0,0:0:0:0:
192,192,50131,128,0,50231:0:0:0:0:
320,192,50231,1,0,0:0:0:0:
64,192,50231,128,0,50331:0:0:0:0:
192,192,50331,128,0,50631:0:0:0:0:
448,192,50331,128,0,50431:0:0:0:0:
320,192,50431,128,0,50531:0:0:0:0:
448,192,50531,128,0,50631:0:0:0:0:
64,192,50531,1,0,0:0:0:0:
320,192,50631,1,0,0:0:0:0:
320,192,50731,128,0,50856:0:0:0:0:
192,192,50781,128,0,50856:0:0:0:0:
448,192,50856,128,0,50931:0:0:0:0:
192,192,50931,128,0,51006:0:0:0:0:
64,192,50956,128,0,51531:0:0:0:0:
192,192,51081,128,0,51531:0:0:0:0:
448,192,51231,1,0,0:0:0:0:
320,192,51531,128,0,51606:0:0:0:0:
192,192,51606,128,0,51681:0:0:0:0:
64,192,51681,128,0,51831:0:0:0:0:
320,192,51681,128,0,51831:0:0:0:0:
448,192,51831,128,0,51906:0:0:0:0:
192,192,51831,128,0,51906:0:0:0:0:
192,192,51981,128,0,52056:0:0:0:0:
448,192,51981,128,0,52056:0:0:0:0:
192,192,52131,128,0,52281:0:0:0:0:
448,192,52131,128,0,52481:0:0:0:0:
320,192,52431,128,0,52506:0:0:0:0:
64,192,52506,128,0,52581:0:0:0:0:
320,192,52581,128,0,52731:0:0:0:0:
192,192,52581,128,0,52731:0:0:0:0:
448,192,52731,128,0,53331:0:0:0:0:
64,192,52731,128,0,53331:0:0:0:0:
320,192,53031,1,0,0:0:0:0:
192,192,53331,128,0,53481:0:0:0:0:
320,192,53406,128,0,53481:0:0:0:0:
64,192,53481,128,0,53631:0:0:0:0:
192,192,53556,128,0,53631:0:0:0:0:
320,192,53631,128,0,53931:0:0:0:0:
448,192,53631,128,0,53781:0:0:0:0:
448,192,53856,128,0,53931:0:0:0:0:
192,192,53931,128,0,54231:0:0:0:0:
448,192,54006,128,0,54531:0:0:0:0:
320,192,54231,128,0,54381:0:0:0:0:
192,192,54381,128,0,54481:0:0:0:0:
320,192,54481,128,0,54531:0:0:0:0:
192,192,54531,1,0,0:0:0:0:
320,192,54581,1,0,0:0:0:0:
64,192,54631,1,0,0:0:0:0:
192,192,54681,1,0,0:0:0:0:
320,192,54731,1,0,0:0:0:0:
448,192,54781,1,0,0:0:0:0:
64,192,54831,128,0,56331:0:0:0:0:
192,192,55131,128,0,55206:0:0:0:0:
192,192,55431,128,0,55506:0:0:0:0:
192,192,55731,128,0,55806:0:0:0:0:
192,192,56031,128,0,56106:0:0:0:0:
192,192,56331,128,0,56406:0:0:0:0:
192,192,56631,128,0,56706:0:0:0:0:
192,192,56931,128,0,57006:0:0:0:0:
64,192,57231,1,0,0:0:0:0:
64,192,57331,128,0,57431:0:0:0:0:
448,192,57431,1,0,0:0:0:0:
448,192,57531,128,0,57631:0:0:0:0:
64,192,57631,1,0,0:0:0:0:
64,192,57731,128,0,57831:0:0:0:0:
320,192,57831,1,0,0:0:0:0:
320,192,57931,128,0,58031:0:0:0:0:
192,192,58031,1,0,0:0:0:0:
192,192,58131,128,0,58231:0:0:0:0:
320,192,58231,1,0,0:0:0:0:
320,192,58331,128,0,58431:0:0:0:0:
192,192,58431,1,0,0:0:0:0:
64,192,58431,1,0,0:0:0:0:
64,192,58531,128,0,58631:0:0:0:0:
448,192,58631,1,0,0:0:0:0:
448,192,58731,1,0,0:0:0:0:
320,192,58731,128,0,58831:0:0:0:0:
192,192,58831,1,0,0:0:0:0:
64,192,58831,1,0,0:0:0:0:
192,192,58931,128,0,59031:0:0:0:0:
320,192,59031,1,0,0:0:0:0:
448,192,59031,1,0,0:0:0:0:
64,192,59031,1,0,0:0:0:0:
320,192,59231,1,0,0:0:0:0:
192,192,59331,1,0,0:0:0:0:
448,192,59381,1,0,0:0:0:0:
192,192,59431,1,0,0:0:0:0:
320,192,59481,1,0,0:0:0:0:
448,192,59531,1,0,0:0:0:0:
320,192,59581,1,0,0:0:0:0:
192,192,59631,128,0,59781:0:0:0:0:
64,192,59631,1,0,0:0:0:0:
64,192,59731,128,0,59931:0:0:0:0:
192,192,59856,128,0,59931:0:0:0:0:
320,192,59881,128,0,60131:0:0:0:0:
448,192,59906,128,0,60131:0:0:0:0:
192,192,60131,1,0,0:0:0:0:
192,192,60231,1,0,0:0:0:0:
320,192,60231,1,0,0:0:0:0:
448,192,60231,1,0,0:0:0:0:
320,192,60531,1,0,0:0:0:0:
448,192,60531,1,0,0:0:0:0:
448,192,60631,128,0,60781:0:0:0:0:
320,192,60656,1,0,0:0:0:0:
192,192,60681,128,0,60881:0:0:0:0:
320,192,60831,1,0,0:0:0:0:
448,192,60856,128,0,60931:0:0:0:0:
320,192,60931,128,0,61106:0:0:0:0:
192,192,60956,1,0,0:0:0:0:
64,192,60981,128,0,61056:0:0:0:0:
64,192,61131,128,0,61356:0:0:0:0:
192,192,61156,1,0,0:0:0:0:
320,192,61181,128,0,61356:0:0:0:0:
64,192,61431,1,0,0:0:0:0:
320,192,61431,1,0,0:0:0:0:
448,192,61431,1,0,0:0:0:0:
64,192,61531,128,0,61656:0:0:0:0:
448,192,61531,128,0,61731:0:0:0:0:
64,192,61731,1,0,0:0:0:0:
192,192,61756,128,0,62031:0:0:0:0:
320,192,61781,128,0,62031:0:0:0:0:
448,192,61806,1,0,0:0:0:0:
320,192,62531,1,0,0:0:0:0:
192,192,62531,1,0,0:0:0:0:
192,192,62631,1,0,0:0:0:0:
64,192,62631,1,0,0:0:0:0:
448,192,62631,1,0,0:0:0:0:
448,192,62931,1,0,0:0:0:0:
320,192,62931,128,0,63356:0:0:0:0:
448,192,63031,128,0,63381:0:0:0:0:
320,192,63431,1,0,0:0:0:0:
448,192,63456,1,0,0:0:0:0:
192,192,63531,128,0,63731:0:0:0:0:
320,192,63531,128,0,63731:0:0:0:0:
64,192,63731,1,0,0:0:0:0:
64,192,63831,1,0,0:0:0:0:
192,192,63831,1,0,0:0:0:0:
320,192,63831,1,0,0:0:0:0:
320,192,63931,1,0,0:0:0:0:
192,192,63956,1,0,0:0:0:0:
64,192,63981,1,0,0:0:0:0:
448,192,64056,1,0,0:0:0:0:
320,192,64081,1,0,0:0:0:0:
64,192,64106,1,0,0:0:0:0:
192,192,64131,128,0,64181:0:0:0:0:
448,192,64181,128,0,64231:0:0:0:0:
64,192,64231,128,0,64281:0:0:0:0:
320,192,64281,128,0,64331:0:0:0:0:
448,192,64331,128,0,64381:0:0:0:0:
320,192,64381,128,0,64431:0:0:0:0:
64,192,64431,1,0,0:0:0:0:
192,192,64431,128,0,64556:0:0:0:0:
64,192,64531,128,0,64881:0:0:0:0:
192,192,64631,128,0,64856:0:0:0:0:
192,192,64931,1,0,0:0:0:0:
64,192,64956,1,0,0:0:0:0:
320,192,65031,1,0,0:0:0:0:
192,192,65031,1,0,0:0:0:0:
448,192,65031,1,0,0:0:0:0:
448,192,65131,1,0,0:0:0:0:
64,192,65231,1,0,0:0:0:0:
64,192,65331,1,0,0:0:0:0:
448,192,65431,1,0,0:0:0:0:
448,192,65531,1,0,0:0:0:0:
320,192,65581,1,0,0:0:0:0:
192,192,65631,128,0,65756:0:0:0:0:
64,192,65656,128,0,65831:0:0:0:0:
320,192,65831,1,0,0:0:0:0:
192,192,65831,1,0,0:0:0:0:
320,192,65931,1,0,0:0:0:0:
448,192,65931,1,0,0:0:0:0:
192,192,66131,1,0,0:0:0:0:
320,192,66156,1,0,0:0:0:0:
192,192,66231,1,0,0:0:0:0:
64,192,66231,1,0,0:0:0:0:
448,192,66231,1,0,0:0:0:0:
320,192,66431,1,0,0:0:0:0:
448,192,66431,1,0,0:0:0:0:
192,192,66531,128,0,66631:0:0:0:0:
320,192,66531,128,0,66606:0:0:0:0:
320,192,66681,1,0,0:0:0:0:
192,192,66706,128,0,66831:0:0:0:0:
64,192,66731,128,0,66831:0:0:0:0:
320,192,66831,1,0,0:0:0:0:
448,192,66831,1,0,0:0:0:0:
64,192,67431,1,0,0:0:0:0:
192,192,67431,1,0,0:0:0:0:
448,192,67431,1,0,0:0:0:0:
192,192,67631,1,0,0:0:0:0:
320,192,67631,1,0,0:0:0:0:
448,192,67731,128,0,67806:0:0:0:0:
64,192,67756,128,0,67806:0:0:0:0:
64,192,67931,128,0,68006:0:0:0:0:
448,192,67956,128,0,68006:0:0:0:0:
192,192,68031,1,0,0:0:0:0:
320,192,68231,1,0,0:0:0:0:
64,192,68231,1,0,0:0:0:0:
320,192,68331,1,0,0:0:0:0:
448,192,68331,128,0,68531:0:0:0:0:
320,192,68531,1,0,0:0:0:0:
64,192,68631,1,0,0:0:0:0:
192,192,68631,1,0,0:0:0:0:
448,192,68631,128,0,68831:0:0:0:0:
192,192,68831,1,0,0:0:0:0:
320,192,68831,128,0,69106:0:0:0:0:
192,192,68931,128,0,69131:0:0:0:0:
448,192,69131,128,0,69181:0:0:0:0:
320,192,69181,128,0,69231:0:0:0:0:
192,192,69231,128,0,69381:0:0:0:0:
64,192,69231,1,0,0:0:0:0:
64,192,69331,128,0,69531:0:0:0:0:
192,192,69456,128,0,69531:0:0:0:0:
320,192,69481,128,0,69731:0:0:0:0:
448,192,69506,128,0,69731:0:0:0:0:
192,192,69731,1,0,0:0:0:0:
192,192,69831,1,0,0:0:0:0:
320,192,69831,1,0,0:0:0:0:
448,192,69831,1,0,0:0:0:0:
320,192,70131,1,0,0:0:0:0:
448,192,70131,1,0,0:0:0:0:
448,192,70231,128,0,70381:0:0:0:0:
320,192,70256,1,0,0:0:0:0:
192,192,70281,128,0,70356:0:0:0:0:
64,192,70381,1,0,0:0:0:0:
320,192,70431,1,0,0:0:0:0:
192,192,70431,128,0,70506:0:0:0:0:
448,192,70481,128,0,70531:0:0:0:0:
320,192,70531,128,0,70706:0:0:0:0:
192,192,70581,1,0,0:0:0:0:
64,192,70631,128,0,70856:0:0:0:0:
192,192,70731,1,0,0:0:0:0:
320,192,70756,128,0,70881:0:0:0:0:
448,192,70781,1,0,0:0:0:0:
192,192,70881,1,0,0:0:0:0:
64,192,70931,1,0,0:0:0:0:
64,192,71031,1,0,0:0:0:0:
448,192,71031,1,0,0:0:0:0:
320,192,71031,128,0,71306:0:0:0:0:
448,192,71131,128,0,71331:0:0:0:0:
64,192,71331,128,0,71531:0:0:0:0:
192,192,71356,128,0,71531:0:0:0:0:
320,192,71381,1,0,0:0:0:0:
448,192,71406,1,0,0:0:0:0:
64,192,71631,1,0,0:0:0:0:
192,192,71681,128,0,71731:0:0:0:0:
64,192,71731,1,0,0:0:0:0:
320,192,72131,1,0,0:0:0:0:
192,192,72131,1,0,0:0:0:0:
192,192,72231,1,0,0:0:0:0:
64,192,72231,1,0,0:0:0:0:
448,192,72231,1,0,0:0:0:0:
448,192,72531,1,0,0:0:0:0:
320,192,72531,128,0,72956:0:0:0:0:
448,192,72631,128,0,72981:0:0:0:0:
320,192,73031,1,0,0:0:0:0:
448,192,73056,1,0,0:0:0:0:
192,192,73131,128,0,73331:0:0:0:0:
320,192,73131,128,0,73331:0:0:0:0:
64,192,73331,1,0,0:0:0:0:
448,192,73431,1,0,0:0:0:0:
320,192,73431,1,0,0:0:0:0:
192,192,73431,1,0,0:0:0:0:
192,192,73531,1,0,0:0:0:0:
320,192,73556,1,0,0:0:0:0:
448,192,73581,1,0,0:0:0:0:
64,192,73656,1,0,0:0:0:0:
192,192,73681,1,0,0:0:0:0:
448,192,73706,1,0,0:0:0:0:
320,192,73731,128,0,73781:0:0:0:0:
64,192,73781,128,0,73831:0:0:0:0:
448,192,73831,128,0,73881:0:0:0:0:
192,192,73881,128,0,73931:0:0:0:0:
320,192,73931,128,0,73981:0:0:0:0:
448,192,73981,128,0,74031:0:0:0:0:
64,192,74031,1,0,0:0:0:0:
192,192,74031,128,0,74156:0:0:0:0:
64,192,74131,128,0,74481:0:0:0:0:
192,192,74231,128,0,74456:0:0:0:0:
192,192,74531,1,0,0:0:0:0:
64,192,74556,1,0,0:0:0:0:
320,192,74631,1,0,0:0:0:0:
192,192,74631,1,0,0:0:0:0:
448,192,74631,1,0,0:0:0:0:
320,192,74931,1,0,0:0:0:0:
192,192,74981,1,0,0:0:0:0:
64,192,75031,1,0,0:0:0:0:
320,192,75081,1,0,0:0:0:0:
448,192,75131,1,0,0:0:0:0:
320,192,75181,1,0,0:0:0:0:
192,192,75231,128,0,75356:0:0:0:0:
64,192,75256,1,0,0:0:0:0:
320,192,75431,1,0,0:0:0:0:
192,192,75431,1,0,0:0:0:0:
320,192,75531,1,0,0:0:0:0:
448,192,75531,1,0,0:0:0:0:
192,192,75731,1,0,0:0:0:0:
192,192,75831,1,0,0:0:0:0:
448,192,75831,1,0,0:0:0:0:
448,192,76031,1,0,0:0:0:0:
192,192,76131,128,0,76181:0:0:0:0:
448,192,76331,128,0,76431:0:0:0:0:
64,192,76331,128,0,76431:0:0:0:0:
192,192,76981,1,0,0:0:0:0:
320,192,77031,1,0,0:0:0:0:
64,192,77031,1,0,0:0:0:0:
448,192,77231,1,0,0:0:0:0:
320,192,77331,1,0,0:0:0:0:
192,192,77331,1,0,0:0:0:0:
64,192,77431,1,0,0:0:0:0:
320,192,77531,1,0,0:0:0:0:
192,192,77631,1,0,0:0:0:0:
64,192,77681,1,0,0:0:0:0:
320,192,77731,1,0,0:0:0:0:
192,192,77781,1,0,0:0:0:0:
448,192,77831,1,0,0:0:0:0:
64,192,77831,1,0,0:0:0:0:
192,192,77931,128,0,78006:0:0:0:0:
320,192,77931,128,0,78031:0:0:0:0:
192,192,78081,1,0,0:0:0:0:
320,192,78106,128,0,78156:0:0:0:0:
448,192,78131,128,0,78231:0:0:0:0:
64,192,78231,1,0,0:0:0:0:
320,192,78231,1,0,0:0:0:0:
192,192,78231,1,0,0:0:0:0:
64,192,78331,1,0,0:0:0:0:
192,192,78356,128,0,78606:0:0:0:0:
320,192,78381,128,0,78706:0:0:0:0:
448,192,78531,1,0,0:0:0:0:
64,192,78581,1,0,0:0:0:0:
448,192,78631,1,0,0:0:0:0:
192,192,78681,128,0,78756:0:0:0:0:
448,192,78731,1,0,0:0:0:0:
320,192,78781,128,0,78831:0:0:0:0:
192,192,78831,128,0,78981:0:0:0:0:
64,192,78831,1,0,0:0:0:0:
64,192,78931,128,0,79131:0:0:0:0:
192,192,79056,128,0,79131:0:0:0:0:
320,192,79081,128,0,79331:0:0:0:0:
448,192,79106,128,0,79331:0:0:0:0:
192,192,79331,1,0,0:0:0:0:
192,192,79431,1,0,0:0:0:0:
320,192,79431,1,0,0:0:0:0:
448,192,79431,1,0,0:0:0:0:
192,192,79531,128,0,79581:0:0:0:0:
64,192,79556,1,0,0:0:0:0:
320,192,79731,1,0,0:0:0:0:
448,192,79731,1,0,0:0:0:0:
448,192,79831,128,0,79981:0:0:0:0:
320,192,79856,1,0,0:0:0:0:
192,192,79881,128,0,80081:0:0:0:0:
320,192,80031,1,0,0:0:0:0:
448,192,80056,128,0,80131:0:0:0:0:
320,192,80131,128,0,80256:0:0:0:0:
192,192,80156,1,0,0:0:0:0:
64,192,80181,128,0,80406:0:0:0:0:
320,192,80331,1,0,0:0:0:0:
448,192,80356,1,0,0:0:0:0:
320,192,80431,128,0,80556:0:0:0:0:
192,192,80456,1,0,0:0:0:0:
64,192,80481,128,0,80556:0:0:0:0:
64,192,80631,1,0,0:0:0:0:
320,192,80631,1,0,0:0:0:0:
448,192,80631,1,0,0:0:0:0:
64,192,80731,128,0,80856:0:0:0:0:
448,192,80731,128,0,80931:0:0:0:0:
64,192,80931,1,0,0:0:0:0:
192,192,80956,128,0,81231:0:0:0:0:
320,192,80981,128,0,81231:0:0:0:0:
448,192,81006,1,0,0:0:0:0:
448,192,81531,128,0,81631:0:0:0:0:
320,192,81731,1,0,0:0:0:0:
192,192,81731,1,0,0:0:0:0:
192,192,81831,1,0,0:0:0:0:
64,192,81831,1,0,0:0:0:0:
448,192,81831,1,0,0:0:0:0:
320,192,82031,1,0,0:0:0:0:
448,192,82131,1,0,0:0:0:0:
320,192,82131,1,0,0:0:0:0:
448,192,82331,1,0,0:0:0:0:
64,192,82431,1,0,0:0:0:0:
320,192,82431,128,0,82631:0:0:0:0:
448,192,82431,128,0,82631:0:0:0:0:
192,192,82631,1,0,0:0:0:0:
192,192,82731,128,0,82931:0:0:0:0:
320,192,82731,128,0,82931:0:0:0:0:
64,192,82931,1,0,0:0:0:0:
64,192,83031,1,0,0:0:0:0:
192,192,83031,1,0,0:0:0:0:
320,192,83031,1,0,0:0:0:0:
64,192,83231,128,0,83381:0:0:0:0:
192,192,83331,1,0,0:0:0:0:
320,192,83356,1,0,0:0:0:0:
448,192,83381,1,0,0:0:0:0:
320,192,83531,128,0,83631:0:0:0:0:
64,192,83631,1,0,0:0:0:0:
192,192,83631,128,0,83756:0:0:0:0:
64,192,83731,128,0,84081:0:0:0:0:
192,192,83831,128,0,84056:0:0:0:0:
448,192,83931,128,0,83981:0:0:0:0:
192,192,84131,1,0,0:0:0:0:
64,192,84156,1,0,0:0:0:0:
320,192,84231,1,0,0:0:0:0:
192,192,84231,1,0,0:0:0:0:
448,192,84231,1,0,0:0:0:0:
192,192,84531,128,0,84631:0:0:0:0:
320,192,84531,128,0,84631:0:0:0:0:
320,192,84731,128,0,84831:0:0:0:0:
448,192,84781,1,0,0:0:0:0:
192,192,84831,128,0,84956:0:0:0:0:
64,192,84856,128,0,85031:0:0:0:0:
320,192,85031,1,0,0:0:0:0:
192,192,85031,1,0,0:0:0:0:
320,192,85131,1,0,0:0:0:0:
448,192,85131,1,0,0:0:0:0:
192,192,85331,1,0,0:0:0:0:
320,192,85356,1,0,0:0:0:0:
192,192,85431,1,0,0:0:0:0:
64,192,85431,1,0,0:0:0:0:
448,192,85431,1,0,0:0:0:0:
320,192,85631,1,0,0:0:0:0:
448,192,85631,1,0,0:0:0:0:
192,192,85731,128,0,85831:0:0:0:0:
320,192,85731,128,0,85806:0:0:0:0:
320,192,85881,1,0,0:0:0:0:
192,192,85906,128,0,86031:0:0:0:0:
64,192,85931,128,0,86031:0:0:0:0:
320,192,86031,1,0,0:0:0:0:
448,192,86031,1,0,0:0:0:0:
192,192,86331,128,0,86381:0:0:0:0:
320,192,86331,128,0,86381:0:0:0:0:
64,192,86631,1,0,0:0:0:0:
192,192,86631,1,0,0:0:0:0:
448,192,86631,1,0,0:0:0:0:
192,192,86831,1,0,0:0:0:0:
320,192,86831,1,0,0:0:0:0:
448,192,86931,128,0,87031:0:0:0:0:
64,192,86956,128,0,87006:0:0:0:0:
64,192,87131,128,0,87231:0:0:0:0:
448,192,87156,128,0,87206:0:0:0:0:
192,192,87231,1,0,0:0:0:0:
320,192,87431,1,0,0:0:0:0:
64,192,87431,1,0,0:0:0:0:
320,192,87531,1,0,0:0:0:0:
448,192,87531,128,0,87731:0:0:0:0:
192,192,87631,1,0,0:0:0:0:
64,192,87681,1,0,0:0:0:0:
192,192,87731,1,0,0:0:0:0:
320,192,87781,1,0,0:0:0:0:
192,192,87831,1,0,0:0:0:0:
448,192,87831,1,0,0:0:0:0:
64,192,87831,1,0,0:0:0:0:
320,192,87931,128,0,88056:0:0:0:0:
192,192,88031,128,0,88181:0:0:0:0:
64,192,88056,128,0,88156:0:0:0:0:
64,192,88231,128,0,88356:0:0:0:0:
192,192,88256,128,0,88356:0:0:0:0:
320,192,88281,128,0,88431:0:0:0:0:
448,192,88356,128,0,88431:0:0:0:0:
192,192,88431,128,0,88581:0:0:0:0:
64,192,88431,1,0,0:0:0:0:
64,192,88531,128,0,88731:0:0:0:0:
448,192,88581,128,0,88931:0:0:0:0:
192,192,88656,128,0,88731:0:0:0:0:
320,192,88681,128,0,88931:0:0:0:0:
192,192,88931,1,0,0:0:0:0:
192,192,89031,1,0,0:0:0:0:
320,192,89031,1,0,0:0:0:0:
448,192,89031,1,0,0:0:0:0:
320,192,89331,1,0,0:0:0:0:
448,192,89331,1,0,0:0:0:0:
448,192,89431,128,0,89556:0:0:0:0:
320,192,89456,1,0,0:0:0:0:
192,192,89481,128,0,89656:0:0:0:0:
64,192,89531,128,0,89731:0:0:0:0:
448,192,89631,128,0,89706:0:0:0:0:
192,192,89731,1,0,0:0:0:0:
320,192,89756,1,0,0:0:0:0:
448,192,89781,1,0,0:0:0:0:
64,192,89931,1,0,0:0:0:0:
192,192,89956,1,0,0:0:0:0:
320,192,89981,128,0,90131:0:0:0:0:
64,192,90031,128,0,90131:0:0:0:0:
192,192,90131,128,0,90231:0:0:0:0:
64,192,90231,1,0,0:0:0:0:
448,192,90231,1,0,0:0:0:0:
320,192,90231,128,0,90356:0:0:0:0:
448,192,90331,128,0,90531:0:0:0:0:
320,192,90431,128,0,90506:0:0:0:0:
64,192,90531,1,0,0:0:0:0:
192,192,90556,128,0,90731:0:0:0:0:
320,192,90581,1,0,0:0:0:0:
448,192,90606,1,0,0:0:0:0:
64,192,90631,128,0,90731:0:0:0:0:
64,192,90831,1,0,0:0:0:0:
192,192,90881,128,0,90931:0:0:0:0:
64,192,90931,1,0,0:0:0:0:
192,192,91131,128,0,91231:0:0:0:0:
448,192,91131,128,0,91231:0:0:0:0:
320,192,91331,1,0,0:0:0:0:
192,192,91331,1,0,0:0:0:0:
192,192,91431,1,0,0:0:0:0:
64,192,91431,1,0,0:0:0:0:
448,192,91431,1,0,0:0:0:0:
448,192,91731,1,0,0:0:0:0:
320,192,91731,128,0,92231:0:0:0:0:
448,192,91831,128,0,92156:0:0:0:0:
64,192,92031,128,0,92131:0:0:0:0:
192,192,92031,128,0,92131:0:0:0:0:
448,192,92231,128,0,92331:0:0:0:0:
192,192,92331,128,0,92531:0:0:0:0:
320,192,92331,128,0,92531:0:0:0:0:
64,192,92531,1,0,0:0:0:0:
448,192,92631,1,0,0:0:0:0:
320,192,92631,1,0,0:0:0:0:
192,192,92631,1,0,0:0:0:0:
192,192,92731,1,0,0:0:0:0:
320,192,92756,1,0,0:0:0:0:
448,192,92781,1,0,0:0:0:0:
64,192,92856,1,0,0:0:0:0:
192,192,92881,1,0,0:0:0:0:
448,192,92906,1,0,0:0:0:0:
320,192,92931,128,0,93031:0:0:0:0:
64,192,92981,128,0,93081:0:0:0:0:
448,192,93031,128,0,93131:0:0:0:0:
192,192,93081,128,0,93131:0:0:0:0:
320,192,93131,128,0,93181:0:0:0:0:
448,192,93181,128,0,93231:0:0:0:0:
64,192,93231,1,0,0:0:0:0:
192,192,93231,128,0,93356:0:0:0:0:
64,192,93331,128,0,93681:0:0:0:0:
192,192,93431,128,0,93656:0:0:0:0:
448,192,93531,128,0,93581:0:0:0:0:
192,192,93731,1,0,0:0:0:0:
64,192,93756,1,0,0:0:0:0:
192,192,93831,1,0,0:0:0:0:
448,192,93831,1,0,0:0:0:0:
448,192,94131,128,0,94256:0:0:0:0:
192,192,94181,128,0,94331:0:0:0:0:
320,192,94331,128,0,94431:0:0:0:0:
448,192,94331,128,0,94431:0:0:0:0:
64,192,94431,1,0,0:0:0:0:
192,192,94431,128,0,94631:0:0:0:0:
64,192,94531,128,0,94631:0:0:0:0:
320,192,94631,1,0,0:0:0:0:
192,192,94731,128,0,94931:0:0:0:0:
448,192,94931,128,0,95031:0:0:0:0:
320,192,95031,1,0,0:0:0:0:
64,192,95031,1,0,0:0:0:0:
64,192,95231,128,0,95331:0:0:0:0:
320,192,95331,128,0,95531:0:0:0:0:
192,192,95331,128,0,95631:0:0:0:0:
448,192,95531,128,0,95631:0:0:0:0:
320,192,95631,1,0,0:0:0:0:
64,192,95631,1,0,0:0:0:0:
448,192,95931,128,0,96131:0:0:0:0:
64,192,96231,1,0,0:0:0:0:
192,192,96231,1,0,0:0:0:0:
192,192,96431,128,0,96531:0:0:0:0:
320,192,96431,1,0,0:0:0:0:
448,192,96531,128,0,96731:0:0:0:0:
64,192,96531,1,0,0:0:0:0:
64,192,96731,1,0,0:0:0:0:
448,192,96831,128,0,97256:0:0:0:0:
192,192,97031,1,0,0:0:0:0:
192,192,97131,1,0,0:0:0:0:
320,192,97131,1,0,0:0:0:0:
64,192,97331,1,0,0:0:0:0:
448,192,97331,128,0,97556:0:0:0:0:
320,192,97431,128,0,97731:0:0:0:0:
448,192,97631,128,0,97731:0:0:0:0:
192,192,97731,1,0,0:0:0:0:
64,192,97731,1,0,0:0:0:0:
192,192,98031,1,0,0:0:0:0:
64,192,98631,1,0,0:0:0:0:
320,192,98631,1,0,0:0:0:0:
320,192,98731,128,0,98931:0:0:0:0:
192,192,98931,128,0,98981:0:0:0:0:
64,192,98931,128,0,98981:0:0:0:0:
64,192,99131,1,0,0:0:0:0:
320,192,99231,1,0,0:0:0:0:
192,192,99231,128,0,99431:0:0:0:0:
320,192,99431,1,0,0:0:0:0:
64,192,99431,1,0,0:0:0:0:
64,192,99531,1,0,0:0:0:0:
192,192,99531,1,0,0:0:0:0:
448,192,99631,128,0,99731:0:0:0:0:
320,192,99731,1,0,0:0:0:0:
192,192,99781,1,0,0:0:0:0:
64,192,99831,1,0,0:0:0:0:
448,192,99831,1,0,0:0:0:0:
192,192,100031,1,0,0:0:0:0:
320,192,100056,1,0,0:0:0:0:
320,192,100131,1,0,0:0:0:0:
192,192,100156,1,0,0:0:0:0:
192,192,100331,1,0,0:0:0:0:
320,192,100356,1,0,0:0:0:0:
448,192,100431,128,0,100556:0:0:0:0:
64,192,100431,128,0,100581:0:0:0:0:
448,192,100631,1,0,0:0:0:0:
64,192,100656,1,0,0:0:0:0:
192,192,100731,1,0,0:0:0:0:
320,192,100731,128,0,101031:0:0:0:0:
192,192,100931,1,0,0:0:0:0:
448,192,100931,128,0,101031:0:0:0:0:
192,192,101031,1,0,0:0:0:0:
64,192,101031,1,0,0:0:0:0:
320,192,101231,1,0,0:0:0:0:
192,192,101256,1,0,0:0:0:0:
320,192,101331,128,0,101481:0:0:0:0:
448,192,101381,1,0,0:0:0:0:
192,192,101531,1,0,0:0:0:0:
320,192,101556,1,0,0:0:0:0:
64,192,101631,128,0,101781:0:0:0:0:
448,192,101631,128,0,101756:0:0:0:0:
448,192,101831,1,0,0:0:0:0:
64,192,101856,1,0,0:0:0:0:
320,192,101931,1,0,0:0:0:0:
192,192,101931,128,0,102131:0:0:0:0:
448,192,102031,1,0,0:0:0:0:
448,192,102131,1,0,0:0:0:0:
192,192,102231,1,0,0:0:0:0:
64,192,102231,1,0,0:0:0:0:
320,192,102331,128,0,102431:0:0:0:0:
448,192,102431,128,0,102531:0:0:0:0:
64,192,102456,1,0,0:0:0:0:
192,192,102531,1,0,0:0:0:0:
320,192,102556,1,0,0:0:0:0:
320,192,102731,1,0,0:0:0:0:
192,192,102756,1,0,0:0:0:0:
64,192,102831,1,0,0:0:0:0:
320,192,102931,1,0,0:0:0:0:
192,192,103031,1,0,0:0:0:0:
448,192,103131,128,0,103356:0:0:0:0:
320,192,103181,1,0,0:0:0:0:
192,192,103231,1,0,0:0:0:0:
64,192,103281,1,0,0:0:0:0:
192,192,103331,1,0,0:0:0:0:
320,192,103381,1,0,0:0:0:0:
448,192,103431,1,0,0:0:0:0:
64,192,103431,128,0,103731:0:0:0:0:
192,192,103481,1,0,0:0:0:0:
320,192,103531,1,0,0:0:0:0:
448,192,103581,1,0,0:0:0:0:
192,192,103631,1,0,0:0:0:0:
448,192,103731,128,0,103781:0:0:0:0:
320,192,103731,128,0,103781:0:0:0:0:
448,192,103931,1,0,0:0:0:0:
448,192,104031,1,0,0:0:0:0:
320,192,104031,128,0,104231:0:0:0:0:
192,192,104081,1,0,0:0:0:0:
64,192,104131,1,0,0:0:0:0:
448,192,104231,1,0,0:0:0:0:
320,192,104331,1,0,0:0:0:0:
192,192,104331,128,0,104631:0:0:0:0:
64,192,104531,1,0,0:0:0:0:
320,192,104531,128,0,104631:0:0:0:0:
64,192,104631,1,0,0:0:0:0:
448,192,104631,1,0,0:0:0:0:
320,192,104831,1,0,0:0:0:0:
192,192,104856,1,0,0:0:0:0:
192,192,104931,1,0,0:0:0:0:
320,192,104956,1,0,0:0:0:0:
320,192,105131,1,0,0:0:0:0:
192,192,105156,1,0,0:0:0:0:
64,192,105231,128,0,105456:0:0:0:0:
192,192,105381,128,0,105456:0:0:0:0:
320,192,105406,1,0,0:0:0:0:
448,192,105431,128,0,105531:0:0:0:0:
64,192,105531,1,0,0:0:0:0:
192,192,105531,128,0,105831:0:0:0:0:
320,192,105731,1,0,0:0:0:0:
64,192,105731,128,0,105831:0:0:0:0:
320,192,105831,1,0,0:0:0:0:
448,192,105831,1,0,0:0:0:0:
192,192,106031,1,0,0:0:0:0:
320,192,106056,1,0,0:0:0:0:
320,192,106131,1,0,0:0:0:0:
192,192,106156,1,0,0:0:0:0:
192,192,106331,1,0,0:0:0:0:
320,192,106356,1,0,0:0:0:0:
448,192,106431,128,0,106656:0:0:0:0:
320,192,106581,128,0,106656:0:0:0:0:
192,192,106606,1,0,0:0:0:0:
64,192,106631,128,0,106731:0:0:0:0:
320,192,106731,128,0,107031:0:0:0:0:
448,192,106731,1,0,0:0:0:0:
192,192,106831,128,0,106931:0:0:0:0:
448,192,106931,128,0,107031:0:0:0:0:
64,192,106931,1,0,0:0:0:0:
192,192,107031,1,0,0:0:0:0:
64,192,107031,1,0,0:0:0:0:
192,192,107331,1,0,0:0:0:0:
64,192,107356,1,0,0:0:0:0:
448,192,107531,1,0,0:0:0:0:
320,192,107556,1,0,0:0:0:0:
192,192,107631,1,0,0:0:0:0:
64,192,107631,1,0,0:0:0:0:
192,192,107731,1,0,0:0:0:0:
64,192,107781,1,0,0:0:0:0:
192,192,107831,1,0,0:0:0:0:
448,192,107831,1,0,0:0:0:0:
64,192,108231,1,0,0:0:0:0:
320,192,108231,1,0,0:0:0:0:
320,192,108331,128,0,108531:0:0:0:0:
192,192,108531,128,0,108581:0:0:0:0:
64,192,108531,128,0,108581:0:0:0:0:
64,192,108731,1,0,0:0:0:0:
320,192,108831,1,0,0:0:0:0:
192,192,108831,128,0,109031:0:0:0:0:
320,192,109031,1,0,0:0:0:0:
64,192,109031,1,0,0:0:0:0:
64,192,109131,1,0,0:0:0:0:
192,192,109131,1,0,0:0:0:0:
448,192,109231,128,0,109331:0:0:0:0:
320,192,109331,1,0,0:0:0:0:
192,192,109381,1,0,0:0:0:0:
64,192,109431,1,0,0:0:0:0:
448,192,109431,1,0,0:0:0:0:
192,192,109631,1,0,0:0:0:0:
320,192,109656,1,0,0:0:0:0:
320,192,109731,1,0,0:0:0:0:
192,192,109756,1,0,0:0:0:0:
192,192,109931,1,0,0:0:0:0:
320,192,109956,1,0,0:0:0:0:
448,192,110031,128,0,110156:0:0:0:0:
64,192,110031,128,0,110181:0:0:0:0:
448,192,110231,1,0,0:0:0:0:
64,192,110256,1,0,0:0:0:0:
192,192,110331,1,0,0:0:0:0:
320,192,110331,128,0,110631:0:0:0:0:
192,192,110531,1,0,0:0:0:0:
448,192,110531,128,0,110631:0:0:0:0:
192,192,110631,1,0,0:0:0:0:
64,192,110631,1,0,0:0:0:0:
320,192,110831,1,0,0:0:0:0:
192,192,110856,1,0,0:0:0:0:
320,192,110931,128,0,111081:0:0:0:0:
448,192,110981,1,0,0:0:0:0:
192,192,111131,1,0,0:0:0:0:
320,192,111156,1,0,0:0:0:0:
64,192,111231,128,0,111381:0:0:0:0:
448,192,111231,128,0,111356:0:0:0:0:
448,192,111431,1,0,0:0:0:0:
64,192,111456,1,0,0:0:0:0:
320,192,111531,1,0,0:0:0:0:
192,192,111531,128,0,111731:0:0:0:0:
448,192,111631,1,0,0:0:0:0:
448,192,111731,1,0,0:0:0:0:
192,192,111831,1,0,0:0:0:0:
64,192,111831,1,0,0:0:0:0:
320,192,111931,128,0,112031:0:0:0:0:
448,192,112031,128,0,112131:0:0:0:0:
64,192,112056,1,0,0:0:0:0:
192,192,112131,1,0,0:0:0:0:
320,192,112156,1,0,0:0:0:0:
320,192,112331,1,0,0:0:0:0:
192,192,112356,1,0,0:0:0:0:
64,192,112431,1,0,0:0:0:0:
320,192,112531,1,0,0:0:0:0:
192,192,112631,1,0,0:0:0:0:
448,192,112731,128,0,112956:0:0:0:0:
320,192,112781,1,0,0:0:0:0:
192,192,112831,1,0,0:0:0:0:
64,192,112881,1,0,0:0:0:0:
192,192,112931,1,0,0:0:0:0:
320,192,112981,1,0,0:0:0:0:
448,192,113031,1,0,0:0:0:0:
64,192,113031,128,0,113331:0:0:0:0:
192,192,113081,1,0,0:0:0:0:
320,192,113131,1,0,0:0:0:0:
448,192,113181,1,0,0:0:0:0:
192,192,113231,1,0,0:0:0:0:
448,192,113331,128,0,113381:0:0:0:0:
320,192,113331,128,0,113381:0:0:0:0:
448,192,113531,1,0,0:0:0:0:
448,192,113631,1,0,0:0:0:0:
320,192,113631,128,0,113831:0:0:0:0:
192,192,113681,1,0,0:0:0:0:
64,192,113731,1,0,0:0:0:0:
448,192,113831,128,0,113931:0:0:0:0:
192,192,113931,128,0,114231:0:0:0:0:
320,192,113931,128,0,114031:0:0:0:0:
448,192,114031,128,0,114131:0:0:0:0:
64,192,114131,1,0,0:0:0:0:
320,192,114131,128,0,114231:0:0:0:0:
64,192,114231,128,0,114531:0:0:0:0:
448,192,114231,128,0,114531:0:0:0:0:
320,192,114431,1,0,0:0:0:0:
192,192,114456,1,0,0:0:0:0:
192,192,114531,1,0,0:0:0:0:
320,192,114556,1,0,0:0:0:0:
320,192,114731,1,0,0:0:0:0:
192,192,114756,1,0,0:0:0:0:
64,192,114831,128,0,115056:0:0:0:0:
192,192,114981,128,0,115056:0:0:0:0:
320,192,115006,1,0,0:0:0:0:
448,192,115031,128,0,115131:0:0:0:0:
64,192,115131,1,0,0:0:0:0:
192,192,115131,128,0,115431:0:0:0:0:
320,192,115156,1,0,0:0:0:0:
64,192,115331,1,0,0:0:0:0:
320,192,115331,128,0,115431:0:0:0:0:
64,192,115431,128,0,115731:0:0:0:0:
448,192,115431,128,0,115731:0:0:0:0:
192,192,115631,1,0,0:0:0:0:
320,192,115656,1,0,0:0:0:0:
320,192,115731,1,0,0:0:0:0:
192,192,115756,1,0,0:0:0:0:
192,192,115931,1,0,0:0:0:0:
320,192,115956,1,0,0:0:0:0:
448,192,116031,128,0,116256:0:0:0:0:
320,192,116181,128,0,116256:0:0:0:0:
192,192,116206,1,0,0:0:0:0:
64,192,116231,128,0,116331:0:0:0:0:
320,192,116331,128,0,116631:0:0:0:0:
448,192,116331,1,0,0:0:0:0:
192,192,116431,128,0,116531:0:0:0:0:
448,192,116531,128,0,116631:0:0:0:0:
64,192,116531,1,0,0:0:0:0:
192,192,116631,1,0,0:0:0:0:
64,192,116631,1,0,0:0:0:0:
320,192,116731,128,0,116931:0:0:0:0:
192,192,116931,1,0,0:0:0:0:
64,192,116956,1,0,0:0:0:0:
448,192,117131,1,0,0:0:0:0:
320,192,117156,1,0,0:0:0:0:
192,192,117231,1,0,0:0:0:0:
