osu file format v14

[General]
AudioFilename: audio.mp3
AudioLeadIn: 0
PreviewTime: 46907
Countdown: 1
SampleSet: Normal
StackLeniency: 0.7
Mode: 1
LetterboxInBreaks: 0
WidescreenStoryboard: 0

[Editor]
Bookmarks: 41503
DistanceSpacing: 1.3
BeatDivisor: 4
GridSize: 32
TimelineZoom: 2.899999

[Metadata]
Title:Chilli Daddy
TitleUnicode:Chilli Daddy
Artist:KOAN Sound
ArtistUnicode:KOAN Sound
Creator:HiroK
Version:Inner Oni
Source:
Tags:instrumental electronic polychrome featured artist fa
BeatmapID:2732016
BeatmapSetID:1318794

[Difficulty]
HPDrainRate:6
CircleSize:5
OverallDifficulty:6.3
ApproachRate:5
SliderMultiplier:1.4
SliderTickRate:1

[Events]
//Background and Video events
0,0,"bg.jpg",0,0
//Break Periods
//Storyboard Layer 0 (Background)
//Storyboard Layer 1 (Fail)
//Storyboard Layer 2 (Pass)
//Storyboard Layer 3 (Foreground)
//Storyboard Layer 4 (Overlay)
//Storyboard Sound Samples

[TimingPoints]
143,372.670807453416,4,1,0,35,1,0
143,-117.647058823529,4,1,0,35,0,0
11649,-116.279069767442,4,1,0,35,0,0
11742,-114.942528735632,4,1,0,35,0,0
11835,-113.636363636364,4,1,0,35,0,0
11928,-112.359550561798,4,1,0,35,0,0
12021,-111.111111111111,4,1,0,45,0,0
23202,-108.695652173913,4,1,0,45,0,0
23295,-106.382978723404,4,1,0,45,0,0
23388,-104.166666666667,4,1,0,45,0,0
23481,-102.040816326531,4,1,0,45,0,0
23574,-100,4,1,0,45,0,0
23667,-98.0392156862745,4,1,0,45,0,0
23761,-96.1538461538461,4,1,0,45,0,0
23854,-94.3396226415094,4,1,0,45,0,0
23947,-92.5925925925926,4,1,0,45,0,0
23993,-90.9090909090909,4,1,0,55,0,0
24832,-111.111111111111,4,1,0,55,0,0
26928,-90.9090909090908,4,1,0,55,0,0
27813,-111.111111111111,4,1,0,45,0,0
28372,-71.4285714285714,4,1,0,55,0,0
28559,-76.9230769230769,4,1,0,55,0,0
28931,-83.3333333333333,4,1,0,55,0,0
29164,-90.9090909090908,4,1,0,55,0,0
29490,-111.111111111111,4,1,0,55,0,0
29910,-90.9090909090909,4,1,0,55,0,0
30888,-111.111111111111,4,1,0,45,0,0
32844,-90.9090909090908,4,1,0,55,0,0
33962,-100,4,1,0,45,0,0
36012,-111.111111111111,4,1,0,45,0,0
46936,-112.359550561798,4,1,0,45,0,0
47052,-113.636363636364,4,1,0,45,0,0
47146,-114.942528735632,4,1,0,45,0,0
47239,-116.279069767442,4,1,0,45,0,0
47332,-117.647058823529,4,1,0,45,0,0
47425,-119.047619047619,4,1,0,45,0,0
47518,-120.481927710843,4,1,0,45,0,0
47611,-121.951219512195,4,1,0,45,0,0
47751,-125,4,1,0,45,0,0
47844,-125,4,1,0,55,0,1
71649,-100,4,1,0,55,0,1
71695,-100,4,1,0,55,0,0
95639,-117.647058823529,4,1,0,45,0,0
119304,-100,4,1,0,50,0,0
143341,-125,4,1,0,35,0,0
165326,-124.139462580502,4,1,0,35,0,0
165372,-123.718185171523,4,1,0,35,0,0
165419,-123.290692545214,4,1,0,35,0,0
165512,-122.453450164294,4,1,0,35,0,0
165557,-121.627502175805,4,1,0,40,0,0
165699,-120.803918743697,4,1,0,40,0,0
165792,-120,4,1,0,40,0,0
165885,-119.20671026443,4,1,0,40,0,0
165978,-118.423840124285,4,1,0,40,0,0
166071,-117.651185632103,4,1,0,40,0,0
166164,-116.888548128529,4,1,0,40,0,0
166258,-116.127691988089,4,1,0,40,0,0
166351,-115.384615384615,4,1,0,40,0,0
166444,-114.650987899091,4,1,0,40,0,0
166537,-113.926630434783,4,1,0,40,0,0
166630,-113.211368392628,4,1,0,40,0,0
166723,-112.505031530927,4,1,0,40,0,0
166817,-111.8,4,1,0,40,0,0
166910,-111.111111111111,4,1,0,40,0,0
167004,-111.111111111111,4,1,0,45,0,0
172873,-108.695652173913,4,1,0,47,0,0
173432,-106.382978723404,4,1,0,49,0,0
174178,-104.166666666667,4,1,0,51,0,0
174923,-102.040816326531,4,1,0,53,0,0
175855,-100,4,1,0,55,0,0
179118,-102.040816326531,4,1,0,45,0,0
179257,-104.166666666667,4,1,0,45,0,0
179351,-106.382978723404,4,1,0,40,0,0
179444,-108.695652173913,4,1,0,40,0,0
179537,-111.111111111111,4,1,0,40,0,0
179630,-113.636363636364,4,1,0,40,0,0
179723,-116.279069767442,4,1,0,35,0,0
179816,-119.047619047619,4,1,0,35,0,0
179910,-121.951219512195,4,1,0,35,0,0
180049,-125,4,1,0,45,0,0
180236,-97.5609756097561,4,1,0,45,0,0
180422,-88.1057268722467,4,1,0,55,0,0
180515,-80,4,1,0,55,0,1
202875,-80,4,1,0,55,0,0
202969,-100,4,1,0,50,0,0
214894,-111.111111111111,4,1,0,50,0,0

[HitObjects]
258,186,143,5,0,0:0:0:0:
258,186,515,1,8,0:0:0:0:
258,186,888,1,8,0:0:0:0:
258,186,1261,1,8,0:0:0:0:
258,186,1354,1,8,0:0:0:0:
258,186,1447,1,8,0:0:0:0:
258,186,1540,1,8,0:0:0:0:
258,186,1633,1,0,0:0:0:0:
258,186,2006,1,8,0:0:0:0:
258,186,2379,1,8,0:0:0:0:
258,186,2751,1,8,0:0:0:0:
258,186,2844,1,0,0:0:0:0:
258,186,2938,1,8,0:0:0:0:
258,186,3031,1,8,0:0:0:0:
258,186,3124,1,0,0:0:0:0:
258,186,3497,1,8,0:0:0:0:
258,186,3869,1,8,0:0:0:0:
258,186,4242,1,8,0:0:0:0:
258,186,4335,1,8,0:0:0:0:
258,186,4428,1,0,0:0:0:0:
258,186,4521,1,8,0:0:0:0:
258,186,4615,1,0,0:0:0:0:
258,186,4987,1,8,0:0:0:0:
258,186,5174,1,0,0:0:0:0:
258,186,5267,1,0,0:0:0:0:
264,145,5360,1,8,0:0:0:0:
258,185,5453,1,8,0:0:0:0:
252,226,5546,1,0,0:0:0:0:
258,186,5733,1,8,0:0:0:0:
258,186,5826,1,8,0:0:0:0:
258,186,5919,1,0,0:0:0:0:
258,186,6012,1,0,0:0:0:0:
258,186,6105,1,0,0:0:0:0:
258,185,6478,1,8,0:0:0:0:
258,186,6851,1,8,0:0:0:0:
258,185,7223,1,8,0:0:0:0:
258,185,7316,1,8,0:0:0:0:
258,185,7410,1,8,0:0:0:0:
258,185,7503,1,8,0:0:0:0:
258,186,7596,1,0,0:0:0:0:
258,185,7969,1,8,0:0:0:0:
258,185,8341,1,8,0:0:0:0:
258,185,8714,1,8,0:0:0:0:
258,185,8807,1,0,0:0:0:0:
258,185,8900,1,8,0:0:0:0:
258,185,8993,1,8,0:0:0:0:
258,185,9087,1,0,0:0:0:0:
258,185,9459,1,8,0:0:0:0:
258,185,9832,1,8,0:0:0:0:
258,185,10205,1,8,0:0:0:0:
258,185,10298,1,8,0:0:0:0:
258,185,10391,1,0,0:0:0:0:
258,185,10484,1,8,0:0:0:0:
258,185,10577,1,0,0:0:0:0:
258,185,10950,1,8,0:0:0:0:
258,185,11136,1,0,0:0:0:0:
258,185,11229,1,0,0:0:0:0:
258,185,11323,1,8,0:0:0:0:
258,185,11416,1,8,0:0:0:0:
258,185,11509,1,0,0:0:0:0:
258,185,11695,1,8,0:0:0:0:
258,185,11788,1,8,0:0:0:0:
258,185,11882,1,0,0:0:0:0:
258,185,11975,1,0,0:0:0:0:
258,186,12068,5,8,0:0:0:0:
258,186,12254,1,8,0:0:0:0:
258,185,12441,1,0,0:0:0:0:
258,186,12534,1,8,0:0:0:0:
258,186,12627,1,0,0:0:0:0:
258,186,12813,1,8,0:0:0:0:
258,186,13000,1,8,0:0:0:0:
269,146,13093,1,8,0:0:0:0:
258,186,13279,1,8,0:0:0:0:
258,186,13372,1,0,0:0:0:0:
258,186,13559,1,8,0:0:0:0:
309,122,13745,1,0,0:0:0:0:
258,186,13838,1,8,0:0:0:0:
269,146,14024,1,8,0:0:0:0:
258,186,14118,1,0,0:0:0:0:
258,186,14304,1,8,0:0:0:0:
326,141,14490,1,0,0:0:0:0:
258,186,14583,1,0,0:0:0:0:
258,186,14677,1,8,0:0:0:0:
258,186,14770,1,8,0:0:0:0:
258,186,14863,1,0,0:0:0:0:
258,186,15049,1,8,0:0:0:0:
280,106,15236,1,8,0:0:0:0:
258,186,15422,1,0,0:0:0:0:
269,145,15515,1,8,0:0:0:0:
258,186,15608,1,0,0:0:0:0:
258,186,15795,1,8,0:0:0:0:
258,186,15981,1,8,0:0:0:0:
258,186,16074,1,8,0:0:0:0:
258,186,16261,1,8,0:0:0:0:
258,186,16354,1,0,0:0:0:0:
258,186,16540,1,8,0:0:0:0:
258,186,16726,1,0,0:0:0:0:
258,186,16820,1,8,0:0:0:0:
258,186,17006,1,8,0:0:0:0:
258,186,17099,1,0,0:0:0:0:
258,186,17285,1,8,0:0:0:0:
217,176,17379,1,8,0:0:0:0:
256,186,17472,1,0,0:0:0:0:
296,186,17565,1,0,0:0:0:0:
296,186,17658,1,8,0:0:0:0:
259,167,17751,1,8,0:0:0:0:
295,186,17844,1,8,0:0:0:0:
295,186,17938,1,8,0:0:0:0:
254,178,18031,1,0,0:0:0:0:
258,186,18217,1,8,0:0:0:0:
258,186,18403,1,0,0:0:0:0:
258,186,18497,1,8,0:0:0:0:
258,186,18590,1,0,0:0:0:0:
259,167,18776,1,8,0:0:0:0:
254,178,18962,1,8,0:0:0:0:
254,178,19056,1,8,0:0:0:0:
258,186,19242,1,8,0:0:0:0:
258,186,19335,1,0,0:0:0:0:
258,186,19521,1,8,0:0:0:0:
259,167,19708,1,0,0:0:0:0:
256,192,19801,1,8,0:0:0:0:
254,178,19987,1,8,0:0:0:0:
254,178,20080,1,0,0:0:0:0:
258,186,20267,1,8,0:0:0:0:
326,141,20453,1,0,0:0:0:0:
258,186,20546,1,0,0:0:0:0:
258,186,20639,1,8,0:0:0:0:
258,186,20733,1,8,0:0:0:0:
258,186,20826,1,0,0:0:0:0:
258,186,21012,1,8,0:0:0:0:
280,106,21198,1,8,0:0:0:0:
258,186,21385,1,0,0:0:0:0:
269,145,21478,1,8,0:0:0:0:
258,186,21571,1,0,0:0:0:0:
258,186,21757,1,8,0:0:0:0:
258,186,21944,1,8,0:0:0:0:
258,186,22037,1,8,0:0:0:0:
258,186,22223,1,8,0:0:0:0:
258,186,22316,1,0,0:0:0:0:
258,186,22503,1,8,0:0:0:0:
258,186,22689,1,0,0:0:0:0:
258,186,22782,1,8,0:0:0:0:
59,59,22875,1,0,0:0:0:0:
448,320,23062,1,12,0:0:0:0:
59,59,23248,1,0,0:0:0:0:
448,64,23341,1,8,0:0:0:0:
258,186,23434,1,0,0:0:0:0:
59,59,23528,1,0,0:0:0:0:
258,186,23621,1,8,0:0:0:0:
448,64,23714,1,8,0:0:0:0:
258,186,23807,1,8,0:0:0:0:
258,186,23993,1,4,0:0:0:0:
258,186,24273,1,4,0:0:0:0:
258,186,24552,1,4,0:0:0:0:
258,186,24739,1,4,0:0:0:0:
284,178,25670,1,8,0:0:0:0:
284,178,25857,1,0,0:0:0:0:
284,178,26043,1,8,0:0:0:0:
284,178,26136,1,8,0:0:0:0:
284,178,26229,1,0,0:0:0:0:
284,178,26323,1,0,0:0:0:0:
284,178,26416,1,0,0:0:0:0:
284,178,26509,1,8,0:0:0:0:
284,178,26695,1,0,0:0:0:0:
284,178,26788,1,8,0:0:0:0:
448,64,26882,1,8,0:0:0:0:
284,178,26975,1,4,0:0:0:0:
284,178,27254,1,4,0:0:0:0:
284,178,27534,1,4,0:0:0:0:
284,178,27720,1,4,0:0:0:0:
101,178,28093,1,8,0:0:0:0:
145,178,28186,1,0,0:0:0:0:
123,178,28233,1,0,0:0:0:0:
256,192,28279,1,8,0:0:0:0:
234,170,28465,1,12,0:0:0:0:
234,170,28745,1,12,0:0:0:0:
234,170,29024,1,4,0:0:0:0:
234,170,29304,1,4,0:0:0:0:
234,170,29583,1,8,0:0:0:0:
259,132,29677,1,8,0:0:0:0:
234,170,29770,1,8,0:0:0:0:
448,64,29863,1,8,0:0:0:0:
234,170,29956,1,4,0:0:0:0:
234,170,30236,1,4,0:0:0:0:
234,170,30515,1,4,0:0:0:0:
234,170,30702,1,4,0:0:0:0:
261,178,31447,1,0,0:0:0:0:
261,178,31540,1,0,0:0:0:0:
261,178,31633,1,8,0:0:0:0:
261,178,31820,1,0,0:0:0:0:
448,64,32006,1,8,0:0:0:0:
59,59,32099,1,0,0:0:0:0:
448,64,32192,1,8,0:0:0:0:
261,178,32285,1,0,0:0:0:0:
261,178,32379,1,0,0:0:0:0:
261,178,32472,1,8,0:0:0:0:
261,178,32658,1,0,0:0:0:0:
261,178,32751,1,8,0:0:0:0:
261,178,32938,1,4,0:0:0:0:
261,178,33217,1,4,0:0:0:0:
261,178,33497,1,4,0:0:0:0:
261,178,33683,1,4,0:0:0:0:
261,178,34056,1,0,0:0:0:0:
261,178,34149,1,8,0:0:0:0:
261,178,34195,1,8,0:0:0:0:
261,178,34242,1,8,0:0:0:0:
261,178,34335,1,0,0:0:0:0:
261,178,34428,1,8,0:0:0:0:
261,178,34521,1,8,0:0:0:0:
261,178,34615,1,8,0:0:0:0:
448,64,34708,1,8,0:0:0:0:
261,178,34801,1,0,0:0:0:0:
261,178,34987,1,8,0:0:0:0:
261,178,35080,1,8,0:0:0:0:
261,178,35174,1,0,0:0:0:0:
261,178,35267,1,0,0:0:0:0:
261,178,35360,1,8,0:0:0:0:
261,178,35453,1,0,0:0:0:0:
303,163,35546,1,8,0:0:0:0:
303,163,35639,1,8,0:0:0:0:
303,163,35733,1,0,0:0:0:0:
256,192,35826,1,8,0:0:0:0:
261,178,35919,1,0,0:0:0:0:
261,178,36478,1,0,0:0:0:0:
261,178,37037,1,8,0:0:0:0:
261,178,37410,1,0,0:0:0:0:
261,178,37969,1,0,0:0:0:0:
261,178,38341,1,8,0:0:0:0:
261,178,38528,1,8,0:0:0:0:
261,178,38621,1,8,0:0:0:0:
261,178,38714,1,8,0:0:0:0:
261,178,38900,1,0,0:0:0:0:
261,178,39459,1,0,0:0:0:0:
261,178,39646,1,8,0:0:0:0:
261,178,39739,1,0,0:0:0:0:
261,178,39832,1,0,0:0:0:0:
261,178,39925,1,8,0:0:0:0:
261,178,40111,1,0,0:0:0:0:
261,178,40205,1,8,0:0:0:0:
261,178,40298,1,8,0:0:0:0:
261,178,40391,1,0,0:0:0:0:
261,178,40577,1,8,0:0:0:0:
261,178,40670,1,0,0:0:0:0:
261,178,40764,1,8,0:0:0:0:
261,178,40950,1,0,0:0:0:0:
261,178,41136,1,8,0:0:0:0:
261,178,41323,1,0,0:0:0:0:
261,178,41416,1,8,0:0:0:0:
261,178,41509,1,0,0:0:0:0:
261,178,41602,1,0,0:0:0:0:
261,178,41695,1,8,0:0:0:0:
256,192,41788,1,8,0:0:0:0:
261,178,41882,1,0,0:0:0:0:
261,178,42441,1,0,0:0:0:0:
261,178,42906,1,0,0:0:0:0:
261,178,43000,1,8,0:0:0:0:
351,187,43186,1,8,0:0:0:0:
261,178,43372,1,0,0:0:0:0:
261,178,43931,1,0,0:0:0:0:
261,178,44211,1,8,0:0:0:0:
261,178,44304,1,0,0:0:0:0:
261,178,44490,1,8,0:0:0:0:
261,178,44677,1,8,0:0:0:0:
261,178,44863,1,0,0:0:0:0:
261,178,45142,1,0,0:0:0:0:
261,178,45422,1,0,0:0:0:0:
261,178,45608,1,0,0:0:0:0:
261,178,45702,1,0,0:0:0:0:
261,178,45888,5,0,0:0:0:0:
261,178,45981,1,8,0:0:0:0:
261,178,46074,1,0,0:0:0:0:
261,178,46121,1,0,0:0:0:0:
261,178,46167,1,8,0:0:0:0:
261,178,46261,1,0,0:0:0:0:
261,178,46354,1,8,0:0:0:0:
261,178,46447,1,8,0:0:0:0:
59,59,47006,5,0,0:0:0:0:
59,59,47099,1,0,0:0:0:0:
448,64,47192,1,8,0:0:0:0:
59,59,47285,1,0,0:0:0:0:
272,185,47379,1,0,0:0:0:0:
272,185,47472,1,8,0:0:0:0:
272,185,47565,1,8,0:0:0:0:
272,185,47658,1,0,0:0:0:0:
184,162,47844,1,4,0:0:0:0:
272,185,48124,1,0,0:0:0:0:
272,185,48217,1,8,0:0:0:0:
272,185,48310,1,8,0:0:0:0:
272,185,48403,1,0,0:0:0:0:
272,185,48497,1,0,0:0:0:0:
272,185,48590,1,8,0:0:0:0:
272,185,48776,1,0,0:0:0:0:
249,145,49056,1,8,0:0:0:0:
249,145,49335,1,4,0:0:0:0:
272,185,49521,1,8,0:0:0:0:
59,59,49615,1,0,0:0:0:0:
448,64,49708,1,8,0:0:0:0:
448,64,49801,1,8,0:0:0:0:
59,59,49894,1,0,0:0:0:0:
59,59,49987,1,0,0:0:0:0:
448,64,50080,1,8,0:0:0:0:
59,59,50267,1,0,0:0:0:0:
448,64,50360,1,8,0:0:0:0:
448,64,50453,1,8,0:0:0:0:
59,59,50546,1,0,0:0:0:0:
271,184,50826,1,4,0:0:0:0:
271,184,51105,1,0,0:0:0:0:
272,185,51152,1,0,0:0:0:0:
272,185,51198,1,8,0:0:0:0:
272,185,51292,1,0,0:0:0:0:
272,185,51385,1,8,0:0:0:0:
272,185,51478,1,8,0:0:0:0:
272,185,51571,1,0,0:0:0:0:
271,184,51664,1,0,0:0:0:0:
271,184,51757,1,8,0:0:0:0:
271,184,51851,1,0,0:0:0:0:
271,184,51944,1,0,0:0:0:0:
271,184,52037,1,8,0:0:0:0:
448,64,52223,1,8,0:0:0:0:
64,320,52316,1,4,0:0:0:0:
448,64,52503,1,8,0:0:0:0:
59,59,52596,1,0,0:0:0:0:
271,184,52782,1,8,0:0:0:0:
271,184,52875,1,0,0:0:0:0:
271,184,52969,1,0,0:0:0:0:
271,184,53062,1,8,0:0:0:0:
272,185,53248,1,0,0:0:0:0:
272,185,53341,1,0,0:0:0:0:
272,185,53434,1,8,0:0:0:0:
272,185,53528,1,8,0:0:0:0:
256,192,53621,1,0,0:0:0:0:
271,184,53807,1,4,0:0:0:0:
448,64,54273,1,8,0:0:0:0:
256,192,54366,1,0,0:0:0:0:
256,192,54459,1,0,0:0:0:0:
256,192,54552,1,8,0:0:0:0:
256,192,54739,1,0,0:0:0:0:
256,192,55018,1,8,0:0:0:0:
256,192,55298,1,4,0:0:0:0:
256,192,55484,1,8,0:0:0:0:
256,192,55577,1,8,0:0:0:0:
256,192,55670,1,0,0:0:0:0:
256,192,55764,1,8,0:0:0:0:
256,192,55857,1,0,0:0:0:0:
256,192,55950,1,0,0:0:0:0:
256,192,56043,1,8,0:0:0:0:
256,192,56229,1,0,0:0:0:0:
256,192,56323,1,8,0:0:0:0:
256,192,56416,1,8,0:0:0:0:
256,192,56509,1,0,0:0:0:0:
256,192,56788,1,4,0:0:0:0:
256,192,57068,1,8,0:0:0:0:
256,192,57115,1,8,0:0:0:0:
256,192,57161,1,0,0:0:0:0:
256,192,57254,1,8,0:0:0:0:
256,192,57347,1,0,0:0:0:0:
256,192,57441,1,0,0:0:0:0:
256,192,57534,1,8,0:0:0:0:
256,192,57627,1,0,0:0:0:0:
256,192,57720,1,8,0:0:0:0:
256,192,57813,1,8,0:0:0:0:
256,192,57906,1,0,0:0:0:0:
256,192,58000,1,8,0:0:0:0:
256,192,58279,1,4,0:0:0:0:
256,192,58465,1,8,0:0:0:0:
256,192,58559,1,0,0:0:0:0:
256,192,58745,1,8,0:0:0:0:
256,192,58838,1,0,0:0:0:0:
256,192,58931,1,0,0:0:0:0:
256,192,59024,1,8,0:0:0:0:
256,192,59118,1,0,0:0:0:0:
256,192,59211,1,8,0:0:0:0:
256,192,59304,1,8,0:0:0:0:
256,192,59397,1,8,0:0:0:0:
256,192,59490,1,0,0:0:0:0:
256,192,59583,1,8,0:0:0:0:
256,192,59770,1,4,0:0:0:0:
256,192,59956,1,8,0:0:0:0:
256,192,60049,1,0,0:0:0:0:
256,192,60142,1,0,0:0:0:0:
256,192,60236,1,8,0:0:0:0:
256,192,60329,1,0,0:0:0:0:
256,192,60422,1,0,0:0:0:0:
256,192,60515,1,8,0:0:0:0:
256,192,60702,1,0,0:0:0:0:
256,192,60981,1,8,0:0:0:0:
256,192,61261,1,4,0:0:0:0:
256,192,61540,1,8,0:0:0:0:
256,192,61633,1,0,0:0:0:0:
256,192,61726,1,8,0:0:0:0:
256,192,61820,1,8,0:0:0:0:
256,192,61913,1,0,0:0:0:0:
256,192,62006,1,8,0:0:0:0:
256,192,62192,1,0,0:0:0:0:
256,192,62472,1,0,0:0:0:0:
256,192,62751,1,4,0:0:0:0:
256,192,62938,1,8,0:0:0:0:
256,192,63031,1,8,0:0:0:0:
256,192,63124,1,0,0:0:0:0:
256,192,63217,1,8,0:0:0:0:
256,192,63310,1,0,0:0:0:0:
256,192,63403,1,0,0:0:0:0:
256,192,63497,1,8,0:0:0:0:
256,192,63683,1,0,0:0:0:0:
256,192,63962,1,8,0:0:0:0:
256,192,64242,1,4,0:0:0:0:
256,192,64521,1,8,0:0:0:0:
256,192,64615,1,0,0:0:0:0:
256,192,64708,1,0,0:0:0:0:
256,192,64801,1,8,0:0:0:0:
256,192,64894,1,0,0:0:0:0:
256,192,64987,1,8,0:0:0:0:
256,192,65174,1,0,0:0:0:0:
256,192,65360,1,8,0:0:0:0:
256,192,65453,1,0,0:0:0:0:
448,64,65639,1,8,0:0:0:0:
256,192,65733,1,4,0:0:0:0:
256,192,65919,1,8,0:0:0:0:
256,192,66012,1,0,0:0:0:0:
256,192,66105,1,8,0:0:0:0:
256,192,66198,1,8,0:0:0:0:
256,192,66292,1,0,0:0:0:0:
256,192,66385,1,0,0:0:0:0:
256,192,66478,1,8,0:0:0:0:
256,192,66664,1,0,0:0:0:0:
256,192,66944,1,8,0:0:0:0:
256,192,67223,1,4,0:0:0:0:
256,192,67503,1,0,0:0:0:0:
256,192,67596,1,8,0:0:0:0:
256,192,67689,1,8,0:0:0:0:
256,192,67782,1,0,0:0:0:0:
256,192,67875,1,8,0:0:0:0:
256,192,67969,1,0,0:0:0:0:
256,192,68155,1,8,0:0:0:0:
256,192,68434,1,0,0:0:0:0:
256,192,68714,1,4,0:0:0:0:
256,192,68900,1,8,0:0:0:0:
256,192,68993,1,0,0:0:0:0:
256,192,69087,1,0,0:0:0:0:
256,192,69180,1,8,0:0:0:0:
256,192,69273,1,8,0:0:0:0:
256,192,69366,1,0,0:0:0:0:
256,192,69459,1,8,0:0:0:0:
256,192,69646,1,0,0:0:0:0:
256,192,69925,1,8,0:0:0:0:
256,192,70205,1,4,0:0:0:0:
256,192,70391,1,8,0:0:0:0:
256,192,70484,1,0,0:0:0:0:
256,192,70670,1,8,0:0:0:0:
256,192,70764,1,0,0:0:0:0:
256,192,70857,1,0,0:0:0:0:
256,192,70950,1,8,0:0:0:0:
256,192,71043,1,0,0:0:0:0:
256,192,71229,1,8,0:0:0:0:
256,192,71323,1,0,0:0:0:0:
256,192,71416,1,0,0:0:0:0:
256,192,71509,1,8,0:0:0:0:
448,64,71602,1,8,0:0:0:0:
256,192,71695,1,4,0:0:0:0:
448,64,71975,1,8,0:0:0:0:
59,59,72068,1,0,0:0:0:0:
448,64,72161,1,8,0:0:0:0:
59,59,72254,1,0,0:0:0:0:
59,59,72347,1,0,0:0:0:0:
256,192,72441,1,8,0:0:0:0:
256,192,72627,1,0,0:0:0:0:
256,192,72720,1,8,0:0:0:0:
256,192,72813,1,8,0:0:0:0:
256,192,72906,1,0,0:0:0:0:
256,192,73093,1,8,0:0:0:0:
256,192,73186,1,0,0:0:0:0:
256,192,73279,1,0,0:0:0:0:
256,192,73372,1,0,0:0:0:0:
256,192,73465,1,8,0:0:0:0:
256,192,73652,1,0,0:0:0:0:
256,192,73745,1,8,0:0:0:0:
59,59,73838,1,0,0:0:0:0:
256,192,73931,1,8,0:0:0:0:
256,192,74024,1,8,0:0:0:0:
59,59,74118,1,0,0:0:0:0:
448,64,74211,1,8,0:0:0:0:
59,59,74304,1,0,0:0:0:0:
256,192,74397,1,0,0:0:0:0:
256,192,74490,1,8,0:0:0:0:
256,192,74677,1,4,0:0:0:0:
448,64,74956,1,8,0:0:0:0:
59,59,75049,1,0,0:0:0:0:
59,59,75142,1,0,0:0:0:0:
59,59,75236,1,0,0:0:0:0:
59,59,75329,1,0,0:0:0:0:
448,64,75422,1,8,0:0:0:0:
59,59,75608,1,0,0:0:0:0:
448,64,75702,1,8,0:0:0:0:
448,64,75795,1,8,0:0:0:0:
59,59,75888,1,0,0:0:0:0:
448,64,76074,1,8,0:0:0:0:
59,59,76167,1,0,0:0:0:0:
256,192,76261,1,8,0:0:0:0:
256,192,76354,1,0,0:0:0:0:
256,192,76447,1,0,0:0:0:0:
256,192,76540,1,8,0:0:0:0:
256,192,76633,1,0,0:0:0:0:
256,192,76726,1,8,0:0:0:0:
256,192,76820,1,8,0:0:0:0:
256,192,76913,1,0,0:0:0:0:
256,192,77006,1,0,0:0:0:0:
256,192,77099,1,8,0:0:0:0:
256,192,77192,1,0,0:0:0:0:
256,192,77285,1,8,0:0:0:0:
256,192,77379,1,8,0:0:0:0:
256,192,77472,1,8,0:0:0:0:
256,192,77658,1,4,0:0:0:0:
256,192,77938,1,8,0:0:0:0:
256,192,78031,1,0,0:0:0:0:
59,59,78124,1,0,0:0:0:0:
448,64,78217,1,8,0:0:0:0:
256,192,78310,1,0,0:0:0:0:
256,192,78403,1,8,0:0:0:0:
256,192,78590,1,0,0:0:0:0:
256,192,78683,1,8,0:0:0:0:
256,192,78776,1,8,0:0:0:0:
256,192,78869,1,0,0:0:0:0:
256,192,79056,1,8,0:0:0:0:
256,192,79149,1,0,0:0:0:0:
256,192,79242,1,0,0:0:0:0:
256,192,79335,1,0,0:0:0:0:
256,192,79428,1,8,0:0:0:0:
256,192,79615,1,0,0:0:0:0:
256,192,79708,1,8,0:0:0:0:
448,64,79801,1,8,0:0:0:0:
59,59,79894,1,0,0:0:0:0:
448,64,79987,1,8,0:0:0:0:
59,59,80080,1,0,0:0:0:0:
59,59,80174,1,0,0:0:0:0:
448,64,80267,1,8,0:0:0:0:
256,192,80360,1,0,0:0:0:0:
256,192,80453,1,8,0:0:0:0:
256,192,80639,1,4,0:0:0:0:
448,64,80919,1,8,0:0:0:0:
59,59,81012,1,0,0:0:0:0:
59,59,81105,1,0,0:0:0:0:
59,59,81198,1,0,0:0:0:0:
59,59,81292,1,0,0:0:0:0:
448,64,81385,1,8,0:0:0:0:
59,59,81571,1,0,0:0:0:0:
448,64,81664,1,8,0:0:0:0:
448,64,81757,1,8,0:0:0:0:
59,59,81851,1,0,0:0:0:0:
448,64,82037,1,8,0:0:0:0:
256,192,82130,1,0,0:0:0:0:
256,192,82223,1,0,0:0:0:0:
256,192,82316,1,8,0:0:0:0:
448,64,82410,1,8,0:0:0:0:
59,59,82503,1,0,0:0:0:0:
59,59,82596,1,0,0:0:0:0:
448,64,82689,1,8,0:0:0:0:
59,59,82782,1,0,0:0:0:0:
59,59,82875,1,0,0:0:0:0:
59,59,82969,1,0,0:0:0:0:
448,64,83062,1,8,0:0:0:0:
448,64,83155,1,8,0:0:0:0:
59,59,83248,1,0,0:0:0:0:
448,64,83341,1,8,0:0:0:0:
59,59,83434,1,0,0:0:0:0:
256,192,83900,5,0,0:0:0:0:
256,192,84087,1,0,0:0:0:0:
256,192,84180,1,0,0:0:0:0:
256,192,84366,1,8,0:0:0:0:
256,192,84552,1,0,0:0:0:0:
256,192,84646,1,0,0:0:0:0:
256,192,84739,1,8,0:0:0:0:
256,192,85111,1,4,0:0:0:0:
256,192,85391,1,0,0:0:0:0:
256,192,85670,1,0,0:0:0:0:
256,192,85857,1,8,0:0:0:0:
256,192,86043,1,0,0:0:0:0:
256,192,86229,1,8,0:0:0:0:
256,192,86323,1,0,0:0:0:0:
256,192,86602,1,4,0:0:0:0:
448,64,86882,1,8,0:0:0:0:
256,192,87161,1,0,0:0:0:0:
256,192,87254,1,0,0:0:0:0:
256,192,87347,1,8,0:0:0:0:
256,192,87534,1,0,0:0:0:0:
256,192,87627,1,8,0:0:0:0:
256,192,87720,1,0,0:0:0:0:
256,192,87813,1,0,0:0:0:0:
256,192,87906,1,8,0:0:0:0:
256,192,88000,1,8,0:0:0:0:
256,192,88093,1,0,0:0:0:0:
448,64,88372,1,8,0:0:0:0:
256,192,88652,1,0,0:0:0:0:
256,192,88838,1,8,0:0:0:0:
256,192,88931,1,0,0:0:0:0:
256,192,89118,1,0,0:0:0:0:
256,192,89211,1,8,0:0:0:0:
256,192,89583,1,4,0:0:0:0:
256,192,89770,1,8,0:0:0:0:
256,192,89863,1,0,0:0:0:0:
256,192,90049,1,8,0:0:0:0:
256,192,90142,1,0,0:0:0:0:
256,192,90236,1,0,0:0:0:0:
256,192,90329,1,8,0:0:0:0:
256,192,90515,1,0,0:0:0:0:
256,192,90608,1,0,0:0:0:0:
256,192,90702,1,8,0:0:0:0:
256,192,90795,1,0,0:0:0:0:
256,192,90888,1,8,0:0:0:0:
448,64,90981,1,8,0:0:0:0:
256,192,91074,1,4,0:0:0:0:
256,192,91261,1,8,0:0:0:0:
59,59,91354,1,0,0:0:0:0:
256,192,91447,1,0,0:0:0:0:
256,192,91540,1,8,0:0:0:0:
256,192,91633,1,0,0:0:0:0:
256,192,91726,1,0,0:0:0:0:
256,192,91820,1,8,0:0:0:0:
256,192,92006,1,0,0:0:0:0:
256,192,92099,1,0,0:0:0:0:
256,192,92192,1,8,0:0:0:0:
448,64,92285,1,8,0:0:0:0:
59,59,92379,1,0,0:0:0:0:
448,64,92472,1,8,0:0:0:0:
256,192,92565,1,4,0:0:0:0:
256,192,92844,1,8,0:0:0:0:
256,192,92938,1,0,0:0:0:0:
448,64,93031,1,8,0:0:0:0:
448,64,93124,1,8,0:0:0:0:
256,192,93217,1,0,0:0:0:0:
256,192,93310,1,8,0:0:0:0:
256,192,93497,1,0,0:0:0:0:
256,192,93590,1,8,0:0:0:0:
256,192,93683,1,8,0:0:0:0:
256,192,93776,1,0,0:0:0:0:
256,192,93869,1,8,0:0:0:0:
448,64,93962,1,8,0:0:0:0:
256,192,94056,1,4,0:0:0:0:
256,192,94242,1,8,0:0:0:0:
256,192,94335,1,0,0:0:0:0:
256,192,94521,1,8,0:0:0:0:
256,192,94615,1,0,0:0:0:0:
256,192,94708,1,0,0:0:0:0:
256,192,94801,1,8,0:0:0:0:
256,192,94987,1,0,0:0:0:0:
448,64,95080,1,8,0:0:0:0:
256,192,95174,1,8,0:0:0:0:
59,59,95267,1,0,0:0:0:0:
256,192,95360,1,0,0:0:0:0:
256,192,95453,1,8,0:0:0:0:
256,192,95546,1,0,0:0:0:0:
256,192,95919,1,8,0:0:0:0:
256,192,96478,1,8,0:0:0:0:
256,192,96664,1,0,0:0:0:0:
256,192,96757,1,0,0:0:0:0:
256,192,96851,1,0,0:0:0:0:
256,192,96944,1,0,0:0:0:0:
256,192,97037,1,8,0:0:0:0:
256,192,97223,1,0,0:0:0:0:
256,192,97316,1,0,0:0:0:0:
256,192,97410,1,8,0:0:0:0:
256,192,97503,1,8,0:0:0:0:
256,192,97596,1,0,0:0:0:0:
256,192,97782,1,8,0:0:0:0:
256,192,97875,1,0,0:0:0:0:
256,192,97969,1,8,0:0:0:0:
256,192,98155,1,0,0:0:0:0:
256,192,98248,1,8,0:0:0:0:
256,192,98341,1,0,0:0:0:0:
256,192,98434,1,0,0:0:0:0:
256,192,98528,1,8,0:0:0:0:
256,192,98900,1,0,0:0:0:0:
256,192,99087,1,8,0:0:0:0:
256,192,99459,1,8,0:0:0:0:
256,192,99646,1,0,0:0:0:0:
448,64,99739,1,8,0:0:0:0:
59,59,99832,1,0,0:0:0:0:
256,192,99925,1,0,0:0:0:0:
256,192,100018,1,8,0:0:0:0:
256,192,100205,1,0,0:0:0:0:
256,192,100298,1,0,0:0:0:0:
256,192,100391,1,8,0:0:0:0:
256,192,100484,1,0,0:0:0:0:
256,192,100577,1,8,0:0:0:0:
256,192,100670,1,8,0:0:0:0:
256,192,100764,1,0,0:0:0:0:
256,192,100857,1,0,0:0:0:0:
256,192,100950,1,8,0:0:0:0:
256,192,101136,1,0,0:0:0:0:
448,64,101229,1,8,0:0:0:0:
59,59,101323,1,0,0:0:0:0:
59,59,101416,1,0,0:0:0:0:
59,59,101509,1,0,0:0:0:0:
448,64,101882,1,8,0:0:0:0:
59,59,102068,1,0,0:0:0:0:
448,64,102441,1,8,0:0:0:0:
59,59,103000,5,0,0:0:0:0:
256,192,103279,1,0,0:0:0:0:
256,192,103372,1,8,0:0:0:0:
256,192,103465,1,8,0:0:0:0:
256,192,103559,1,0,0:0:0:0:
256,192,103745,1,8,0:0:0:0:
256,192,103838,1,0,0:0:0:0:
256,192,103931,1,8,0:0:0:0:
256,192,104118,1,0,0:0:0:0:
256,192,104211,1,0,0:0:0:0:
256,192,104304,1,8,0:0:0:0:
59,59,104397,1,0,0:0:0:0:
256,192,104490,1,0,0:0:0:0:
256,192,104863,1,8,0:0:0:0:
256,192,105049,1,0,0:0:0:0:
256,192,105422,1,8,0:0:0:0:
256,192,105608,1,0,0:0:0:0:
256,192,105795,1,8,0:0:0:0:
256,192,105981,1,0,0:0:0:0:
256,192,106074,1,8,0:0:0:0:
256,192,106167,1,0,0:0:0:0:
256,192,106261,1,0,0:0:0:0:
256,192,106354,1,8,0:0:0:0:
256,192,106633,1,0,0:0:0:0:
256,192,106726,1,8,0:0:0:0:
256,192,106820,1,0,0:0:0:0:
256,192,106913,1,0,0:0:0:0:
256,192,107099,1,8,0:0:0:0:
256,192,107192,1,8,0:0:0:0:
256,192,107285,1,0,0:0:0:0:
256,192,107472,1,8,0:0:0:0:
256,192,107658,1,0,0:0:0:0:
256,192,107751,1,0,0:0:0:0:
256,192,107844,1,0,0:0:0:0:
256,192,107938,1,0,0:0:0:0:
256,192,108031,1,8,0:0:0:0:
256,192,108217,1,0,0:0:0:0:
256,192,108310,1,0,0:0:0:0:
256,192,108403,1,0,0:0:0:0:
256,192,108590,1,8,0:0:0:0:
256,192,108776,1,8,0:0:0:0:
256,192,108869,1,0,0:0:0:0:
256,192,109056,1,8,0:0:0:0:
256,192,109149,1,0,0:0:0:0:
256,192,109242,1,0,0:0:0:0:
256,192,109335,1,8,0:0:0:0:
256,192,109521,1,0,0:0:0:0:
256,192,109615,1,0,0:0:0:0:
256,192,109708,1,8,0:0:0:0:
256,192,109801,1,0,0:0:0:0:
256,192,109894,1,8,0:0:0:0:
256,192,110080,1,0,0:0:0:0:
256,192,110267,1,8,0:0:0:0:
256,192,110453,1,0,0:0:0:0:
256,192,110639,1,8,0:0:0:0:
256,192,110733,1,0,0:0:0:0:
256,192,110919,1,0,0:0:0:0:
256,192,111012,1,8,0:0:0:0:
256,192,111385,1,0,0:0:0:0:
256,192,111571,1,8,0:0:0:0:
256,192,111757,1,0,0:0:0:0:
59,59,111851,1,0,0:0:0:0:
59,59,111944,1,0,0:0:0:0:
256,192,112037,1,8,0:0:0:0:
59,59,112130,1,0,0:0:0:0:
59,59,112316,1,0,0:0:0:0:
59,59,112410,1,0,0:0:0:0:
448,64,112503,1,8,0:0:0:0:
59,59,112689,1,0,0:0:0:0:
448,64,112875,1,8,0:0:0:0:
256,192,112969,1,0,0:0:0:0:
256,192,113062,1,8,0:0:0:0:
256,192,113248,1,8,0:0:0:0:
256,192,113434,1,0,0:0:0:0:
256,192,113621,1,8,0:0:0:0:
256,192,113714,1,8,0:0:0:0:
256,192,113807,1,0,0:0:0:0:
256,192,113900,1,8,0:0:0:0:
256,192,113993,1,0,0:0:0:0:
256,192,114180,1,8,0:0:0:0:
256,192,114366,1,0,0:0:0:0:
256,192,114552,1,8,0:0:0:0:
256,192,114925,1,0,0:0:0:0:
256,192,115018,5,0,0:0:0:0:
256,192,115111,1,8,0:0:0:0:
256,192,115484,1,0,0:0:0:0:
256,192,115670,1,8,0:0:0:0:
256,192,115764,1,0,0:0:0:0:
256,192,115857,1,8,0:0:0:0:
256,192,116043,1,0,0:0:0:0:
256,192,116229,1,8,0:0:0:0:
256,192,116416,1,0,0:0:0:0:
256,192,116602,1,8,0:0:0:0:
256,192,116695,1,0,0:0:0:0:
59,59,116788,1,0,0:0:0:0:
256,192,116882,1,8,0:0:0:0:
256,192,116975,1,0,0:0:0:0:
256,192,117254,1,8,0:0:0:0:
256,192,117347,1,0,0:0:0:0:
256,192,117534,1,8,0:0:0:0:
256,192,117720,1,8,0:0:0:0:
256,192,117906,1,0,0:0:0:0:
256,192,118000,1,8,0:0:0:0:
256,192,118093,1,0,0:0:0:0:
256,192,118279,1,8,0:0:0:0:
256,192,118465,1,0,0:0:0:0:
256,192,118559,1,8,0:0:0:0:
256,192,118652,1,8,0:0:0:0:
256,192,118745,1,8,0:0:0:0:
256,192,118838,1,0,0:0:0:0:
256,192,119024,1,8,0:0:0:0:
256,192,119211,1,8,0:0:0:0:
256,192,119397,1,4,0:0:0:0:
256,192,119770,1,8,0:0:0:0:
256,192,119956,1,0,0:0:0:0:
256,192,120049,1,0,0:0:0:0:
256,192,120142,1,0,0:0:0:0:
256,192,120236,1,0,0:0:0:0:
256,192,120329,1,8,0:0:0:0:
256,192,120515,1,0,0:0:0:0:
256,192,120608,1,0,0:0:0:0:
256,192,120702,1,8,0:0:0:0:
256,192,120888,1,0,0:0:0:0:
256,192,120981,1,8,0:0:0:0:
256,192,121074,1,0,0:0:0:0:
256,192,121261,1,0,0:0:0:0:
256,192,121447,1,8,0:0:0:0:
256,192,121633,1,0,0:0:0:0:
256,192,121726,1,0,0:0:0:0:
256,192,121820,1,0,0:0:0:0:
256,192,122006,1,8,0:0:0:0:
256,192,122099,1,0,0:0:0:0:
256,192,122192,1,8,0:0:0:0:
256,192,122239,1,8,0:0:0:0:
256,192,122285,1,8,0:0:0:0:
256,192,122379,1,0,0:0:0:0:
256,192,122472,1,8,0:0:0:0:
256,192,122565,1,0,0:0:0:0:
256,192,122658,1,0,0:0:0:0:
256,192,122751,1,8,0:0:0:0:
256,192,122844,1,0,0:0:0:0:
256,192,122938,1,8,0:0:0:0:
256,192,123000,1,8,0:0:0:0:
256,192,123062,1,8,0:0:0:0:
256,192,123124,1,0,0:0:0:0:
256,192,123217,1,0,0:0:0:0:
256,192,123310,1,8,0:0:0:0:
256,192,123497,1,0,0:0:0:0:
256,192,123590,1,8,0:0:0:0:
256,192,123683,1,8,0:0:0:0:
256,192,123776,1,8,0:0:0:0:
256,192,123869,1,0,0:0:0:0:
256,192,123931,1,0,0:0:0:0:
256,192,123993,1,0,0:0:0:0:
256,192,124056,1,8,0:0:0:0:
256,192,124149,1,0,0:0:0:0:
256,192,124242,1,8,0:0:0:0:
256,192,124335,1,8,0:0:0:0:
256,192,124428,1,0,0:0:0:0:
256,192,124521,1,8,0:0:0:0:
256,192,124615,1,0,0:0:0:0:
256,192,124708,1,0,0:0:0:0:
256,192,124801,1,8,0:0:0:0:
299,203,124894,1,8,0:0:0:0:
254,191,124987,1,8,0:0:0:0:
254,191,125080,1,0,0:0:0:0:
254,191,125174,1,8,0:0:0:0:
254,191,125267,1,8,0:0:0:0:
254,191,125360,1,0,0:0:0:0:
254,191,125639,1,0,0:0:0:0:
254,191,125733,1,8,0:0:0:0:
254,191,125919,1,0,0:0:0:0:
254,191,126012,1,8,0:0:0:0:
254,191,126105,1,0,0:0:0:0:
254,191,126198,1,0,0:0:0:0:
254,191,126385,1,8,0:0:0:0:
254,191,126478,1,0,0:0:0:0:
254,191,126571,1,8,0:0:0:0:
254,191,126618,1,8,0:0:0:0:
254,191,126664,1,8,0:0:0:0:
254,191,126757,1,8,0:0:0:0:
254,191,126851,1,0,0:0:0:0:
254,191,127037,1,8,0:0:0:0:
254,191,127130,1,0,0:0:0:0:
254,191,127223,1,8,0:0:0:0:
254,191,127316,1,8,0:0:0:0:
254,191,127410,1,0,0:0:0:0:
254,191,127503,1,0,0:0:0:0:
254,191,127596,1,0,0:0:0:0:
254,191,127689,1,0,0:0:0:0:
254,191,127782,1,8,0:0:0:0:
254,191,127969,1,0,0:0:0:0:
254,191,128062,1,0,0:0:0:0:
254,191,128155,1,8,0:0:0:0:
254,191,128248,1,8,0:0:0:0:
254,191,128341,1,0,0:0:0:0:
254,191,128434,1,8,0:0:0:0:
254,191,128528,1,8,0:0:0:0:
254,191,128621,1,8,0:0:0:0:
254,191,128714,1,0,0:0:0:0:
254,191,128807,1,0,0:0:0:0:
254,191,128900,1,8,0:0:0:0:
254,191,128962,1,0,0:0:0:0:
254,191,129024,1,0,0:0:0:0:
254,191,129087,1,8,0:0:0:0:
254,191,129180,1,0,0:0:0:0:
254,191,129366,1,0,0:0:0:0:
254,191,129459,1,8,0:0:0:0:
254,191,129552,1,8,0:0:0:0:
254,191,129646,1,8,0:0:0:0:
254,191,129739,1,8,0:0:0:0:
254,191,129832,1,0,0:0:0:0:
254,191,129925,1,8,0:0:0:0:
254,191,130018,1,0,0:0:0:0:
254,191,130111,1,8,0:0:0:0:
254,191,130205,1,8,0:0:0:0:
254,191,130298,1,0,0:0:0:0:
254,191,130391,1,8,0:0:0:0:
254,191,130577,1,0,0:0:0:0:
254,191,130670,1,0,0:0:0:0:
254,191,130764,1,8,0:0:0:0:
254,191,130950,1,0,0:0:0:0:
448,64,131043,1,8,0:0:0:0:
254,191,131136,1,8,0:0:0:0:
59,59,131229,1,0,0:0:0:0:
254,191,131323,1,0,0:0:0:0:
254,191,131695,1,8,0:0:0:0:
254,191,131975,1,0,0:0:0:0:
254,191,132068,1,0,0:0:0:0:
254,191,132161,1,0,0:0:0:0:
254,191,132254,1,8,0:0:0:0:
254,191,132441,1,0,0:0:0:0:
254,191,132534,1,0,0:0:0:0:
254,191,132627,1,8,0:0:0:0:
254,191,132813,1,0,0:0:0:0:
254,191,132906,1,8,0:0:0:0:
254,191,133000,1,0,0:0:0:0:
254,191,133186,1,0,0:0:0:0:
254,191,133372,1,8,0:0:0:0:
254,191,133559,1,0,0:0:0:0:
254,191,133652,1,0,0:0:0:0:
254,191,133745,1,0,0:0:0:0:
254,191,133931,1,8,0:0:0:0:
254,191,134024,1,0,0:0:0:0:
254,191,134118,1,8,0:0:0:0:
254,191,134164,1,8,0:0:0:0:
254,191,134211,1,8,0:0:0:0:
254,191,134304,1,0,0:0:0:0:
254,191,134490,1,0,0:0:0:0:
254,191,134677,1,8,0:0:0:0:
254,191,134770,1,0,0:0:0:0:
254,191,134956,1,8,0:0:0:0:
254,191,135049,1,8,0:0:0:0:
254,191,135142,1,0,0:0:0:0:
254,191,135236,1,8,0:0:0:0:
59,59,135298,1,0,0:0:0:0:
448,64,135360,1,8,0:0:0:0:
448,64,135422,1,8,0:0:0:0:
254,191,135515,1,0,0:0:0:0:
254,191,135702,1,8,0:0:0:0:
254,191,135795,1,0,0:0:0:0:
254,191,135888,1,0,0:0:0:0:
254,191,135981,1,0,0:0:0:0:
254,191,136167,1,8,0:0:0:0:
254,191,136354,1,0,0:0:0:0:
254,191,136447,1,0,0:0:0:0:
254,191,136540,1,8,0:0:0:0:
254,191,136633,1,8,0:0:0:0:
254,191,136726,1,0,0:0:0:0:
254,191,136913,1,0,0:0:0:0:
254,191,137006,1,0,0:0:0:0:
254,191,137099,1,8,0:0:0:0:
254,191,137285,1,0,0:0:0:0:
254,191,137565,1,0,0:0:0:0:
254,191,137658,1,8,0:0:0:0:
254,191,137844,1,0,0:0:0:0:
254,191,137938,1,0,0:0:0:0:
254,191,138031,1,8,0:0:0:0:
254,191,138124,1,0,0:0:0:0:
254,191,138217,1,8,0:0:0:0:
254,191,138403,1,0,0:0:0:0:
254,191,138497,1,8,0:0:0:0:
254,191,138543,1,8,0:0:0:0:
254,191,138590,1,0,0:0:0:0:
254,191,138683,1,8,0:0:0:0:
254,191,138776,1,0,0:0:0:0:
254,191,138962,1,8,0:0:0:0:
254,191,139056,1,0,0:0:0:0:
254,191,139149,1,8,0:0:0:0:
254,191,139242,1,8,0:0:0:0:
254,191,139335,1,0,0:0:0:0:
59,59,139521,1,0,0:0:0:0:
254,191,139615,1,8,0:0:0:0:
254,191,139708,1,0,0:0:0:0:
254,191,139894,1,0,0:0:0:0:
254,191,140080,1,8,0:0:0:0:
254,191,140174,1,8,0:0:0:0:
254,191,140267,1,0,0:0:0:0:
254,191,140360,1,0,0:0:0:0:
254,191,140546,1,0,0:0:0:0:
254,191,140639,1,8,0:0:0:0:
254,191,140826,1,0,0:0:0:0:
254,191,140919,1,8,0:0:0:0:
254,191,141012,1,8,0:0:0:0:
254,191,141105,1,0,0:0:0:0:
254,191,141198,1,8,0:0:0:0:
254,191,141385,1,0,0:0:0:0:
254,191,141478,1,0,0:0:0:0:
254,191,141571,1,8,0:0:0:0:
254,191,141664,1,8,0:0:0:0:
254,191,141757,1,0,0:0:0:0:
254,191,141944,1,0,0:0:0:0:
254,191,142037,1,0,0:0:0:0:
254,191,142130,1,8,0:0:0:0:
254,191,142316,1,0,0:0:0:0:
254,191,142410,1,8,0:0:0:0:
254,191,142503,1,8,0:0:0:0:
254,191,142596,1,8,0:0:0:0:
254,191,142689,1,0,0:0:0:0:
254,191,142875,1,8,0:0:0:0:
254,191,142969,1,8,0:0:0:0:
254,191,143062,1,8,0:0:0:0:
254,191,143248,1,4,0:0:0:0:
254,191,143621,1,8,0:0:0:0:
254,191,143807,1,0,0:0:0:0:
254,191,144180,1,0,0:0:0:0:
254,191,144273,1,0,0:0:0:0:
254,191,144366,1,8,0:0:0:0:
254,191,144739,1,0,0:0:0:0:
254,191,145018,1,0,0:0:0:0:
254,191,145111,1,8,0:0:0:0:
254,191,145298,1,0,0:0:0:0:
254,191,145577,1,0,0:0:0:0:
254,191,145857,1,8,0:0:0:0:
254,191,145950,1,0,0:0:0:0:
254,191,146043,1,8,0:0:0:0:
254,191,146136,1,8,0:0:0:0:
254,191,146229,1,0,0:0:0:0:
254,191,146509,1,8,0:0:0:0:
254,191,146602,1,0,0:0:0:0:
254,191,146788,1,8,0:0:0:0:
254,191,147161,1,0,0:0:0:0:
254,191,147254,1,8,0:0:0:0:
254,191,147347,1,8,0:0:0:0:
254,191,147720,1,0,0:0:0:0:
254,191,148000,1,0,0:0:0:0:
254,191,148279,1,8,0:0:0:0:
254,191,148559,1,0,0:0:0:0:
254,191,148838,1,8,0:0:0:0:
254,191,148931,1,8,0:0:0:0:
254,191,149024,1,0,0:0:0:0:
254,191,149118,1,8,0:0:0:0:
254,191,149211,1,0,0:0:0:0:
254,191,149490,1,8,0:0:0:0:
254,191,149770,1,0,0:0:0:0:
254,191,150142,1,0,0:0:0:0:
254,191,150236,1,0,0:0:0:0:
254,191,150329,1,8,0:0:0:0:
254,191,150702,1,0,0:0:0:0:
254,191,150981,1,0,0:0:0:0:
254,191,151261,1,8,0:0:0:0:
254,191,151540,1,8,0:0:0:0:
254,191,151820,1,0,0:0:0:0:
254,191,151913,1,0,0:0:0:0:
254,191,152006,1,8,0:0:0:0:
254,191,152099,1,8,0:0:0:0:
254,191,152192,1,0,0:0:0:0:
254,191,152472,1,8,0:0:0:0:
254,191,152751,1,0,0:0:0:0:
254,191,153124,1,8,0:0:0:0:
254,191,153217,1,0,0:0:0:0:
254,191,153310,1,8,0:0:0:0:
254,191,153683,1,0,0:0:0:0:
254,191,153962,1,8,0:0:0:0:
254,191,154242,1,8,0:0:0:0:
254,191,154521,1,0,0:0:0:0:
254,191,154801,1,8,0:0:0:0:
254,191,154894,1,8,0:0:0:0:
254,191,154987,1,8,0:0:0:0:
254,191,155080,1,8,0:0:0:0:
254,191,155174,1,0,0:0:0:0:
254,191,155453,1,0,0:0:0:0:
254,191,155546,1,8,0:0:0:0:
254,191,155733,1,0,0:0:0:0:
254,191,156105,1,0,0:0:0:0:
254,191,156198,1,0,0:0:0:0:
254,191,156292,1,8,0:0:0:0:
254,191,156664,1,0,0:0:0:0:
254,191,156944,1,0,0:0:0:0:
254,191,157223,1,8,0:0:0:0:
254,191,157503,1,0,0:0:0:0:
254,191,157782,1,8,0:0:0:0:
254,191,157875,1,0,0:0:0:0:
254,191,157969,1,8,0:0:0:0:
254,191,158062,1,8,0:0:0:0:
254,191,158155,1,0,0:0:0:0:
254,191,158434,1,8,0:0:0:0:
254,191,158714,1,8,0:0:0:0:
254,191,159087,1,0,0:0:0:0:
254,191,159180,1,0,0:0:0:0:
254,191,159273,1,8,0:0:0:0:
254,191,159366,1,0,0:0:0:0:
59,59,159459,1,0,0:0:0:0:
254,191,159552,1,0,0:0:0:0:
254,191,159646,1,8,0:0:0:0:
59,59,159832,1,0,0:0:0:0:
254,191,159925,1,8,0:0:0:0:
254,191,160018,1,0,0:0:0:0:
254,191,160205,1,8,0:0:0:0:
254,191,160391,1,0,0:0:0:0:
254,191,160484,1,8,0:0:0:0:
448,64,160670,1,8,0:0:0:0:
254,191,160764,1,0,0:0:0:0:
254,191,160857,1,0,0:0:0:0:
254,191,160950,1,8,0:0:0:0:
254,191,161043,1,8,0:0:0:0:
254,191,161136,1,0,0:0:0:0:
254,191,161323,1,8,0:0:0:0:
254,191,161416,1,8,0:0:0:0:
254,191,161509,1,0,0:0:0:0:
254,191,161602,1,8,0:0:0:0:
254,191,161695,1,0,0:0:0:0:
254,191,161882,1,8,0:0:0:0:
254,191,162068,1,0,0:0:0:0:
254,191,162161,1,0,0:0:0:0:
254,191,162254,1,8,0:0:0:0:
254,191,162627,1,0,0:0:0:0:
254,191,162906,1,0,0:0:0:0:
254,191,163186,1,8,0:0:0:0:
254,191,163465,1,0,0:0:0:0:
254,191,163745,1,8,0:0:0:0:
254,191,163838,1,8,0:0:0:0:
254,191,163931,1,8,0:0:0:0:
254,191,164024,1,8,0:0:0:0:
254,191,164118,1,0,0:0:0:0:
254,191,164397,1,8,0:0:0:0:
254,191,164677,1,8,0:0:0:0:
254,191,165049,1,0,0:0:0:0:
254,191,165142,1,0,0:0:0:0:
254,191,165236,1,8,0:0:0:0:
254,191,165329,1,0,0:0:0:0:
254,191,165375,1,0,0:0:0:0:
254,191,165422,1,8,0:0:0:0:
254,191,165515,1,0,0:0:0:0:
254,191,165608,1,8,0:0:0:0:
254,191,165702,1,8,0:0:0:0:
254,191,165795,1,8,0:0:0:0:
254,191,165888,1,0,0:0:0:0:
254,191,165981,1,0,0:0:0:0:
254,191,166074,1,8,0:0:0:0:
254,191,166167,1,0,0:0:0:0:
254,191,166261,1,0,0:0:0:0:
254,191,166354,1,8,0:0:0:0:
254,191,166447,1,0,0:0:0:0:
254,191,166540,1,8,0:0:0:0:
254,191,166633,1,8,0:0:0:0:
254,191,166726,1,0,0:0:0:0:
254,191,166820,1,0,0:0:0:0:
254,191,166913,1,8,0:0:0:0:
254,191,167099,1,4,0:0:0:0:
254,191,167285,1,8,0:0:0:0:
254,191,167379,1,8,0:0:0:0:
254,191,167565,1,8,0:0:0:0:
254,191,167658,1,0,0:0:0:0:
254,191,167844,1,8,0:0:0:0:
254,191,168031,1,0,0:0:0:0:
254,191,168124,1,8,0:0:0:0:
254,191,168310,1,0,0:0:0:0:
254,191,168403,1,8,0:0:0:0:
254,191,168497,1,8,0:0:0:0:
254,191,168590,1,0,0:0:0:0:
254,191,168869,1,8,0:0:0:0:
254,191,168962,1,0,0:0:0:0:
254,191,169056,1,0,0:0:0:0:
254,191,169149,1,8,0:0:0:0:
254,191,169335,1,0,0:0:0:0:
254,191,169428,1,8,0:0:0:0:
254,191,169521,1,8,0:0:0:0:
254,191,169615,1,8,0:0:0:0:
254,191,169708,1,0,0:0:0:0:
254,191,169801,1,8,0:0:0:0:
254,191,169987,1,8,0:0:0:0:
254,191,170080,1,0,0:0:0:0:
254,191,170360,1,8,0:0:0:0:
254,191,170453,1,0,0:0:0:0:
254,191,170546,1,0,0:0:0:0:
254,191,170639,1,8,0:0:0:0:
254,191,170826,1,0,0:0:0:0:
254,191,171012,1,8,0:0:0:0:
254,191,171105,1,8,0:0:0:0:
254,191,171198,1,0,0:0:0:0:
254,191,171292,1,8,0:0:0:0:
59,59,171478,1,0,0:0:0:0:
254,191,171571,1,0,0:0:0:0:
254,191,171851,1,8,0:0:0:0:
254,191,171944,1,0,0:0:0:0:
254,191,172037,1,8,0:0:0:0:
254,191,172130,1,8,0:0:0:0:
254,191,172316,1,0,0:0:0:0:
254,191,172410,1,8,0:0:0:0:
254,191,172503,1,8,0:0:0:0:
254,191,172596,1,0,0:0:0:0:
254,191,172689,1,0,0:0:0:0:
254,191,172782,1,8,0:0:0:0:
254,191,172969,1,0,0:0:0:0:
254,191,173062,1,8,0:0:0:0:
254,191,173155,1,8,0:0:0:0:
254,191,173248,1,8,0:0:0:0:
254,191,173341,1,0,0:0:0:0:
254,191,173528,1,8,0:0:0:0:
254,191,173621,1,0,0:0:0:0:
254,191,173714,1,0,0:0:0:0:
254,191,173807,1,8,0:0:0:0:
254,191,173900,1,8,0:0:0:0:
254,191,173993,1,0,0:0:0:0:
254,191,174087,1,8,0:0:0:0:
254,191,174273,1,0,0:0:0:0:
254,191,174366,1,8,0:0:0:0:
254,191,174459,1,8,0:0:0:0:
254,191,174552,1,0,0:0:0:0:
254,191,174646,1,8,0:0:0:0:
254,191,174739,1,8,0:0:0:0:
254,191,174832,1,0,0:0:0:0:
254,191,175018,1,8,0:0:0:0:
254,191,175111,1,0,0:0:0:0:
254,191,175205,1,0,0:0:0:0:
254,191,175298,1,8,0:0:0:0:
254,191,175391,1,0,0:0:0:0:
254,191,175484,1,8,0:0:0:0:
254,191,175577,1,8,0:0:0:0:
254,191,175670,1,0,0:0:0:0:
254,191,175764,1,8,0:0:0:0:
254,191,175950,1,0,0:0:0:0:
254,191,176043,1,8,0:0:0:0:
254,191,176136,1,0,0:0:0:0:
254,191,176229,1,0,0:0:0:0:
254,191,176323,1,8,0:0:0:0:
254,191,176416,1,0,0:0:0:0:
254,191,176509,1,8,0:0:0:0:
254,191,176602,1,8,0:0:0:0:
254,191,176695,1,0,0:0:0:0:
254,191,176788,1,8,0:0:0:0:
254,191,176882,1,0,0:0:0:0:
254,191,176975,1,0,0:0:0:0:
254,191,177068,1,8,0:0:0:0:
254,191,177161,1,8,0:0:0:0:
254,191,177254,1,0,0:0:0:0:
254,191,177347,1,8,0:0:0:0:
254,191,177441,1,0,0:0:0:0:
254,191,177534,1,8,0:0:0:0:
254,191,177627,1,8,0:0:0:0:
254,191,177720,1,8,0:0:0:0:
254,191,177813,1,0,0:0:0:0:
254,191,177906,1,0,0:0:0:0:
254,191,178000,1,8,0:0:0:0:
254,191,178093,1,0,0:0:0:0:
254,191,178186,1,0,0:0:0:0:
254,191,178279,1,8,0:0:0:0:
254,191,178372,1,0,0:0:0:0:
254,191,178465,1,0,0:0:0:0:
254,191,178559,1,8,0:0:0:0:
254,191,178652,1,8,0:0:0:0:
254,191,178745,1,0,0:0:0:0:
254,191,178838,1,8,0:0:0:0:
254,191,179024,5,4,0:0:0:0:
254,191,179211,1,8,0:0:0:0:
254,191,179304,1,8,0:0:0:0:
254,191,179397,1,0,0:0:0:0:
254,191,179490,1,8,0:0:0:0:
254,191,179583,1,0,0:0:0:0:
254,191,179677,1,0,0:0:0:0:
254,191,179770,1,8,0:0:0:0:
254,191,179863,1,0,0:0:0:0:
254,191,179956,1,0,0:0:0:0:
254,191,180142,1,8,0:0:0:0:
254,191,180329,1,8,0:0:0:0:
448,64,180422,1,8,0:0:0:0:
254,191,180515,1,4,0:0:0:0:
254,191,180795,1,0,0:0:0:0:
254,191,180888,1,8,0:0:0:0:
254,191,180981,1,8,0:0:0:0:
254,191,181074,1,0,0:0:0:0:
254,191,181167,1,8,0:0:0:0:
254,191,181354,1,0,0:0:0:0:
254,191,181447,1,0,0:0:0:0:
254,191,181540,1,8,0:0:0:0:
254,191,181633,1,8,0:0:0:0:
254,191,181726,1,0,0:0:0:0:
254,191,181913,1,8,0:0:0:0:
254,191,182006,1,0,0:0:0:0:
254,191,182192,1,8,0:0:0:0:
254,191,182285,1,8,0:0:0:0:
254,191,182379,1,0,0:0:0:0:
254,191,182472,1,8,0:0:0:0:
254,191,182565,1,0,0:0:0:0:
254,191,182658,1,0,0:0:0:0:
254,191,182844,1,8,0:0:0:0:
254,191,182938,1,0,0:0:0:0:
254,191,183031,1,8,0:0:0:0:
254,191,183124,1,8,0:0:0:0:
254,191,183217,1,0,0:0:0:0:
254,191,183310,1,8,0:0:0:0:
254,191,183403,1,8,0:0:0:0:
254,191,183497,1,0,0:0:0:0:
254,191,183683,1,8,0:0:0:0:
254,191,183776,1,0,0:0:0:0:
254,191,183869,1,8,0:0:0:0:
254,191,183962,1,0,0:0:0:0:
254,191,184056,1,0,0:0:0:0:
254,191,184149,1,8,0:0:0:0:
254,191,184335,1,0,0:0:0:0:
254,191,184428,1,8,0:0:0:0:
254,191,184521,1,8,0:0:0:0:
254,191,184615,1,0,0:0:0:0:
254,191,184708,1,8,0:0:0:0:
254,191,184754,1,8,0:0:0:0:
254,191,184801,1,0,0:0:0:0:
254,191,184894,1,8,0:0:0:0:
254,191,184987,1,0,0:0:0:0:
254,191,185174,1,8,0:0:0:0:
254,191,185267,1,0,0:0:0:0:
254,191,185360,1,8,0:0:0:0:
254,191,185453,1,8,0:0:0:0:
254,191,185546,1,0,0:0:0:0:
254,191,185639,1,8,0:0:0:0:
254,191,185733,1,8,0:0:0:0:
254,191,185826,1,8,0:0:0:0:
254,191,185919,1,0,0:0:0:0:
254,191,186105,1,8,0:0:0:0:
254,191,186198,1,8,0:0:0:0:
254,191,186292,1,0,0:0:0:0:
59,59,186385,1,0,0:0:0:0:
254,191,186478,1,0,0:0:0:0:
254,191,186664,1,8,0:0:0:0:
254,191,186757,1,0,0:0:0:0:
254,191,186851,1,8,0:0:0:0:
254,191,186944,1,0,0:0:0:0:
254,191,187037,1,0,0:0:0:0:
254,191,187130,1,8,0:0:0:0:
254,191,187316,1,0,0:0:0:0:
254,191,187410,1,8,0:0:0:0:
254,191,187503,1,8,0:0:0:0:
254,191,187596,1,8,0:0:0:0:
254,191,187689,1,0,0:0:0:0:
254,191,187875,1,8,0:0:0:0:
254,191,187969,1,0,0:0:0:0:
254,191,188155,1,8,0:0:0:0:
254,191,188248,1,8,0:0:0:0:
254,191,188341,1,0,0:0:0:0:
254,191,188434,1,8,0:0:0:0:
254,191,188528,1,0,0:0:0:0:
254,191,188621,1,0,0:0:0:0:
254,191,188714,1,8,0:0:0:0:
254,191,188807,1,0,0:0:0:0:
254,191,188900,1,0,0:0:0:0:
254,191,189087,1,8,0:0:0:0:
254,191,189180,1,8,0:0:0:0:
254,191,189273,1,0,0:0:0:0:
254,191,189366,1,0,0:0:0:0:
254,191,189459,1,8,0:0:0:0:
254,191,189552,1,8,0:0:0:0:
254,191,189646,1,8,0:0:0:0:
254,191,189739,1,0,0:0:0:0:
254,191,189832,1,0,0:0:0:0:
254,191,189925,1,0,0:0:0:0:
254,191,190018,1,8,0:0:0:0:
254,191,190111,1,8,0:0:0:0:
254,191,190205,1,0,0:0:0:0:
254,191,190298,1,8,0:0:0:0:
59,59,190344,1,0,0:0:0:0:
254,191,190391,1,0,0:0:0:0:
254,191,190484,1,0,0:0:0:0:
254,191,190577,1,8,0:0:0:0:
254,191,190670,1,8,0:0:0:0:
254,191,190764,1,8,0:0:0:0:
254,191,190857,1,8,0:0:0:0:
254,191,190950,1,0,0:0:0:0:
254,191,191136,1,8,0:0:0:0:
59,59,191229,1,0,0:0:0:0:
448,64,191323,1,8,0:0:0:0:
448,64,191509,1,8,0:0:0:0:
59,59,191602,1,0,0:0:0:0:
254,191,191788,1,0,0:0:0:0:
254,191,191882,1,8,0:0:0:0:
448,64,191975,1,8,0:0:0:0:
59,59,192068,1,0,0:0:0:0:
254,191,192161,1,8,0:0:0:0:
59,59,192254,1,0,0:0:0:0:
59,59,192347,1,0,0:0:0:0:
254,191,192441,1,0,0:0:0:0:
254,191,192627,1,8,0:0:0:0:
254,191,192720,1,0,0:0:0:0:
254,191,192813,1,8,0:0:0:0:
254,191,192906,1,0,0:0:0:0:
254,191,193000,1,0,0:0:0:0:
254,191,193093,1,8,0:0:0:0:
254,191,193279,1,0,0:0:0:0:
254,191,193372,1,0,0:0:0:0:
254,191,193465,1,8,0:0:0:0:
254,191,193559,1,8,0:0:0:0:
254,191,193652,1,0,0:0:0:0:
254,191,193698,1,0,0:0:0:0:
254,191,193745,1,8,0:0:0:0:
254,191,193838,1,8,0:0:0:0:
254,191,193931,1,0,0:0:0:0:
254,191,194118,1,8,0:0:0:0:
254,191,194211,1,8,0:0:0:0:
254,191,194304,1,0,0:0:0:0:
254,191,194397,1,0,0:0:0:0:
254,191,194490,1,8,0:0:0:0:
254,191,194583,1,0,0:0:0:0:
254,191,194770,1,8,0:0:0:0:
254,191,194863,1,0,0:0:0:0:
448,64,194956,1,8,0:0:0:0:
59,59,195049,1,0,0:0:0:0:
254,191,195142,1,0,0:0:0:0:
254,191,195236,1,8,0:0:0:0:
254,191,195329,1,8,0:0:0:0:
254,191,195422,1,0,0:0:0:0:
254,191,195608,1,8,0:0:0:0:
254,191,195702,1,0,0:0:0:0:
254,191,195795,1,8,0:0:0:0:
254,191,195981,1,0,0:0:0:0:
254,191,196074,1,8,0:0:0:0:
254,191,196167,1,0,0:0:0:0:
254,191,196261,1,0,0:0:0:0:
254,191,196354,1,8,0:0:0:0:
254,191,196540,1,0,0:0:0:0:
254,191,196633,1,8,0:0:0:0:
254,191,196680,1,8,0:0:0:0:
254,191,196726,1,0,0:0:0:0:
254,191,196820,1,8,0:0:0:0:
254,191,196913,1,0,0:0:0:0:
254,191,197099,1,8,0:0:0:0:
254,191,197192,1,8,0:0:0:0:
254,191,197285,1,0,0:0:0:0:
254,191,197379,1,0,0:0:0:0:
254,191,197472,1,8,0:0:0:0:
254,191,197565,1,0,0:0:0:0:
254,191,197751,1,8,0:0:0:0:
254,191,197844,1,0,0:0:0:0:
254,191,197938,1,8,0:0:0:0:
254,191,198031,1,8,0:0:0:0:
254,191,198124,1,0,0:0:0:0:
254,191,198217,1,8,0:0:0:0:
254,191,198310,1,8,0:0:0:0:
254,191,198403,1,0,0:0:0:0:
254,191,198590,1,8,0:0:0:0:
59,59,198683,1,0,0:0:0:0:
448,64,198776,1,8,0:0:0:0:
448,64,198869,1,8,0:0:0:0:
59,59,198962,1,0,0:0:0:0:
254,191,199056,1,0,0:0:0:0:
254,191,199242,1,8,0:0:0:0:
254,191,199335,1,0,0:0:0:0:
59,59,199428,1,0,0:0:0:0:
254,191,199521,1,8,0:0:0:0:
254,191,199615,1,0,0:0:0:0:
254,191,199661,1,0,0:0:0:0:
254,191,199708,1,8,0:0:0:0:
253,145,199801,1,8,0:0:0:0:
253,145,199894,1,0,0:0:0:0:
258,235,200080,1,8,0:0:0:0:
255,189,200174,1,8,0:0:0:0:
255,189,200267,1,0,0:0:0:0:
255,189,200360,1,0,0:0:0:0:
255,189,200453,1,0,0:0:0:0:
255,189,200546,1,8,0:0:0:0:
255,189,200733,1,0,0:0:0:0:
255,189,200826,1,8,0:0:0:0:
255,189,200919,1,8,0:0:0:0:
255,189,201012,1,0,0:0:0:0:
255,189,201105,1,8,0:0:0:0:
255,189,201152,1,8,0:0:0:0:
255,189,201198,1,8,0:0:0:0:
255,189,201292,1,0,0:0:0:0:
255,189,201385,1,8,0:0:0:0:
255,189,201478,1,8,0:0:0:0:
255,189,201571,1,8,0:0:0:0:
255,189,201664,1,0,0:0:0:0:
255,189,201757,1,0,0:0:0:0:
255,189,201851,1,0,0:0:0:0:
255,189,201944,1,8,0:0:0:0:
448,64,202037,1,8,0:0:0:0:
59,59,202130,1,0,0:0:0:0:
59,59,202223,1,0,0:0:0:0:
448,64,202316,1,8,0:0:0:0:
59,59,202379,1,0,0:0:0:0:
255,189,202441,1,0,0:0:0:0:
255,189,202503,1,8,0:0:0:0:
255,189,202596,1,8,0:0:0:0:
255,189,202689,1,0,0:0:0:0:
255,189,202782,1,8,0:0:0:0:
255,189,202875,1,0,0:0:0:0:
255,189,203248,1,8,0:0:0:0:
255,189,203434,1,0,0:0:0:0:
255,189,203528,1,8,0:0:0:0:
255,189,203714,1,8,0:0:0:0:
255,189,203807,1,0,0:0:0:0:
255,189,203993,1,8,0:0:0:0:
255,189,204366,1,0,0:0:0:0:
255,189,204552,1,8,0:0:0:0:
255,189,204646,1,0,0:0:0:0:
255,189,204739,1,8,0:0:0:0:
255,189,204832,1,8,0:0:0:0:
255,189,204925,1,0,0:0:0:0:
255,189,205018,1,8,0:0:0:0:
255,189,205205,1,8,0:0:0:0:
255,189,205298,1,0,0:0:0:0:
255,189,205484,1,8,0:0:0:0:
255,189,205857,1,0,0:0:0:0:
255,189,206043,1,8,0:0:0:0:
255,189,206136,1,0,0:0:0:0:
255,189,206229,1,8,0:0:0:0:
255,189,206323,1,0,0:0:0:0:
255,189,206416,1,0,0:0:0:0:
255,189,206509,1,8,0:0:0:0:
255,189,206695,1,8,0:0:0:0:
255,189,206788,1,0,0:0:0:0:
255,189,206975,1,8,0:0:0:0:
255,189,207161,1,0,0:0:0:0:
255,189,207254,1,0,0:0:0:0:
255,189,207347,1,8,0:0:0:0:
255,189,207534,1,0,0:0:0:0:
255,189,207627,1,8,0:0:0:0:
255,189,207720,1,8,0:0:0:0:
255,189,207813,1,8,0:0:0:0:
255,189,207906,1,0,0:0:0:0:
255,189,208000,1,0,0:0:0:0:
255,189,208093,1,8,0:0:0:0:
448,64,208186,1,8,0:0:0:0:
59,59,208279,1,0,0:0:0:0:
255,189,208465,1,0,0:0:0:0:
255,189,208559,1,8,0:0:0:0:
255,189,208838,1,0,0:0:0:0:
255,189,209118,1,0,0:0:0:0:
255,189,209211,1,8,0:0:0:0:
255,189,209304,1,8,0:0:0:0:
255,189,209397,1,0,0:0:0:0:
255,189,209490,1,0,0:0:0:0:
255,189,209677,1,8,0:0:0:0:
255,189,209770,1,0,0:0:0:0:
255,189,209863,1,0,0:0:0:0:
255,189,209956,1,8,0:0:0:0:
255,189,210142,1,0,0:0:0:0:
255,189,210236,1,8,0:0:0:0:
255,189,210329,1,0,0:0:0:0:
255,189,210515,1,8,0:0:0:0:
255,189,210608,1,0,0:0:0:0:
255,189,210702,1,8,0:0:0:0:
255,189,210795,1,8,0:0:0:0:
255,189,210888,1,0,0:0:0:0:
255,189,210981,1,0,0:0:0:0:
255,189,211167,1,8,0:0:0:0:
255,189,211261,1,0,0:0:0:0:
255,189,211354,1,0,0:0:0:0:
255,189,211447,1,8,0:0:0:0:
255,189,211633,1,8,0:0:0:0:
255,189,211820,1,0,0:0:0:0:
255,189,212006,1,8,0:0:0:0:
255,189,212099,1,0,0:0:0:0:
255,189,212192,1,8,0:0:0:0:
255,189,212285,1,8,0:0:0:0:
255,189,212379,1,0,0:0:0:0:
255,189,212472,1,8,0:0:0:0:
255,189,212565,1,8,0:0:0:0:
255,189,212658,1,8,0:0:0:0:
255,189,212751,1,0,0:0:0:0:
255,189,212938,1,8,0:0:0:0:
255,189,213124,1,0,0:0:0:0:
255,189,213217,1,0,0:0:0:0:
255,189,213310,1,8,0:0:0:0:
255,189,213403,1,8,0:0:0:0:
255,189,213497,1,8,0:0:0:0:
255,189,213590,1,0,0:0:0:0:
255,189,213683,1,0,0:0:0:0:
255,189,213776,1,8,0:0:0:0:
255,189,213869,1,0,0:0:0:0:
255,189,213962,1,8,0:0:0:0:
255,189,214056,1,8,0:0:0:0:
255,189,214149,1,0,0:0:0:0:
255,189,214242,1,0,0:0:0:0:
255,189,214335,1,0,0:0:0:0:
255,189,214428,1,8,0:0:0:0:
255,189,214521,1,8,0:0:0:0:
255,189,214615,1,0,0:0:0:0:
255,189,214708,1,8,0:0:0:0:
255,189,214801,1,0,0:0:0:0:
255,189,215080,1,8,0:0:0:0:
255,189,215174,1,8,0:0:0:0:
255,189,215453,1,0,0:0:0:0:
255,189,215546,1,8,0:0:0:0:
255,189,215639,1,8,0:0:0:0:
255,189,215919,1,0,0:0:0:0:
255,189,216105,1,8,0:0:0:0:
255,189,216198,1,0,0:0:0:0:
255,189,216478,1,8,0:0:0:0:
255,189,216944,1,0,0:0:0:0:
255,189,217130,1,8,0:0:0:0:
255,189,217410,1,0,0:0:0:0:
255,189,217596,1,8,0:0:0:0:
255,189,217689,1,8,0:0:0:0:
255,189,217782,1,0,0:0:0:0:
255,189,218062,1,8,0:0:0:0:
255,189,218248,1,0,0:0:0:0:
255,189,218341,1,8,0:0:0:0:
255,189,218434,1,8,0:0:0:0:
255,189,218528,1,0,0:0:0:0:
255,189,218714,1,8,0:0:0:0:
255,189,218900,1,0,0:0:0:0:
255,189,218993,1,0,0:0:0:0:
59,59,219087,1,0,0:0:0:0:
59,59,219180,1,0,0:0:0:0:
448,64,219273,1,8,0:0:0:0:
59,59,219552,1,0,0:0:0:0:
255,189,219832,1,0,0:0:0:0:
255,189,219925,1,0,0:0:0:0:
255,189,220018,1,8,0:0:0:0:
255,189,220205,1,0,0:0:0:0:
255,189,220391,1,8,0:0:0:0:
255,189,220484,1,8,0:0:0:0:
255,189,220577,1,8,0:0:0:0:
255,189,220670,1,8,0:0:0:0:
255,189,220764,1,0,0:0:0:0:
255,189,221043,1,8,0:0:0:0:
255,189,221136,1,8,0:0:0:0:
255,189,221416,1,0,0:0:0:0:
255,189,221509,1,8,0:0:0:0:
255,189,221602,1,8,0:0:0:0:
255,189,221882,1,0,0:0:0:0:
255,189,222068,1,8,0:0:0:0:
255,189,222161,1,0,0:0:0:0:
255,189,222441,1,8,0:0:0:0:
255,189,222906,1,0,0:0:0:0:
255,189,223093,1,8,0:0:0:0:
255,189,223372,1,0,0:0:0:0:
255,189,223465,1,8,0:0:0:0:
255,189,223652,1,8,0:0:0:0:
255,189,223745,1,0,0:0:0:0:
255,189,223931,1,8,0:0:0:0:
255,189,224024,1,8,0:0:0:0:
255,189,224118,1,0,0:0:0:0:
255,189,224304,1,8,0:0:0:0:
448,64,224397,1,8,0:0:0:0:
59,59,224490,1,0,0:0:0:0:
255,189,224583,1,8,0:0:0:0:
255,189,224677,1,0,0:0:0:0:
255,189,224863,1,8,0:0:0:0:
255,189,224956,1,8,0:0:0:0:
255,189,225049,1,0,0:0:0:0:
255,189,225142,1,0,0:0:0:0:
255,189,225236,1,8,0:0:0:0:
255,189,225329,1,0,0:0:0:0:
255,189,225515,1,8,0:0:0:0:
255,189,225702,1,0,0:0:0:0:
255,189,225795,1,0,0:0:0:0:
255,189,225888,1,0,0:0:0:0:
255,189,225981,1,8,0:0:0:0:
255,189,226167,1,0,0:0:0:0:
255,189,226261,1,8,0:0:0:0:
255,189,226354,1,8,0:0:0:0:
255,189,226447,1,8,0:0:0:0:
255,189,226540,1,0,0:0:0:0:
255,189,226633,1,8,0:0:0:0:
255,189,226726,1,0,0:0:0:0:
