osu file format v14

[General]
AudioFilename: audio.mp3
AudioLeadIn: 0
PreviewTime: -1
Countdown: 1
SampleSet: None
StackLeniency: 0.3
Mode: 0
LetterboxInBreaks: 0
WidescreenStoryboard: 0

[Editor]
DistanceSpacing: 0.5
BeatDivisor: 16
GridSize: 32
TimelineZoom: 3.699999

[Metadata]
Title:fuego (sakuraburst remix)
TitleUnicode:fuego (sakuraburst remix)
Artist:KOAN Sound & Asa
ArtistUnicode:KOAN Sound & Asa
Creator:byfar
Version:byfar
Source:
Tags:
BeatmapID:1532051
BeatmapSetID:725607

[Difficulty]
HPDrainRate:5.3
CircleSize:4.2
OverallDifficulty:8.8
ApproachRate:9.3
SliderMultiplier:2
SliderTickRate:1

[Events]
//Background and Video events
0,0,"66946247_p0.jpg",0,0
//Break Periods
//Storyboard Layer 0 (Background)
//Storyboard Layer 1 (Fail)
//Storyboard Layer 2 (Pass)
//Storyboard Layer 3 (Foreground)
//Storyboard Sound Samples

[TimingPoints]
5,300,4,3,1,100,1,0
14405,-200,4,3,1,40,0,0
33755,-200,4,3,1,6,0,0
34055,-200,4,3,1,40,0,0
34805,-133.333333333333,4,3,1,40,0,0
34955,-200,4,3,1,6,0,0
35255,-133.333333333333,4,3,1,40,0,0
36005,-100,4,3,1,40,0,0
37205,-66.6666666666667,4,3,1,80,0,0
37805,-66.6666666666667,4,3,1,100,0,0
38405,-100,4,3,1,100,0,0
39005,-66.6666666666667,4,3,1,100,0,0
39305,-100,4,3,1,100,0,0
40205,-50,4,3,1,100,0,0
40805,-100,4,3,2,100,0,0
41405,-66.6666666666667,4,3,1,100,0,0
42605,-100,4,3,1,100,0,0
43205,-66.6666666666667,4,3,1,100,0,0
43505,-66.6666666666667,4,3,2,100,0,0
43805,-66.6666666666667,4,3,1,100,0,0
44105,-50,4,3,2,100,0,0
44705,-100,4,3,1,100,0,0
45305,-66.6666666666667,4,3,1,100,0,0
45605,-66.6666666666667,4,3,1,100,0,0
45755,-66.6666666666667,4,3,2,100,0,0
45980,-66.6666666666667,4,3,1,100,0,0
46505,-50,4,3,1,100,0,0
46805,-50,4,3,1,5,0,0
46955,-50,4,3,1,100,0,0
47105,-50,4,2,1,100,0,0
47705,-50,4,3,1,100,0,0
48005,-100,4,3,1,100,0,0
48605,-66.6666666666667,4,3,1,100,0,0
48905,-100,4,3,1,100,0,0
49805,-50,4,3,1,100,0,0
50405,-100,4,3,2,100,0,0
51005,-66.6666666666667,4,3,1,100,0,0
52205,-100,4,3,1,100,0,0
52805,-66.6666666666667,4,3,1,100,0,0
53105,-100,4,3,2,100,0,0
53405,-66.6666666666667,4,3,1,100,0,0
53555,-66.6666666666667,4,3,1,100,0,0
53705,-50,4,3,1,100,0,0
54905,-66.6666666666667,4,3,1,100,0,0
55355,-66.6666666666667,4,3,1,100,0,0
56555,-66.6666666666667,4,2,0,100,0,0
56855,-66.6666666666667,4,3,1,100,0,0
57455,-66.6666666666667,4,3,1,100,0,0
57605,-100,4,3,1,100,0,0
58205,-66.6666666666667,4,3,1,100,0,0
58505,-100,4,3,1,100,0,0
59405,-50,4,3,1,100,0,0
60005,-100,4,3,2,100,0,0
60605,-66.6666666666667,4,3,1,100,0,0
61355,-66.6666666666667,4,3,1,100,0,0
61805,-100,4,3,1,100,0,0
61955,-100,4,3,2,100,0,0
62405,-66.6666666666667,4,3,1,100,0,0
62705,-66.6666666666667,4,3,2,100,0,0
63005,-66.6666666666667,4,3,1,100,0,0
63155,-66.6666666666667,4,3,1,100,0,0
63305,-50,4,3,1,100,0,0
64505,-66.6666666666667,4,3,1,100,0,0
64805,-66.6666666666667,4,3,1,100,0,0
65705,-50,4,3,1,100,0,0
66005,-50,4,3,1,5,0,0
66155,-50,4,3,1,100,0,0
67205,-100,4,3,1,100,0,0
67805,-66.6666666666667,4,3,1,100,0,0
68105,-100,4,3,1,100,0,0
69005,-50,4,3,1,100,0,0
69605,-100,4,3,2,100,0,0
70205,-66.6666666666667,4,3,1,100,0,0
71405,-100,4,3,1,100,0,0
72005,-66.6666666666667,4,3,1,100,0,0
72905,-50,4,3,1,100,0,0
73505,-66.6666666666667,4,3,1,100,0,0
76355,-100,4,3,2,100,0,0
76805,-66.6666666666667,4,3,1,100,0,0
77705,-133.333333333333,4,3,1,100,0,0
79205,-133.333333333333,4,3,1,100,0,0
81605,-66.6666666666667,4,3,1,100,0,0
82355,-133.333333333333,4,2,1,100,0,0
85355,-200,4,3,1,100,0,0
86405,-66.6666666666667,4,2,1,100,0,0
93605,-100,4,3,1,100,0,0
94205,-66.6666666666667,4,3,1,100,0,0
94355,-66.6666666666667,4,3,1,100,0,0
96005,-66.6666666666667,4,3,2,100,0,0
96605,-50,4,3,2,100,0,0
96755,-50,4,3,1,100,0,0
96905,-33.33,4,3,2,100,0,0
97055,-50,4,3,1,100,0,0
97205,-50,4,3,2,100,0,0
97242,-50,4,3,1,100,0,0
97505,-50,4,3,2,100,0,0
97542,-50,4,3,1,100,0,0
98105,-33.33,4,3,2,100,0,0
98255,-50,4,3,1,100,0,0
98405,-50,4,3,2,100,0,0
98442,-50,4,3,1,100,0,0
98705,-50,4,3,2,100,0,0
98742,-50,4,3,1,100,0,0
99305,-33.33,4,3,2,100,0,0
99455,-50,4,3,1,100,0,0
99605,-50,4,3,2,100,0,0
99642,-50,4,3,1,100,0,0
99905,-50,4,3,2,100,0,0
99942,-50,4,3,1,100,0,0
100842,-50,4,2,1,100,0,0
101705,-33.33,4,3,2,100,0,0
101855,-33.33,4,3,1,100,0,0
102005,-50,4,3,2,100,0,0
102042,-50,4,3,1,100,0,0
102305,-50,4,3,2,100,0,0
102342,-50,4,3,1,100,0,0
102905,-33.33,4,3,2,100,0,0
103055,-33.33,4,3,1,100,0,0
103205,-50,4,3,1,100,0,0
103506,-50,4,3,2,100,0,0
103542,-50,4,3,1,100,0,0
104105,-33.33,4,3,2,100,0,0
104255,-33.33,4,3,1,100,0,0
104405,-50,4,3,2,100,0,0
104705,-50,4,3,1,100,0,0
104855,-50,4,3,2,100,0,0
105005,-50,4,3,1,100,0,0
105155,-50,4,3,1,100,0,0
105755,-50,4,3,2,100,0,0
105905,-50,4,3,1,100,0,0
106055,-50,4,3,2,100,0,0
106205,-50,4,3,1,100,0,0
106805,-50,4,3,2,100,0,0
107405,-50,4,3,1,100,0,0
108005,-50,4,3,2,100,0,0
108605,-50,4,3,1,100,0,0
108905,-50,4,3,2,100,0,0
109055,-50,4,3,1,100,0,0
109205,-50,4,3,1,100,0,0
109355,-100,4,3,1,100,0,0
110030,-100,4,3,2,100,0,0
110405,-66.6666666666667,4,3,2,100,0,0
111005,-66.6666666666667,4,3,1,100,0,0
111080,-50,4,3,1,100,0,0
111305,-50,4,3,2,100,0,0
111380,-50,4,3,1,100,0,0
111605,-66.6666666666667,4,3,2,100,0,0
111830,-50,4,3,1,100,0,0
111905,-66.6666666666667,4,3,2,100,0,0
112205,-66.6666666666667,4,3,1,100,0,0
112280,-66.6666666666667,4,3,1,100,0,0
112505,-50,4,3,2,100,0,0
112580,-66.6666666666667,4,3,1,100,0,0
112805,-66.6666666666667,4,3,2,100,0,0
112955,-66.6666666666667,4,3,1,100,0,0
113030,-66.6666666666667,4,3,1,100,0,0
113105,-66.6666666666667,4,3,2,100,0,0
113405,-66.6666666666667,4,3,1,100,0,0
113480,-66.6666666666667,4,3,1,100,0,0
113705,-50,4,3,2,100,0,0
113780,-50,4,3,1,100,0,0
114005,-66.6666666666667,4,3,2,100,0,0
114155,-50,4,3,1,100,0,0
114305,-66.6666666666667,4,3,2,100,0,0
114455,-50,4,3,1,100,0,0
114905,-66.6666666666667,4,3,2,100,0,0
115205,-50,4,3,2,100,0,0
115505,-50,4,3,1,100,0,0
116705,-50,4,3,2,100,0,0
116742,-50,4,3,1,100,0,0
117305,-33.33,4,3,2,100,0,0
117455,-50,4,3,1,100,0,0
117605,-50,4,3,2,100,0,0
117642,-50,4,3,1,100,0,0
117905,-50,4,3,2,100,0,0
117942,-50,4,3,1,100,0,0
118505,-33.33,4,3,2,100,0,0
118655,-50,4,3,1,100,0,0
119105,-50,4,3,2,100,0,0
119142,-50,4,3,1,100,0,0
120042,-50,4,2,1,100,0,0
120605,-50,4,3,1,100,0,0
120905,-33.33,4,3,2,100,0,0
121055,-33.33,4,3,1,100,0,0
121205,-50,4,3,1,100,0,0
121505,-50,4,3,2,100,0,0
121542,-50,4,3,1,100,0,0
122105,-33.33,4,3,2,100,0,0
122255,-33.33,4,3,1,100,0,0
122405,-50,4,3,2,100,0,0
122442,-50,4,3,1,100,0,0
122705,-50,4,3,2,100,0,0
122742,-50,4,3,1,100,0,0
123305,-33.33,4,3,2,100,0,0
123605,-50,4,3,2,100,0,0
123905,-50,4,3,1,100,0,0
124055,-50,4,3,2,100,0,0
124205,-50,4,3,1,100,0,0
124355,-50,4,3,1,100,0,0
124355,-50,4,3,1,100,0,0
124955,-50,4,3,2,100,0,0
125405,-50,4,3,1,100,0,0
125555,-50,4,3,2,100,0,0
126605,-50,4,3,1,100,0,0
127205,-50,4,3,2,100,0,0
127805,-50,4,3,1,100,0,0
127955,-50,4,3,1,100,0,0
128105,-50,4,3,2,100,0,0
128255,-50,4,3,1,100,0,0
128555,-100,4,3,2,100,0,0
129005,-100,4,3,1,100,0,0
129230,-100,4,3,2,100,0,0
129605,-66.6666666666667,4,3,2,100,0,0
129680,-66.6666666666667,4,3,1,100,0,0
129905,-133.333333333333,4,3,1,100,0,0
130205,-50,4,3,1,100,0,0
130805,-66.6666666666667,4,3,2,100,0,0
130880,-66.6666666666667,4,3,1,100,0,0
131105,-133.333333333333,4,3,1,100,0,0
131405,-50,4,3,1,100,0,0
132005,-66.6666666666667,4,3,2,100,0,0
132080,-66.6666666666667,4,3,1,100,0,0
132305,-133.333333333333,4,3,1,100,0,0
132605,-50,4,3,1,100,0,0
134405,-50,4,3,2,100,0,0

[Colours]
Combo1 : 113,89,166
Combo2 : 213,216,75
Combo3 : 240,149,104
Combo4 : 169,68,198

[HitObjects]
191,324,19205,6,0,L|42:346,1,150
157,250,19805,2,0,L|53:265,1,100
316,324,20405,2,0,L|464:346,1,150
349,250,21005,2,0,L|452:265,1,100
101,148,21605,6,0,L|78:0,1,150
160,16,22205,2,0,L|175:115,1,100
411,148,22805,2,0,L|433:0,1,150
351,16,23405,2,0,L|337:115,1,100
191,324,24005,6,0,P|135:298|46:303,1,150
256,384,24605,1,0,0:0:0:0:
320,240,25205,2,0,P|376:214|465:219,1,150
255,300,25805,1,0,0:0:0:0:
109,241,26405,6,0,P|88:224|102:113,1,150
163,68,27005,1,0,0:0:0:0:
403,241,27605,2,0,P|424:224|410:113,1,150
349,68,28205,1,0,0:0:0:0:
490,212,28805,6,0,P|450:275|402:238,1,150
338,194,29405,1,0,0:0:0:0:
0,282,30005,6,0,P|40:345|88:308,1,150
152,264,30605,1,0,0:0:0:0:
51,135,31205,6,0,P|96:167|74:116,1,150
33,50,31805,1,0,0:0:0:0:
460,135,32405,6,0,P|415:167|437:116,1,150
479,50,33005,1,0,0:0:0:0:
259,301,33605,2,0,L|190:294,1,50
264,283,34055,1,0,0:0:0:0:
383,247,34205,5,0,0:0:0:0:
378,229,34655,1,0,0:0:0:0:
224,205,34805,2,0,L|145:196,1,75.0000028610231
229,187,35255,1,0,0:0:0:0:
422,153,35405,5,0,0:0:0:0:
417,135,35855,1,0,0:0:0:0:
186,114,36005,2,0,L|86:103,1,100
178,262,36305,2,0,L|167:361,1,100
326,270,36605,2,0,L|425:280,1,100
334,122,36905,2,0,L|344:22,1,100
0,256,37205,6,8,P|50:259|114:170,1,150.000005722046
125,105,37430,1,0,0:0:0:0:
116,94,37505,5,0,0:0:0:0:
309,230,37655,1,0,0:0:0:0:
442,33,37805,5,2,0:0:0:0:
211,210,37955,1,0,0:0:0:0:
344,13,38105,5,0,0:0:0:0:
113,190,38255,1,2,0:0:0:0:
489,237,38405,6,0,B|443:257|443:257|442:264|442:264|437:258|437:258|304:229,1,200,8|0,1:3|0:0,0:0:0:0:
211,210,38855,1,0,1:1:0:0:
415,5,39005,6,0,P|351:39|346:111,1,150.000005722046,2|0,1:3|0:0,0:0:0:0:
492,384,39305,2,0,P|518:343|513:294,1,100,0|0,0:0|1:0,0:0:0:0:
160,152,39605,5,0,1:0:0:0:
126,347,39755,2,0,L|135:298,1,50
84,138,39905,5,8,0:0:0:0:
50,333,40055,2,0,L|59:284,1,50
452,201,40205,6,0,P|438:248|395:272,1,100,2|0,0:0|0:0,0:0:0:0:
401,126,40505,6,0,P|441:154|452:202,1,100,8|0,0:0|0:0,0:0:0:0:
49,330,40805,6,0,B|116:317|116:317|115:311|115:311|116:316|116:316|185:305,2,150,8|0|0,1:3|0:3|1:0,0:0:0:0:
390,268,41405,6,0,B|351:247|351:247|368:272,1,75.0000028610231,2|0,0:0|0:0,0:0:0:0:
285,359,41555,2,0,B|291:320|291:320|272:289,1,75.0000028610231
203,136,41705,2,0,L|168:57,2,75.0000028610231
497,334,42005,5,0,1:0:0:0:
349,162,42155,2,0,P|324:134|289:126,1,75.0000028610231,0|0,1:0|0:0,0:0:0:0:
186,306,42305,2,0,P|209:237|276:211,1,150.000005722046,8|0,1:3|0:0,0:0:0:0:
434,143,42605,6,0,P|441:94|414:53,2,100,2|0|0,1:3|0:0|0:0,0:0:0:0:
102,37,43205,6,0,B|15:71|42:159|42:159|108:178,1,225.000008583069,0|0,1:0|3:0,3:0:0:0:
184,198,43505,1,0,0:0:0:0:
259,218,43655,1,0,0:0:0:0:
398,42,43805,1,2,1:3:0:0:
473,62,43955,1,0,0:0:0:0:
441,298,44105,6,0,B|431:242|431:242|416:236|420:258|431:242|431:242|407:102,1,200,2|0,1:0|1:0,3:0:0:0:
412,127,44555,5,0,1:0:0:0:
449,140,44630,1,0,1:0:0:0:
458,179,44705,1,8,1:2:0:0:
420,384,44855,1,0,1:0:0:0:
243,165,45005,5,10,1:3:0:0:
380,194,45155,1,0,0:0:0:0:
351,331,45305,2,0,L|202:300,1,150.000005722046,0|0,1:0|0:0,0:0:0:0:
272,27,45605,5,8,1:3:0:0:
21,64,45755,2,0,B|6:126|60:159|60:159|114:198|93:259,1,225.000008583069
0,300,46055,2,0,P|0:263|17:230,1,75.0000028610231
273,134,46205,6,0,L|255:207,1,75.0000028610231,10|0,1:3|0:0,0:0:0:0:
219,362,46355,1,0,0:0:0:0:
298,49,46505,6,0,B|311:59|311:59|303:26,2,50
135,3,46655,6,0,B|147:58|147:58|163:63|158:41|147:58|147:58|178:196,1,200,2|0,1:0|1:0,0:0:0:0:
172,171,46955,6,0,B|189:249,2,50
408,126,47105,2,0,P|330:69|235:88,1,200,2|0,2:3|0:0,2:0:0:0:
88,120,47330,1,0,0:0:0:0:
69,125,47405,6,0,B|34:87|34:87|46:40,1,100,2|0,1:3|0:0,0:0:0:0:
212,4,47555,2,0,B|246:41|246:41|234:88,1,100,2|0,1:0|0:0,0:0:0:0:
262,282,47705,2,0,L|317:271,6,50
133,209,48005,6,0,B|149:241|149:241|324:274,1,200,12|0,1:3|0:0,0:0:0:0:
490,304,48455,1,0,0:0:0:0:
302,102,48605,6,0,P|249:150|180:131,1,150.000005722046,2|0,0:0|0:0,0:0:0:0:
451,26,48905,2,0,L|466:124,1,100,0|0,0:0|1:3,0:0:0:0:
332,283,49205,5,0,1:0:0:0:
302,102,49355,2,0,B|310:151,1,50
411,269,49505,5,0,0:0:0:0:
381,88,49655,2,0,B|390:137,1,50
251,294,49805,6,0,B|235:195,1,100,2|0,1:3|0:0,0:0:0:0:
449,24,50105,6,0,B|465:123,1,100
503,362,50405,6,0,B|433:349|433:349|424:355|424:355|357:343,2,150,8|0|0,1:3|0:0|1:3,0:0:0:0:
189,263,51005,6,0,B|166:301|166:301|192:285,1,75.0000028610231,2|0,0:0|0:0,0:0:0:0:
362,192,51155,2,0,B|380:224|380:224|373:261,1,75.0000028610231
357,343,51305,2,0,L|430:355,2,75.0000028610231
147,162,51605,5,0,1:0:0:0:
147,162,51755,2,0,L|236:180,1,75.0000028610231,0|0,1:0|0:0,0:0:0:0:
307,195,51905,2,0,P|344:132|312:67,1,150.000005722046,10|0,1:2|0:0,0:0:0:0:
48,340,52205,6,0,L|145:320,2,100,2|0|0,1:3|0:0|0:0,0:0:0:0:
454,44,52805,6,0,B|541:78|514:166|514:166|448:185,1,225.000008583069,0|0,1:0|3:0,3:0:0:0:
372,205,53105,1,0,0:0:0:0:
297,225,53255,1,0,0:0:0:0:
160,35,53405,1,2,2:3:0:0:
85,55,53555,1,0,0:0:0:0:
324,26,53705,6,0,L|297:225,1,200,2|0,1:0|1:0,0:0:0:0:
210,361,54155,5,0,1:0:0:0:
245,348,54230,1,0,0:0:0:0:
262,314,54305,1,0,1:0:0:0:
208,61,54455,1,0,1:0:0:0:
44,301,54605,5,2,1:3:0:0:
181,272,54755,1,0,0:0:0:0:
152,135,54905,2,0,L|3:167,1,150.000005722046,0|0,1:0|0:0,0:0:0:0:
59,30,55205,5,0,1:0:0:0:
330,310,55355,2,0,B|315:248|369:215|369:215|423:176|402:115,1,225.000008583069,8|0,0:3|0:0,0:0:0:0:
285,93,55655,2,0,P|297:124|332:145,1,75.0000028610231
480,115,55805,2,0,P|501:89|502:48,1,75.0000028610231,10|0,1:3|0:0,0:0:0:0:
441,0,55955,1,4,3:2:0:0:
512,268,56105,5,8,0:3:0:0:
240,220,56255,2,0,L|164:206,1,75.0000028610231,0|0,1:0|0:0,0:0:0:0:
380,382,56555,6,0,P|418:360|320:248,1,262.500010013581,2|0,2:0|0:0,0:0:0:0:
308,265,56855,1,0,0:0:0:0:
125,326,57005,1,2,1:3:0:0:
196,349,57155,1,0,0:0:0:0:
268,329,57305,1,0,0:0:0:0:
308,265,57455,2,0,L|315:228,2,37.5000014305115
142,0,57605,6,0,B|174:147|174:147|222:157,1,200,0|0,1:0|0:0,0:0:0:0:
512,208,58055,1,0,1:0:0:0:
483,25,58205,6,0,P|449:33|415:132,1,150.000005722046,2|0,0:0|0:0,0:0:0:0:
329,353,58505,2,0,P|334:304|307:264,1,100,0|0,0:0|1:0,0:0:0:0:
58,159,58805,5,0,1:0:0:0:
30,321,58955,2,0,B|22:370,1,50,8|0,0:0|0:0,0:0:0:0:
137,173,59105,5,0,0:0:0:0:
110,335,59255,2,0,B|101:384,1,50,8|0,0:0|0:0,0:0:0:0:
194,60,59405,6,0,P|223:100|217:149,1,100,2|0,0:3|0:0,0:0:0:0:
296,97,59704,6,0,P|264:135|217:148,1,100
509,341,60005,6,0,B|466:326|459:343|459:343|466:326|380:298,2,150,0|0|0,1:0|0:0|1:0,0:0:0:0:
248,257,60605,6,0,P|286:257|318:240,1,75,2|0,0:0|0:0,0:0:0:0:
393,215,60755,2,0,P|377:183|345:163,1,75
285,109,60905,2,0,P|265:138|263:176,2,75
176,325,61205,5,0,1:0:0:0:
176,325,61355,2,0,L|161:251,1,75.0000028610231,0|0,1:0|0:0,0:0:0:0:
74,230,61505,2,0,L|105:376,1,150.000005722046,12|0,1:3|0:0,0:0:0:0:
431,136,61805,6,0,P|394:105|345:110,2,100,2|0|0,1:3|0:0|0:0,0:0:0:0:
365,326,62405,6,0,B|350:256|350:256|367:227|367:227|344:104,1,225.000008583069,8|0,1:3|0:0,0:0:0:0:
279,210,62705,5,0,1:0:0:0:
264,135,62855,1,0,0:0:0:0:
512,258,63005,1,2,1:3:0:0:
435,272,63155,1,0,1:3:0:0:
423,0,63305,6,0,L|220:33,1,200,2|2,1:0|1:0,0:0:0:0:
166,262,63755,5,0,1:0:0:0:
207,246,63830,1,0,0:0:0:0:
233,210,63905,1,0,1:0:0:0:
132,22,64055,1,0,1:0:0:0:
305,158,64205,5,2,1:3:0:0:
169,99,64355,1,0,0:0:0:0:
20,122,64505,2,0,L|168:142,1,150.000005722046,0|0,1:0|0:0,0:0:0:0:
430,39,64805,5,8,1:3:0:0:
488,340,64955,2,0,B|426:355|393:301|393:301|354:247|293:268,1,225.000008583069,0|0,1:0|0:0,0:0:0:0:
274,384,65255,2,0,P|305:372|326:337,1,75.0000028610231
462,187,65405,6,0,L|475:260,1,75.0000028610231,2|0,1:3|0:0,0:0:0:0:
488,340,65555,1,0,0:0:0:0:
211,92,65705,2,0,L|150:101,2,50
322,76,65855,6,0,B|315:120|315:120|303:134|306:118|313:135|313:135|292:266,1,200,0|0,1:0|1:0,0:0:0:0:
133,316,66155,6,0,B|122:333|122:333|146:313,2,50
197,378,66305,2,0,P|168:286|77:255,1,200,0|0,1:0|0:0,0:0:0:0:
45,87,66530,1,0,0:0:0:0:
30,95,66605,6,0,P|14:140|35:185,1,100,2|0,1:3|0:0,0:0:0:0:
165,237,66755,2,0,P|213:228|241:188,1,100,0|0,1:0|0:0,0:0:0:0:
222,47,66905,2,0,P|208:27|181:17,6,50,0|0|0|0|0|0|0,1:0|0:0|0:0|0:0|0:0|0:0|0:0,0:0:0:0:
368,15,67205,6,0,B|365:62|365:62|382:90|382:90|353:153|353:153|358:158|358:158|354:202,1,200,0|0,1:0|0:0,0:0:0:0:
133,126,67655,1,0,1:0:0:0:
184,337,67805,6,0,P|121:302|116:230,1,150.000005722046,2|0,0:3|0:0,0:0:0:0:
331,113,68105,2,0,P|359:153|354:202,1,100,0|0,0:0|1:0,0:0:0:0:
270,341,68405,5,0,1:3:0:0:
479,299,68555,2,0,L|430:290,1,50,8|0,0:0|0:0,0:0:0:0:
284,265,68705,5,0,0:0:0:0:
465,375,68855,2,0,L|416:366,1,50,8|0,1:3|0:0,0:0:0:0:
271,182,69005,6,0,B|286:132|286:132|333:109,1,100,2|0,1:3|0:0,0:0:0:0:
328,110,69305,6,0,P|313:156|271:180,1,100,0|0,1:3|0:0,0:0:0:0:
175,328,69605,6,0,L|28:302,2,150,0|0|0,1:3|2:0|1:0,0:0:0:0:
35,18,70205,6,0,L|118:35,1,75,2|0,0:0|0:0,0:0:0:0:
281,108,70355,2,0,L|208:124,1,75
147,193,70505,2,0,P|120:159|122:105,2,75.0000028610231
295,35,70805,6,0,L|282:108,1,75.0000028610231,0|0,1:0|0:0,0:0:0:0:
263,198,70955,2,0,L|250:271,1,75.0000028610231,0|0,1:0|0:0,0:0:0:0:
186,380,71105,2,0,P|210:349|325:328,1,150.000005722046,0|0,1:0|0:0,0:0:0:0:
425,74,71405,6,0,P|390:113|395:164,2,100,2|0|0,1:3|0:0|0:0,0:0:0:0:
511,82,72005,6,0,B|434:95|434:95|406:113|406:113|373:107|373:107|294:117,1,225.000008583069,8|0,1:3|3:0,3:0:0:0:
181,22,72305,6,0,P|217:25|246:49,1,75.0000028610231,0|0,3:0|3:0,3:0:0:0:
330,195,72455,2,0,P|329:232|309:263,1,75.0000028610231,0|0,3:3|3:3,3:3:0:0:
158,160,72605,5,2,0:0:0:0:
390,21,72755,1,0,0:0:0:0:
416,284,72905,6,0,P|349:214|252:213,1,200,2|0,1:0|1:0,0:0:0:0:
180,322,73355,5,0,1:0:0:0:
188,313,73430,1,0,0:0:0:0:
195,307,73505,2,0,L|205:270,1,37.5000014305115,0|0,1:0|0:0,0:0:0:0:
389,208,73655,2,0,L|370:175,1,37.5000014305115,0|0,1:0|0:0,0:0:0:0:
381,374,73805,6,0,L|375:336,1,37.5000014305115,2|0,1:3|0:0,0:0:0:0:
65,230,73955,2,0,L|97:211,1,37.5000014305115,0|0,1:0|0:0,0:0:0:0:
365,83,74105,6,0,L|534:113,1,168.750006437302,0|0,1:0|0:0,0:0:0:0:
256,384,74405,5,8,1:3:0:0:
256,13,74555,2,0,B|304:71|256:128|256:128|203:192|252:254,1,262.500010013581,0|0,0:0|0:0,3:0:0:0:
260,265,74855,1,0,0:0:0:0:
447,79,75005,5,2,1:3:0:0:
420,248,75155,1,0,0:0:0:0:
77,19,75305,5,0,0:0:0:0:
130,361,75455,1,0,1:0:0:0:
384,128,75605,5,0,0:0:0:0:
29,189,75755,1,0,0:0:0:0:
130,361,75905,6,0,P|161:330|273:312,1,150.000005722046,0|0,1:0|0:0,0:0:0:0:
289,0,76205,1,2,0:0:0:0:
244,142,76355,1,0,0:0:0:0:
302,247,76505,1,0,0:0:0:0:
389,272,76655,1,0,0:0:0:0:
411,268,76805,6,0,L|457:260,12,37.5000014305115
86,205,77555,5,0,0:0:0:0:
136,145,77705,2,0,P|127:109|130:72,1,75.0000028610231
251,174,78005,2,0,P|235:164|218:158,1,37.5000014305115
0,294,78605,5,2,2:0:0:0:
387,267,79655,6,0,L|396:305,1,37.5000014305115
384,303,80255,6,0,P|383:284|387:266,1,37.5000014305115
466,256,80405,2,0,L|475:294,1,37.5000014305115
491,372,80705,5,0,0:0:0:0:
47,103,81005,5,0,2:0:0:0:
90,170,81305,1,2,2:0:0:0:
458,19,81605,6,0,B|384:16|367:90|367:90|346:171|236:203|162:119|203:53|256:44|284:75,1,431.250016450883,2|0,2:0|2:0,2:0:0:0:
381,42,82355,6,0,L|366:104,1,37.5000014305115
351,158,82505,2,0,L|336:220,1,37.5000014305115
321,274,82655,2,0,L|306:336,1,37.5000014305115
54,80,83405,5,0,0:0:0:0:
32,156,83705,1,0,0:0:0:0:
110,138,84005,1,0,0:0:0:0:
462,296,84905,6,0,L|400:311,1,37.5000014305115
346,326,85055,2,0,L|284:341,1,37.5000014305115
410,154,85355,6,0,L|379:161,1,25
441,69,85655,5,0,0:0:0:0:
444,60,85805,1,0,0:0:0:0:
0,328,86405,6,0,B|34:252|117:268|117:268|106:314|106:314|339:286,1,412.500015735627,0|0,3:0|0:0,0:0:0:0:
428,90,87005,6,0,L|474:95,1,37.5000014305115
342,81,87155,1,0,0:0:0:0:
404,279,87305,5,0,0:3:0:0:
432,199,87455,1,0,0:3:0:0:
350,214,87605,1,2,0:0:0:0:
444,75,88205,6,0,L|439:121,1,37.5000014305115,2|0,0:0|0:0,0:0:0:0:
256,192,89255,5,0,0:0:0:0:
397,22,89405,2,0,L|351:17,1,37.5000014305115,2|0,0:0|0:0,0:0:0:0:
174,176,89705,5,0,0:3:0:0:
193,94,89855,1,0,0:3:0:0:
92,161,90005,5,0,0:3:0:0:
156,371,90305,1,0,0:0:0:0:
60,79,90605,6,0,L|22:83,1,37.5000014305115,2|0,0:0|0:0,0:0:0:0:
17,241,90905,5,2,0:0:0:0:
230,290,91205,1,0,3:3:0:0:
208,212,91655,5,0,0:3:0:0:
372,81,91805,2,0,L|377:127,1,37.5000014305115,2|0,0:0|0:0,0:0:0:0:
384,199,91955,1,0,0:0:0:0:
222,63,92105,6,0,L|217:109,1,37.5000014305115,2|0,0:0|0:0,0:0:0:0:
130,222,92255,2,0,L|125:268,1,37.5000014305115,2|0,0:0|0:0,0:0:0:0:
80,361,93005,6,0,L|117:365,1,37.5000014305115
339,260,93605,6,0,P|199:251|162:116,1,300
445,352,94205,6,0,L|452:310,1,37.5000014305115,0|0,2:0|0:0,0:0:0:0:
312,99,94355,2,0,L|148:118,1,150.000005722046
69,129,94655,1,0,0:0:0:0:
256,296,94805,5,0,0:0:0:0:
275,211,94955,1,0,0:0:0:0:
191,190,95105,6,0,B|151:253|151:253|170:325,1,150.000005722046
357,370,95405,6,0,L|350:328,1,37.5000014305115,0|0,1:0|0:0,0:0:0:0:
317,109,95555,1,0,0:0:0:0:
452,353,95705,5,0,0:0:0:0:
403,93,95855,1,0,0:0:0:0:
71,132,96005,6,0,B|42:154|38:209|112:241|140:183|140:183|162:140|212:125|255:152,1,300,8|0,0:3|0:0,0:0:0:0:
458,267,96455,5,0,0:0:0:0:
213,220,96605,1,0,1:3:0:0:
512,126,96755,6,0,P|477:136|449:77,1,100,0|0,1:0|0:0,0:0:0:0:
381,7,96905,2,0,P|399:34|307:255,1,300.029986517512,8|0,0:0|0:0,0:0:0:0:
48,192,97205,6,0,L|-7:179,2,50,0|0|0,3:0|2:0|2:0,2:0:0:0:
83,124,97355,2,0,L|42:86,2,50,0|0|0,3:0|2:0|2:0,2:0:0:0:
148,83,97505,2,0,L|132:29,2,50,0|0|0,3:0|2:0|2:0,2:0:0:0:
225,80,97655,2,0,L|239:26,2,50,0|0|0,3:0|2:0|2:0,2:0:0:0:
293,115,97805,1,2,1:3:0:0:
0,258,97955,6,0,P|35:248|63:307,1,100,0|0,1:0|0:0,0:0:0:0:
131,377,98105,2,0,P|113:350|205:129,1,300.029986517512,8|0,0:0|0:0,0:0:0:0:
464,192,98405,6,0,L|519:205,2,50,0|0|0,3:0|2:0|2:0,2:0:0:0:
429,260,98555,2,0,L|470:298,2,50,0|0|0,3:0|2:0|2:0,2:0:0:0:
364,301,98705,2,0,L|380:355,2,50,0|0|0,3:0|2:0|2:0,2:0:0:0:
287,304,98855,2,0,L|273:358,2,50,0|0|0,3:0|2:0|2:0,2:0:0:0:
219,269,99005,1,2,1:3:0:0:
482,136,99155,2,0,P|447:146|419:87,1,100,0|0,1:0|0:0,0:0:0:0:
351,17,99305,2,0,P|369:44|277:265,1,300.029986517512
91,152,99605,6,0,L|56:115,2,50,0|0|0,0:0|2:2|2:2,2:2:0:0:
64,242,99754,2,0,L|15:253,2,50,0|0|0,0:0|2:0|2:0,2:0:0:0:
182,132,99905,6,0,L|196:84,2,50,0|0|0,0:0|2:0|2:0,2:0:0:0:
128,309,100055,2,0,L|114:357,2,50,0|0|0,0:0|2:0|2:0,2:0:0:0:
91,152,100205,5,2,1:3:0:0:
218,288,100355,2,0,L|252:324,2,50
23,79,100505,6,0,L|91:152,1,100,2|0,1:0|0:0,0:0:0:0:
218,288,100655,2,0,L|287:360,1,100,0|0,1:0|0:0,0:0:0:0:
461,277,100805,6,0,P|470:254|466:223,14,50,8|0|0|0|0|0|0|0|0|0|0|0|0|0|0,0:0|0:0|0:0|0:0|0:0|0:0|0:0|0:0|0:0|0:0|0:0|0:0|0:0|0:0|0:0,0:0:0:0:
438,358,101405,2,0,P|403:341|377:267,1,100,2|0,1:0|0:0,0:0:0:0:
434,11,101555,2,0,L|413:109,1,100,0|0,1:0|0:0,0:0:0:0:
0,249,101705,6,0,P|40:212|285:171,1,300.029986517512,0|0,1:0|0:0,0:0:0:0:
512,239,102005,6,0,L|457:229,2,50,0|0|0,3:0|2:0|2:0,2:0:0:0:
408,170,102155,2,0,L|353:180,2,50,0|0|0,3:0|2:0|2:0,2:0:0:0:
304,239,102305,2,0,L|249:229,2,50,0|0|0,3:0|2:0|2:0,2:0:0:0:
200,170,102455,2,0,L|144:180,2,50,0|0|0,3:0|2:0|2:0,2:0:0:0:
122,286,102605,5,2,0:0:0:0:
78,78,102755,2,0,L|28:86,2,50,0|0|0,1:0|0:0|0:0,0:0:0:0:
458,112,102905,6,0,P|332:33|184:31,1,300.029986517512
217,377,103205,6,0,L|227:322,2,50,0|0|0,3:0|2:0|2:0,2:0:0:0:
286,273,103355,2,0,L|276:218,2,50,0|0|0,3:0|2:0|2:0,2:0:0:0:
217,169,103505,2,0,L|227:114,2,50,0|0|0,3:0|2:0|2:0,2:0:0:0:
286,65,103655,2,0,L|276:9,2,50,0|0|0,3:0|2:0|2:0,2:0:0:0:
185,31,103805,5,2,0:0:0:0:
381,286,103955,2,0,L|437:296,2,50,0|0|0,1:0|2:0|2:0,2:0:0:0:
0,249,104105,6,0,P|40:212|285:171,1,300.029986517512
512,81,104405,5,0,0:0:0:0:
480,304,104555,2,0,L|266:335,1,200
99,361,104855,5,2,0:0:0:0:
64,325,104930,1,2,0:0:0:0:
71,275,105005,5,10,1:3:0:0:
307,194,105155,2,0,L|370:205,2,50,0|0|0,1:0|0:0|0:0,0:0:0:0:
202,363,105305,6,0,L|219:265,1,100,0|0,1:0|0:0,0:0:0:0:
250,98,105455,2,0,L|267:0,1,100,0|0,1:0|0:0,0:0:0:0:
136,163,105605,5,0,3:0:0:0:
126,167,105680,1,0,2:0:0:0:
116,167,105755,2,0,P|48:102|80:13,1,200
361,65,106055,1,0,0:0:0:0:
300,254,106205,6,0,L|313:354,1,100,10|0,0:0|0:0,0:0:0:0:
219,264,106355,2,0,L|233:363,1,100,8|0,0:0|0:0,0:0:0:0:
138,274,106505,1,0,0:0:0:0:
313,56,106805,5,8,0:0:0:0:
512,82,106955,2,0,L|314:57,1,200
512,82,107255,2,0,L|314:58,1,200,0|10,0:0|0:0,0:0:0:0:
502,302,108005,5,0,0:0:0:0:
251,338,108155,2,0,L|225:130,1,200
251,338,108455,2,0,L|225:130,1,200,0|10,0:0|3:0,0:0:0:0:
502,302,108755,1,0,0:0:0:0:
261,262,108905,6,0,L|235:54,1,200,2|0,0:0|0:0,0:0:0:0:
10,302,109205,1,8,1:0:0:0:
176,192,109355,6,0,L|326:192,1,150,2|0,1:2|0:0,0:0:0:0:
389,236,109655,1,0,1:0:0:0:
256,269,109805,6,0,L|256:119,2,150,2|0|2,1:3|0:0|3:3,0:0:0:0:
469,384,110405,6,0,P|534:321|499:202,1,225.000008583069,8|0,0:0|0:0,0:0:0:0:
349,267,110705,1,0,0:0:0:0:
444,287,110855,1,0,0:0:0:0:
475,110,111005,6,0,P|473:72|459:38,1,75.0000028610231,2|0,3:0|2:0,0:0:0:0:
458,37,111305,2,0,P|418:7|370:-1,1,100
41,107,111605,6,0,P|147:121|215:37,1,225.000008583069
215,19,111905,1,0,0:0:0:0:
289,182,112055,1,0,0:0:0:0:
87,353,112205,6,0,P|69:321|65:284,1,75.0000028610231,2|0,0:0|0:0,0:0:0:0:
65,283,112505,2,0,P|97:247|145:232,1,100
468,370,112805,6,0,L|438:146,1,225.000008583069
512,67,113105,5,0,0:0:0:0:
256,174,113255,1,0,0:0:0:0:
439,146,113405,6,0,L|429:221,1,75.0000028610231,2|0,0:0|0:0,0:0:0:0:
430,221,113705,2,0,L|331:235,1,100,0|0,3:0|3:0,3:0:0:0:
50,21,114005,6,0,P|1:73|10:146,1,150.000005722046
270,282,114305,1,0,0:0:0:0:
251,144,114455,1,0,0:0:0:0:
142,384,114605,5,2,0:0:0:0:
432,345,114755,1,0,0:0:0:0:
80,260,114905,5,2,0:0:0:0:
464,208,115055,1,0,0:0:0:0:
18,136,115205,6,0,B|64:95|64:95|240:142|240:142|246:233|337:252,1,400
512,63,115655,1,0,0:0:0:0:
226,8,115805,6,0,P|197:48|190:97,1,100,2|0,0:0|0:0,0:0:0:0:
263,148,115955,2,0,P|282:193|321:223,1,100,0|0,1:0|0:0,0:0:0:0:
403,186,116105,2,0,L|453:192,1,50,0|0,1:0|0:0,0:0:0:0:
90,341,116405,6,0,L|41:335,2,50,0|0|0,3:0|2:0|2:0,2:0:0:0:
80,260,116555,2,0,L|31:254,2,50,0|0|0,3:0|2:0|2:0,2:0:0:0:
70,179,116705,2,0,L|21:173,2,50,0|0|0,3:0|2:0|2:0,2:0:0:0:
60,98,116855,2,0,L|11:92,2,50,0|0|0,3:0|2:0|2:0,2:0:0:0:
50,16,117005,1,2,1:0:0:0:
272,58,117155,6,0,P|228:73|201:35,1,100
380,1,117305,2,0,P|329:134|187:158,1,300.029986517512,0|0,1:0|0:0,0:0:0:0:
422,341,117605,6,0,L|471:335,2,50,0|0|0,3:0|2:0|2:0,2:0:0:0:
432,260,117755,2,0,L|481:254,2,50,0|0|0,3:0|2:0|2:0,2:0:0:0:
442,179,117905,2,0,L|491:173,2,50,0|0|0,3:0|2:0|2:0,2:0:0:0:
452,98,118055,2,0,L|501:92,2,50,0|0|0,3:0|2:0|2:0,2:0:0:0:
462,17,118205,1,2,1:3:0:0:
254,58,118355,6,0,P|299:73|325:34,1,100
147,0,118505,2,0,P|198:134|340:157,1,300.029986517512,0|0,1:0|0:0,0:0:0:0:
86,325,118805,6,0,L|37:334,2,50,0|0|0,3:0|2:0|2:0,2:0:0:0:
37,229,118955,2,0,L|0:262,2,50,0|0|0,3:3|2:3|2:3,2:3:0:0:
238,299,119105,2,0,L|189:308,2,50,0|0|0,3:0|2:0|2:0,2:0:0:0:
156,130,119255,2,0,L|119:163,2,50,0|0|0,3:3|2:3|2:3,2:3:0:0:
390,273,119405,5,2,0:0:0:0:
275,31,119555,2,0,L|238:64,2,50,0|0|0,0:3|0:3|0:3,0:3:0:0:
436,88,119705,6,0,L|346:132,1,100,2|0,1:1|0:3,0:3:0:0:
107,253,119856,2,0,L|197:209,1,100,0|0,1:3|0:3,0:3:0:0:
267,165,120005,6,0,P|281:185|288:210,14,50,8|0|0|0|0|0|0|0|0|0|0|0|0|0|8,0:3|0:3|0:3|0:3|0:3|0:3|0:3|0:3|0:3|0:3|0:3|0:3|0:3|0:3|0:3,0:3:0:0:
349,265,120605,6,0,P|371:221|364:173,1,100,2|0,1:3|0:0,0:0:0:0:
40,107,120755,2,0,P|32:59|55:15,1,100,0|0,1:0|0:0,0:0:0:0:
89,364,120905,6,0,P|236:359|349:264,1,300.029986517512,0|0,1:3|0:0,0:0:0:0:
119,117,121205,6,0,L|132:166,2,50,0|0|0,3:0|2:0|2:0,2:0:0:0:
205,128,121355,2,0,L|217:177,2,50,0|0|0,3:0|2:0|2:0,2:0:0:0:
291,138,121505,2,0,L|303:187,2,50,0|0|0,3:0|2:0|2:0,2:0:0:0:
377,148,121655,2,0,L|389:197,2,50,0|0|0,3:0|2:0|2:0,2:0:0:0:
462,157,121805,1,2,0:0:0:0:
119,117,121955,2,0,L|63:110,2,50,0|0|0,1:0|0:0|0:0,0:0:0:0:
462,157,122105,6,0,P|352:61|205:57,1,300.029986517512,0|0,1:0|0:0,0:0:0:0:
55,321,122405,6,0,L|42:372,2,50,0|0|0,0:0|2:0|0:0,2:0:0:0:
140,310,122555,2,0,L|128:362,2,50,0|0|0,3:0|2:0|2:0,2:0:0:0:
226,300,122705,2,0,L|214:352,2,50,0|0|2,3:0|2:0|2:0,2:0:0:0:
312,290,122855,2,0,L|300:342,2,50,0|0|0,3:0|2:0|2:0,2:0:0:0:
398,280,123005,5,2,1:0:0:0:
55,321,123155,2,0,L|-1:328,2,50
398,280,123305,6,0,P|289:376|129:377,1,300.029986517512,0|0,1:0|0:0,0:0:0:0:
0,108,123605,5,2,0:0:0:0:
198,11,123755,2,0,L|167:219,1,200
464,340,124055,1,2,0:0:0:0:
499,304,124130,1,2,0:0:0:0:
492,254,124205,1,10,1:3:0:0:
446,52,124355,2,0,L|434:-1,2,50
492,254,124505,6,0,L|384:225,1,100,2|0,1:0|0:0,0:0:0:0:
255,191,124655,2,0,L|158:165,1,100,0|0,1:0|0:0,0:0:0:0:
190,355,124805,1,0,0:0:0:0:
206,360,124880,1,0,0:0:0:0:
220,358,124955,2,0,P|265:322|252:188,1,200
512,365,125255,1,0,0:0:0:0:
255,191,125405,6,0,B|230:148|230:148|248:95,1,100,10|0,0:0|0:0,0:0:0:0:
343,180,125555,2,0,B|318:137|318:137|336:84,1,100,10|0,0:0|0:0,0:0:0:0:
431,169,125705,1,8,0:0:0:0:
256,384,126005,5,0,0:0:0:0:
44,266,126155,2,0,L|69:68,1,200
33,257,126455,2,0,L|58:59,1,200
256,384,127205,5,0,0:0:0:0:
474,227,127355,2,0,L|448:19,1,200
485,218,127655,2,0,L|459:10,1,200,0|2,0:0|0:0,0:0:0:0:
276,383,127955,1,0,0:0:0:0:
261,262,128105,6,0,L|236:63,1,200
10,302,128405,1,0,1:0:0:0:
175,193,128555,6,0,L|351:193,1,150,0|0,2:0|0:0,0:0:0:0:
389,236,128855,1,0,0:0:0:0:
326,172,129005,2,0,L|176:172,2,150,2|0|2,2:3|0:0|0:0,0:0:0:0:
337,22,129605,6,0,B|318:68|260:65|260:65|232:-7|144:8,1,225.000008583069,2|0,0:0|0:0,0:0:0:0:
8,77,129905,6,0,L|13:39,1,37.5000014305115,0|0,1:0|0:0,0:0:0:0:
85,87,130055,2,0,L|89:49,1,37.5000014305115,0|0,1:0|0:0,0:0:0:0:
0,252,130205,6,0,B|48:265|48:265|91:238,1,100,10|0,0:3|0:0,0:0:0:0:
286,156,130505,6,0,B|238:143|238:143|195:170,1,100,10|0,0:3|0:0,0:0:0:0:
462,384,130805,6,0,B|416:365|419:307|419:307|491:279|476:191,1,225.000008583069,2|0,0:0|0:0,0:0:0:0:
445,60,131105,6,0,L|407:55,1,37.5000014305115,0|0,1:0|0:0,0:0:0:0:
397,132,131255,2,0,L|435:136,1,37.5000014305115,0|0,1:0|0:0,0:0:0:0:
347,0,131405,6,0,P|298:3|263:37,1,100,2|0,3:0|0:0,0:0:0:0:
45,44,131705,6,0,P|92:31|133:57,1,100,10|0,1:3|0:3,0:3:0:0:
8,349,132005,6,0,B|27:305|85:308|85:308|113:380|188:366,1,225.000008583069,2|0,0:0|0:0,0:0:0:0:
332,334,132305,6,0,L|337:296,1,37.5000014305115
260,286,132455,2,0,L|256:324,1,37.5000014305115
455,318,132605,2,0,P|454:284|406:243,1,100,10|0,3:0|0:0,0:0:0:0:
130,107,132905,6,0,P|169:76|217:85,1,100,10|0,1:3|0:0,0:0:0:0:
456,169,133205,6,0,B|543:234|484:355|484:355|456:259|358:258|358:258|384:290|383:328|383:328|358:298|326:294|326:294|337:310|332:326|332:326|232:340|232:340|197:286|134:296|134:296|99:358|-76:399|-80:212|11:214|51:232|72:253|72:253|105:202|69:154|69:154|28:99|41:14|137:-31|234:-2|261:69|192:150|129:106,1,1600,0|0,0:0|1:0,0:0:0:0:
