osu file format v14

[General]
AudioFilename: audio.mp3
AudioLeadIn: 0
PreviewTime: 94355
Countdown: 0
SampleSet: Normal
StackLeniency: 0.6
Mode: 0
LetterboxInBreaks: 0
EpilepsyWarning: 1
WidescreenStoryboard: 1

[Editor]
Bookmarks: 19205,38405,57605,76805,96005,115205,134405,153605,171005
DistanceSpacing: 1.2
BeatDivisor: 4
GridSize: 8
TimelineZoom: 2.6

[Metadata]
Title:fuego (sakuraburst remix)
TitleUnicode:fuego (sakuraburst remix)
Artist:KOAN Sound & Asa
ArtistUnicode:KOAN Sound & Asa
Creator:Shiirn
Version:Side's Hard
Source:
Tags:weber jakomo73 side liiraye chaos nanobuilder
BeatmapID:1291377
BeatmapSetID:611806

[Difficulty]
HPDrainRate:5
CircleSize:4
OverallDifficulty:6
ApproachRate:8
SliderMultiplier:1.2
SliderTickRate:1

[Events]
//Background and Video events
0,0,"bg.jpg",0,0
//Break Periods
2,77005,85655
2,134605,143255
//Storyboard Layer 0 (Background)
//Storyboard Layer 1 (Fail)
//Storyboard Layer 2 (Pass)
//Storyboard Layer 3 (Foreground)
//Storyboard Sound Samples

[TimingPoints]
5,300,4,3,1,20,1,0
19205,-133.333333333333,4,3,1,20,0,0
28805,-133.333333333333,4,3,1,25,0,0
29405,-133.333333333333,4,3,1,28,0,0
30005,-133.333333333333,4,3,1,31,0,0
30605,-133.333333333333,4,3,1,34,0,0
31205,-133.333333333333,4,3,1,37,0,0
31805,-133.333333333333,4,3,1,40,0,0
32405,-133.333333333333,4,3,1,44,0,0
33005,-133.333333333333,4,3,1,48,0,0
33605,-117.647058823529,4,3,1,50,0,0
37805,-100,4,3,1,60,0,0
38405,-100,4,1,1,60,0,0
86405,-133.333333333333,4,2,1,30,0,0
87005,-133.333333333333,4,2,2,30,0,0
90905,-133.333333333333,4,2,1,30,0,0
91805,-133.333333333333,4,2,2,30,0,0
93305,-133.333333333333,4,2,1,30,0,0
93605,-117.647058823529,4,1,1,40,0,0
94805,-117.647058823529,4,1,1,60,0,0
96005,-90.9090909090909,4,1,1,70,0,1
114605,-90.9090909090909,4,1,1,70,0,0
115205,-90.9090909090909,4,1,1,70,0,1
133205,-90.9090909090909,4,1,1,50,0,0
144005,-133.333333333333,4,2,1,50,0,0
153605,-133.333333333333,4,2,1,30,0,0
154205,-133.333333333333,4,2,3,30,0,0
158105,-133.333333333333,4,2,1,30,0,0
159005,-133.333333333333,4,2,3,30,0,0
160505,-133.333333333333,4,2,1,30,0,0
161405,-133.333333333333,4,2,3,30,0,0
163205,-133.333333333333,4,2,1,30,0,0
163805,-133.333333333333,4,2,3,30,0,0
167705,-133.333333333333,4,2,1,30,0,0
168605,-133.333333333333,4,2,3,30,0,0
170105,-133.333333333333,4,2,1,30,0,0
171005,-133.333333333333,4,2,3,30,0,0
172355,-133.333333333333,4,2,1,30,0,0
175205,-133.333333333333,4,2,1,5,0,0

[Colours]
Combo1 : 113,89,166
Combo2 : 213,216,75
Combo3 : 240,149,104
Combo4 : 169,68,198

[HitObjects]
48,331,19205,6,0,B|79:311|115:323|115:323|147:335|178:320,1,135.000005149841
209,288,19805,1,2,0:2:0:0:
38,155,20405,2,0,B|69:135|105:147|105:147|137:159|168:144,1,135.000005149841
199,112,21005,1,2,0:2:0:0:
464,331,21605,6,0,B|433:311|397:323|397:323|365:335|333:320,1,135.000005149841
303,288,22205,1,2,0:2:0:0:
474,155,22805,2,0,B|443:135|407:147|407:147|375:159|343:144,1,135.000005149841
313,112,23405,1,2,0:2:0:0:
208,26,23705,1,2,0:2:0:0:
85,82,24005,6,0,B|65:113|77:149|77:149|89:181|74:212,1,135.000005149841
44,245,24605,1,2,0:2:0:0:
218,117,25205,2,0,B|198:148|210:184|210:184|222:216|207:247,1,135.000005149841
177,280,25805,1,2,0:2:0:0:
490,199,26405,6,0,B|504:165|487:131|487:131|470:101|480:68,1,135.000005149841
498,27,27005,1,2,0:2:0:0:
385,211,27605,2,0,B|399:177|382:143|382:143|365:113|375:80,1,135.000005149841
393,39,28205,1,2,0:2:0:0:
286,55,28505,1,2,0:2:0:0:
256,192,28805,12,0,33305,2:0:0:0:
244,37,33605,6,0,P|275:84|202:132,1,153.000002918243
155,134,34205,2,0,P|111:168|163:233,1,153.000002918243
212,222,34805,2,0,P|268:241|318:332,1,153.000002918243
306,367,35405,2,0,P|341:300|410:271,1,153.000002918243
485,270,36005,5,0,0:0:0:0:
454,140,36305,1,0,0:0:0:0:
333,194,36605,1,0,0:0:0:0:
302,64,36905,1,0,0:0:0:0:
181,118,37205,1,0,0:0:0:0:
371,115,37505,1,0,0:0:0:0:
484,269,37805,5,8,1:0:0:0:
423,327,37955,1,8,0:0:0:0:
365,265,38105,1,4,0:0:0:0:
473,258,38255,1,8,1:0:0:0:
331,349,38405,6,0,P|275:282|302:201,1,180,4|0,3:2|0:0,3:0:0:0:
371,156,39005,2,0,P|382:128|380:99,2,60,8|0|0,0:0|3:0|3:0,0:0:0:0:
301,118,39455,1,2,0:0:0:0:
230,151,39605,2,0,B|182:188|182:188|164:244,1,120,0|2,0:2|0:0,0:0:0:0:
303,341,40205,2,0,B|294:280|294:280|254:237,1,120,8|2,0:0|0:0,0:0:0:0:
58,283,40805,6,0,P|26:201|66:123,1,180,4|0,3:2|0:0,0:0:0:0:
136,90,41405,2,0,P|163:104|193:107,1,60,8|0,0:0|3:0,0:0:0:0:
264,74,41705,2,0,P|291:62|321:60,1,60,0|2,3:0|0:0,0:0:0:0:
397,77,42005,2,0,B|441:120|441:120|455:177,1,120,0|2,0:0|0:0,0:0:0:0:
324,261,42605,2,0,P|299:245|269:241,1,60,8|0,0:0|0:0,0:0:0:0:
274,320,42905,1,2,0:0:0:0:
273,319,43205,6,0,P|357:332|400:258,1,180,4|0,3:2|0:0,0:0:0:0:
358,191,43805,2,0,P|329:181|300:184,1,60,8|0,0:0|3:0,0:0:0:0:
230,220,44105,2,0,P|220:191|223:162,2,60,2|2|0,0:0|0:0|2:0,0:0:0:0:
296,262,44555,1,0,0:0:0:0:
373,259,44705,2,0,P|395:239|407:212,1,60,2|0,0:0|3:0,0:0:0:0:
329,192,45005,2,0,B|308:137|308:137|320:78,1,120,8|2,0:0|0:0,0:0:0:0:
122,24,45605,6,0,P|59:85|58:173,1,180,4|0,3:2|0:0,0:0:0:0:
112,228,46205,1,8,0:0:0:0:
176,182,46355,1,0,3:0:0:0:
238,228,46505,2,0,B|249:213|249:213|271:210|271:210|285:196,1,60,2|2,0:0|0:0,0:0:0:0:
48,274,46955,1,0,0:0:0:0:
48,274,47105,2,0,P|29:250|23:221,1,60,2|0,0:0|0:0,0:0:0:0:
71,162,47405,1,8,0:0:0:0:
154,221,47555,1,0,0:0:0:0:
226,149,47705,1,2,0:0:0:0:
226,149,48005,6,0,P|308:176|378:124,1,180,4|0,3:2|0:0,0:0:0:0:
387,47,48605,2,0,P|416:53|438:72,2,60,8|0|0,0:0|3:0|3:0,0:0:0:0:
314,77,49055,1,2,0:0:0:0:
260,20,49205,2,0,P|201:32|158:72,1,120,0|2,0:0|0:0,0:0:0:0:
233,257,49805,2,0,B|237:196|237:196|210:143,1,120,8|2,0:0|0:0,0:0:0:0:
29,228,50405,6,0,P|79:299|166:308,1,180,4|0,3:2|0:0,0:0:0:0:
230,264,51005,1,8,0:0:0:0:
185,199,51155,1,0,3:0:0:0:
217,128,51305,2,0,B|241:110|241:110|270:102,1,60,0|2,3:0|0:0,0:0:0:0:
347,114,51605,2,0,L|325:247,1,120,0|2,0:0|0:0,0:0:0:0:
444,335,52205,2,0,L|454:275,1,60,8|0,0:0|0:0,0:0:0:0:
369,344,52505,1,2,0:0:0:0:
369,343,52805,6,0,P|283:361|216:305,1,180,4|0,3:2|0:0,0:0:0:0:
213,227,53405,2,0,P|208:197|189:175,2,60,8|0|2,0:0|3:0|0:0,0:0:0:0:
149,271,53855,1,2,0:0:0:0:
149,271,54155,5,0,0:0:0:0:
216,304,54305,2,0,P|245:299|274:278,1,60,2|0,0:0|0:0,0:0:0:0:
309,214,54605,2,0,P|333:197|362:191,1,60,8|0,0:0|0:0,0:0:0:0:
434,221,54905,1,2,0:0:0:0:
449,132,55055,1,0,0:0:0:0:
362,104,55205,6,0,P|278:107|242:30,1,180,4|0,3:2|0:0,0:0:0:0:
320,40,55805,1,8,0:0:0:0:
362,104,55955,2,0,B|362:150|362:150|349:180|349:180|349:221,1,120,0|8,0:0|0:0,0:0:0:0:
483,376,56555,1,0,0:0:0:0:
459,301,56705,2,0,P|435:282|407:272,1,60,2|0,0:0|3:0,3:0:0:0:
333,295,57005,1,8,0:0:0:0:
284,205,57155,1,8,0:3:0:0:
203,267,57305,2,0,B|224:288|224:288|254:295,1,60,4|8,0:3|3:1,0:0:0:0:
316,156,57605,6,0,P|396:187|407:272,1,180,4|0,3:2|0:0,0:0:0:0:
342,317,58205,1,8,0:0:0:0:
278,267,58355,1,0,3:0:0:0:
202,286,58505,2,0,P|175:270|158:244,1,60,0|2,3:0|0:0,0:0:0:0:
148,169,58805,2,0,P|97:197|81:254,1,120,0|2,0:0|0:0,0:0:0:0:
284,279,59405,2,0,P|284:220|243:179,1,120,8|2,0:0|0:0,0:0:0:0:
120,341,60005,6,0,B|170:370|170:370|231:357|231:357|258:374|288:372,1,180,4|0,3:2|0:0,0:0:0:0:
349,325,60605,2,0,P|362:299|387:283,2,60,8|0|0,0:0|3:0|3:0,0:0:0:0:
421,355,61055,1,2,0:0:0:0:
497,337,61205,2,0,P|490:279|450:235,1,120,0|2,0:0|0:0,0:0:0:0:
378,206,61655,1,0,0:0:0:0:
301,222,61805,2,0,P|288:195|285:165,1,60,8|0,0:0|0:0,0:0:0:0:
354,281,62105,1,2,0:0:0:0:
354,280,62405,6,0,P|270:308|191:270,1,180,4|0,3:2|0:0,0:0:0:0:
169,195,63005,1,8,0:0:0:0:
219,135,63155,1,0,3:0:0:0:
296,140,63305,2,0,B|317:118|317:118|323:89,1,60,2|2,0:0|0:0,0:0:0:0:
430,268,63755,2,0,L|440:297,2,30,0|0|2,0:0|0:0|0:0,0:0:0:0:
400,195,64055,1,0,0:0:0:0:
324,213,64205,2,0,P|295:221|267:214,1,60,8|0,0:0|0:0,0:0:0:0:
197,179,64505,2,0,P|188:150|169:127,1,60,2|0,0:0|0:0,0:0:0:0:
174,49,64805,6,0,B|219:32|256:47|256:47|302:70|348:50,1,180,4|0,3:2|0:0,0:0:0:0:
414,8,65405,2,0,P|425:37|425:66,1,60,8|0,0:0|3:0,0:0:0:0:
388,136,65705,1,2,0:0:0:0:
465,135,65855,1,2,0:0:0:0:
219,135,66155,1,0,0:0:0:0:
169,195,66305,2,0,L|173:254,1,60,2|0,0:0|0:0,0:0:0:0:
127,318,66605,1,8,0:0:0:0:
37,269,66755,1,0,0:0:0:0:
102,347,66905,1,2,0:0:0:0:
102,347,67205,6,0,P|24:308|26:222,1,180,4|0,3:2|0:0,0:0:0:0:
88,177,67805,2,0,P|117:185|146:180,1,60,8|0,0:0|3:0,0:0:0:0:
191,116,68105,2,0,P|185:86|193:57,1,60,0|2,3:0|0:0,0:0:0:0:
263,21,68405,2,0,P|316:45|349:94,1,120,0|2,0:0|0:0,0:0:0:0:
269,258,69005,2,0,P|263:199|290:147,1,120,8|2,0:0|0:0,0:0:0:0:
460,116,69605,6,0,B|482:179|440:227|440:227|467:239|480:270,1,180,4|0,3:2|0:0,0:0:0:0:
408,300,70205,1,8,0:0:0:0:
330,308,70355,1,0,3:0:0:0:
269,258,70505,2,0,P|272:228|264:199,1,60,0|2,3:0|0:0,0:0:0:0:
217,136,70805,2,0,P|264:169|322:158,1,120,0|2,0:0|0:0,0:0:0:0:
373,100,71255,1,0,0:0:0:0:
429,150,71405,2,0,L|489:130,1,60,8|0,0:0|0:0,0:0:0:0:
384,211,71705,1,2,0:0:0:0:
384,211,72005,6,0,P|296:221|231:165,1,180,4|0,3:2|0:0,0:0:0:0:
215,87,72605,2,0,L|277:79,1,60,8|0,0:0|3:0,0:0:0:0:
343,43,72905,1,2,0:0:0:0:
277,1,73055,1,2,0:0:0:0:
384,211,73355,2,0,L|421:231,2,30,0|0|2,0:0|0:0|0:0,0:0:0:0:
308,191,73655,1,0,0:0:0:0:
266,256,73805,2,0,P|236:261|207:254,1,60,8|0,0:0|0:0,0:0:0:0:
172,184,74105,2,0,P|183:156|203:134,1,60,2|0,0:0|0:0,0:0:0:0:
282,140,74405,6,0,B|303:156|308:192|308:192|371:216|380:282,1,180,4|0,3:2|0:0,0:0:0:0:
357,356,75005,1,8,0:0:0:0:
281,334,75155,2,0,B|224:334|224:334|168:302,1,120,0|8,3:0|0:0,0:0:0:0:
93,319,75605,2,0,L|74:249,1,60,0|8,0:0|0:0,0:0:0:0:
94,185,75905,1,2,0:0:0:0:
167,213,76055,1,0,0:0:0:0:
229,165,76205,2,0,P|253:148|282:140,1,60,8|8,0:0|0:3,0:0:0:0:
372,174,76505,1,4,0:3:0:0:
438,105,76655,1,8,0:0:0:0:
438,243,76805,5,4,3:1:0:0:
115,115,86405,6,0,B|153:102|153:102|192:132|243:114,1,135.000005149841,0|0,3:0|0:0,0:0:0:0:
281,91,87005,5,0,0:0:0:0:
307,115,88205,5,2,0:0:0:0:
333,139,89405,5,0,0:0:0:0:
359,163,90605,5,2,0:0:0:0:
330,248,90905,1,2,0:0:0:0:
240,254,91205,1,2,3:2:0:0:
473,238,91805,5,2,0:0:0:0:
456,268,93005,5,2,0:0:0:0:
405,193,93305,1,2,0:0:0:0:
336,250,93605,6,0,P|267:281|196:259,1,153.000002918243,0|0,3:2|3:0,0:0:0:0:
164,219,94205,1,8,0:0:0:0:
113,214,94355,2,0,P|73:182|68:128,1,102.000001945496,0|8,3:0|0:0,3:0:0:0:
142,144,94805,6,0,L|189:113,1,51.0000009727478,0|8,3:0|0:0,3:0:0:0:
252,152,95105,2,0,L|299:121,1,51.0000009727478,0|0,3:0|3:0,3:0:0:0:
362,160,95405,1,8,0:0:0:0:
362,160,95555,2,0,L|409:129,1,51.0000009727478,8|4,3:0|0:3,0:0:0:0:
396,248,95855,1,8,0:0:0:0:
502,194,96005,6,0,B|527:144|496:101|496:101|498:52|498:52|469:12,1,198.000006042481,4|0,3:2|3:0,0:0:0:0:
392,34,96605,2,0,B|366:52|366:52|331:53,1,66.0000020141602,8|0,0:0|0:0,0:0:0:0:
255,30,96905,1,2,0:0:0:0:
237,21,97205,6,0,B|226:62|226:62|242:104|242:104|187:145|195:203,1,198.000006042481,0|0,3:0|3:0,0:0:0:0:
238,263,97805,2,0,P|268:278|300:277,1,66.0000020141602,8|0,0:0|0:0,0:0:0:0:
370,238,98105,1,2,0:0:0:0:
380,221,98405,6,0,B|312:154|312:154|268:171|268:171|216:151,1,198.000006042481,0|0,3:0|3:0,0:0:0:0:
143,120,99005,2,0,L|81:144,1,66.0000020141602,8|0,0:0|0:0,0:0:0:0:
9,112,99305,1,2,0:0:0:0:
0,95,99605,6,0,B|8:136|0:164|0:164|4:189|24:212|24:212|18:248|24:288,1,198.000006042481,0|0,3:0|3:0,0:0:0:0:
89,332,100205,2,0,P|120:324|146:304,1,66.0000020141602,8|0,0:0|0:0,0:0:0:0:
186,236,100505,2,0,B|219:239|219:239|246:257,1,66.0000020141602,2|2,0:0|0:0,0:0:0:0:
284,327,100805,6,0,B|324:295|324:295|322:240|322:240|374:244|404:206,1,198.000006042481,4|0,3:2|3:0,0:0:0:0:
426,131,101405,2,0,P|455:145|474:172,1,66.0000020141602,8|0,0:0|0:0,0:0:0:0:
471,251,101705,1,2,0:0:0:0:
481,267,102005,6,0,B|508:322|508:322|434:320|460:360|376:346,1,198.000006042481,0|0,3:0|3:0,0:0:0:0:
324,286,102605,2,0,P|298:264|268:252,1,66.0000020141602,8|0,0:0|0:0,0:0:0:0:
190,268,102905,1,2,0:0:0:0:
171,273,103205,6,0,B|145:239|145:239|145:194|145:194|111:150|111:150|160:126,1,198.000006042481,0|0,3:0|3:0,0:0:0:0:
223,78,103805,2,0,L|287:102,1,66.0000020141602,8|0,0:0|0:0,0:0:0:0:
362,87,104105,1,2,0:0:0:0:
378,75,104405,6,0,P|406:59|439:58,1,66.0000020141602,0|0,3:0|3:0,0:0:0:0:
490,118,104705,2,0,L|469:180,1,66.0000020141602,0|0,0:0|3:0,0:0:0:0:
404,232,105005,2,0,P|390:202|363:184,1,66.0000020141602,8|0,0:0|0:0,0:0:0:0:
285,168,105305,1,2,0:0:0:0:
227,222,105455,1,2,0:0:0:0:
331,261,105605,5,4,0:2:0:0:
331,261,105755,2,0,B|295:314|295:314|231:335,1,132.00000402832,0|0,3:0|3:0,0:0:0:0:
151,331,106205,2,0,L|82:302,1,66.0000020141602,8|0,0:0|0:0,0:0:0:0:
66,229,106505,1,2,0:0:0:0:
61,210,106805,6,0,P|60:177|76:145,2,66.0000020141602,2|0|0,3:2|0:0|0:0,0:0:0:0:
126,254,107255,2,0,P|156:242|181:217,2,66.0000020141602,2|8|0,0:2|0:0|0:0,0:0:0:0:
55,288,107705,1,0,0:0:0:0:
67,273,108005,6,0,L|141:163,1,132.00000402832,2|0,3:2|0:0,0:0:0:0:
199,218,108455,2,0,L|237:164,2,66.0000020141602,2|8|0,0:2|0:0|0:0,0:0:0:0:
257,272,108905,2,0,L|296:219,1,66.0000020141602,2|0,0:2|0:0,0:0:0:0:
375,208,109205,5,2,3:2:0:0:
375,207,109355,2,0,P|396:147|365:91,1,132.00000402832,2|0,0:0|0:0,0:0:0:0:
267,208,109805,2,0,P|245:147|276:91,1,132.00000402832,2|2,0:0|0:0,0:0:0:0:
319,32,110255,1,2,3:2:0:0:
322,154,110405,6,0,B|322:223|322:223|285:274,1,132.00000402832,6|0,3:2|3:0,0:0:0:0:
207,291,110855,2,0,P|185:229|133:189,1,132.00000402832,2|0,0:2|3:0,0:0:0:0:
55,172,111305,2,0,P|29:153|14:124,1,66.0000020141602,2|0,0:2|3:0,0:0:0:0:
150,94,111605,6,0,P|215:81|279:95,1,132.00000402832,2|0,3:2|3:0,0:0:0:0:
342,142,112055,2,0,P|344:203|404:208,1,132.00000402832,2|0,0:2|3:0,0:0:0:0:
476,173,112505,2,0,P|472:140|461:109,1,66.0000020141602,2|0,0:2|3:0,0:0:0:0:
342,37,112805,6,0,B|300:44|300:44|252:35|252:35|214:46,1,132.00000402832,2|0,3:2|3:0,0:0:0:0:
151,96,113255,2,0,B|179:152|179:152|163:218,1,132.00000402832,2|0,0:2|3:0,0:0:0:0:
204,286,113705,2,0,P|232:269|264:263,1,66.0000020141602,2|0,0:2|3:0,0:0:0:0:
384,302,114005,6,0,B|427:246|427:246|433:184,1,132.00000402832,2|0,3:2|3:0,0:0:0:0:
396,114,114455,1,0,0:0:0:0:
318,132,114605,2,0,P|309:100|289:74,1,66.0000020141602,8|8,0:0|3:0,0:0:0:0:
216,122,114905,1,4,0:3:0:0:
301,211,115055,1,8,0:0:0:0:
186,199,115205,6,0,B|124:223|124:223|107:281|107:281|36:272,1,198.000006042481,4|0,3:2|3:0,0:0:0:0:
50,194,115805,2,0,P|67:166|94:147,1,66.0000020141602,8|0,0:0|0:0,0:0:0:0:
140,83,116105,1,2,0:0:0:0:
163,71,116405,6,0,B|213:65|254:101|254:101|293:72|351:82,1,198.000006042481,0|0,3:0|3:0,0:0:0:0:
413,128,117005,2,0,P|392:153|385:185,1,66.0000020141602,8|0,0:0|0:0,0:0:0:0:
465,189,117305,1,2,0:0:0:0:
491,190,117605,6,0,B|514:139|514:139|502:76|502:76|463:74|433:43,1,198.000006042481,0|0,3:0|3:0,0:0:0:0:
354,43,118205,2,0,P|326:64|295:74,1,66.0000020141602,8|0,0:0|0:0,0:0:0:0:
218,59,118505,1,2,0:0:0:0:
199,41,118805,6,0,B|190:99|190:99|207:161|207:161|182:231,1,198.000006042481,0|0,3:0|3:0,0:0:0:0:
109,267,119405,2,0,P|111:299|123:330,1,66.0000020141602,8|0,0:0|0:0,0:0:0:0:
191,371,119705,1,2,0:0:0:0:
259,330,119855,1,2,0:0:0:0:
361,366,120005,6,0,B|379:298|334:253|334:253|356:224|356:224|358:183,1,198.000006042481,4|0,3:2|3:0,0:0:0:0:
324,112,120605,2,0,P|297:130|282:159,1,66.0000020141602,8|0,0:0|0:0,0:0:0:0:
357,184,120905,1,2,0:0:0:0:
386,195,121205,6,0,P|455:147|405:62,1,198.000006042481,0|0,3:0|3:0,0:0:0:0:
332,87,121805,2,0,B|301:89|301:89|267:79,1,66.0000020141602,8|0,0:0|0:0,0:0:0:0:
210,24,122105,1,2,0:0:0:0:
184,30,122405,6,0,B|103:101|103:101|115:147|115:147|95:184,1,198.000006042481,0|0,3:2|3:0,0:0:0:0:
25,222,123005,2,0,P|41:250|40:282,1,66.0000020141602,8|0,0:0|0:0,0:0:0:0:
88,346,123305,1,2,0:0:0:0:
111,333,123605,5,0,3:0:0:0:
111,333,123755,2,0,B|158:314|158:314|202:312|202:312|231:288,1,132.00000402832,0|0,3:0|3:0,0:0:0:0:
265,217,124205,1,8,0:0:0:0:
340,241,124355,1,0,0:0:0:0:
358,164,124505,2,0,B|391:165|391:165|420:179,1,66.0000020141602,2|2,0:0|0:0,0:0:0:0:
416,295,124805,5,4,3:2:0:0:
415,295,124955,2,0,P|363:333|299:324,1,132.00000402832,0|0,3:0|3:0,0:0:0:0:
229,287,125405,2,0,P|200:273|167:273,1,66.0000020141602,8|0,0:0|0:0,0:0:0:0:
108,327,125705,1,2,0:0:0:0:
86,343,126005,6,0,B|67:256|67:256|36:226,1,132.00000402832,2|0,3:2|0:0,0:0:0:0:
55,149,126455,2,0,B|87:154|87:154|119:144,2,66.0000020141602,2|8|0,0:2|0:0|0:0,0:0:0:0:
5,87,126905,1,0,0:2:0:0:
21,65,127205,6,0,L|175:48,1,132.00000402832,2|0,3:2|0:0,0:0:0:0:
231,54,127655,2,0,P|258:72|290:76,1,66.0000020141602,2|8,0:2|0:0,0:0:0:0:
367,57,127955,1,0,0:0:0:0:
445,67,128105,2,0,P|464:93|470:125,1,66.0000020141602,2|0,0:2|0:0,0:0:0:0:
431,194,128405,1,2,3:2:0:0:
431,194,128555,6,0,B|378:225|378:225|307:222,1,132.00000402832,2|0,0:0|3:0,0:0:0:0:
454,280,129005,2,0,B|401:311|401:311|331:308,1,132.00000402832,2|2,0:0|0:0,0:0:0:0:
382,232,129455,1,2,0:0:0:0:
257,218,129605,6,0,B|219:273|219:273|218:338,1,132.00000402832,6|0,3:2|3:0,0:0:0:0:
140,355,130055,2,0,B|110:296|110:296|53:262,1,132.00000402832,2|0,0:2|3:0,0:0:0:0:
84,188,130505,1,2,0:2:0:0:
155,224,130655,1,0,3:0:0:0:
198,101,130805,6,0,P|261:85|322:106,1,132.00000402832,2|0,3:2|3:0,0:0:0:0:
380,161,131255,2,0,P|426:190|484:151,1,132.00000402832,2|0,0:2|3:0,0:0:0:0:
497,73,131705,1,2,0:2:0:0:
430,31,131855,1,0,3:0:0:0:
322,107,132005,6,0,B|303:151|303:151|317:233,1,132.00000402832,2|0,3:2|3:0,0:0:0:0:
276,302,132455,2,0,P|215:320|160:288,1,132.00000402832,2|0,0:2|3:0,0:0:0:0:
147,210,132905,1,2,0:0:0:0:
225,198,133055,1,0,3:2:0:0:
330,251,133205,6,0,B|297:213|319:162|319:162|335:113|298:64|298:64|400:50|483:164|429:242,1,462.000014099122,0|0,3:0|3:0,0:0:0:0:
393,294,134405,1,4,1:0:0:0:
221,161,144005,6,0,P|281:132|343:154,1,135.000005149841,0|0,3:0|0:0,0:0:0:0:
369,190,144605,2,0,P|386:207|407:214,2,45.0000017166138,8|0|0,0:0|0:0|0:0,0:0:0:0:
343,154,145055,1,2,0:0:0:0:
289,230,145205,1,2,0:0:0:0:
472,240,145805,5,8,0:0:0:0:
482,265,147005,5,8,0:0:0:0:
369,190,147455,1,2,0:0:0:0:
339,275,147605,1,2,0:0:0:0:
492,290,148205,5,8,0:0:0:0:
309,125,148805,6,0,B|347:70|347:70|414:58,1,135.000005149841,2|0,3:2|0:0,0:0:0:0:
459,54,149405,2,0,L|494:82,1,45.0000017166138,8|0,0:0|0:0,0:0:0:0:
478,194,149705,2,0,L|463:138,1,45.0000017166138,2|2,0:0|0:0,0:0:0:0:
309,125,150155,2,0,L|294:181,1,45.0000017166138,2|2,0:0|0:0,0:0:0:0:
118,123,150605,1,8,0:0:0:0:
238,310,151205,6,0,P|302:318|357:278,1,135.000005149841,0|0,3:0|3:0,0:0:0:0:
371,237,151805,1,8,0:0:0:0:
435,277,151955,1,8,0:0:0:0:
439,200,152105,2,0,L|468:154,1,45.0000017166138,0|8,0:0|0:0,0:0:0:0:
369,157,152405,2,0,P|304:140|239:155,1,135.000005149841,0|0,3:0|3:0,0:0:0:0:
187,206,153005,1,8,0:0:0:0:
172,229,153605,6,0,P|175:162|212:106,1,135.000005149841,4|0,3:2|0:0,0:0:0:0:
251,83,154205,5,0,0:0:0:0:
261,106,155405,5,0,0:0:0:0:
271,129,156605,5,0,0:0:0:0:
281,152,157805,5,2,0:0:0:0:
366,123,158105,1,2,0:0:0:0:
394,208,158405,1,2,0:0:0:0:
197,184,159005,5,0,0:0:0:0:
187,207,160205,5,2,0:0:0:0:
128,138,160505,1,2,0:0:0:0:
40,157,160805,1,2,0:0:0:0:
177,306,161255,1,2,0:0:0:0:
177,230,161405,5,2,0:0:0:0:
167,253,162605,5,0,0:0:0:0:
337,196,163205,1,2,0:0:0:0:
203,78,163805,5,0,0:0:0:0:
210,102,165005,5,0,0:0:0:0:
217,126,166205,5,0,0:0:0:0:
224,150,167405,5,2,0:0:0:0:
302,106,167705,1,2,0:0:0:0:
343,185,168005,1,2,0:0:0:0:
225,321,168605,5,0,0:0:0:0:
218,297,169805,5,2,0:0:0:0:
161,226,170105,1,2,0:0:0:0:
308,287,171005,5,2,0:0:0:0:
320,308,172205,5,0,0:0:0:0:
