osu file format v14

[General]
AudioFilename: audio.mp3
AudioLeadIn: 0
PreviewTime: 94355
Countdown: 0
SampleSet: None
StackLeniency: 0.2
Mode: 0
LetterboxInBreaks: 0
EpilepsyWarning: 1
WidescreenStoryboard: 1

[Editor]
Bookmarks: 19200,28800,33600,38400,57600,76800,96000,115211,134400,153611,172800
DistanceSpacing: 0.1
BeatDivisor: 8
GridSize: 8
TimelineZoom: 2.9

[Metadata]
Title:fuego (sakuraburst remix)
TitleUnicode:fuego (sakuraburst remix)
Artist:KOAN Sound & Asa
ArtistUnicode:KOAN Sound & Asa
Creator:Shiirn
Version:Liiraye's Another
Source:
Tags:weber jakomo73 side liiraye chaos nanobuilder
BeatmapID:1291376
BeatmapSetID:611806

[Difficulty]
HPDrainRate:5
CircleSize:4.2
OverallDifficulty:7.7
ApproachRate:9
SliderMultiplier:1.6
SliderTickRate:1

[Events]
//Background and Video events
0,0,"bg.jpg",0,0
//Break Periods
//Storyboard Layer 0 (Background)
//Storyboard Layer 1 (Fail)
//Storyboard Layer 2 (Pass)
//Storyboard Layer 3 (Foreground)
//Storyboard Sound Samples

[TimingPoints]
5,300,4,3,1,100,1,0
19205,-166.666666666667,4,3,1,15,0,0
19505,-166.666666666667,4,3,1,25,0,0
19655,-166.666666666667,4,3,1,20,0,0
19805,-166.666666666667,4,3,1,15,0,0
20105,-166.666666666667,4,3,1,10,0,0
20405,-166.666666666667,4,3,1,15,0,0
20705,-166.666666666667,4,3,1,25,0,0
20855,-166.666666666667,4,3,1,20,0,0
21005,-166.666666666667,4,3,1,15,0,0
21305,-166.666666666667,4,3,1,10,0,0
21605,-166.666666666667,4,3,1,15,0,0
21905,-166.666666666667,4,3,1,25,0,0
22055,-166.666666666667,4,3,1,20,0,0
22205,-166.666666666667,4,3,1,15,0,0
22505,-166.666666666667,4,3,1,10,0,0
22805,-166.666666666667,4,3,1,15,0,0
23105,-166.666666666667,4,3,1,25,0,0
23255,-166.666666666667,4,3,1,20,0,0
23405,-166.666666666667,4,3,1,15,0,0
23705,-166.666666666667,4,3,1,10,0,0
24005,-166.666666666667,4,3,1,15,0,0
24305,-166.666666666667,4,3,1,25,0,0
24455,-166.666666666667,4,3,1,20,0,0
24605,-166.666666666667,4,3,1,15,0,0
24905,-166.666666666667,4,3,1,10,0,0
25205,-166.666666666667,4,3,1,15,0,0
25505,-166.666666666667,4,3,1,25,0,0
25655,-166.666666666667,4,3,1,20,0,0
25805,-166.666666666667,4,3,1,15,0,0
26105,-166.666666666667,4,3,1,10,0,0
26405,-166.666666666667,4,3,1,15,0,0
26705,-166.666666666667,4,3,1,25,0,0
26855,-166.666666666667,4,3,1,15,0,0
27005,-166.666666666667,4,3,1,10,0,0
27305,-166.666666666667,4,3,1,15,0,0
28805,-133.333333333333,4,3,1,15,0,0
29255,-133.333333333333,4,3,1,20,0,0
29405,-133.333333333333,4,3,1,15,0,0
29705,-133.333333333333,4,3,1,10,0,0
30005,-133.333333333333,4,3,1,15,0,0
30455,-133.333333333333,4,3,1,20,0,0
30605,-133.333333333333,4,3,1,15,0,0
30905,-133.333333333333,4,3,1,10,0,0
31205,-133.333333333333,4,3,1,15,0,0
31655,-133.333333333333,4,3,1,20,0,0
31805,-133.333333333333,4,3,1,15,0,0
32105,-133.333333333333,4,3,1,10,0,0
32405,-133.333333333333,4,3,1,15,0,0
32855,-133.333333333333,4,3,1,20,0,0
33005,-133.333333333333,4,3,1,15,0,0
33305,-133.333333333333,4,3,1,10,0,0
33605,-133.333333333333,4,3,1,30,0,0
33905,-133.333333333333,4,3,1,15,0,0
34205,-133.333333333333,4,3,1,30,0,0
34505,-133.333333333333,4,3,1,15,0,0
34805,-133.333333333333,4,3,1,30,0,0
35105,-133.333333333333,4,3,1,15,0,0
35405,-133.333333333333,4,3,1,30,0,0
35705,-133.333333333333,4,3,1,15,0,0
36005,-100,4,3,1,30,0,0
36155,-100,4,3,1,15,0,0
36305,-100,4,3,1,30,0,0
36455,-100,4,3,1,15,0,0
36605,-100,4,3,1,30,0,0
36755,-100,4,3,1,15,0,0
36905,-133.333333333333,4,3,1,30,0,0
37055,-133.333333333333,4,3,1,15,0,0
37205,-100,4,3,1,55,0,0
39642,-100,4,3,1,5,0,0
39680,-100,4,3,1,45,0,0
39792,-100,4,3,1,5,0,0
39830,-100,4,3,1,45,0,0
40092,-100,4,3,1,5,0,0
40130,-100,4,3,1,45,0,0
40542,-100,4,3,1,5,0,0
40580,-100,4,3,1,45,0,0
44105,-57.1428571428571,4,3,1,55,0,0
44405,-100,4,3,1,55,0,0
47705,-66.6666666666667,4,3,1,55,0,0
48005,-100,4,3,1,55,0,0
49242,-100,4,3,1,5,0,0
49280,-100,4,3,1,45,0,0
49392,-100,4,3,1,5,0,0
49430,-100,4,3,1,45,0,0
49692,-100,4,3,1,5,0,0
49730,-100,4,3,1,45,0,0
50142,-100,4,3,1,5,0,0
50180,-100,4,3,1,45,0,0
53705,-57.1428571428571,4,3,1,55,0,0
54005,-100,4,3,1,55,0,0
58842,-100,4,3,1,5,0,0
58880,-100,4,3,1,45,0,0
58992,-100,4,3,1,5,0,0
59030,-100,4,3,1,45,0,0
59292,-100,4,3,1,5,0,0
59330,-100,4,3,1,45,0,0
59742,-100,4,3,1,5,0,0
59780,-100,4,3,1,45,0,0
63305,-57.1428571428571,4,3,1,55,0,0
63605,-100,4,3,1,55,0,0
66905,-66.6666666666667,4,3,1,55,0,0
67205,-100,4,3,1,55,0,0
68442,-100,4,3,1,5,0,0
68480,-100,4,3,1,45,0,0
68592,-100,4,3,1,5,0,0
68630,-100,4,3,1,45,0,0
68892,-100,4,3,1,5,0,0
68930,-100,4,3,1,45,0,0
69342,-100,4,3,1,5,0,0
69380,-100,4,3,1,45,0,0
72905,-50,4,3,1,55,0,0
73205,-100,4,3,1,55,0,0
76805,-120.481927710843,4,3,1,55,0,0
77255,-100,4,3,1,55,0,0
81605,-120.481927710843,4,3,1,45,0,0
82505,-57.1428571428571,4,3,1,45,0,0
82805,-100,4,3,1,45,0,0
84005,-120.481927710843,4,3,1,45,0,0
86405,-142.857142857143,4,3,1,45,0,0
89255,-100,4,3,1,45,0,0
92105,-57.1428571428571,4,3,1,45,0,0
92405,-100,4,3,1,45,0,0
93605,-119.047619047619,4,3,1,45,0,0
94355,-100,4,3,1,45,0,0
96005,-83.3333333333333,4,3,1,45,0,0
96305,-100,4,3,1,45,0,0
97205,-50,4,3,1,80,0,0
97805,-76.9230769230769,4,3,1,45,0,0
98405,-50,4,3,1,80,0,0
99005,-76.9230769230769,4,3,1,45,0,0
99605,-50,4,3,1,80,0,0
100205,-76.9230769230769,4,3,1,45,0,0
101105,-100,4,3,1,45,0,0
102005,-50,4,3,1,80,0,0
102605,-76.9230769230769,4,3,1,45,0,0
103205,-50,4,3,1,80,0,0
103805,-76.9230769230769,4,3,1,45,0,0
104405,-66.6666666666667,4,3,1,80,0,0
104555,-66.6666666666667,4,3,1,45,0,0
104705,-50,4,3,1,80,0,0
104855,-76.9230769230769,4,3,1,45,0,0
110142,-76.9230769230769,4,3,1,5,0,0
110405,-76.9230769230769,4,3,1,45,0,0
111605,-57.1428571428571,4,3,1,45,0,0
111905,-76.9230769230769,4,3,1,45,0,0
112805,-57.1428571428571,4,3,1,45,0,0
113105,-76.9230769230769,4,3,1,45,0,0
114005,-57.1428571428571,4,3,1,45,0,0
114605,-76.9230769230769,4,3,1,45,0,0
115205,-83.3333333333333,4,3,1,45,0,0
115505,-100,4,3,1,45,0,0
116405,-50,4,3,1,80,0,0
117005,-76.9230769230769,4,3,1,45,0,0
117605,-50,4,3,1,80,0,0
118205,-76.9230769230769,4,3,1,45,0,0
118805,-50,4,3,1,80,0,0
119405,-76.9230769230769,4,3,1,45,0,0
120305,-100,4,3,1,45,0,0
121205,-50,4,3,1,80,0,0
121805,-76.9230769230769,4,3,1,45,0,0
122405,-50,4,3,1,80,0,0
123005,-76.9230769230769,4,3,1,45,0,0
123605,-66.6666666666667,4,3,1,45,0,0
124055,-76.9230769230769,4,3,1,45,0,0
129342,-76.9230769230769,4,3,1,5,0,0
129530,-76.9230769230769,4,3,1,45,0,0
130805,-57.1428571428571,4,3,1,45,0,0
131105,-76.9230769230769,4,3,1,45,0,0
132005,-57.1428571428571,4,3,1,45,0,0
132305,-76.9230769230769,4,3,1,45,0,0
133805,-200,4,3,1,45,0,0
134855,-125,4,3,1,45,0,0
140105,-50,4,3,1,45,0,0
140405,-125,4,3,1,45,0,0
159155,-66.6666666666667,4,3,1,45,0,0
160205,-142.857142857143,4,3,1,45,0,0
168455,-125,4,3,1,45,0,0
168755,-66.6666666666667,4,3,1,45,0,0
170480,-125,4,3,1,50,0,0
170630,-125,4,3,1,55,0,0
170855,-125,4,3,1,60,0,0
171005,-125,4,3,1,65,0,0
171155,-125,4,3,1,70,0,0
171305,-125,4,3,1,75,0,0
172205,-125,4,3,1,70,0,0
172280,-125,4,3,1,65,0,0
172355,-125,4,3,1,60,0,0
172430,-125,4,3,1,55,0,0
172505,-125,4,3,1,50,0,0
172580,-125,4,3,1,45,0,0
172655,-125,4,3,1,35,0,0
172730,-125,4,3,1,25,0,0
172805,-125,4,3,1,15,0,0

[Colours]
Combo1 : 113,89,166
Combo2 : 213,216,75
Combo3 : 240,149,104
Combo4 : 169,68,198

[HitObjects]
331,306,19205,6,0,P|283:299|229:308,1,95.9999970703126,0|0,0:0|0:0,0:0:0:0:
151,289,19655,1,0,0:0:0:0:
151,289,19805,2,0,B|140:218|140:218|148:184,1,95.9999970703126,0|0,0:0|3:3,0:0:0:0:
386,66,20405,6,0,P|387:113|381:165,1,95.9999970703126,0|0,0:0|0:0,0:0:0:0:
320,223,20855,1,0,0:0:0:0:
320,223,21005,2,0,L|215:217,1,95.9999970703126,0|0,0:0|0:0,0:0:0:0:
50,73,21605,6,0,P|75:62|146:78,1,95.9999970703126,0|0,0:0|0:0,0:0:0:0:
217,114,22055,1,0,0:0:0:0:
217,114,22205,2,0,P|263:121|309:108,1,95.9999970703126,0|0,0:0|0:0,0:0:0:0:
416,327,22805,6,0,P|427:277|406:233,1,95.9999970703126,0|0,0:0|0:0,0:0:0:0:
299,250,23255,1,0,0:0:0:0:
299,250,23405,2,0,P|288:300|309:344,1,95.9999970703126,0|0,0:0|0:0,0:0:0:0:
343,141,24005,6,0,B|281:136|281:136|249:150,1,95.9999970703126,0|0,0:0|0:0,0:0:0:0:
177,197,24455,1,0,0:0:0:0:
177,197,24605,2,0,B|146:210|146:210|84:205,1,95.9999970703126,0|0,0:0|0:0,0:0:0:0:
258,323,25205,6,0,P|297:297|314:253,1,95.9999970703126,0|0,3:0|3:0,0:0:0:0:
388,207,25655,1,0,3:0:0:0:
388,207,25805,2,0,B|436:197|436:197|489:206,1,95.9999970703126,0|0,3:0|3:0,0:0:0:0:
252,77,26405,6,0,L|150:71,1,95.9999970703126,0|0,3:0|3:0,0:0:0:0:
90,126,26855,1,0,3:0:0:0:
89,126,27005,2,0,P|78:172|81:220,1,95.9999970703126,0|0,3:0|0:0,0:0:0:0:
473,227,27605,6,0,P|446:187|402:166,1,95.9999970703126,0|0,0:0|0:0,0:0:0:0:
326,205,28055,1,0,0:0:0:0:
326,205,28205,2,0,P|271:220|228:210,1,95.9999970703126,0|0,0:0|0:0,0:0:0:0:
95,112,28805,6,0,B|173:133|226:83|226:83|211:104|213:139,1,180.000006866455,0|0,0:0|0:0,0:0:0:0:
234,213,29405,2,0,P|271:250|358:252,1,120.000004577637,0|0,0:0|0:0,0:0:0:0:
358,139,30005,6,0,P|332:182|334:115,1,180.000006866455,0|0,0:0|0:0,0:0:0:0:
388,49,30605,2,0,P|345:30|264:49,1,120.000004577637,0|0,0:0|0:0,0:0:0:0:
168,141,31205,6,0,B|101:161|43:128|43:128|63:153|64:178,1,180.000006866455,0|0,0:0|0:0,0:0:0:0:
131,220,31805,2,0,B|161:222|179:213|179:213|162:250|177:287,1,120.000004577637,0|0,0:0|0:0,0:0:0:0:
275,350,32405,6,0,B|312:308|294:251|294:251|317:197|282:156,1,180.000006866455,0|0,0:0|0:0,0:0:0:0:
266,100,33005,2,0,P|220:140|216:198,1,120.000004577637,0|0,0:0|0:0,0:0:0:0:
410,193,33605,5,4,0:0:0:0:
275,292,34055,1,8,0:0:0:0:
415,203,34205,2,0,L|430:74,1,120.000004577637,4|0,0:0|0:0,0:0:0:0:
311,109,34655,1,8,0:0:0:0:
141,41,34805,5,4,0:0:0:0:
30,177,35255,1,8,0:0:0:0:
154,36,35405,2,0,P|206:63|245:108,1,120.000004577637,4|0,0:0|0:0,0:0:0:0:
329,197,35855,1,8,0:0:0:0:
206,207,36005,6,0,B|154:210|154:261|100:261,1,120,4|0,0:0|0:0,0:0:0:0:
104,262,36305,2,0,B|134:217|178:248|205:205,1,120,4|0,0:0|0:0,0:0:0:0:
307,205,36605,2,0,B|358:210|358:261|412:261,1,120,4|0,0:0|0:0,0:0:0:0:
408,262,36905,6,0,B|378:217|334:248|307:205,1,120,4|12,0:0|0:0,0:0:0:0:
387,123,37355,1,0,0:0:0:0:
387,123,37430,1,0,0:0:0:0:
387,123,37505,1,8,0:0:0:0:
280,35,37655,2,0,B|272:75,1,40,2|0,0:0|0:0,0:0:0:0:
255,153,37805,5,2,0:0:0:0:
95,248,37955,1,8,0:0:0:0:
285,264,38105,1,4,0:0:0:0:
143,170,38255,1,10,0:0:0:0:
242,348,38405,6,0,B|307:346|307:346|346:328|346:328|409:325,1,160,4|0,0:1|0:0,0:0:0:0:
423,214,38855,2,0,L|364:211,1,40,0|0,0:0|0:0,0:0:0:0:
303,206,39005,1,2,0:0:0:0:
303,206,39155,2,0,B|316:168|316:168|285:125|285:125|279:44,1,160,0|0,0:0|0:0,0:0:0:0:
187,25,39605,6,0,L|184:44,1,20
77,44,39755,2,0,L|80:63,1,20
142,137,39905,1,4,0:2:0:0:
38,248,40055,2,0,L|57:245,1,20
173,332,40205,2,0,L|80:342,1,80,2|0,0:0|0:0,0:0:0:0:
93,340,40505,2,0,L|87:312,1,20
269,134,40805,6,0,P|328:160|358:248,1,160,4|0,0:1|0:0,0:0:0:0:
254,242,41255,1,0,0:0:0:0:
371,58,41405,1,2,0:0:0:0:
164,151,41555,2,0,L|166:111,1,40,0|0,0:0|0:0,0:0:0:0:
67,73,41705,2,0,L|62:33,2,40,0|0|0,0:0|0:0|0:0,0:0:0:0:
248,36,42005,5,0,0:0:0:0:
329,193,42155,1,0,0:0:0:0:
414,116,42305,2,0,L|514:110,1,80,4|0,0:2|0:0,0:0:0:0:
236,242,42605,1,2,0:0:0:0:
444,259,42755,1,0,0:0:0:0:
358,59,42905,1,0,0:0:0:0:
351,72,43205,6,0,B|323:117|348:159|348:159|384:190|373:237,1,160,4|0,0:1|0:0,0:0:0:0:
242,325,43655,2,0,P|221:329|202:328,1,40,0|0,0:0|0:0,0:0:0:0:
132,285,43805,1,2,0:0:0:0:
298,221,43955,1,0,0:0:0:0:
164,140,44105,6,0,B|142:191|142:191|143:205,1,70.000000667572,0|0,0:0|0:0,0:0:0:0:
223,250,44255,2,0,B|218:211|218:211|243:155|243:155|240:115,1,140.000001335144,0|0,0:0|0:0,0:0:0:0:
165,22,44555,5,0,0:0:0:0:
163,28,44630,1,0,0:0:0:0:
161,35,44705,1,0,0:0:0:0:
241,116,44855,1,0,0:0:0:0:
64,173,45005,1,2,0:0:0:0:
39,60,45155,1,0,0:0:0:0:
290,45,45305,2,0,P|321:78|325:130,1,80,0|0,0:0|0:0,0:0:0:0:
211,224,45605,2,0,L|257:231,1,40,4|0,0:0|0:0,0:0:0:0:
339,238,45755,6,0,P|262:249|213:310,1,160,8|0,0:0|0:0,0:0:0:0:
324,349,46205,1,2,0:0:0:0:
160,156,46355,1,0,0:0:0:0:
222,59,46505,2,0,L|211:12,2,26.6666666666667,0|0|0,0:0|0:0|0:0,0:0:0:0:
146,80,46705,2,0,L|84:71,1,53.3333333333333,0|0,0:0|0:0,0:0:0:0:
316,120,46955,6,0,B|307:182|307:182|316:211,1,80,0|4,0:0|0:1,0:0:0:0:
421,313,47255,1,0,0:0:0:0:
318,214,47405,1,2,0:0:0:0:
421,313,47555,1,10,0:2:0:0:
250,308,47705,6,0,P|279:248|333:226,1,120.000004577637,8|0,0:0|0:0,0:0:0:0:
482,135,48005,6,0,L|306:115,1,160,4|0,0:1|0:0,0:0:0:0:
166,166,48455,2,0,L|160:205,1,40,0|0,0:0|0:0,0:0:0:0:
150,284,48605,1,2,0:0:0:0:
150,284,48755,2,0,B|206:290|206:290|260:279|260:279|318:283,1,160,0|0,0:0|0:0,0:0:0:0:
440,322,49205,6,0,L|418:308,1,20,0|0,0:0|0:0,0:0:0:0:
473,214,49355,2,0,L|447:217,1,20,0|0,0:0|0:0,0:0:0:0:
370,227,49505,1,4,0:2:0:0:
240,161,49655,2,0,L|268:153,1,20,0|0,0:0|0:0,0:0:0:0:
265,54,49805,2,0,L|185:45,1,80,2|0,0:0|0:0,0:0:0:0:
185,45,50105,2,0,L|182:67,1,20,0|0,0:0|0:0,0:0:0:0:
309,248,50405,6,0,P|265:189|175:167,1,160,4|0,0:1|0:0,0:0:0:0:
190,291,50855,1,0,0:0:0:0:
371,155,51005,1,2,0:0:0:0:
214,82,51155,2,0,L|175:93,1,40,0|0,0:0|0:0,0:0:0:0:
99,37,51305,2,0,L|51:26,2,40,0|0|0,0:0|0:0|0:0,0:0:0:0:
83,167,51605,5,0,0:0:0:0:
108,48,51755,1,0,0:0:0:0:
202,200,51905,2,0,L|209:291,1,80,4|0,0:2|0:0,0:0:0:0:
342,362,52205,1,2,0:0:0:0:
95,295,52355,1,0,0:0:0:0:
355,193,52505,1,0,0:0:0:0:
355,193,52805,6,0,B|357:138|357:138|342:93|342:93|345:32,1,160,4|0,0:1|0:0,0:0:0:0:
253,41,53255,2,0,L|250:96,1,40,0|0,0:0|0:0,0:0:0:0:
245,159,53405,1,0,0:0:0:0:
434,75,53555,1,0,0:0:0:0:
355,193,53705,6,0,L|345:278,1,70.000000667572,0|0,3:0|3:0,0:0:0:0:
350,359,53855,2,0,P|309:309|225:320,1,140.000001335144,0|0,3:0|0:0,0:0:0:0:
161,202,54155,5,0,0:0:0:0:
165,208,54230,1,0,0:0:0:0:
169,214,54305,1,0,0:0:0:0:
269,248,54455,1,0,0:0:0:0:
83,319,54605,1,4,0:2:0:0:
66,135,54755,1,0,0:0:0:0:
246,70,54905,2,0,P|280:90|304:121,1,80,0|0,0:0|0:0,0:0:0:0:
410,222,55205,2,0,L|369:227,1,40,4|0,0:0|0:0,0:0:0:0:
289,269,55355,6,0,P|271:193|302:121,1,160,8|0,0:0|0:0,0:0:0:0:
407,204,55805,2,0,L|412:119,1,80,2|0,0:0|0:0,0:0:0:0:
208,112,56105,1,0,0:0:0:0:
208,112,56255,2,0,L|203:27,1,80,2|0,0:0|0:0,0:0:0:0:
307,164,56555,6,0,P|265:218|204:228,1,120,0|0,0:0|0:0,0:0:0:0:
305,310,56855,2,0,L|356:314,1,40,0|0,0:0|0:0,0:0:0:0:
423,318,57005,1,2,0:0:0:0:
310,148,57155,1,8,0:0:0:0:
457,121,57305,1,4,0:0:0:0:
457,121,57605,6,0,B|439:119|416:99|416:99|406:76|385:41|346:31|316:33,1,160,4|0,0:1|0:0,0:0:0:0:
188,138,58055,2,0,L|241:144,1,40,0|0,0:0|0:0,0:0:0:0:
310,148,58205,1,2,0:0:0:0:
310,148,58355,2,0,B|317:205|317:205|306:253|306:253|312:305,1,160,0|0,0:0|0:0,0:0:0:0:
390,259,58805,6,0,L|395:225,1,20,0|0,0:0|0:0,0:0:0:0:
232,191,58955,2,0,L|230:171,1,20,0|0,0:0|0:0,0:0:0:0:
224,89,59105,1,4,0:2:0:0:
340,48,59255,2,0,L|363:46,1,20,0|0,0:0|0:0,0:0:0:0:
215,92,59405,2,0,L|120:84,1,80,2|0,0:0|0:0,0:0:0:0:
135,85,59705,2,0,L|137:114,1,20,0|0,0:0|0:0,0:0:0:0:
214,215,60005,6,0,B|224:229|248:240|248:240|191:235|173:276|130:266,1,160,0|0,0:0|0:0,0:0:0:0:
53,175,60455,1,0,0:0:0:0:
240,332,60605,1,2,0:0:0:0:
334,253,60755,2,0,L|340:208,1,40,0|0,0:0|0:0,0:0:0:0:
431,166,60905,2,0,L|421:115,2,40,0|0|0,0:0|0:0|0:0,0:0:0:0:
438,277,61205,5,0,0:0:0:0:
239,186,61355,1,0,0:0:0:0:
334,97,61505,2,0,L|338:15,1,80,4|0,0:2|0:0,0:0:0:0:
364,206,61805,1,2,0:0:0:0:
439,72,61955,1,0,0:0:0:0:
195,55,62105,1,0,0:0:0:0:
195,55,62405,6,0,B|175:108|124:120|124:120|139:155|134:184,1,160,4|0,0:1|0:0,0:0:0:0:
30,177,62855,1,0,0:0:0:0:
327,154,63005,1,2,0:0:0:0:
262,310,63155,1,0,0:0:0:0:
324,147,63305,6,0,L|341:230,1,70.000000667572,0|0,0:0|0:0,0:0:0:0:
390,347,63455,2,0,B|379:297|379:297|406:273|406:273|436:202,1,140.000001335144,0|0,0:0|0:0,0:0:0:0:
452,99,63755,5,0,0:0:0:0:
447,93,63830,1,0,0:0:0:0:
442,87,63905,1,0,0:0:0:0:
221,23,64055,1,0,0:0:0:0:
271,193,64205,1,4,0:2:0:0:
319,92,64355,1,0,0:0:0:0:
129,88,64505,2,0,L|29:97,1,80,0|0,0:0|0:0,0:0:0:0:
214,243,64805,2,0,L|218:281,1,40,4|0,0:0|0:0,0:0:0:0:
253,368,64955,6,0,B|311:344|308:271|308:271|321:299|345:310,1,160,8|0,0:0|0:0,0:0:0:0:
443,150,65405,1,2,0:0:0:0:
308,162,65555,1,0,0:0:0:0:
219,283,65705,2,0,L|212:308,2,26.6666666666667,0|0|0,0:0|0:0|0:0,0:0:0:0:
146,219,65905,2,0,L|143:157,1,53.3333333333333,0|0,0:0|0:0,0:0:0:0:
233,66,66155,6,0,L|136:58,1,80,0|4,0:0|0:1,0:0:0:0:
59,128,66455,1,0,0:0:0:0:
234,190,66605,1,2,0:0:0:0:
65,136,66755,1,10,0:2:0:0:
110,301,66905,6,0,P|103:251|148:186,1,120,8|0,0:0|0:0,0:0:0:0:
322,194,67205,6,0,P|280:262|199:269,1,160,4|0,0:1|0:0,0:0:0:0:
180,137,67655,2,0,L|171:80,1,40,0|0,0:0|0:0,0:0:0:0:
159,22,67805,1,2,0:0:0:0:
159,22,67955,2,0,B|205:29|205:29|234:55|234:55|319:39,1,160,0|0,0:0|0:0,0:0:0:0:
420,73,68405,6,0,L|430:100,1,20,0|0,0:0|0:0,0:0:0:0:
333,151,68555,2,0,L|333:178,1,20
333,255,68705,1,4,0:2:0:0:
443,225,68855,2,0,L|450:199,1,20,0|0,0:0|0:0,0:0:0:0:
241,176,69005,2,0,L|150:190,1,80,2|0,0:0|0:0,0:0:0:0:
161,188,69305,2,0,L|149:157,1,20,0|0,0:0|0:0,0:0:0:0:
332,95,69605,6,0,P|365:165|345:241,1,160,4|0,0:1|0:0,0:0:0:0:
228,326,70055,1,0,0:0:0:0:
249,175,70205,1,2,0:0:0:0:
228,326,70355,2,0,L|272:287,1,40,0|0,0:0|0:0,0:0:0:0:
333,341,70505,2,0,L|385:332,2,40,0|0|0,0:0|0:0|0:0,0:0:0:0:
108,273,70805,5,0,0:0:0:0:
326,340,70955,1,0,0:0:0:0:
426,255,71105,2,0,P|430:214|432:169,1,80,4|0,0:2|0:0,0:0:0:0:
276,131,71405,1,8,0:0:0:0:
214,241,71555,1,0,0:0:0:0:
136,40,71705,1,0,0:0:0:0:
136,40,72005,6,0,B|156:115|114:138|137:198,1,160,4|0,0:1|0:0,0:0:0:0:
311,309,72455,1,0,0:0:0:0:
273,105,72605,1,0,0:0:0:0:
391,197,72755,1,0,0:0:0:0:
414,28,72905,6,0,L|328:36,1,80,0|0,0:0|0:0,0:0:0:0:
273,105,73055,2,0,B|310:123|310:123|404:110|404:110|447:126,1,160,0|0,0:0|0:0,0:0:0:0:
470,226,73355,5,0,0:0:0:0:
466,232,73430,1,0,0:0:0:0:
462,238,73505,1,0,0:0:0:0:
331,288,73655,1,0,0:0:0:0:
459,243,73805,1,0,0:0:0:0:
266,173,73955,1,0,0:0:0:0:
221,346,74105,2,0,L|138:355,1,80,0|0,0:0|0:0,0:0:0:0:
9,265,74405,2,0,P|18:247|26:229,1,40,0|0,0:0|0:0,0:0:0:0:
6,133,74555,6,0,B|95:149|95:149|177:144,1,160,0|0,0:0|0:0,0:0:0:0:
134,226,75005,2,0,L|226:218,1,80,0|0,0:0|0:0,0:0:0:0:
418,136,75305,1,0,0:0:0:0:
345,343,75455,1,0,0:0:0:0:
344,334,75755,5,0,0:0:0:0:
132,150,75905,2,0,P|90:214|118:286,1,160,0|2,0:0|0:0,0:0:0:0:
304,248,76355,1,8,0:0:0:0:
248,346,76505,1,4,0:0:0:0:
232,165,76655,2,0,L|228:129,2,20,0|0|0,0:0|0:0|0:0,0:0:0:0:
184,223,76805,6,0,B|205:234|205:234|232:221|232:221|250:226|264:239|264:239|294:239|313:226|313:226|343:237|343:237|372:217,1,199.200002887573,0|0,0:0|0:0,0:0:0:0:
305,85,77555,1,0,0:0:0:0:
300,94,77855,1,0,0:0:0:0:
371,212,78005,5,0,0:0:0:0:
288,235,78305,1,0,0:0:0:0:
144,187,78605,1,2,0:2:0:0:
215,134,78905,1,0,0:0:0:0:
220,140,79505,5,0,0:0:0:0:
318,331,79655,1,0,0:0:0:0:
309,330,80255,1,0,0:0:0:0:
142,156,80405,6,0,P|78:168|36:213,1,120,0|0,0:0|0:0,0:0:0:0:
128,257,80705,2,0,L|139:338,1,80,0|0,0:0|0:0,0:0:0:0:
437,223,81005,1,2,0:2:0:0:
258,270,81305,1,2,0:2:0:0:
323,38,81605,6,0,B|345:67|345:67|327:70|327:70|336:114|336:114|310:109|310:109|283:151|238:149,1,199.200002887573,2|0,0:2|0:0,0:0:0:0:
228,53,82205,1,0,0:0:0:0:
157,181,82355,1,0,0:0:0:0:
362,262,82505,6,0,L|367:180,1,70.000000667572,0|0,0:0|0:0,0:0:0:0:
246,225,82655,2,0,B|241:274|241:274|252:316|252:316|250:370,1,140.000001335144,0|0,0:0|0:0,0:0:0:0:
27,71,83405,5,2,0:2:0:0:
102,41,83705,1,2,0:2:0:0:
181,60,84005,1,2,0:2:0:0:
326,89,84755,5,0,0:0:0:0:
326,89,84905,2,0,L|323:159,2,66.4000009625244,2|0|0,0:2|0:0|0:0,0:0:0:0:
246,127,85355,2,0,P|217:144|185:149,1,66.4000009625244,0|0,0:0|0:0,0:0:0:0:
106,130,85655,1,0,0:0:0:0:
57,201,85805,2,0,L|63:272,1,66.4000009625244,0|0,0:0|0:0,0:0:0:0:
62,267,86030,1,0,0:0:0:0:
62,267,86105,1,0,0:0:0:0:
252,232,86255,1,0,0:0:0:0:
280,347,86405,6,0,P|199:339|146:277,1,167.999994873047,0|0,0:0|0:0,0:0:0:0:
308,134,87005,1,8,0:2:0:0:
403,206,87155,2,0,P|445:207|468:210,1,55.9999982910157,0|0,0:0|0:0,0:0:0:0:
411,307,87455,2,0,P|382:309|345:302,1,55.9999982910157,0|0,0:0|0:0,0:0:0:0:
266,111,88205,5,2,0:2:0:0:
130,239,89255,6,0,L|86:233,1,40,0|0,0:0|0:0,0:0:0:0:
12,220,89405,1,0,0:0:0:0:
263,111,89855,1,0,0:0:0:0:
148,130,90005,1,0,0:0:0:0:
276,231,90305,1,0,0:0:0:0:
424,64,90605,5,2,0:2:0:0:
341,329,90905,1,2,0:2:0:0:
120,193,91205,1,2,0:2:0:0:
72,329,91655,5,2,0:2:0:0:
124,204,91805,1,0,0:0:0:0:
254,246,91955,1,0,0:0:0:0:
354,124,92105,6,0,P|384:106|419:101,1,70.000000667572,0|0,0:0|0:0,0:0:0:0:
410,175,92255,2,0,P|348:201|291:165,1,140.000001335144,0|0,0:0|0:0,0:0:0:0:
208,86,93005,5,2,0:2:0:0:
230,252,93305,1,2,0:2:0:0:
334,120,93605,2,0,B|307:84|266:74|225:91|208:110|208:110|194:94|194:94|168:96|150:73|150:73|179:63|206:81,1,268.799991796875,2|0,0:2|0:0,0:0:0:0:
267,171,94355,2,0,P|283:221|283:265,1,80,0|0,0:0|0:0,0:0:0:0:
203,341,94655,1,0,0:0:0:0:
92,259,94805,6,0,L|176:251,1,80,0|0,0:0|0:0,0:0:0:0:
267,171,95105,1,8,0:0:0:0:
267,171,95255,1,4,0:3:0:0:
433,274,95405,2,0,P|426:295|426:315,1,40,10|0,0:0|0:0,0:0:0:0:
358,341,95555,2,0,B|327:280|395:232|359:177,1,160,4|0,0:0|0:0,0:0:0:0:
238,140,96005,6,0,B|200:132|200:132|315:100,1,143.999995605469,0|0,0:0|0:0,0:0:0:0:
225,35,96305,6,0,L|142:30,1,80,0|0,0:0|0:0,0:0:0:0:
70,264,96605,1,2,0:0:0:0:
231,153,96755,1,0,0:0:0:0:
304,359,96905,1,0,0:0:0:0:
302,268,97205,6,0,P|288:245|298:269,8,80,0|0|0|0|0|0|0|0|2,2:0|2:0|2:0|2:0|2:0|2:0|2:0|2:0|0:0,0:0:0:0:
130,338,97955,1,2,0:2:0:0:
427,128,98105,1,0,0:0:0:0:
281,104,98405,6,0,P|256:114|281:108,8,80,0|0|0|0|0|0|0|0|2,2:0|2:0|2:0|2:0|2:0|2:0|2:0|2:0|0:0,0:0:0:0:
410,229,99155,1,2,0:2:0:0:
81,76,99305,1,0,0:0:0:0:
148,147,99605,6,0,P|174:152|150:143,8,80,0|0|0|0|0|0|2|2|2,2:0|2:0|2:0|2:0|2:0|2:0|2:0|2:0|0:0,0:0:0:0:
220,62,100355,1,0,0:0:0:0:
324,87,100505,2,0,L|333:139,1,51.999997619629,2|0,0:2|0:0,0:0:0:0:
448,41,100655,2,0,L|440:93,1,51.999997619629,2|0,0:2|0:0,0:0:0:0:
405,214,100805,2,0,P|333:241|264:209,1,155.999992858887,4|0,0:0|0:0,0:0:0:0:
188,233,101105,6,0,B|178:337,1,80,8|0,0:0|0:0,0:0:0:0:
338,147,101405,1,2,0:0:0:0:
345,289,101555,1,0,0:0:0:0:
122,152,101705,1,0,0:0:0:0:
215,94,102005,6,0,P|213:67|211:92,8,80,0|0|0|0|0|0|0|0|2,2:0|2:0|2:0|2:0|2:0|2:0|2:0|2:0|0:0,0:0:0:0:
188,233,102755,1,2,0:2:0:0:
460,58,102905,1,0,0:0:0:0:
429,157,103205,6,0,P|447:176|432:155,8,80,0|0|0|0|0|0|0|0|2,2:0|2:0|2:0|2:0|2:0|2:0|2:0|2:0|0:0,0:0:0:0:
333,40,103955,1,2,0:2:0:0:
240,315,104105,1,0,0:0:0:0:
242,326,104405,6,0,L|323:313,1,60.0000022888184,0|0,2:0|2:0,0:0:0:0:
372,243,104555,2,0,L|311:234,1,60.0000022888184,0|0,2:0|2:0,0:0:0:0:
232,220,104705,1,0,2:0:0:0:
309,63,104855,6,0,L|313:5,2,51.999997619629,2|2|2,0:2|0:2|0:0,0:0:0:0:
396,138,105155,1,0,0:0:0:0:
98,183,105305,1,0,0:0:0:0:
172,53,105455,1,8,0:2:0:0:
97,183,105605,6,0,P|101:245|118:284,1,103.999995239258,8|0,0:2|0:0,0:0:0:0:
262,183,105905,1,8,0:2:0:0:
356,260,106055,1,8,0:3:0:0:
356,260,106205,2,0,B|409:271|409:271|475:258,1,103.999995239258,2|8,0:0|0:2,0:0:0:0:
406,103,106505,2,0,B|353:92|353:92|287:105,1,103.999995239258,8|0,0:0|0:0,0:0:0:0:
177,226,106805,5,0,0:0:0:0:
406,187,106955,1,0,0:0:0:0:
410,179,107255,1,0,0:0:0:0:
131,61,107405,1,2,0:0:0:0:
127,68,107855,5,0,0:0:0:0:
122,305,108005,1,0,0:0:0:0:
248,168,108155,1,0,0:0:0:0:
251,177,108455,1,0,0:0:0:0:
304,362,108605,1,2,0:0:0:0:
319,82,108755,1,0,0:0:0:0:
242,274,108905,1,0,0:0:0:0:
393,155,109055,1,0,0:0:0:0:
158,65,109205,6,0,L|41:75,1,103.999995239258,0|0,0:0|0:0,0:0:0:0:
332,202,109655,2,0,L|277:200,1,51.999997619629,0|0,0:0|0:0,0:0:0:0:
201,191,109805,1,2,1:3:0:0:
96,303,110105,2,0,L|99:329,6,25.9999988098145
181,342,110405,6,0,B|237:328|237:328|276:342|276:342|337:342,1,155.999992858887,4|0,0:2|0:0,0:0:0:0:
382,268,110705,2,0,P|349:257|326:257,1,51.999997619629,0|0,0:0|0:0,0:0:0:0:
295,179,110855,2,0,P|270:186|249:201,1,51.999997619629,0|0,0:0|0:0,0:0:0:0:
190,254,111005,1,2,0:0:0:0:
83,145,111305,2,0,L|91:89,2,51.999997619629,0|0|2,0:0|0:0|0:2,0:0:0:0:
156,250,111605,6,0,B|168:289|168:289|201:275|201:275|243:322|243:322|265:276|284:251|284:251|315:277|315:277|359:289,1,280.000002670288,0|0,2:0|2:0,0:0:0:0:
448,245,112055,1,0,2:0:0:0:
339,181,112205,2,0,P|324:222|333:285,1,103.999995239258,2|0,0:0|0:0,0:0:0:0:
456,322,112505,2,0,L|446:230,1,77.9999964294435,0|0,0:0|0:0,0:0:0:0:
414,93,112805,6,0,B|408:79|396:65|396:65|364:87|364:87|337:86|311:72|311:72|293:83|272:84|272:84|244:89|222:104|222:104|197:89|197:89|175:103|167:103,1,280.000002670288,0|0,2:0|2:0,0:0:0:0:
117,219,113255,1,0,2:0:0:0:
117,219,113405,2,0,P|179:219|199:211,1,77.9999964294435,2|0,0:0|0:0,0:0:0:0:
328,336,113705,2,0,L|240:328,1,77.9999964294435,0|0,0:0|0:0,0:0:0:0:
150,118,114005,6,0,B|179:88|179:88|187:102|187:102|275:79|275:79|250:113|250:113|293:130|303:193,1,280.000002670288,0|0,2:0|2:0,0:0:0:0:
193,213,114455,1,2,0:2:0:0:
319,336,114605,2,0,P|369:325|407:291,1,103.999995239258,2|0,0:0|0:0,0:0:0:0:
301,181,114905,1,4,0:0:0:0:
301,181,115055,1,8,0:0:0:0:
202,320,115205,6,0,B|92:331|92:331|128:301,1,143.999995605469,0|0,0:0|0:0,0:0:0:0:
187,212,115505,6,0,L|175:123,1,80,0|0,0:0|0:0,0:0:0:0:
29,169,115805,1,2,0:0:0:0:
137,28,115955,1,0,0:0:0:0:
293,173,116105,1,0,0:0:0:0:
190,148,116405,6,0,P|166:160|190:152,8,80,0|0|0|0|0|0|0|0|2,2:0|2:0|2:0|2:0|2:0|2:0|2:0|2:0|0:0,0:0:0:0:
276,44,117155,1,2,0:2:0:0:
196,328,117305,1,0,0:0:0:0:
94,246,117605,6,0,P|80:223|90:247,8,80,0|0|0|0|0|0|0|0|2,2:0|2:0|2:0|2:0|2:0|2:0|2:0|2:0|0:0,0:0:0:0:
37,355,118355,1,2,0:2:0:0:
380,215,118505,1,0,0:0:0:0:
327,311,118805,6,0,P|339:334|331:310,8,80,0|0|0|0|0|0|2|2|2,2:0|2:0|2:0|2:0|2:0|2:0|2:0|2:0|0:0,0:0:0:0:
237,233,119555,1,0,0:0:0:0:
155,317,119705,2,0,L|103:309,1,51.999997619629,2|0,0:2|0:0,0:0:0:0:
115,209,119855,2,0,L|64:205,1,51.999997619629,2|0,0:2|0:0,0:0:0:0:
91,104,120005,2,0,P|169:105|225:180,1,155.999992858887,4|0,0:0|0:0,0:0:0:0:
300,113,120305,6,0,L|306:25,1,80,8|0,0:0|0:0,0:0:0:0:
414,78,120605,1,2,0:0:0:0:
368,317,120755,1,0,0:0:0:0:
219,158,120905,1,0,0:0:0:0:
372,183,121205,6,0,P|393:197|375:179,8,80,0|0|0|0|0|0|0|0|2,2:0|2:0|2:0|2:0|2:0|2:0|2:0|2:0|0:0,0:0:0:0:
338,84,121955,1,2,0:2:0:0:
32,171,122105,1,0,0:0:0:0:
93,89,122405,6,0,P|97:62|89:87,8,80,0|0|0|0|0|0|0|0|2,2:0|2:0|2:0|2:0|2:0|2:0|2:0|2:0|0:0,0:0:0:0:
223,65,123155,1,2,0:2:0:0:
144,346,123305,1,0,0:0:0:0:
144,346,123605,6,0,P|176:320|203:315,1,60.0000022888184,0|0,2:0|2:0,0:0:0:0:
280,348,123755,2,0,P|322:349|354:333,1,60.0000022888184,0|0,2:0|2:0,0:0:0:0:
398,276,123905,1,0,2:0:0:0:
221,216,124055,6,0,L|153:207,2,51.999997619629,2|2|2,0:2|0:2|0:0,0:0:0:0:
333,75,124355,1,0,0:0:0:0:
164,105,124505,1,0,0:0:0:0:
326,77,124655,1,8,0:2:0:0:
165,105,124805,6,0,B|169:145|169:145|165:166|165:166|169:208,1,103.999995239258,8|0,0:2|0:0,0:0:0:0:
313,223,125105,1,8,0:2:0:0:
53,348,125255,1,8,0:3:0:0:
53,348,125405,2,0,B|57:306|57:306|53:285|53:285|58:237,1,103.999995239258,2|0,0:0|0:2,0:0:0:0:
253,172,125705,2,0,L|358:160,1,103.999995239258,8|0,0:0|0:0,0:0:0:0:
458,257,126005,5,0,0:0:0:0:
361,58,126155,1,0,0:0:0:0:
351,66,126455,1,0,0:0:0:0:
307,317,126605,1,2,0:0:0:0:
303,308,127055,5,0,0:0:0:0:
274,38,127205,1,0,0:0:0:0:
186,227,127355,1,0,0:0:0:0:
183,236,127655,1,0,0:0:0:0:
276,29,127805,2,0,P|327:26|378:36,1,103.999995239258,2|0,0:0|0:0,0:0:0:0:
453,168,128105,1,0,0:0:0:0:
453,168,128255,1,0,0:0:0:0:
282,209,128405,6,0,P|306:216|332:215,1,51.999997619629,0|0,0:0|0:0,0:0:0:0:
314,133,128555,2,0,P|247:132|210:168,1,103.999995239258,0|0,0:0|0:0,0:0:0:0:
262,339,128855,2,0,L|269:284,1,51.999997619629,0|0,0:0|0:0,0:0:0:0:
282,209,129005,1,2,1:3:0:0:
42,156,129305,2,0,L|35:118,6,25.9999988098145,0|0|0|0|0|0|0,0:0|0:0|0:0|0:0|0:0|0:0|0:0,0:0:0:0:
117,214,129605,6,0,B|143:175|143:175|136:139|136:139|146:59,1,155.999992858887,4|0,0:1|0:0,0:0:0:0:
235,84,129905,2,0,P|239:116|241:144,1,51.999997619629,0|0,0:0|0:0,0:0:0:0:
324,160,130055,2,0,P|323:198|316:236,1,51.999997619629,0|0,0:0|0:0,0:0:0:0:
296,291,130205,2,0,B|257:304|257:304|233:304|233:304|195:317,2,103.999995239258,2|0|0,0:0|0:0|0:0,0:0:0:0:
418,117,130805,6,0,B|393:128|359:134|359:134|362:108|362:108|313:108|284:129|284:129|263:106|263:106|258:161|207:179,1,280.000002670288,0|0,2:0|2:0,0:0:0:0:
90,165,131255,1,0,2:0:0:0:
89,164,131405,2,0,P|97:113|132:75,1,103.999995239258,2|0,0:0|0:0,0:0:0:0:
223,171,131705,2,0,L|232:277,1,103.999995239258,0|2,0:0|0:2,0:0:0:0:
351,347,132005,6,0,B|404:354|404:354|399:338|399:338|462:310|462:310|448:304|448:304|485:230|485:230|448:251,1,280.000002670288,0|0,2:0|2:0,0:0:0:0:
291,222,132455,1,0,2:0:0:0:
178,157,132605,2,0,P|128:149|85:177,1,103.999995239258,2|0,0:0|0:0,0:0:0:0:
140,343,132905,2,0,L|148:239,1,103.999995239258,0|2,0:0|0:2,0:0:0:0:
291,117,133205,1,0,0:0:0:0:
256,192,133280,12,4,134405,0:1:0:0:
313,160,134855,5,0,0:0:0:0:
357,321,135005,1,2,0:2:0:0:
431,233,135155,1,0,0:0:0:0:
431,233,135455,1,0,0:0:0:0:
178,208,135605,6,0,L|103:200,2,64,0|0|0,0:0|0:0|0:0,0:0:0:0:
325,276,136205,1,8,0:2:0:0:
325,276,136505,2,0,L|388:269,1,64,0|0,0:0|0:0,0:0:0:0:
457,113,136805,6,0,P|432:144|423:169,1,64,0|0,0:0|0:0,0:0:0:0:
482,254,137105,1,0,0:0:0:0:
339,114,137255,1,0,0:0:0:0:
174,277,137405,1,8,0:2:0:0:
179,280,137855,1,0,0:0:0:0:
365,315,138005,6,0,P|381:275|385:222,1,96,0|0,0:0|0:0,0:0:0:0:
312,175,138305,2,0,P|304:152|310:67,1,96,0|0,0:0|0:0,0:0:0:0:
383,31,138605,1,8,0:2:0:0:
392,38,138905,1,0,0:0:0:0:
188,33,139205,6,0,L|158:27,8,16,2|0|0|0|2|0|2|0|0,0:2|0:0|0:0|0:0|0:2|0:0|0:2|0:0|0:0,0:0:0:0:
330,178,139655,1,0,0:0:0:0:
113,265,139805,1,8,0:2:0:0:
133,145,139955,1,0,0:0:0:0:
246,93,140105,6,0,L|241:175,1,80,0|0,0:0|0:0,0:0:0:0:
215,337,140255,2,0,B|188:232|188:232|215:254|255:253,1,160,0|0,0:0|0:0,0:0:0:0:
416,191,141005,5,8,0:2:0:0:
417,191,142205,5,8,0:2:0:0:
389,80,142355,1,0,0:0:0:0:
416,191,142505,2,0,P|398:199|377:206,1,32,0|0,0:0|0:0,0:0:0:0:
316,179,142655,2,0,P|279:169|229:167,1,64,0|0,0:0|0:0,0:0:0:0:
259,285,142955,1,0,0:0:0:0:
389,80,143405,1,8,0:2:0:0:
389,80,144005,6,0,L|393:58,8,16,2|0|0|0|2|0|2|0|0,0:2|0:0|0:0|0:0|0:2|0:0|0:2|0:0|0:0,0:0:0:0:
446,227,144455,1,0,0:0:0:0:
469,306,144605,1,8,0:2:0:0:
389,289,144755,2,0,B|303:263|303:263|263:277,1,128,0|0,0:0|0:0,0:0:0:0:
172,341,145205,6,0,P|125:338|97:340,2,64,0|0|0,0:0|0:0|0:0,0:0:0:0:
206,207,145805,2,0,P|208:156|198:72,1,128,8|0,0:2|0:0,0:0:0:0:
115,124,146255,1,0,0:0:0:0:
316,137,146405,6,0,L|381:127,2,64,0|0|0,0:0|0:0|0:0,0:0:0:0:
326,37,146855,1,0,0:0:0:0:
446,211,147005,2,0,P|450:255|431:338,1,128,8|0,0:2|0:0,0:0:0:0:
324,271,147455,1,0,0:0:0:0:
223,322,147605,6,0,P|204:288|201:251,1,64,0|0,0:0|0:0,0:0:0:0:
270,165,147905,1,0,0:0:0:0:
59,201,148205,1,8,0:2:0:0:
59,201,148805,6,0,L|52:177,8,16,2|0|0|0|2|0|2|0|0,0:2|0:0|0:0|0:0|0:2|0:0|0:2|0:0|0:0,0:0:0:0:
178,254,149255,1,0,0:0:0:0:
383,183,149405,2,0,P|386:144|385:113,1,64,0|0,0:0|0:0,0:0:0:0:
231,38,149705,1,2,0:2:0:0:
231,38,149855,6,0,P|225:80|235:175,1,128,0|0,0:0|0:0,0:0:0:0:
305,264,150305,2,0,P|313:289|318:340,2,64,2|0|8,0:2|0:0|0:2,0:0:0:0:
160,136,150905,2,0,P|125:137|93:149,1,64,2|0,0:2|0:0,0:0:0:0:
149,284,151205,1,0,0:0:0:0:
154,278,151655,5,0,0:0:0:0:
350,91,151805,1,8,0:2:0:0:
350,91,151955,2,0,P|303:60|229:57,1,128
254,192,152405,1,0,0:0:0:0:
256,192,152442,12,0,153455,0:0:0:0:
329,258,153605,6,0,L|334:282,8,16,2|0|0|0|2|0|2|0|0,0:2|0:0|0:0|0:0|0:2|0:0|0:2|0:0|0:0,0:0:0:0:
385,148,154055,2,0,L|307:137,1,64,0|0,0:0|0:0,0:0:0:0:
199,186,154355,1,0,0:0:0:0:
199,186,154505,2,0,P|196:226|197:256,2,64,0|0|0,0:0|0:0|0:0,0:0:0:0:
158,51,155405,5,2,0:2:0:0:
160,57,156455,5,0,0:0:0:0:
326,75,156605,1,2,0:2:0:0:
321,79,157055,1,0,0:0:0:0:
268,175,157205,6,0,P|261:225|272:305,1,128,0|0,0:0|0:0,0:0:0:0:
393,322,157805,1,2,0:2:0:0:
455,268,158105,1,2,0:2:0:0:
379,244,158405,1,2,0:2:0:0:
379,244,158855,2,0,L|384:178,1,64,0|0,0:0|0:0,0:0:0:0:
306,90,159155,6,0,B|276:71|276:71|250:93|250:93|174:104,2,120.000004577637,0|0|0,0:0|0:0|0:0,0:0:0:0:
225,264,160205,6,0,P|252:215|265:161,2,111.999996582031,2|2|2,0:2|0:2|0:2,0:0:0:0:
134,239,161255,5,2,0:2:0:0:
225,264,161405,1,2,0:2:0:0:
388,233,161555,1,0,0:0:0:0:
474,259,161705,2,0,L|481:317,1,55.9999982910157,0|0,0:0|0:0,0:0:0:0:
480,315,162155,1,0,0:0:0:0:
307,193,162605,1,2,0:2:0:0:
401,83,163205,5,2,0:2:0:0:
307,193,163655,2,0,P|266:205|245:207,1,55.9999982910157,0|2,0:0|0:2,0:0:0:0:
196,77,163955,2,0,P|157:74|134:74,1,55.9999982910157,0|0,0:0|0:0,0:0:0:0:
81,186,164255,1,0,0:0:0:0:
140,73,164405,1,0,0:0:0:0:
205,333,165005,5,2,0:2:0:0:
205,332,166055,2,0,P|217:307|220:280,1,55.9999982910157,0|2,0:0|0:2,0:0:0:0:
185,107,166655,1,0,0:0:0:0:
185,106,166805,2,0,P|240:108|284:141,1,111.999996582031,2|0,0:2|0:0,0:0:0:0:
405,299,167405,5,2,0:2:0:0:
211,191,167705,1,2,0:2:0:0:
14,81,168005,1,2,0:2:0:0:
11,89,168455,6,0,P|9:115|11:152,1,64,2|0,0:2|0:0,0:0:0:0:
118,143,168755,6,0,B|131:106|131:106|124:83|124:83|129:26,2,120.000004577637,0|0|0,0:0|0:0|0:0,0:0:0:0:
118,143,169805,5,2,0:2:0:0:
121,132,170105,1,2,0:2:0:0:
125,122,170405,1,0,0:0:0:0:
256,192,170480,12,0,171567,0:0:0:0:
256,192,171605,12,2,172805,0:2:0:0:
