osu file format v14

[General]
AudioFilename: audio.mp3
AudioLeadIn: 0
PreviewTime: 94355
Countdown: 0
SampleSet: None
StackLeniency: 0.6
Mode: 0
LetterboxInBreaks: 0
EpilepsyWarning: 1
WidescreenStoryboard: 1

[Editor]
Bookmarks: 19200,28800,33600,38400,57600,76800,96000,115211,134400,153611,169805,172800
DistanceSpacing: 1
BeatDivisor: 2
GridSize: 4
TimelineZoom: 2.5

[Metadata]
Title:fuego (sakuraburst remix)
TitleUnicode:fuego (sakuraburst remix)
Artist:KOAN Sound & Asa
ArtistUnicode:KOAN Sound & Asa
Creator:Shiirn
Version:Jako's Normal
Source:
Tags:weber jakomo73 side liiraye chaos nanobuilder
BeatmapID:1291375
BeatmapSetID:611806

[Difficulty]
HPDrainRate:4
CircleSize:3
OverallDifficulty:4
ApproachRate:5
SliderMultiplier:1
SliderTickRate:1

[Events]
//Background and Video events
0,0,"bg.jpg",0,0
//Break Periods
2,77005,85205
2,134605,142805
//Storyboard Layer 0 (Background)
//Storyboard Layer 1 (Fail)
//Storyboard Layer 2 (Pass)
//Storyboard Layer 3 (Foreground)
//Storyboard Sound Samples

[TimingPoints]
5,300,4,3,1,20,1,0
19486,-100,4,3,1,5,0,0
19523,-100,4,3,1,20,0,0
20405,-100,4,3,1,23,0,0
20686,-100,4,3,1,5,0,0
20723,-100,4,3,1,23,0,0
21605,-100,4,3,1,26,0,0
21886,-100,4,3,1,5,0,0
21923,-100,4,3,1,26,0,0
22805,-100,4,3,1,29,0,0
23086,-100,4,3,1,5,0,0
23123,-100,4,3,1,29,0,0
24005,-100,4,3,1,35,0,0
24286,-100,4,3,1,5,0,0
24323,-100,4,3,1,35,0,0
25205,-100,4,3,1,38,0,0
25486,-100,4,3,1,5,0,0
25523,-100,4,3,1,38,0,0
26405,-100,4,3,1,41,0,0
26686,-100,4,3,1,5,0,0
26723,-100,4,3,1,41,0,0
27605,-100,4,3,1,44,0,0
27886,-100,4,3,1,5,0,0
27923,-100,4,3,1,44,0,0
28805,-100,4,3,1,50,0,0
29086,-100,4,3,1,5,0,0
29123,-100,4,3,1,50,0,0
30005,-100,4,3,1,53,0,0
30286,-100,4,3,1,5,0,0
30323,-100,4,3,1,53,0,0
31205,-100,4,3,1,56,0,0
31486,-100,4,3,1,5,0,0
31523,-100,4,3,1,56,0,0
32405,-100,4,3,1,59,0,0
32686,-100,4,3,1,5,0,0
32723,-100,4,3,1,59,0,0
33605,-100,4,3,1,45,0,0
36605,-100,4,3,1,50,0,0
36905,-100,4,3,1,55,0,0
37205,-100,4,3,1,60,0,0
37505,-100,4,3,1,65,0,0
38405,-100,4,3,1,80,0,0
42005,-100,4,2,3,60,0,0
42605,-100,4,3,1,80,0,0
43955,-100,4,2,3,60,0,0
44555,-100,4,3,1,80,0,0
51455,-100,4,2,3,60,0,0
52205,-100,4,3,1,80,0,0
53555,-100,4,2,3,60,0,0
54155,-100,4,3,1,80,0,0
57155,-100,4,3,1,70,0,0
57605,-100,4,3,1,80,0,0
61205,-100,4,2,3,60,0,0
61805,-100,4,3,1,80,0,0
63155,-100,4,2,3,60,0,0
63755,-100,4,3,1,80,0,0
70805,-100,4,2,3,60,0,0
71405,-100,4,3,1,80,0,0
72755,-100,4,2,3,60,0,0
73355,-100,4,3,1,80,0,0
86405,-100,4,2,3,70,0,0
94805,-100,4,3,1,80,0,0
97805,-100,4,3,1,40,0,0
98405,-100,4,3,1,80,0,0
99005,-100,4,3,1,40,0,0
99605,-100,4,3,1,80,0,0
100505,-100,4,2,3,60,0,0
100805,-100,4,3,1,80,0,0
101555,-100,4,3,1,60,0,0
102005,-100,4,3,1,80,0,0
102605,-100,4,3,1,70,0,0
102905,-100,4,3,1,50,0,0
103205,-100,4,3,1,80,0,0
103805,-100,4,3,1,70,0,0
104105,-100,4,3,1,50,0,0
104405,-100,4,3,1,80,0,0
105305,-100,4,2,3,60,0,0
105605,-100,4,3,1,80,0,0
106355,-100,4,3,1,70,0,0
106805,-100,4,3,1,80,0,0
107405,-100,4,3,1,60,0,0
108005,-100,4,3,1,80,0,0
108605,-100,4,3,1,60,0,0
108905,-100,4,3,1,70,0,0
109205,-100,4,3,1,80,0,0
111005,-100,4,3,1,60,0,0
111305,-100,4,3,1,70,0,0
111605,-100,4,3,1,80,0,0
112205,-100,4,3,1,60,0,0
112505,-100,4,3,1,70,0,0
112805,-100,4,3,1,80,0,0
113405,-100,4,3,1,60,0,0
113705,-100,4,3,1,70,0,0
114005,-100,4,3,1,80,0,0
114755,-100,4,3,1,70,0,0
115205,-100,4,3,1,80,0,0
115955,-100,4,3,1,70,0,0
116405,-100,4,3,1,80,0,0
117005,-100,4,3,1,60,0,0
117305,-100,4,3,1,70,0,0
117605,-100,4,3,1,80,0,0
118205,-100,4,3,1,60,0,0
118505,-100,4,3,1,70,0,0
118805,-100,4,3,1,80,0,0
119705,-100,4,2,3,60,0,0
120005,-100,4,3,1,80,0,0
120755,-100,4,3,1,70,0,0
121205,-100,4,3,1,80,0,0
121805,-100,4,3,1,60,0,0
122105,-100,4,3,1,70,0,0
122405,-100,4,3,1,80,0,0
123005,-100,4,3,1,60,0,0
123305,-100,4,3,1,70,0,0
123605,-100,4,3,1,60,0,0
124205,-100,4,3,1,80,0,0
125555,-100,4,3,1,70,0,0
126005,-100,4,3,1,80,0,0
126605,-100,4,3,1,60,0,0
127205,-100,4,3,1,80,0,0
127805,-100,4,3,1,60,0,0
128105,-100,4,3,1,70,0,0
128405,-100,4,3,1,80,0,0
130355,-100,4,3,1,70,0,0
130805,-100,4,3,1,80,0,0
131405,-100,4,3,1,70,0,0
131705,-100,4,3,1,80,0,0
132605,-100,4,3,1,70,0,0
132905,-100,4,3,1,80,0,0
144005,-100,4,2,3,50,0,0
148805,-100,4,2,3,40,0,0
153605,-100,4,2,3,30,0,0
157805,-100,4,2,3,27,0,0
158105,-100,4,2,3,24,0,0
158405,-100,4,2,3,20,0,0
158855,-100,4,2,3,30,0,0
159155,-100,4,2,3,40,0,0
160205,-100,4,2,3,25,0,0
160505,-100,4,2,3,20,0,0
160805,-100,4,2,3,15,0,0
168755,-100,4,2,3,25,0,0
169805,-100,4,2,3,10,0,0
170705,-100,4,2,3,9,0,0
171005,-100,4,2,3,8,0,0
171305,-100,4,2,3,7,0,0
171605,-100,4,2,3,6,0,0
171905,-100,4,2,3,5,0,0

[Colours]
Combo1 : 113,89,166
Combo2 : 213,216,75
Combo3 : 240,149,104
Combo4 : 169,68,198

[HitObjects]
127,165,19205,6,0,P|208:127|265:139,1,150
308,163,19805,1,8,0:0:0:0:
415,331,20405,6,0,P|334:369|277:357,1,150
234,333,21005,1,8,0:0:0:0:
109,176,21605,6,0,P|125:89|167:32,1,150
195,5,22205,1,8,0:0:0:0:
332,150,22805,6,0,P|316:237|274:294,1,150
246,321,23405,1,8,0:0:0:0:
147,340,23705,1,0,0:0:0:0:
59,291,24005,6,0,B|34:221|34:221|61:130,1,150,4|0,0:0|0:0,0:0:0:0:
71,101,24605,1,8,0:0:0:0:
245,2,25205,6,0,B|270:72|270:72|243:163,1,150
230,191,25805,1,8,0:0:0:0:
147,373,26405,6,0,B|313:359,1,150
345,356,27005,1,8,0:0:0:0:
472,201,27605,6,0,B|305:214,1,150
274,218,28205,1,8,0:0:0:0:
174,227,28505,1,0,0:0:0:0:
78,257,28805,6,0,P|113:336|179:370,1,150,4|0,0:0|0:0,0:0:0:0:
213,381,29405,1,8,0:0:0:0:
398,305,30005,6,0,P|349:233|278:211,1,150
243,206,30605,1,8,0:0:0:0:
44,185,31205,6,0,P|68:109|131:58,1,150
163,39,31805,1,8,0:0:0:0:
362,60,32405,6,0,P|338:136|275:187,1,150
243,206,33005,1,8,0:0:0:0:
48,158,33605,5,8,0:0:0:0:
6,302,34055,2,0,L|55:306,1,50
203,279,34655,2,0,L|153:275,1,50
293,327,35255,2,0,L|343:332,1,50
490,304,35855,6,0,L|440:300,1,50
480,208,36305,1,8,0:0:0:0:
402,144,36605,1,8,0:0:0:0:
464,66,36905,1,8,0:0:0:0:
376,18,37205,1,8,0:0:0:0:
276,31,37505,2,0,P|228:46|187:98,2,100,12|0|0,0:0|0:0|0:0,0:0:0:0:
281,130,38405,6,0,P|239:172|186:181,1,100,4|0,0:0|0:0,0:0:0:0:
100,181,39005,2,0,P|54:220|40:278,1,100,4|0,0:0|0:0,0:0:0:0:
54,355,39605,2,0,B|176:343,1,100
253,337,40205,1,2,0:0:0:0:
353,329,40505,1,8,0:0:0:0:
453,320,40805,6,0,P|434:269|374:229,1,100
302,219,41405,2,0,L|180:229,1,100
102,235,42005,1,0,0:0:0:0:
60,144,42305,1,0,0:0:0:0:
118,62,42605,2,0,L|177:67,1,50
217,71,42905,1,8,0:0:0:0:
316,81,43205,6,0,P|283:145|204:171,1,150,4|0,0:0|0:0,0:0:0:0:
121,211,43955,2,0,L|49:211,2,50
194,278,44555,2,0,P|248:283|303:263,1,100,8|0,0:0|0:0,0:0:0:0:
359,196,45155,2,0,P|388:190|424:195,1,50
496,249,45605,6,0,P|459:332|380:351,1,150
308,352,46355,2,0,P|277:348|230:313,2,50
377,279,46955,2,0,P|385:204|367:159,1,100,8|0,0:0|0:0,0:0:0:0:
347,141,47405,2,0,L|283:135,1,50,2|0,0:0|0:0,0:0:0:0:
247,132,47705,1,8,0:0:0:0:
147,121,48005,6,0,P|159:180|198:222,1,100,4|0,0:0|0:0,0:0:0:0:
260,273,48605,2,0,L|389:284,1,100
459,288,49205,2,0,P|444:229|398:191,1,100
333,147,49805,1,2,0:0:0:0:
235,125,50105,1,8,0:0:0:0:
135,134,50405,6,0,P|152:68|184:38,1,100
267,13,51005,2,0,L|369:36,1,100
460,64,51605,1,0,0:0:0:0:
504,153,51905,1,0,0:0:0:0:
484,250,52205,2,0,L|437:282,1,50
399,303,52505,1,0,0:0:0:0:
305,339,52805,6,0,B|231:359|152:345,1,150
63,309,53555,2,0,L|-4:327,2,50
135,239,54155,2,0,P|176:210|245:191,1,100
322,185,54755,2,0,L|387:185,1,50
472,185,55205,6,0,P|455:129|406:92,1,100
343,44,55805,2,0,B|267:20|267:72|195:44,1,150,2|0,0:0|0:0,0:0:0:0:
102,9,56555,2,0,P|99:68|126:119,1,100
144,145,57005,2,0,B|172:140|172:140|209:154,2,50,0|8|8,0:0|0:0|0:0,0:0:0:0:
63,205,57605,6,0,P|77:271|106:311,1,100,4|0,0:0|0:0,0:0:0:0:
176,354,58205,2,0,L|283:354,1,100
372,327,58805,2,0,P|339:278|292:257,1,100
206,235,59405,1,2,0:0:0:0:
125,175,59705,1,8,0:0:0:0:
112,75,60005,6,0,P|158:80|215:130,1,100
279,173,60605,2,0,P|330:189|389:179,1,100
466,141,61205,1,0,0:0:0:0:
504,48,61505,1,0,0:0:0:0:
413,4,61805,2,0,L|363:4,1,50
313,4,62105,1,8,0:0:0:0:
213,4,62405,6,0,P|232:65|321:104,1,150,4|0,0:0|0:0,0:0:0:0:
396,144,63155,2,0,L|447:144,2,50
325,214,63755,2,0,P|275:224|227:207,1,100
152,144,64355,2,0,P|127:143|102:148,1,50
27,214,64805,6,0,P|48:277|127:318,1,150
217,320,65555,2,0,L|247:383,2,50,0|8|8,0:0|0:0|0:0,0:0:0:0:
253,226,66155,2,0,P|265:168|307:113,1,100
317,94,66605,2,0,L|365:70,1,50
407,52,66905,1,8,0:0:0:0:
471,128,67205,6,0,P|489:168|477:237,1,100,4|0,0:0|0:0,0:0:0:0:
438,312,67805,2,0,P|386:329|324:315,1,100
270,252,68405,2,0,P|218:235|156:249,1,100
78,271,69005,1,2,0:0:0:0:
4,203,69305,1,8,0:0:0:0:
37,108,69605,6,0,P|90:87|141:97,1,100
223,133,70205,2,0,P|266:150|349:133,1,100
404,93,70805,1,0,0:0:0:0:
499,123,71105,1,0,0:0:0:0:
509,222,71405,2,0,L|463:280,1,50
445,299,71705,1,0,0:0:0:0:
367,362,72005,6,0,P|277:363|221:312,1,150,4|0,0:0|0:0,0:0:0:0:
177,244,72755,2,0,L|116:244,2,50
238,165,73355,2,0,P|290:156|360:167,1,100
431,191,73955,2,0,P|457:195|495:185,1,50
504,94,74405,6,0,P|473:54|421:30,1,100
331,12,75005,2,0,P|256:42|209:114,1,150
195,193,75755,2,0,P|185:243|126:296,1,100
128,323,76205,2,0,B|101:320|101:320|66:332,2,50,0|8|8,0:0|0:0|0:0,0:0:0:0:
220,361,76805,1,4,0:0:0:0:
120,194,86405,6,0,P|201:187|277:226,1,150
300,247,87005,1,0,0:0:0:0:
373,279,88205,1,0,0:0:0:0:
434,227,89405,1,0,0:0:0:0:
430,147,90605,5,0,0:0:0:0:
364,101,91805,1,0,0:0:0:0:
284,103,93005,1,0,0:0:0:0:
214,142,94205,1,0,0:0:0:0:
116,211,94805,6,0,P|91:238|81:271,2,50
176,290,95405,2,0,P|220:319|292:320,1,100,8|0,0:0|0:0,0:0:0:0:
355,281,96005,2,0,P|404:269|471:293,1,100,4|0,0:0|0:0,0:0:0:0:
508,197,96605,2,0,L|429:183,2,50
506,96,97205,6,0,P|478:56|421:32,1,100
333,24,97805,1,2,0:0:0:0:
237,52,98105,1,2,0:0:0:0:
156,110,98405,6,0,P|143:157|161:216,1,100
213,287,99005,1,2,0:0:0:0:
309,314,99305,1,2,0:0:0:0:
405,289,99605,6,0,P|439:254|453:194,1,100
463,106,100205,1,0,0:0:0:0:
388,39,100505,2,0,L|326:46,1,50
289,56,100805,2,0,P|241:74|208:116,1,100
159,196,101405,2,0,B|167:224|167:224|157:264,2,50,0|8|8,0:0|0:0|0:0,0:0:0:0:
62,166,102005,6,0,P|60:103|85:64,1,100,4|0,0:0|0:0,0:0:0:0:
156,9,102605,1,8,0:0:0:0:
255,7,102905,1,2,0:0:0:0:
349,38,103205,6,0,P|382:91|380:137,1,100,4|0,0:0|0:0,0:0:0:0:
359,224,103805,1,8,0:0:0:0:
307,309,104105,1,2,0:0:0:0:
214,345,104405,6,0,P|151:347|112:322,1,100,4|0,0:0|0:0,0:0:0:0:
48,259,105005,1,0,0:0:0:0:
28,160,105305,2,0,L|53:100,1,50
71,64,105605,6,0,P|120:57|186:76,1,100,4|0,0:0|0:0,0:0:0:0:
237,140,106205,2,0,L|297:140,2,50,0|8|8,0:0|0:0|0:0,0:0:0:0:
154,196,106805,2,0,P|127:242|142:317,1,100
169,378,107405,1,2,0:0:0:0:
368,363,108005,6,0,P|418:345|454:278,1,100
484,216,108605,1,2,0:0:0:0:
431,130,108905,1,8,0:0:0:0:
341,85,109205,6,8,L|291:81,1,50
209,140,109655,2,0,L|159:136,1,50
66,175,110105,1,0,0:0:0:0:
7,256,110405,6,0,P|36:305|86:325,1,100
172,335,111005,1,2,0:0:0:0:
268,308,111305,1,8,0:0:0:0:
353,255,111605,6,0,P|389:210|390:157,1,100
340,84,112205,1,2,0:0:0:0:
244,54,112505,1,8,0:0:0:0:
146,31,112805,6,0,P|90:41|54:81,1,100
36,167,113405,1,2,0:0:0:0:
62,263,113705,1,8,0:0:0:0:
135,330,114005,6,0,P|188:348|239:332,1,100
289,259,114605,2,0,L|353:259,2,50,0|8|8,0:0|0:0|0:0,0:0:0:0:
240,171,115205,6,0,P|188:159|128:163,1,100,4|0,0:0|0:0,0:0:0:0:
90,74,115805,2,0,L|16:74,2,50,0|8|8,0:0|0:0|0:0,0:0:0:0:
170,15,116405,2,0,P|217:6|282:23,1,100
361,51,117005,1,2,0:0:0:0:
436,116,117305,1,8,0:0:0:0:
471,209,117605,6,0,P|463:256|425:311,1,100
341,331,118205,1,2,0:0:0:0:
241,331,118505,1,8,0:0:0:0:
141,319,118805,6,0,P|99:295|60:240,1,100
50,156,119405,1,0,0:0:0:0:
85,62,119705,2,0,L|147:68,1,50
184,73,120005,6,0,B|235:85|235:85|275:142,1,100
323,202,120605,2,0,L|324:270,2,50,0|8|8,0:0|0:0|0:0,0:0:0:0:
411,155,121205,2,0,P|435:105|438:52,1,100
359,0,121805,1,2,0:0:0:0:
259,12,122105,1,8,0:0:0:0:
179,72,122405,6,0,P|155:121|152:175,1,100
177,262,123005,1,2,0:0:0:0:
267,305,123305,1,8,0:0:0:0:
364,280,123605,5,2,0:0:0:0:
436,211,123905,1,2,0:0:0:0:
489,126,124205,2,0,P|441:111|369:136,1,100
311,177,124805,6,0,P|263:192|191:167,1,100
143,113,125405,2,0,L|74:113,2,50,0|8|8,0:0|0:0|0:0,0:0:0:0:
207,36,126005,2,0,P|264:21|336:40,1,100
399,56,126605,1,2,0:0:0:0:
472,242,127205,6,0,P|415:257|343:238,1,100
280,222,127805,1,2,0:0:0:0:
201,162,128105,1,8,0:0:0:0:
170,68,128405,2,0,P|187:50|212:38,1,50
308,16,128855,2,0,P|333:15|369:21,1,50
435,90,129305,1,0,0:0:0:0:
477,180,129605,6,0,P|470:233|438:291,1,100
352,294,130205,2,0,L|352:244,2,50,0|8|8,0:0|0:0|0:0,0:0:0:0:
272,354,130805,2,0,P|213:366|157:349,1,100
85,313,131405,1,8,0:0:0:0:
29,229,131705,1,0,0:0:0:0:
12,130,132005,6,0,P|37:87|77:58,1,100
166,13,132605,1,8,0:0:0:0:
263,33,132905,1,0,0:0:0:0:
337,99,133205,2,0,B|302:149|316:195|316:195|237:155|169:171|135:260,1,300
106,328,134405,1,4,0:0:0:0:
229,149,144005,6,0,L|285:149,2,50
151,169,144605,2,0,P|104:215|86:274,1,100
90,325,145205,1,0,0:0:0:0:
243,369,145805,1,8,0:0:0:0:
397,326,146405,1,0,0:0:0:0:
472,184,147005,1,8,0:0:0:0:
352,79,147605,2,0,P|294:53|241:61,1,100
181,75,148205,1,8,0:0:0:0:
91,207,148805,6,0,L|48:264,2,50
171,206,149405,1,8,0:0:0:0:
311,281,150005,2,0,P|351:294|413:292,1,100
471,243,150605,1,8,0:0:0:0:
364,123,151205,6,0,L|236:111,1,100
214,176,151805,2,0,L|86:164,1,100
39,194,152405,1,0,0:0:0:0:
113,335,153005,1,8,0:0:0:0:
272,332,153605,6,0,L|348:329,2,50
213,277,154205,2,0,P|182:233|181:183,1,100
186,108,154805,1,0,0:0:0:0:
325,29,155405,1,0,0:0:0:0:
461,318,156605,5,0,0:0:0:0:
304,349,157205,2,0,P|247:352|178:318,1,100
145,286,157805,1,0,0:0:0:0:
99,220,158105,1,0,0:0:0:0:
86,140,158405,1,0,0:0:0:0:
151,39,158855,1,4,0:0:0:0:
230,34,159155,2,0,P|262:37|298:53,2,50
180,227,160205,5,0,0:0:0:0:
246,272,160505,1,0,0:0:0:0:
324,286,160805,1,0,0:0:0:0:
443,276,161255,2,0,L|498:260,1,50
465,186,161705,2,0,L|410:202,1,50
222,248,162605,5,8,0:0:0:0:
68,202,163205,1,0,0:0:0:0:
12,95,163655,2,0,P|30:47|75:4,1,100
182,2,164405,1,0,0:0:0:0:
331,58,165005,1,0,0:0:0:0:
436,317,166055,6,0,L|351:324,1,50
267,305,166655,2,0,L|185:312,1,50
137,314,167105,1,0,0:0:0:0:
67,276,167405,2,0,P|48:224|63:172,1,100
98,113,168005,1,0,0:0:0:0:
201,52,168455,1,4,0:0:0:0:
278,32,168755,2,0,P|310:32|342:38,2,50
204,218,169805,1,0,0:0:0:0:
256,192,170405,12,0,172805,0:0:0:0:
