osu file format v14

[General]
AudioFilename: audio.mp3
AudioLeadIn: 0
PreviewTime: 94355
Countdown: 0
SampleSet: None
StackLeniency: 0.7
Mode: 0
LetterboxInBreaks: 0
EpilepsyWarning: 1
WidescreenStoryboard: 1

[Editor]
Bookmarks: 14388,28610,42832,56166,57054
DistanceSpacing: 0.8
BeatDivisor: 4
GridSize: 16
TimelineZoom: 2.999999

[Metadata]
Title:fuego (sakuraburst remix)
TitleUnicode:fuego (sakuraburst remix)
Artist:KOAN Sound & Asa
ArtistUnicode:KOAN Sound & Asa
Creator:Shiirn
Version:Dreaming of Embers
Source:
Tags:weber jakomo73 side liiraye chaos nanobuilder
BeatmapID:1291369
BeatmapSetID:611806

[Difficulty]
HPDrainRate:5
CircleSize:4.4
OverallDifficulty:9
ApproachRate:9.4
SliderMultiplier:1.7
SliderTickRate:1

[Events]
//Background and Video events
0,0,"bg.jpg",0,0
//Break Periods
//Storyboard Layer 0 (Background)
//Storyboard Layer 1 (Fail)
//Storyboard Layer 2 (Pass)
//Storyboard Layer 3 (Foreground)
//Storyboard Sound Samples

[TimingPoints]
5,300,4,3,1,100,1,0
19205,-166.666666666667,4,3,1,15,0,0
19505,-166.666666666667,4,3,1,25,0,0
19655,-166.666666666667,4,3,1,20,0,0
19805,-166.666666666667,4,3,1,15,0,0
20105,-166.666666666667,4,3,1,10,0,0
20405,-166.666666666667,4,3,1,15,0,0
20705,-166.666666666667,4,3,1,25,0,0
20855,-166.666666666667,4,3,1,20,0,0
21005,-166.666666666667,4,3,1,15,0,0
21305,-166.666666666667,4,3,1,10,0,0
21605,-166.666666666667,4,3,1,15,0,0
21905,-166.666666666667,4,3,1,25,0,0
22055,-166.666666666667,4,3,1,20,0,0
22205,-166.666666666667,4,3,1,15,0,0
22505,-166.666666666667,4,3,1,10,0,0
22805,-166.666666666667,4,3,1,15,0,0
23105,-166.666666666667,4,3,1,25,0,0
23255,-166.666666666667,4,3,1,20,0,0
23405,-166.666666666667,4,3,1,15,0,0
23705,-166.666666666667,4,3,1,10,0,0
24005,-166.666666666667,4,3,1,15,0,0
24305,-166.666666666667,4,3,1,25,0,0
24455,-166.666666666667,4,3,1,20,0,0
24605,-166.666666666667,4,3,1,15,0,0
24905,-166.666666666667,4,3,1,10,0,0
25205,-166.666666666667,4,3,1,15,0,0
25505,-166.666666666667,4,3,1,25,0,0
25655,-166.666666666667,4,3,1,20,0,0
25805,-166.666666666667,4,3,1,15,0,0
26105,-166.666666666667,4,3,1,10,0,0
26405,-166.666666666667,4,3,1,15,0,0
26705,-166.666666666667,4,3,1,25,0,0
26855,-166.666666666667,4,3,1,15,0,0
27005,-166.666666666667,4,3,1,10,0,0
27305,-166.666666666667,4,3,1,15,0,0
27455,-166.666666666667,4,3,1,5,0,0
27605,-166.666666666667,4,3,1,15,0,0
27755,-166.666666666667,4,3,1,5,0,0
27905,-166.666666666667,4,3,1,15,0,0
28055,-166.666666666667,4,3,1,5,0,0
28205,-166.666666666667,4,3,1,15,0,0
28805,-133.333333333333,4,3,1,15,0,0
29255,-133.333333333333,4,3,1,20,0,0
29405,-133.333333333333,4,3,1,15,0,0
29705,-133.333333333333,4,3,1,10,0,0
30005,-133.333333333333,4,3,1,15,0,0
30455,-133.333333333333,4,3,1,20,0,0
30605,-133.333333333333,4,3,1,15,0,0
30905,-133.333333333333,4,3,1,10,0,0
31205,-133.333333333333,4,3,1,15,0,0
31655,-133.333333333333,4,3,1,20,0,0
31805,-133.333333333333,4,3,1,15,0,0
32105,-133.333333333333,4,3,1,10,0,0
32405,-133.333333333333,4,3,1,15,0,0
32855,-133.333333333333,4,3,1,20,0,0
33005,-133.333333333333,4,3,1,15,0,0
33305,-133.333333333333,4,3,1,10,0,0
33605,-133.333333333333,4,3,1,30,0,0
33905,-133.333333333333,4,3,1,15,0,0
34205,-133.333333333333,4,3,1,30,0,0
34505,-133.333333333333,4,3,1,15,0,0
34805,-133.333333333333,4,3,1,30,0,0
35105,-133.333333333333,4,3,1,15,0,0
35405,-133.333333333333,4,3,1,30,0,0
35705,-133.333333333333,4,3,1,15,0,0
36005,-133.333333333333,4,3,1,30,0,0
36155,-133.333333333333,4,3,1,15,0,0
36305,-133.333333333333,4,3,1,30,0,0
36455,-133.333333333333,4,3,1,15,0,0
36605,-133.333333333333,4,3,1,30,0,0
36755,-133.333333333333,4,3,1,15,0,0
36905,-133.333333333333,4,3,1,30,0,0
37055,-133.333333333333,4,3,1,15,0,0
37205,-100,4,3,1,55,0,0
81605,-166.666666666667,4,3,1,45,0,0
82355,-100,4,3,1,45,0,0
86405,-142.857142857143,4,3,1,45,0,0
89255,-100,4,3,1,45,0,0
93605,-133.333333333333,4,3,1,45,0,0
94355,-100,4,3,1,45,0,0
97205,-57.1428571428571,4,3,1,80,0,0
97805,-76.9230769230769,4,3,1,45,0,0
98405,-57.1428571428571,4,3,1,80,0,0
99005,-76.9230769230769,4,3,1,45,0,0
99605,-57.1428571428571,4,3,1,80,0,0
100205,-76.9230769230769,4,3,1,45,0,0
102005,-57.1428571428571,4,3,1,80,0,0
102605,-76.9230769230769,4,3,1,45,0,0
103205,-57.1428571428571,4,3,1,80,0,0
103805,-76.9230769230769,4,3,1,45,0,0
104405,-57.1428571428571,4,3,1,80,0,0
104555,-76.9230769230769,4,3,1,45,0,0
104705,-57.1428571428571,4,3,1,80,0,0
104855,-76.9230769230769,4,3,1,45,0,0
116405,-57.1428571428571,4,3,1,80,0,0
117005,-76.9230769230769,4,3,1,45,0,0
117605,-57.1428571428571,4,3,1,80,0,0
118205,-76.9230769230769,4,3,1,45,0,0
118805,-57.1428571428571,4,3,1,80,0,0
119405,-76.9230769230769,4,3,1,45,0,0
121205,-57.1428571428571,4,3,1,80,0,0
121805,-76.9230769230769,4,3,1,45,0,0
122405,-57.1428571428571,4,3,1,80,0,0
123005,-76.9230769230769,4,3,1,45,0,0
123605,-57.1428571428571,4,3,1,45,0,0
123905,-57.1428571428571,4,3,1,45,0,0
124205,-76.9230769230769,4,3,1,45,0,0
133805,-200,4,3,1,45,0,0
134855,-125,4,3,1,45,0,0
170480,-125,4,3,1,50,0,0
170630,-125,4,3,1,55,0,0
170855,-125,4,3,1,60,0,0
171005,-125,4,3,1,65,0,0
171155,-125,4,3,1,70,0,0
171305,-125,4,3,1,75,0,0
172205,-125,4,3,1,70,0,0
172280,-125,4,3,1,65,0,0
172355,-125,4,3,1,60,0,0
172430,-125,4,3,1,55,0,0
172505,-125,4,3,1,50,0,0
172580,-125,4,3,1,45,0,0
172655,-125,4,3,1,35,0,0
172730,-125,4,3,1,25,0,0
172805,-125,4,3,1,15,0,0

[Colours]
Combo1 : 113,89,166
Combo2 : 213,216,75
Combo3 : 240,149,104
Combo4 : 169,68,198

[HitObjects]
356,280,19205,6,0,L|268:223,1,101.999996887207
238,160,19655,1,0,0:0:0:0:
198,220,19805,1,0,0:0:0:0:
381,197,20105,1,0,3:3:0:0:
162,152,20405,6,0,L|129:250,1,101.999996887207,0|0,0:0|0:0,0:0:0:0:
76,297,20855,1,0,0:0:0:0:
144,320,21005,1,0,0:0:0:0:
205,93,21305,1,0,0:0:0:0:
209,353,21605,6,0,L|241:256,1,101.999996887207,0|0,0:0|0:0,0:0:0:0:
295,208,22055,1,0,0:0:0:0:
227,185,22205,1,0,0:0:0:0:
84,372,22505,1,0,0:0:0:0:
264,118,22805,6,0,P|198:114|160:151,1,101.999996887207,0|0,0:0|0:0,0:0:0:0:
240,256,23255,1,0,0:0:0:0:
227,185,23405,1,0,0:0:0:0:
412,303,23705,1,0,0:0:0:0:
69,245,24005,6,0,L|157:188,1,101.999996887207,0|0,0:0|0:0,0:0:0:0:
187,125,24455,1,0,0:0:0:0:
227,185,24605,1,0,0:0:0:0:
65,340,24905,1,0,0:0:0:0:
264,118,25205,6,0,P|241:70|192:50,1,101.999996887207,0|0,3:0|3:0,0:0:0:0:
123,168,25655,1,0,3:0:0:0:
187,125,25805,1,0,3:0:0:0:
316,260,26105,1,0,3:0:0:0:
123,168,26405,6,0,P|114:101|149:61,1,101.999996887207,0|0,3:0|3:0,0:0:0:0:
264,133,26855,1,0,3:0:0:0:
187,125,27005,1,0,3:0:0:0:
134,304,27305,6,0,L|196:278,1,50.9999984436036,0|0,0:0|0:0,0:0:0:0:
330,284,27605,2,0,L|378:304,1,50.9999984436036,0|0,0:0|0:0,0:0:0:0:
248,221,27905,2,0,L|308:210,1,50.9999984436036
434,253,28205,2,0,P|407:210|406:160,1,101.999996887207,0|0,0:0|0:0,0:0:0:0:
450,68,28805,6,0,P|412:131|284:106,1,191.250007295609,0|0,0:0|0:0,0:0:0:0:
220,76,29405,1,0,0:0:0:0:
216,80,29705,1,0,0:0:0:0:
272,304,30005,6,0,P|234:241|106:266,1,191.250007295609,0|0,0:0|0:0,0:0:0:0:
42,300,30605,1,0,0:0:0:0:
44,304,30905,1,0,0:0:0:0:
62,68,31205,6,0,P|100:131|228:106,1,191.250007295609,0|0,0:0|0:0,0:0:0:0:
292,76,31805,1,0,0:0:0:0:
296,80,32105,1,0,0:0:0:0:
240,304,32405,6,0,P|278:241|406:266,1,191.250007295609,0|0,0:0|0:0,0:0:0:0:
470,300,33005,1,0,0:0:0:0:
468,304,33305,1,0,0:0:0:0:
188,356,33605,6,0,P|158:294|176:232,1,127.500004863739,4|0,0:0|0:0,0:0:0:0:
220,157,34055,5,8,0:0:0:0:
367,331,34205,2,0,L|247:289,1,127.500004863739,4|0,0:0|0:0,0:0:0:0:
80,269,34655,5,8,0:0:0:0:
174,95,34805,2,0,P|145:174|172:217,1,127.500004863739,4|0,0:0|0:0,0:0:0:0:
246,288,35255,5,8,0:0:0:0:
289,49,35405,2,0,L|219:156,1,127.500004863739,4|0,0:0|0:0,0:0:0:0:
76,195,35855,5,8,0:0:0:0:
136,341,36005,2,0,L|106:270,1,63.7500024318696,4|0,0:0|0:0,0:0:0:0:
291,107,36305,2,0,L|321:178,1,63.7500024318696,4|0,0:0|0:0,0:0:0:0:
179,265,36605,2,0,L|149:194,1,63.7500024318696,4|0,0:0|0:0,0:0:0:0:
334,31,36905,2,0,L|364:102,1,63.7500024318696,4|0,0:0|0:0,0:0:0:0:
155,207,37205,6,0,P|111:179|75:183,1,85,12|0,0:0|0:0,0:0:0:0:
79,263,37430,1,0,0:0:0:0:
99,251,37505,1,8,0:0:0:0:
215,103,37655,5,2,0:0:0:0:
391,268,37805,1,2,0:0:0:0:
79,181,37955,1,8,0:0:0:0:
334,31,38105,1,4,0:0:0:0:
210,324,38255,1,10,0:0:0:0:
205,38,38405,6,0,P|150:89|272:138,1,255,4|0,0:1|0:0,0:0:0:0:
334,31,39005,1,2,0:0:0:0:
306,206,39155,1,0,0:0:0:0:
205,38,39305,2,0,L|125:8,1,85
82,152,39605,5,0,0:0:0:0:
280,344,39755,1,0,0:0:0:0:
334,31,39905,1,4,0:2:0:0:
149,245,40055,1,0,0:0:0:0:
455,236,40205,1,2,0:0:0:0:
461,229,40505,1,0,0:0:0:0:
466,222,40805,6,0,B|502:153|415:87|358:145|358:145|331:175|289:177|260:150,1,255,4|0,0:1|0:0,0:0:0:0:
408,190,41405,1,2,0:0:0:0:
164,235,41555,2,0,L|187:165,1,42.5,0|0,0:0|0:0,0:0:0:0:
299,49,41705,2,0,L|307:124,1,42.5
149,245,41855,2,0,P|137:206|166:150,1,85,0|0,0:0|0:0,0:0:0:0:
283,52,42155,5,0,0:0:0:0:
238,284,42305,2,0,L|196:192,1,85,4|0,0:2|0:0,0:0:0:0:
65,93,42605,1,2,0:0:0:0:
349,279,42755,1,0,0:0:0:0:
299,49,42905,2,0,P|270:62|299:58,1,85,0|2,0:0|0:2,0:0:0:0:
283,52,43205,6,0,B|231:47|253:127|311:115|311:115|373:99|382:186|313:180,1,255,4|0,0:1|0:0,0:0:0:0:
196,127,43805,1,2,0:0:0:0:
280,259,43955,2,0,B|273:258|273:258|281:292,1,42.5,0|0,0:0|0:0,0:0:0:0:
377,295,44105,2,0,B|383:290|383:290|350:280,1,42.5,0|0,0:0|0:0,0:0:0:0:
296,360,44255,2,0,B|299:368|299:368|325:345,1,42.5,0|0,0:0|0:0,0:0:0:0:
346,171,44555,5,0,0:0:0:0:
342,159,44630,1,0,0:0:0:0:
344,146,44705,1,0,0:0:0:0:
418,48,44855,1,0,0:0:0:0:
468,288,45005,1,2,0:0:0:0:
264,117,45155,1,0,0:0:0:0:
432,135,45305,1,0,0:0:0:0:
304,34,45455,1,0,0:0:0:0:
305,197,45605,5,4,0:0:0:0:
377,266,45755,2,0,P|338:238|407:242,1,170,8|0,0:0|0:0,0:0:0:0:
399,352,46205,1,2,0:0:0:0:
244,268,46355,1,0,0:0:0:0:
484,315,46505,2,0,L|453:237,1,42.5
392,358,46655,2,0,L|361:280,1,42.5,0|0,0:0|0:0,0:0:0:0:
12,133,46955,5,0,0:0:0:0:
9,116,47030,1,0,0:0:0:0:
16,99,47105,2,0,L|79:114,1,42.5,4|0,0:1|0:0,0:0:0:0:
123,182,47255,1,0,0:0:0:0:
127,198,47330,1,0,0:0:0:0:
125,215,47405,2,0,L|167:225,1,42.5,2|0,0:0|0:0,0:0:0:0:
346,276,47555,1,10,0:2:0:0:
106,297,47705,2,0,P|126:350|156:360,1,85,8|0,0:0|0:0,0:0:0:0:
415,291,48005,6,0,P|391:219|280:302,1,255,4|0,0:1|0:0,0:0:0:0:
399,362,48605,1,2,0:0:0:0:
236,160,48755,1,0,0:0:0:0:
345,276,48905,2,0,P|330:333|281:353,1,85,0|0,0:0|0:0,0:0:0:0:
96,144,49205,5,0,0:0:0:0:
351,176,49355,1,0,0:0:0:0:
74,132,49505,1,4,0:2:0:0:
276,286,49655,1,0,0:0:0:0:
55,117,49805,1,2,0:0:0:0:
42,99,50105,1,0,0:0:0:0:
32,80,50405,6,0,B|46:122|96:144|96:144|148:115|237:145|224:240,1,255,4|0,0:1|0:0,0:0:0:0:
246,332,51005,1,2,0:0:0:0:
138,224,51155,2,0,L|152:274,1,42.5,0|0,0:0|0:0,0:0:0:0:
73,359,51305,2,0,L|61:318,1,42.5,0|0,0:0|0:0,0:0:0:0:
142,210,51455,2,0,P|162:256|215:288,1,85,0|0,0:0|0:0,0:0:0:0:
333,320,51755,5,0,0:0:0:0:
81,162,51905,2,0,L|60:252,1,85,4|0,0:2|0:0,0:0:0:0:
73,359,52205,1,2,0:0:0:0:
173,109,52355,1,0,0:0:0:0:
317,314,52505,2,0,B|328:324|328:324|315:270|315:270|311:285,1,85,0|2,0:0|0:2,0:0:0:0:
224,344,52805,6,0,B|248:296|284:288|284:288|328:324|328:324|384:284|376:224,1,255,4|0,0:1|0:0,0:0:0:0:
341,42,53405,1,0,0:0:0:0:
196,57,53555,2,0,P|205:78|209:56,1,42.5,0|0,0:0|0:0,0:0:0:0:
207,155,53705,2,0,P|184:152|201:166,1,42.5,0|0,3:0|3:0,0:0:0:0:
116,115,53855,2,0,P|129:96|108:104,1,42.5,0|0,3:0|3:0,0:0:0:0:
487,194,54155,5,0,0:0:0:0:
480,199,54230,1,0,0:0:0:0:
476,208,54305,1,0,0:0:0:0:
422,87,54455,1,0,0:0:0:0:
320,316,54605,1,4,0:2:0:0:
341,42,54755,1,0,0:0:0:0:
239,211,54905,1,0,0:0:0:0:
483,132,55055,1,0,0:0:0:0:
453,280,55205,5,4,0:0:0:0:
325,291,55355,2,0,B|336:253|336:253|422:239|422:239|451:277,1,170,8|0,0:0|0:0,0:0:0:0:
429,383,55805,2,0,B|433:376|433:376|395:368,1,42.5,2|0,0:0|0:0,0:0:0:0:
261,346,55955,1,0,0:0:0:0:
377,227,56105,1,0,0:0:0:0:
78,226,56255,2,0,P|57:283|68:322,1,85,2|0,0:0|0:0,0:0:0:0:
377,227,56555,5,0,0:0:0:0:
190,368,56705,1,0,0:0:0:0:
262,212,56855,2,0,B|248:222|218:228,1,42.5
128,284,57005,1,2,0:0:0:0:
373,362,57155,1,8,0:0:0:0:
262,212,57305,1,4,0:0:0:0:
99,253,57455,1,0,0:2:0:0:
111,271,57530,1,2,0:2:0:0:
128,284,57605,6,0,B|177:304|249:272|262:212|262:212|218:236|151:232,1,255,4|0,0:1|0:0,0:0:0:0:
125,136,58205,1,2,0:0:0:0:
329,79,58355,1,0,0:0:0:0:
280,333,58505,2,0,P|233:303|213:270,1,85
125,136,58805,5,0,0:0:0:0:
315,221,58955,1,0,0:0:0:0:
40,196,59105,1,4,0:2:0:0:
192,32,59255,1,0,0:0:0:0:
280,333,59405,1,2,0:0:0:0:
287,343,59705,1,0,0:0:0:0:
294,353,60005,6,0,B|334:355|376:313|382:283|382:283|402:221|474:210|513:252,1,255
285,249,60605,1,2,0:0:0:0:
468,345,60755,2,0,L|456:304,1,42.5,0|0,0:0|0:0,0:0:0:0:
355,148,60905,2,0,L|367:189,1,42.5,0|0,0:0|0:0,0:0:0:0:
473,348,61055,2,0,P|441:376|401:372,1,85
209,175,61355,5,0,0:0:0:0:
338,81,61505,2,0,P|383:84|416:118,1,85,4|0,0:2|0:0,0:0:0:0:
417,304,61805,1,2,0:0:0:0:
198,303,61955,1,0,0:0:0:0:
215,96,62105,2,0,P|199:140|211:178,1,85,0|2,0:0|0:2,0:0:0:0:
215,96,62405,6,0,P|200:152|336:132,1,255,4|0,0:1|0:0,0:0:0:0:
296,36,63005,1,2,0:0:0:0:
409,236,63155,2,0,B|382:227|382:227|386:241,1,42.5,0|0,0:0|0:0,0:0:0:0:
471,279,63305,2,0,B|491:259|491:259|477:256,1,42.5,0|0,0:0|0:0,0:0:0:0:
402,310,63455,2,0,B|408:337|408:337|418:326,1,42.5,0|0,0:0|0:0,0:0:0:0:
268,138,63755,5,0,0:0:0:0:
261,128,63830,1,0,0:0:0:0:
254,117,63905,1,0,0:0:0:0:
342,26,64055,1,0,0:0:0:0:
385,224,64205,1,4,0:2:0:0:
218,222,64355,1,0,0:0:0:0:
488,128,64505,1,0,0:0:0:0:
342,26,64655,1,0,0:0:0:0:
246,138,64805,5,4,0:0:0:0:
210,307,64955,2,0,B|194:285|195:244|218:222|218:222|186:215|166:193|159:155,1,170,8|0,0:0|0:0,0:0:0:0:
216,6,65405,1,2,0:0:0:0:
269,270,65555,1,0,0:0:0:0:
321,164,65705,2,0,P|345:158|356:146,1,42.5,0|0,0:0|0:0,0:0:0:0:
452,218,65855,2,0,P|431:215|416:200,1,42.5
196,324,66155,5,0,0:0:0:0:
204,311,66230,1,0,0:0:0:0:
210,296,66305,2,0,P|184:288|162:291,1,42.5,4|0,0:1|0:0,0:0:0:0:
309,202,66455,1,0,0:0:0:0:
301,215,66530,1,0,0:0:0:0:
296,230,66605,2,0,P|274:230|255:223,1,42.5,2|0,0:0|0:0,0:0:0:0:
118,99,66755,1,10,0:2:0:0:
293,130,66905,2,0,P|347:137|376:170,1,85,8|0,0:0|0:0,0:0:0:0:
396,359,67205,6,0,P|301:368|163:281,1,255,4|0,0:1|0:0,0:0:0:0:
144,66,67805,1,2,0:0:0:0:
93,217,67955,1,0,0:0:0:0:
310,46,68105,2,0,L|290:139,1,85,0|0,0:0|0:0,0:0:0:0:
291,286,68405,5,0,0:0:0:0:
440,89,68555,1,0,0:0:0:0:
199,121,68705,1,4,0:2:0:0:
415,266,68855,1,0,0:0:0:0:
40,220,69005,1,2,0:0:0:0:
32,216,69305,1,0,0:0:0:0:
24,210,69605,6,0,B|-8:262|42:308|113:277|93:218|93:218|124:239|174:227|183:190,1,255,4|0,0:1|0:0,0:0:0:0:
213,50,70205,1,2,0:0:0:0:
110,123,70355,2,0,L|133:170,1,42.5,0|0,0:0|0:0,0:0:0:0:
267,234,70505,2,0,L|244:187,1,42.5
106,137,70655,2,0,P|88:193|106:240,1,85
232,377,70955,5,0,0:0:0:0:
335,270,71105,2,0,P|344:236|325:186,1,85,4|0,0:2|0:0,0:0:0:0:
213,50,71405,1,8,0:0:0:0:
267,234,71555,1,0,0:0:0:0:
456,139,71705,2,0,P|430:94|385:77,1,85,0|2,0:0|0:2,0:0:0:0:
456,139,72005,6,0,P|414:84|333:196,1,255,4|0,0:1|0:0,0:0:0:0:
434,265,72605,1,0,0:0:0:0:
185,280,72755,2,0,B|181:289|181:289|214:294,1,42.5,0|0,0:0|0:0,0:0:0:0:
182,197,72905,2,0,B|178:206|178:206|211:211,1,42.5,0|0,0:0|0:0,0:0:0:0:
179,114,73055,2,0,B|175:123|175:123|208:128,1,42.5,0|0,0:0|0:0,0:0:0:0:
366,95,73355,5,0,0:0:0:0:
372,105,73430,1,0,0:0:0:0:
375,115,73505,1,0,0:0:0:0:
182,197,73655,1,0,0:0:0:0:
384,217,73805,1,4,0:2:0:0:
118,260,73955,1,0,0:0:0:0:
406,329,74105,1,0,0:0:0:0:
248,375,74255,1,0,0:0:0:0:
198,303,74405,5,0,0:0:0:0:
332,367,74555,2,0,P|312:317|198:301,1,170,0|0,0:0|0:0,0:0:0:0:
120,377,75005,1,0,0:0:0:0:
67,150,75155,2,0,L|49:248,1,85,0|0,0:0|0:0,0:0:0:0:
4,358,75455,1,0,0:0:0:0:
154,139,75605,6,0,P|151:182|172:216,1,85,0|0,0:0|0:0,0:0:0:0:
448,337,75905,2,0,L|415:227,1,85,0|0,0:0|0:0,0:0:0:0:
222,160,76205,1,2,0:0:0:0:
255,350,76355,1,8,0:0:0:0:
347,247,76505,1,4,0:0:0:0:
147,242,76655,1,0,0:0:0:0:
127,326,76805,6,0,B|66:354|15:292|27:246|73:196|122:209|147:242|147:242|166:223|185:224|185:224|205:225|225:210,1,340
373,129,77555,2,0,P|336:109|296:117,1,85,0|0,0:0|0:0,0:0:0:0:
301,212,77855,1,0,0:0:0:0:
364,272,78005,2,0,L|293:112,1,170,0|0,0:0|0:0,0:0:0:0:
68,106,78605,5,2,0:2:0:0:
122,207,79655,2,0,P|137:168|174:147,1,85
224,87,80255,2,0,P|188:107|174:147,1,85
189,230,80705,2,0,L|174:147,1,85
351,88,81005,5,2,0:2:0:0:
419,48,81305,1,2,0:2:0:0:
495,85,81605,2,0,B|439:101|427:153|427:153|467:201|450:237|395:237|404:196|440:215,1,203.999993774414,2|0,0:2|0:0,0:0:0:0:
320,208,82355,6,0,L|316:260,1,42.5,0|0,0:0|0:0,0:0:0:0:
248,228,82505,2,0,L|244:280,1,42.5,0|0,0:0|0:0,0:0:0:0:
176,248,82655,2,0,L|172:300,1,42.5,0|0,0:0|0:0,0:0:0:0:
176,248,83405,5,2,0:2:0:0:
248,228,83705,1,2,0:2:0:0:
320,208,84005,1,2,0:2:0:0:
176,248,84905,6,0,L|144:208,1,42.5,2|0,0:2|0:0,0:0:0:0:
248,228,85055,2,0,L|216:188,1,42.5,0|0,0:0|0:0,0:0:0:0:
416,72,85355,6,0,L|404:124,1,42.5
84,168,85655,2,0,L|74:209,1,42.5
80,80,85805,2,0,P|136:56|224:112,1,170,0|0,0:0|0:0,0:0:0:0:
280,231,86255,1,0,0:0:0:0:
288,251,86330,1,0,0:0:0:0:
308,264,86405,6,0,B|248:256|192:284|192:284|136:264|76:288,1,237.999992736817,0|8,0:0|0:2,0:0:0:0:
0,226,87155,1,0,0:0:0:0:
172,140,87305,1,0,0:0:0:0:
276,344,87455,1,0,0:0:0:0:
140,203,87605,6,0,P|101:156|224:92,1,237.999992736817,0|2,0:0|0:2,0:0:0:0:
352,300,89255,2,0,P|312:280|268:280,1,85,0|0,0:0|0:0,0:0:0:0:
128,316,89705,1,0,0:0:0:0:
206,330,89855,2,0,P|235:299|286:274,1,85,0|0,0:0|0:0,0:0:0:0:
258,193,90305,2,0,L|271:277,1,85
286,367,90605,5,2,0:2:0:0:
358,315,90905,1,2,0:2:0:0:
446,310,91205,1,2,0:2:0:0:
98,152,91655,2,0,P|122:111|153:86,1,85,2|0,0:2|0:0,0:0:0:0:
211,188,91955,6,0,L|204:231,1,42.5,0|0,0:0|0:0,0:0:0:0:
311,205,92105,2,0,L|318:248,1,42.5,0|0,0:0|0:0,0:0:0:0:
276,109,92255,2,0,L|269:152,1,42.5
211,188,93005,5,2,0:2:0:0:
311,205,93305,1,2,0:2:0:0:
276,109,93605,2,0,B|269:182|330:194|377:184|383:133|383:133|388:88|340:94|380:47,1,255.000009727478,2|0,0:2|0:0,0:0:0:0:
207,102,94355,2,0,P|213:165|310:248,1,170
358,364,94805,5,0,0:0:0:0:
470,164,94955,1,0,0:0:0:0:
207,102,95105,1,8,0:0:0:0:
278,354,95255,1,4,0:3:0:0:
28,202,95405,1,10,0:0:0:0:
454,88,95555,2,0,P|394:148|446:236,1,170,4|0,0:0|0:0,0:0:0:0:
358,364,96005,6,0,B|364:338|346:324|346:324|376:291|346:248,1,127.5
292,184,96305,1,0,0:0:0:0:
486,275,96455,1,0,0:0:0:0:
240,284,96605,1,2,0:0:0:0:
156,80,96755,2,0,L|216:112,1,42.5,0|0,0:0|0:0,0:0:0:0:
365,132,96905,2,0,L|328:112,1,42.5
376,118,97205,6,0,L|268:120,1,74.3750007092953,0|0,2:0|2:0,0:0:0:0:
139,117,97355,2,0,L|233:99,1,74.3750007092953,0|0,2:0|2:0,0:0:0:0:
368,31,97505,2,0,L|305:88,1,74.3750007092953,0|0,2:0|2:0,0:0:0:0:
156,203,97655,2,0,L|214:139,1,74.3750007092953,0|0,2:0|2:0,0:0:0:0:
293,59,97805,5,2,0:0:0:0:
380,247,97955,1,2,0:2:0:0:
84,202,98105,2,0,P|88:238|173:272,1,110.499994941712,0|2,0:0|0:2,0:0:0:0:
337,192,98405,6,0,P|314:223|316:267,1,74.3750007092953,0|0,2:0|2:0,0:0:0:0:
429,298,98555,2,0,P|449:262|446:227,1,74.3750007092953,0|0,2:0|2:0,0:0:0:0:
246,246,98705,2,0,P|275:312|326:320,1,74.3750007092953,0|0,2:0|2:0,0:0:0:0:
512,240,98855,2,0,P|483:174|432:166,1,74.3750007092953,0|0,2:0|2:0,0:0:0:0:
320,68,99005,5,2,0:0:0:0:
380,247,99155,1,2,0:2:0:0:
221,353,99305,2,0,L|251:223,1,110.499994941712,0|2,0:0|0:2,0:0:0:0:
247,53,99605,6,0,L|297:107,1,74.3750007092953,0|0,2:0|2:0,0:0:0:0:
189,169,99755,2,0,L|158:102,1,74.3750007092953,0|0,2:0|2:0,0:0:0:0:
58,122,99905,2,0,L|68:195,1,74.3750007092953,0|0,2:0|2:0,0:0:0:0:
74,323,100055,1,2,2:0:0:0:
53,333,100130,1,2,2:0:0:0:
31,330,100205,6,0,P|69:291|136:303,1,110.499994941712,2|0,0:0|0:0,0:0:0:0:
350,318,100505,1,2,0:2:0:0:
223,359,100655,1,2,0:2:0:0:
94,363,100805,6,0,L|109:188,1,165.749992412568,4|0,0:0|0:0,0:0:0:0:
187,65,101105,2,0,L|202:240,1,165.749992412568,8|0,0:0|0:0,0:0:0:0:
223,359,101405,5,2,0:0:0:0:
263,67,101555,2,0,L|318:77,1,55.2499974708558
409,159,101705,2,0,L|354:149,1,55.2499974708558
431,142,102005,6,0,L|331:164,1,74.3750007092953,0|0,2:0|2:0,0:0:0:0:
222,192,102155,2,0,L|322:214,1,74.3750007092953,0|0,2:0|2:0,0:0:0:0:
379,298,102305,2,0,L|357:198,1,74.3750007092953,0|0,2:0|2:0,0:0:0:0:
310,68,102455,2,0,L|288:168,1,74.3750007092953,0|0,2:0|2:0,0:0:0:0:
260,285,102605,5,2,0:0:0:0:
159,117,102755,1,2,0:2:0:0:
43,245,102905,2,0,P|77:287|138:280,1,110.499994941712,0|2,0:0|0:2,0:0:0:0:
412,213,103205,6,0,L|312:235,1,74.3750007092953,0|0,2:0|2:0,0:0:0:0:
200,280,103355,2,0,L|291:254,1,74.3750007092953,0|0,2:0|2:0,0:0:0:0:
431,254,103505,2,0,L|360:224,1,74.3750007092953,0|0,2:0|2:0,0:0:0:0:
190,197,103655,2,0,L|269:228,1,74.3750007092953,0|0,2:0|2:0,0:0:0:0:
393,319,103805,5,2,0:0:0:0:
248,93,103955,1,2,0:2:0:0:
409,68,104105,2,0,P|375:112|301:110,1,110.499994941712,0|2,0:0|0:2,0:0:0:0:
51,210,104405,6,0,L|129:196,1,74.3750007092953,0|0,2:0|2:0,0:0:0:0:
271,176,104555,2,0,L|216:170,1,55.2499974708558,0|0,2:0|2:0,0:0:0:0:
39,281,104705,2,0,L|117:267,1,74.3750007092953,0|0,2:0|2:0,0:0:0:0:
224,269,104855,1,2,0:2:0:0:
224,269,104930,1,2,0:2:0:0:
224,269,105005,5,2,0:0:0:0:
344,333,105155,2,0,P|325:283|344:223,1,110.499994941712,0|0,0:0|0:0,0:0:0:0:
512,86,105455,1,8,0:2:0:0:
406,184,105605,5,8,0:2:0:0:
495,285,105755,2,0,P|448:260|399:280,1,110.499994941712,0|8,0:0|0:2,0:0:0:0:
275,170,106055,1,8,0:3:0:0:
469,162,106205,2,0,P|433:120|357:139,1,110.499994941712,2|8,0:0|0:2,0:0:0:0:
462,31,106505,1,8,0:0:0:0:
462,31,106805,5,0,0:0:0:0:
469,162,106955,2,0,P|366:131|366:224,1,220.999989883423
420,277,107405,2,0,B|410:302|381:299|381:299|337:313|299:296|299:296|276:296|258:328,1,165.749992412568,2|0,0:0|0:0,0:0:0:0:
456,44,107855,1,0,0:0:0:0:
462,31,108005,5,0,0:0:0:0:
469,162,108155,2,0,P|366:131|366:224,1,220.999989883423
420,277,108605,2,0,P|373:305|301:273,1,110.499994941712,2|0,0:0|0:0,0:0:0:0:
140,156,108905,1,0,0:0:0:0:
256,192,109055,1,0,0:0:0:0:
428,50,109205,5,0,0:0:0:0:
469,162,109355,2,0,P|366:131|366:224,1,220.999989883423
491,380,109805,1,2,1:3:0:0:
263,303,110105,1,0,0:0:0:0:
265,292,110255,1,0,0:0:0:0:
272,372,110405,6,0,L|208:144,1,220.999989883423,4|0,0:2|0:0,0:0:0:0:
152,66,110855,1,0,0:0:0:0:
160,224,111005,2,0,P|256:232|296:168,1,165.749992412568,2|0,0:0|2:0,0:0:0:0:
152,66,111305,2,0,L|215:164,1,110.499994941712,0|2,0:0|0:2,0:0:0:0:
370,249,111605,6,0,L|358:177,1,55.2499974708558,0|0,2:0|2:0,0:0:0:0:
410,97,111755,2,0,L|422:169,1,55.2499974708558,0|0,2:0|2:0,0:0:0:0:
486,237,111905,2,0,L|422:213,1,55.2499974708558,0|0,2:0|2:0,0:0:0:0:
286,105,112055,2,0,L|350:129,1,55.2499974708558,0|0,2:0|2:0,0:0:0:0:
438,29,112205,6,0,P|454:125|518:149,1,165.749992412568,2|0,0:0|0:0,0:0:0:0:
370,249,112505,2,0,P|302:249|278:281,1,110.499994941712,0|2,0:0|0:2,0:0:0:0:
192,344,112805,6,0,L|176:276,1,55.2499974708558,0|0,2:0|2:0,0:0:0:0:
112,248,112955,2,0,L|88:304,1,55.2499974708558,0|0,2:0|2:0,0:0:0:0:
176,188,113105,2,0,L|160:120,1,55.2499974708558,0|0,2:0|2:0,0:0:0:0:
268,88,113255,2,0,L|244:144,1,55.2499974708558,0|0,2:0|2:0,0:0:0:0:
244,248,113405,6,0,P|296:268|372:204,1,165.749992412568,2|0,0:0|0:0,0:0:0:0:
455,140,113705,2,0,P|403:120|347:136,1,110.499994941712,0|2,0:0|0:2,0:0:0:0:
176,188,114005,6,0,L|160:120,1,55.2499974708558,0|0,2:0|2:0,0:0:0:0:
46,206,114155,2,0,P|70:194|98:197,1,55.2499974708558,0|0,2:0|2:0,0:0:0:0:
294,195,114305,2,0,P|270:207|242:204,1,55.2499974708558,0|0,2:0|2:0,0:0:0:0:
84,268,114455,1,2,0:2:0:0:
92,300,114530,1,2,0:2:0:0:
116,316,114605,2,0,P|172:304|232:308,1,110.499994941712,2|0,0:0|0:0,0:0:0:0:
397,335,114905,1,4,0:0:0:0:
492,112,115055,1,8,0:0:0:0:
316,40,115205,6,0,P|284:88|349:162,1,165.749992412568,0|0,0:0|0:0,0:0:0:0:
411,188,115505,2,0,L|350:96,1,110.499994941712
120,78,115805,1,2,0:0:0:0:
245,275,115955,2,0,P|259:239|244:190,1,55.2499974708558
294,322,116105,2,0,P|317:292|317:240,1,55.2499974708558,0|0,0:0|0:0,0:0:0:0:
338,319,116405,6,0,P|313:287|330:227,1,74.3750007092953,0|0,2:0|2:0,0:0:0:0:
406,147,116555,2,0,P|426:173|420:218,1,74.3750007092953,0|0,2:0|2:0,0:0:0:0:
244,293,116705,2,0,P|225:255|235:212,1,74.3750007092953,0|0,2:0|2:0,0:0:0:0:
498,208,116855,2,0,P|505:251|495:290,1,74.3750007092953,0|0,2:0|2:0,0:0:0:0:
407,363,117005,5,2,0:0:0:0:
201,106,117155,1,2,0:2:0:0:
406,147,117305,2,0,P|346:160|294:200,1,110.499994941712,0|2,0:0|0:2,0:0:0:0:
161,365,117605,6,0,P|165:322|143:277,1,74.3750007092953,0|0,2:0|2:0,0:0:0:0:
0,315,117755,2,0,L|113:350,1,74.3750007092953,0|0,2:0|2:0,0:0:0:0:
208,232,117905,2,0,L|95:197,1,74.3750007092953,0|0,2:0|2:0,0:0:0:0:
45,182,118055,2,0,P|43:227|63:270,1,74.3750007092953,0|0,2:0|2:0,0:0:0:0:
222,317,118205,5,2,0:0:0:0:
107,119,118355,1,2,0:2:0:0:
310,22,118505,2,0,P|342:80|352:134,1,110.499994941712,0|2,0:0|0:2,0:0:0:0:
453,276,118805,6,0,L|410:336,1,74.3750007092953,0|0,2:0|2:0,0:0:0:0:
275,156,118955,2,0,L|319:217,1,74.3750007092953,0|0,2:0|2:0,0:0:0:0:
222,317,119105,2,0,L|178:256,1,74.3750007092953,0|0,2:0|2:0,0:0:0:0:
59,258,119255,1,2,2:0:0:0:
74,238,119330,1,2,2:0:0:0:
88,219,119405,1,2,0:0:0:0:
65,99,119555,6,0,P|101:78|192:73,1,110.499994941712,0|2,0:0|0:2,0:0:0:0:
278,94,119855,1,2,0:2:0:0:
407,276,120005,6,0,P|378:182|300:165,1,165.749992412568,4|0,0:0|0:0,0:0:0:0:
165,267,120305,2,0,P|242:292|314:255,1,165.749992412568,8|0,0:0|0:0,0:0:0:0:
406,93,120605,1,2,0:0:0:0:
168,68,120755,2,0,L|158:122,1,55.2499974708558
242,181,120905,2,0,L|254:113,1,55.2499974708558
271,203,121205,6,0,L|239:123,1,74.3750007092953,0|0,2:0|2:0,0:0:0:0:
192,20,121355,2,0,L|184:96,1,74.3750007092953,0|0,2:0|2:0,0:0:0:0:
164,228,121505,2,0,L|128:152,1,74.3750007092953,0|0,2:0|2:0,0:0:0:0:
96,24,121655,2,0,L|80:108,1,74.3750007092953,0|0,2:0|2:0,0:0:0:0:
48,240,121805,5,2,0:0:0:0:
359,337,121955,1,2,0:2:0:0:
356,116,122105,2,0,P|316:172|348:224,1,110.499994941712,0|2,0:0|0:2,0:0:0:0:
435,338,122405,6,0,P|422:297|387:264,1,74.3750007092953,0|0,2:0|2:0,0:0:0:0:
97,223,122555,2,0,P|120:195|155:182,1,74.3750007092953,0|0,2:0|2:0,0:0:0:0:
326,205,122705,2,0,P|297:184|260:176,1,74.3750007092953,0|0,2:0|2:0,0:0:0:0:
33,378,122855,2,0,P|36:341|51:308,1,74.3750007092953,0|0,2:0|2:0,0:0:0:0:
254,372,123005,5,2,0:0:0:0:
23,236,123155,1,2,0:2:0:0:
102,86,123305,2,0,P|158:82|206:122,1,110.499994941712,0|2,0:0|0:2,0:0:0:0:
428,168,123605,6,0,P|396:200|384:236,1,74.3750007092953,0|0,2:0|2:0,0:0:0:0:
440,360,123755,2,0,P|428:316|403:287,1,74.3750007092953,0|0,2:0|2:0,0:0:0:0:
267,274,123905,2,0,P|310:285|347:278,1,74.3750007092953,0|0,2:0|2:0,0:0:0:0:
484,232,124055,1,2,0:2:0:0:
497,219,124130,1,2,0:2:0:0:
501,200,124205,5,2,0:0:0:0:
458,83,124355,2,0,P|404:107|336:99,1,110.499994941712,0|0,0:0|0:0,0:0:0:0:
210,69,124655,1,8,0:2:0:0:
77,137,124805,5,8,0:2:0:0:
7,0,124955,2,0,L|117:29,1,110.499994941712,0|8,0:0|0:2,0:0:0:0:
258,156,125255,1,8,0:3:0:0:
42,81,125405,2,0,L|152:110,1,110.499994941712,2|0,0:0|0:2,0:0:0:0:
71,295,125705,1,8,0:0:0:0:
8,177,126005,5,0,0:0:0:0:
149,110,126155,2,0,P|112:197|189:288,1,220.999989883423,0|0,0:0|0:0,0:0:0:0:
279,329,126605,2,0,B|305:293|336:294|336:294|321:255|321:255|353:235|353:205,1,165.749992412568,2|0,0:0|0:0,0:0:0:0:
423,273,127055,1,0,0:0:0:0:
413,269,127205,5,0,0:0:0:0:
149,110,127355,2,0,P|112:197|189:288,1,220.999989883423
279,329,127805,2,0,B|305:293|336:294|368:294|395:253,1,110.499994941712,2|0,0:0|0:0,0:0:0:0:
415,112,128105,1,0,0:0:0:0:
459,212,128255,1,0,0:0:0:0:
307,143,128405,5,0,0:0:0:0:
487,292,128555,2,0,P|400:199|308:222,1,220.999989883423,0|0,0:0|0:0,0:0:0:0:
23,322,129005,1,2,1:3:0:0:
132,183,129305,1,0,0:0:0:0:
149,197,129455,1,0,0:0:0:0:
27,126,129605,6,0,L|250:204,1,220.999989883423,4|0,0:1|0:0,0:0:0:0:
431,123,130055,1,0,0:0:0:0:
348,359,130205,1,2,0:0:0:0:
269,77,130355,1,0,0:0:0:0:
456,237,130505,2,0,L|441:369,1,110.499994941712,0|2,0:0|0:2,0:0:0:0:
371,286,130805,6,0,P|349:266|318:241,1,55.2499974708558,0|0,2:0|2:0,0:0:0:0:
383,156,130955,2,0,P|353:172|316:165,1,55.2499974708558,0|0,2:0|2:0,0:0:0:0:
269,77,131105,2,0,P|267:102|245:136,1,55.2499974708558,0|0,2:0|2:0,0:0:0:0:
179,176,131255,2,0,L|125:184,1,55.2499974708558,0|0,2:0|2:0,0:0:0:0:
18,276,131405,5,2,0:0:0:0:
254,213,131555,1,0,0:0:0:0:
87,74,131705,2,0,P|132:104|185:84,1,110.499994941712,0|2,0:0|0:2,0:0:0:0:
384,36,132005,6,0,P|399:58|408:93,1,55.2499974708558,0|0,2:0|2:0,0:0:0:0:
409,173,132155,2,0,P|403:208|391:233,1,55.2499974708558,0|0,2:0|2:0,0:0:0:0:
354,294,132305,2,0,P|325:321|307:326,1,55.2499974708558,0|0,2:0|2:0,0:0:0:0:
234,341,132455,2,0,P|189:344|174:341,1,55.2499974708558,0|0,2:0|2:0,0:0:0:0:
88,309,132605,5,2,0:0:0:0:
231,150,132755,1,0,0:0:0:0:
445,274,132905,2,0,P|467:237|485:160,1,110.499994941712,0|2,0:0|0:2,0:0:0:0:
295,62,133205,5,0,0:0:0:0:
285,54,133805,6,0,B|302:89|290:124|290:124|321:117|321:117|313:151|320:184,1,170,0|4,0:0|0:1,0:0:0:0:
229,334,134855,6,0,P|189:304|148:294,1,68,0|2,0:0|0:2,0:0:0:0:
86,298,135155,1,0,0:0:0:0:
229,334,135305,2,0,L|250:256,1,68
272,166,135605,6,0,P|354:241|246:268,1,272,0|8,0:0|0:2,0:0:0:0:
42,305,137255,5,0,0:0:0:0:
110,255,137405,2,0,L|135:179,1,68,8|0,0:2|0:0,0:0:0:0:
65,317,137855,5,0,0:0:0:0:
154,202,138005,2,0,L|133:267,1,68
159,353,138305,1,0,0:0:0:0:
241,317,138455,1,0,0:0:0:0:
330,343,138605,2,0,P|353:314|351:263,1,68,8|0,0:2|0:0,0:0:0:0:
245,116,138905,1,0,0:0:0:0:
209,70,139205,6,0,L|220:106,1,34,2|0,0:2|0:0,0:0:0:0:
141,78,139355,2,0,L|145:112,1,34,2|2,0:2|0:2,0:0:0:0:
89,166,139505,1,0,0:0:0:0:
184,263,139655,2,0,L|212:201,1,68,0|8,0:0|0:2,0:0:0:0:
353,120,139955,6,0,L|365:160,1,34
428,124,140105,2,0,L|440:164,1,34
503,128,140255,2,0,L|515:168,1,34
234,232,141005,5,8,0:2:0:0:
234,232,142205,5,8,0:2:0:0:
437,156,142505,2,0,L|428:124,1,34
362,152,142655,2,0,L|353:120,1,34
405,257,142955,2,0,L|395:224,1,34
256,179,143255,2,0,L|246:146,1,34
278,252,143405,2,0,P|187:223|139:253,1,136,8|0,0:2|0:0,0:0:0:0:
123,341,144005,5,2,0:2:0:0:
133,337,144080,1,0,0:0:0:0:
144,335,144155,1,2,0:2:0:0:
156,334,144230,1,2,0:2:0:0:
167,335,144305,1,0,0:0:0:0:
278,359,144455,5,0,0:0:0:0:
283,365,144605,1,8,0:2:0:0:
350,295,144755,2,0,L|366:224,1,68
313,70,145055,2,0,L|297:141,1,68
300,143,145805,5,8,0:2:0:0:
306,148,146855,5,0,0:0:0:0:
364,228,147005,2,0,L|350:295,1,68,8|0,0:2|0:0,0:0:0:0:
347,120,147455,5,0,0:0:0:0:
390,266,147605,2,0,L|405:200,1,68
365,358,147905,1,0,0:0:0:0:
274,309,148055,1,0,0:0:0:0:
151,350,148205,2,0,P|170:312|167:274,1,68,8|0,0:2|0:0,0:0:0:0:
58,99,148805,5,2,0:2:0:0:
58,99,148880,1,0,0:0:0:0:
58,99,148955,1,2,0:2:0:0:
58,99,149030,1,2,0:2:0:0:
58,99,149105,1,0,0:0:0:0:
159,159,149255,5,0,0:0:0:0:
209,101,149405,2,0,P|153:82|123:90,1,68
233,177,149705,1,2,0:2:0:0:
238,182,149855,1,0,0:0:0:0:
82,136,150155,5,0,0:0:0:0:
145,82,150305,2,0,P|179:84|209:101,1,68,2|0,0:2|0:0,0:0:0:0:
188,275,150605,2,0,P|149:230|165:150,1,136,8|2,0:2|0:2,0:0:0:0:
300,78,151205,6,0,L|435:50,1,136
505,102,151655,1,0,0:0:0:0:
368,141,151805,2,0,L|434:127,1,68,8|0,0:2|0:0,0:0:0:0:
507,179,152105,1,0,0:0:0:0:
440,252,152255,1,0,0:0:0:0:
446,351,152405,6,0,L|311:323,1,136
254,243,152855,1,0,0:0:0:0:
440,252,153005,1,8,0:2:0:0:
248,239,153455,5,0,0:0:0:0:
332,141,153605,1,2,0:2:0:0:
332,141,153680,1,0,0:0:0:0:
332,141,153755,1,2,0:2:0:0:
332,141,153830,1,2,0:2:0:0:
332,141,153905,1,0,0:0:0:0:
415,239,154055,6,0,P|400:203|404:163,1,68
379,35,154355,2,0,P|394:71|390:111,1,68
317,218,154655,1,0,0:0:0:0:
473,194,154805,2,0,P|410:225|379:302,1,136
224,114,155405,5,2,0:2:0:0:
167,328,156455,5,0,0:0:0:0:
211,266,156605,2,0,P|202:224|220:178,1,68,2|0,0:2|0:0,0:0:0:0:
321,99,157055,5,0,0:0:0:0:
273,162,157205,2,0,P|282:204|264:250,1,68,0|0,0:2|0:0,0:0:0:0:
211,266,157505,1,0,0:0:0:0:
167,328,157655,1,0,0:0:0:0:
132,263,157805,5,2,0:2:0:0:
276,227,158105,1,2,0:2:0:0:
420,191,158405,1,2,0:2:0:0:
207,152,158855,6,0,L|233:70,1,68
420,191,159155,2,0,L|408:242,1,34
348,211,159305,2,0,L|336:262,1,34
276,227,159455,2,0,L|264:278,1,34
276,227,160205,5,2,0:2:0:0:
348,211,160505,1,2,0:2:0:0:
420,191,160805,1,2,0:2:0:0:
348,211,161255,5,2,0:2:0:0:
420,191,161405,2,0,P|433:158|414:110,1,68,2|0,0:2|0:0,0:0:0:0:
348,54,161705,2,0,L|334:102,1,34
250,114,161855,2,0,L|286:147,1,34
245,98,162155,6,0,P|218:180|277:225,1,170
361,242,162605,5,2,0:2:0:0:
367,250,163205,5,2,0:2:0:0:
252,353,163655,2,0,P|271:326|257:265,1,68,0|2,0:0|0:2,0:0:0:0:
360,182,163955,2,0,L|368:267,1,68
189,234,164255,2,0,L|206:314,1,68
402,98,165005,5,2,0:2:0:0:
105,292,166055,6,0,L|100:204,1,68,0|2,0:0|0:2,0:0:0:0:
94,210,166655,6,0,L|97:277,1,68,0|2,0:0|0:2,0:0:0:0:
90,286,167105,1,0,0:0:0:0:
114,363,167255,1,0,0:0:0:0:
94,197,167405,5,2,0:2:0:0:
167,125,167705,1,2,0:2:0:0:
265,146,168005,1,2,0:2:0:0:
167,125,168455,6,0,P|183:179|213:204,1,68,2|0,0:2|0:0,0:0:0:0:
350,256,168755,2,0,L|366:211,1,34
416,161,168905,2,0,L|424:206,1,34
469,264,169055,2,0,L|481:232,1,34
115,249,169805,5,2,0:2:0:0:
118,257,170105,5,2,0:2:0:0:
256,192,170480,12,0,171567,0:0:0:0:
256,192,171605,12,2,172805,0:2:0:0:
