osu file format v14

[General]
AudioFilename: audio.mp3
AudioLeadIn: 0
PreviewTime: 94355
Countdown: 0
SampleSet: None
StackLeniency: 0.4
Mode: 0
LetterboxInBreaks: 0
EpilepsyWarning: 1
WidescreenStoryboard: 1

[Editor]
Bookmarks: 19194,28794,33594,38394,57594,76794,95994,115205,134394,153605,172794
DistanceSpacing: 2.2
BeatDivisor: 4
GridSize: 4
TimelineZoom: 2.599999

[Metadata]
Title:fuego (sakuraburst remix)
TitleUnicode:fuego (sakuraburst remix)
Artist:KOAN Sound & Asa
ArtistUnicode:KOAN Sound & Asa
Creator:Shiirn
Version:Chaos' Insane
Source:
Tags:weber jakomo73 side liiraye chaos nanobuilder
BeatmapID:1291374
BeatmapSetID:611806

[Difficulty]
HPDrainRate:5
CircleSize:4
OverallDifficulty:7.3
ApproachRate:8.8
SliderMultiplier:1.7
SliderTickRate:1

[Events]
//Background and Video events
0,0,"bg.jpg",0,0
//Break Periods
//Storyboard Layer 0 (Background)
//Storyboard Layer 1 (Fail)
//Storyboard Layer 2 (Pass)
//Storyboard Layer 3 (Foreground)
//Storyboard Sound Samples

[TimingPoints]
5,300,4,3,1,100,1,0
19205,-125,4,3,1,15,0,0
19505,-125,4,3,1,25,0,0
19655,-125,4,3,1,20,0,0
19805,-125,4,3,1,15,0,0
20105,-125,4,3,1,10,0,0
20405,-125,4,3,1,15,0,0
20705,-125,4,3,1,25,0,0
20855,-125,4,3,1,20,0,0
21005,-125,4,3,1,15,0,0
21305,-125,4,3,1,10,0,0
21605,-125,4,3,1,15,0,0
21905,-125,4,3,1,25,0,0
22055,-125,4,3,1,20,0,0
22205,-125,4,3,1,15,0,0
22505,-125,4,3,1,10,0,0
22805,-125,4,3,1,15,0,0
23105,-125,4,3,1,25,0,0
23255,-125,4,3,1,20,0,0
23405,-125,4,3,1,15,0,0
23705,-125,4,3,1,10,0,0
24005,-125,4,3,1,15,0,0
24305,-125,4,3,1,25,0,0
24455,-125,4,3,1,20,0,0
24605,-125,4,3,1,15,0,0
24905,-125,4,3,1,10,0,0
25205,-125,4,3,1,15,0,0
25505,-125,4,3,1,25,0,0
25655,-125,4,3,1,20,0,0
25805,-125,4,3,1,15,0,0
26105,-125,4,3,1,10,0,0
26405,-125,4,3,1,15,0,0
26705,-125,4,3,1,25,0,0
26855,-125,4,3,1,20,0,0
27005,-125,4,3,1,15,0,0
27305,-125,4,3,1,10,0,0
27605,-125,4,3,1,15,0,0
27905,-125,4,3,1,25,0,0
28055,-125,4,3,1,20,0,0
28205,-125,4,3,1,15,0,0
28505,-125,4,3,1,10,0,0
28805,-125,4,3,1,15,0,0
29105,-125,4,3,1,25,0,0
29255,-125,4,3,1,20,0,0
29405,-125,4,3,1,15,0,0
29705,-125,4,3,1,10,0,0
30005,-125,4,3,1,15,0,0
30305,-125,4,3,1,25,0,0
30455,-125,4,3,1,20,0,0
30605,-125,4,3,1,15,0,0
30905,-125,4,3,1,10,0,0
31205,-125,4,3,1,15,0,0
31505,-125,4,3,1,25,0,0
31655,-125,4,3,1,20,0,0
31805,-125,4,3,1,15,0,0
32105,-125,4,3,1,10,0,0
32405,-125,4,3,1,15,0,0
32705,-125,4,3,1,25,0,0
32855,-125,4,3,1,20,0,0
33005,-125,4,3,1,15,0,0
33305,-125,4,3,1,10,0,0
33605,-100,4,3,1,15,0,0
36005,-142.857142857143,4,3,1,15,0,0
36305,-125,4,3,1,15,0,0
36605,-111.111111111111,4,3,1,15,0,0
36905,-99.9999999999999,4,3,1,15,0,0
37205,-99.9999999999999,4,3,1,45,0,0
37655,-99.9999999999999,4,3,1,45,0,0
38405,-125,4,3,1,45,0,0
39455,-100,4,3,1,45,0,0
39755,-125,4,3,1,45,0,0
40805,-125,4,3,1,45,0,0
41405,-125,4,3,1,45,0,0
41555,-83.3333333333333,4,3,1,45,0,0
43205,-125,4,3,1,45,0,0
44105,-83.3333333333333,4,3,1,45,0,0
45605,-83.3333333333333,4,3,1,45,0,0
48005,-125,4,3,1,45,0,0
51155,-83.3333333333333,4,3,1,45,0,0
52805,-125,4,3,1,45,0,0
54605,-83.3333333333333,4,3,1,45,0,0
57605,-125,4,3,1,45,0,0
58655,-100,4,3,1,45,0,0
58955,-125,4,3,1,45,0,0
60755,-83.3333333333333,4,3,1,45,0,0
62405,-125,4,3,1,45,0,0
63305,-83.3333333333333,4,3,1,45,0,0
67205,-125,4,3,1,45,0,0
70355,-83.3333333333333,4,3,1,45,0,0
72005,-125,4,3,1,45,0,0
73805,-83.3333333333333,4,3,1,45,0,0
76805,-125,4,3,1,45,0,0
82505,-83.3333333333333,4,3,1,45,0,0
84005,-125,4,3,1,45,0,0
96005,-100,4,3,1,45,0,0
97205,-100,4,3,1,80,0,0
97805,-100,4,3,1,45,0,0
98405,-100,4,3,1,80,0,0
99005,-100,4,3,1,45,0,0
99605,-100,4,3,1,80,0,0
100055,-83.3333333333333,4,3,1,80,0,0
100205,-83.3333333333333,4,3,1,45,0,0
100505,-83.3333333333333,4,3,1,45,0,0
101255,-100,4,3,1,45,0,0
102005,-100,4,3,1,80,0,0
102605,-100,4,3,1,45,0,0
103205,-100,4,3,1,80,0,0
103805,-100,4,3,1,45,0,0
104405,-100,4,3,1,80,0,0
104555,-100,4,3,1,45,0,0
104705,-100,4,3,1,80,0,0
104855,-100,4,3,1,45,0,0
109805,-83.3333333333333,4,3,1,45,0,0
110405,-100,4,3,1,45,0,0
116405,-100,4,3,1,80,0,0
117005,-100,4,3,1,45,0,0
117605,-100,4,3,1,80,0,0
118205,-100,4,3,1,45,0,0
118805,-100,4,3,1,80,0,0
119255,-83.3333333333333,4,3,1,80,0,0
119405,-83.3333333333333,4,3,1,45,0,0
121205,-100,4,3,1,80,0,0
121805,-100,4,3,1,45,0,0
122405,-100,4,3,1,80,0,0
123005,-100,4,3,1,45,0,0
129005,-83.3333333333333,4,3,1,45,0,0
129605,-100,4,3,1,45,0,0
133355,-153.846153846154,4,3,1,45,0,0
134855,-125,4,3,1,45,0,0
139205,-83.3333333333333,4,3,1,45,0,0
139805,-76.9230769230769,4,3,1,45,0,0
142505,-100,4,3,1,45,0,0
142805,-166.666666666667,4,3,1,45,0,0
144005,-83.3333333333333,4,3,1,45,0,0
146855,-125,4,3,1,45,0,0
147905,-100,4,3,1,45,0,0
148805,-83.3333333333333,4,3,1,45,0,0
149705,-100,4,3,1,45,0,0
153605,-100,4,3,0,45,0,0
154055,-125,4,3,1,45,0,0
157505,-100,4,3,1,45,0,0
161705,-125,4,3,1,45,0,0
166955,-166.666666666667,4,3,1,45,0,0
170480,-166.666666666667,4,3,1,50,0,0
170630,-166.666666666667,4,3,1,55,0,0
170855,-166.666666666667,4,3,1,60,0,0
171005,-166.666666666667,4,3,1,65,0,0
171155,-166.666666666667,4,3,1,70,0,0
171305,-166.666666666667,4,3,1,75,0,0
172205,-166.666666666667,4,3,1,70,0,0
172280,-166.666666666667,4,3,1,65,0,0
172355,-166.666666666667,4,3,1,60,0,0
172430,-166.666666666667,4,3,1,55,0,0
172505,-166.666666666667,4,3,1,50,0,0
172580,-166.666666666667,4,3,1,45,0,0
172655,-166.666666666667,4,3,1,35,0,0
172730,-166.666666666667,4,3,1,25,0,0
172805,-166.666666666667,4,3,1,15,0,0

[Colours]
Combo1 : 113,89,166
Combo2 : 235,225,101
Combo3 : 228,116,175
Combo4 : 169,68,198

[HitObjects]
151,319,19205,38,0,P|228:326|283:269,1,136
281,274,19655,1,0,0:0:0:0:
287,254,19805,1,0,0:0:0:0:
161,129,20105,1,0,3:3:0:0:
161,129,20255,1,0,0:0:0:0:
161,129,20405,6,0,P|221:86|288:88,1,136,0|0,0:0|0:0,0:0:0:0:
299,94,20855,1,0,0:0:0:0:
317,103,21005,1,0,0:0:0:0:
422,261,21305,1,0,0:0:0:0:
422,261,21455,1,0,0:0:0:0:
422,261,21605,22,0,L|438:115,1,136
438,105,22055,1,0,0:0:0:0:
440,84,22205,1,0,0:0:0:0:
279,187,22505,1,0,0:0:0:0:
279,187,22655,1,0,0:0:0:0:
279,187,22805,22,0,B|174:200|174:200|151:233,1,136
148,243,23255,1,0,0:0:0:0:
139,261,23405,1,0,0:0:0:0:
311,340,23705,1,0,0:0:0:0:
311,340,23855,1,0,0:0:0:0:
311,340,24005,6,0,B|394:353|442:280,1,136
444,278,24455,1,0,0:0:0:0:
454,260,24605,1,0,0:0:0:0:
420,72,24905,1,0,0:0:0:0:
420,72,25055,1,0,0:0:0:0:
420,72,25205,22,0,B|345:49|345:49|276:49,1,136,0|0,3:0|3:0,0:0:0:0:
266,49,25655,1,0,3:0:0:0:
245,49,25805,1,0,3:0:0:0:
175,226,26105,1,0,3:0:0:0:
175,226,26255,1,0,0:0:0:0:
175,226,26405,38,0,P|112:180|82:115,1,136,0|0,3:0|3:0,0:0:0:0:
80,109,26855,1,0,3:0:0:0:
76,88,27005,1,0,3:0:0:0:
19,269,27305,1,0,0:0:0:0:
19,269,27455,1,0,0:0:0:0:
19,269,27605,22,0,P|72:321|155:298,1,136
148,309,28055,1,0,0:0:0:0:
167,301,28205,1,0,0:0:0:0:
350,251,28505,1,0,0:0:0:0:
350,251,28655,1,0,0:0:0:0:
350,251,28805,6,0,L|366:105,1,136,0|0,0:0|0:0,0:0:0:0:
366,95,29255,1,0,0:0:0:0:
368,74,29405,1,0,0:0:0:0:
458,241,29705,1,0,0:0:0:0:
458,241,29855,1,0,0:0:0:0:
458,241,30005,22,0,P|436:318|388:352,1,136
374,357,30455,1,0,0:0:0:0:
354,361,30605,1,0,0:0:0:0:
192,260,30905,1,0,0:0:0:0:
192,260,31055,1,0,0:0:0:0:
192,260,31205,38,0,B|149:230|130:255|98:278|60:251,1,136
44,244,31655,1,0,0:0:0:0:
27,232,31805,1,0,0:0:0:0:
83,36,32105,1,0,0:0:0:0:
83,36,32255,1,0,0:0:0:0:
83,36,32405,22,0,B|178:36|178:36|207:68,1,136
216,84,32855,1,0,0:0:0:0:
225,102,33005,1,0,0:0:0:0:
353,146,33305,1,0,0:0:0:0:
481,190,33605,6,0,P|461:66|424:29,1,170,4|0,0:0|0:0,0:0:0:0:
353,146,34055,1,8,0:0:0:0:
353,146,34205,2,0,P|273:48|223:35,1,170
220,171,34655,1,8,0:0:0:0:
220,171,34805,2,0,P|299:268|349:281,1,170,4|0,0:0|0:0,0:0:0:0:
92,127,35255,1,8,0:0:0:0:
92,127,35405,2,0,P|112:251|149:288,1,170,4|0,0:0|0:0,0:0:0:0:
92,348,35855,1,8,0:0:0:0:
92,348,36005,6,0,P|135:328|150:293,1,59.4999981842042,4|0,0:0|0:0,0:0:0:0:
245,325,36305,2,0,P|272:286|265:246,1,68,4|0,0:0|0:0,0:0:0:0:
387,252,36605,2,0,P|391:204|361:171,1,76.4999976654053,4|0,0:0|0:0,0:0:0:0:
488,120,36905,2,0,P|467:77|420:62,1,85,4|0,0:0|0:0,0:0:0:0:
263,73,37205,1,12,0:0:0:0:
263,73,37655,5,2,0:0:0:0:
294,260,37805,1,8,0:0:0:0:
333,194,37955,1,4,0:0:0:0:
404,167,38105,1,4,0:0:0:0:
220,189,38255,1,10,0:0:0:0:
419,263,38405,6,0,P|408:327|361:300,1,136,4|0,0:1|0:0,0:0:0:0:
348,108,38855,1,0,0:0:0:0:
286,204,39005,1,2,0:0:0:0:
463,157,39155,1,0,0:0:0:0:
419,263,39305,1,0,0:0:0:0:
419,263,39455,2,0,P|394:302|368:335,1,85
113,267,39755,6,0,L|181:294,1,68,0|4,0:0|0:2,0:0:0:0:
173,215,40055,2,0,L|241:242,1,68,0|2,0:0|0:0,0:0:0:0:
296,188,40505,2,0,L|233:163,1,68
425,234,40805,6,0,P|427:168|376:185,1,136,4|0,0:1|0:0,0:0:0:0:
308,288,41255,1,0,0:0:0:0:
308,288,41405,1,2,0:0:0:0:
180,203,41555,2,0,L|152:252,1,50.9999984436036
159,181,41705,2,0,L|104:195,1,50.9999984436036
159,150,41855,2,0,L|110:121,1,50.9999984436036,0|0,0:0|0:0,0:0:0:0:
180,127,42005,5,0,0:0:0:0:
281,242,42155,1,0,0:0:0:0:
280,49,42305,1,4,0:2:0:0:
364,172,42455,2,0,L|410:193,2,50.9999984436036,0|0|2,0:0|0:0|0:0,0:0:0:0:
180,127,42755,1,0,0:0:0:0:
281,242,42905,1,0,0:0:0:0:
104,265,43205,6,0,P|99:330|151:315,1,136,4|0,0:1|0:0,0:0:0:0:
205,225,43655,1,0,0:0:0:0:
340,90,43805,1,2,0:0:0:0:
191,112,43955,1,0,0:0:0:0:
362,159,44105,2,0,P|397:134|411:77,1,101.999996887207
428,284,44555,5,0,0:0:0:0:
428,284,44630,1,0,0:0:0:0:
428,284,44705,1,0,0:0:0:0:
308,308,44855,1,0,0:0:0:0:
188,332,45005,2,0,B|131:343|131:343|89:319,2,101.999996887207,2|0|0,0:0|0:0|0:0,0:0:0:0:
72,163,45605,5,4,0:0:0:0:
72,163,45755,2,0,B|108:117|164:122,1,101.999996887207,8|0,0:0|0:0,0:0:0:0:
235,310,46055,1,0,0:0:0:0:
272,140,46205,1,2,0:0:0:0:
163,246,46355,1,0,0:0:0:0:
336,215,46505,2,4,L|386:199,1,50.9999984436036,0|0,0:0|0:0,0:0:0:0:
367,249,46655,2,4,L|417:233,1,50.9999984436036,0|0,0:0|0:0,0:0:0:0:
394,277,46955,6,0,B|338:297|338:297|295:296,2,101.999996887207,0|4|0,0:0|0:1|0:0,0:0:0:0:
471,144,47405,1,2,0:0:0:0:
455,347,47555,1,10,0:2:0:0:
400,186,47705,2,0,P|360:154|309:146,1,101.999996887207,8|0,0:0|0:0,0:0:0:0:
289,229,48005,6,0,P|352:243|323:288,1,136,4|0,0:1|0:0,0:0:0:0:
214,339,48455,1,0,0:0:0:0:
75,214,48605,1,2,0:0:0:0:
177,243,48755,2,0,L|167:161,1,68,0|0,0:0|0:0,0:0:0:0:
269,193,49055,1,0,0:0:0:0:
252,78,49205,6,0,L|265:40,2,34,0|0|0,0:0|0:0|0:0,0:0:0:0:
355,156,49505,1,4,0:2:0:0:
404,29,49655,1,0,0:0:0:0:
431,196,49805,21,2,0:0:0:0:
480,69,50105,1,0,0:0:0:0:
430,287,50405,6,0,P|429:352|378:332,1,136,4|0,0:1|0:0,0:0:0:0:
347,236,50855,1,0,0:0:0:0:
266,366,51005,1,2,0:0:0:0:
239,182,51155,2,0,L|271:140,1,50.9999984436036,0|0,0:0|0:0,0:0:0:0:
210,171,51305,2,0,L|202:118,1,50.9999984436036,0|0,0:0|0:0,0:0:0:0:
181,183,51455,2,0,L|137:151,1,50.9999984436036,0|0,0:0|0:0,0:0:0:0:
170,212,51605,5,0,0:0:0:0:
70,328,51755,2,0,P|121:359|173:346,1,101.999996887207,0|4,0:0|0:2,0:0:0:0:
265,272,52055,2,0,L|285:226,2,50.9999984436036,0|0|2,0:0|0:0|0:0,0:0:0:0:
348,368,52355,1,0,0:0:0:0:
420,238,52505,1,0,0:0:0:0:
429,130,52805,6,0,P|430:64|379:82,1,136,4|0,0:1|0:0,0:0:0:0:
296,163,53255,1,0,0:0:0:0:
159,56,53405,1,2,0:0:0:0:
159,56,53555,1,0,0:0:0:0:
118,187,53705,2,0,P|99:233|71:258,1,68,0|0,3:0|3:0,0:0:0:0:
58,126,54155,5,0,0:0:0:0:
58,126,54230,1,0,0:0:0:0:
58,126,54305,1,0,0:0:0:0:
222,167,54455,1,0,0:0:0:0:
266,44,54605,2,0,L|363:7,2,101.999996887207,2|0|0,0:0|0:0|0:0,0:0:0:0:
415,140,55205,5,4,0:0:0:0:
415,140,55355,2,0,B|409:195|409:195|375:237,1,101.999996887207,8|0,0:0|0:0,0:0:0:0:
283,159,55655,1,0,0:0:0:0:
156,241,55805,2,0,B|107:285|112:335,2,101.999996887207,2|0|0,0:0|0:0|0:0,0:0:0:0:
308,228,56255,1,0,0:0:0:0:
213,55,56555,6,0,B|235:52|235:52|300:85|339:48,1,101.999996887207,0|0,0:0|0:0,0:0:0:0:
446,43,56855,1,0,0:0:0:0:
304,153,57005,1,2,0:0:0:0:
416,127,57155,1,8,0:0:0:0:
386,211,57305,2,0,P|338:250|293:256,1,101.999996887207,4|0,0:0|0:2,0:0:0:0:
119,145,57605,6,0,P|111:80|164:93,1,136,4|0,0:1|0:0,0:0:0:0:
175,222,58055,1,0,0:0:0:0:
252,110,58205,1,2,0:0:0:0:
272,264,58355,1,0,0:0:0:0:
340,159,58505,1,0,0:0:0:0:
340,159,58655,2,0,P|380:138|421:125,1,85
225,89,58955,6,0,L|203:165,1,68,0|4,0:0|0:2,0:0:0:0:
147,107,59255,2,0,L|125:183,1,68,0|2,0:0|0:0,0:0:0:0:
50,190,59705,2,0,L|69:125,1,68
94,348,60005,6,0,P|109:284|55:291,1,136,4|0,0:1|0:0,0:0:0:0:
202,250,60455,1,0,0:0:0:0:
253,353,60605,1,2,0:0:0:0:
327,197,60755,2,0,L|390:212,1,50.9999984436036,0|0,0:0|0:0,0:0:0:0:
331,161,60905,2,0,L|386:127,1,50.9999984436036,0|0,0:0|0:0,0:0:0:0:
308,132,61055,2,0,L|323:69,1,50.9999984436036,0|0,0:0|0:0,0:0:0:0:
271,127,61205,5,0,0:0:0:0:
202,250,61355,2,0,P|167:206|166:157,1,101.999996887207,0|4,0:0|0:2,0:0:0:0:
222,55,61655,2,0,L|260:20,2,50.9999984436036,0|0|2,0:0|0:0|0:0,0:0:0:0:
87,226,61955,1,0,0:0:0:0:
256,176,62105,1,0,0:0:0:0:
316,309,62405,6,0,P|377:330|376:276,1,136,4|0,0:1|0:0,0:0:0:0:
327,153,62855,1,0,0:0:0:0:
434,213,63005,1,2,0:0:0:0:
408,44,63155,1,0,0:0:0:0:
253,136,63305,2,0,P|291:86|336:78,1,101.999996887207
177,230,63755,5,0,0:0:0:0:
177,230,63830,1,0,0:0:0:0:
177,230,63905,1,0,0:0:0:0:
128,75,64055,1,0,0:0:0:0:
91,212,64205,2,0,B|98:269|98:269|134:308,2,101.999996887207,2|0|0,0:0|0:0|0:0,0:0:0:0:
380,268,64805,5,0,0:0:0:0:
380,268,64955,2,0,B|380:311|367:352|323:374,1,101.999996887207
160,335,65255,1,0,0:0:0:0:
237,167,65405,1,2,0:0:0:0:
288,288,65555,1,0,0:0:0:0:
350,154,65705,2,0,L|361:105,1,50.9999984436036
392,144,65855,2,0,L|403:95,1,50.9999984436036
434,134,66155,6,0,B|419:193|419:193|369:225,2,101.999996887207,0|4|0,0:0|0:1|0:0,0:0:0:0:
390,299,66605,1,2,0:0:0:0:
305,114,66755,1,10,0:2:0:0:
253,236,66905,1,8,0:0:0:0:
80,271,67205,6,0,P|70:335|123:324,1,136,4|0,0:1|0:0,0:0:0:0:
253,236,67655,1,0,0:0:0:0:
253,236,67805,2,0,L|275:300,1,68,2|0,0:0|0:0,0:0:0:0:
328,116,68105,1,0,0:0:0:0:
379,221,68255,1,0,0:0:0:0:
443,100,68405,6,0,L|431:141,2,34,0|0|0,0:0|0:0|0:0,0:0:0:0:
243,123,68705,1,4,0:2:0:0:
362,65,68855,1,0,0:0:0:0:
224,242,69005,21,2,0:0:0:0:
343,184,69305,1,0,0:0:0:0:
421,332,69605,6,0,P|455:276|402:265,1,136,4|0,0:1|0:0,0:0:0:0:
285,384,70055,1,0,0:0:0:0:
312,231,70205,1,2,0:0:0:0:
165,284,70355,2,0,L|202:318,1,50.9999984436036,0|0,0:0|0:0,0:0:0:0:
133,295,70505,2,0,L|135:345,1,50.9999984436036
99,290,70655,2,0,L|64:327,1,50.9999984436036
72,270,70805,5,0,0:0:0:0:
209,148,70955,1,0,0:0:0:0:
239,295,71105,1,4,0:2:0:0:
116,159,71255,2,0,L|68:145,2,50.9999984436036,0|0|2,0:0|0:0|0:0,0:0:0:0:
231,58,71555,1,0,0:0:0:0:
269,206,71705,1,0,0:0:0:0:
316,70,72005,6,0,P|377:49|375:103,1,136,4|0,0:1|0:0,0:0:0:0:
334,199,72455,1,0,0:0:0:0:
469,126,72605,1,2,0:0:0:0:
441,301,72755,1,0,0:0:0:0:
313,297,72905,2,0,L|375:264,1,68
139,320,73355,5,0,0:0:0:0:
139,320,73430,1,0,0:0:0:0:
139,320,73505,1,0,0:0:0:0:
51,216,73655,1,0,0:0:0:0:
53,80,73805,2,0,B|91:36|91:36|140:25,2,101.999996887207,2|0|0,0:0|0:0|0:0,0:0:0:0:
118,190,74405,5,0,0:0:0:0:
118,190,74555,2,0,B|161:218|161:218|212:208,1,101.999996887207
327,141,74855,1,0,0:0:0:0:
238,106,75005,2,0,P|183:81|134:93,1,101.999996887207,2|0,0:0|0:0,0:0:0:0:
305,228,75305,2,0,P|360:253|409:241,1,101.999996887207
468,136,75605,5,0,0:0:0:0:
365,165,75755,1,0,0:0:0:0:
456,7,75905,1,0,0:0:0:0:
144,135,76205,5,0,0:0:0:0:
247,105,76355,1,0,0:0:0:0:
156,264,76505,1,0,0:0:0:0:
77,269,76805,6,0,P|150:343|225:302,1,204
425,305,77555,1,0,0:0:0:0:
425,305,77705,2,0,L|469:249,2,68
128,213,78605,6,0,B|158:251|158:251|181:296|210:298|233:303,1,136,2|0,0:2|0:0,0:0:0:0:
356,174,79655,6,0,L|376:94,1,68
176,53,80255,2,0,L|156:133,1,68
190,276,80705,1,0,0:0:0:0:
353,206,81005,1,2,0:2:0:0:
382,233,81305,1,2,0:2:0:0:
411,260,81605,6,0,P|408:341|307:324,1,204,2|0,0:2|0:0,0:0:0:0:
217,214,82205,1,0,0:0:0:0:
217,214,82355,1,0,0:0:0:0:
138,109,82505,2,0,B|116:77|116:77|119:44|119:44|100:7,1,101.999996887207,0|0,0:0|0:0,0:0:0:0:
274,75,83405,5,2,0:2:0:0:
457,113,83705,1,2,0:2:0:0:
323,178,84005,2,0,B|276:253|305:351|305:351|377:297|402:294,1,272,2|0,0:2|0:0,0:0:0:0:
451,198,84755,1,0,0:0:0:0:
451,198,84905,2,0,L|412:132,1,68,2|0,0:2|0:0,0:0:0:0:
457,50,85355,2,0,L|492:109,1,68
271,89,85805,1,0,0:0:0:0:
109,45,86405,6,0,P|23:71|42:166,1,204,0|0,0:0|0:0,0:0:0:0:
213,187,87005,1,0,0:2:0:0:
141,142,87155,2,0,L|77:106,2,68
168,309,87605,1,0,0:0:0:0:
377,326,88205,6,0,B|383:268|439:261|439:261|463:226,1,136,2|0,0:2|0:0,0:0:0:0:
225,335,89255,6,0,L|186:252,1,68
44,247,89855,2,0,L|82:164,1,68
129,62,90305,1,0,0:0:0:0:
243,214,90605,1,2,0:2:0:0:
271,184,90905,1,2,0:2:0:0:
306,163,91205,6,0,P|408:163|417:261,1,204,2|0,0:2|0:0,0:0:0:0:
320,294,91805,1,0,0:0:0:0:
431,328,91955,2,0,P|476:309|496:279,2,68,0|0|0,0:0|0:0|0:0,0:0:0:0:
242,333,92555,1,0,0:0:0:0:
358,216,92705,1,0,0:0:0:0:
182,224,93005,5,2,0:2:0:0:
51,126,93305,1,2,0:2:0:0:
263,79,93605,2,0,B|290:33|323:31|323:31|344:44|344:44|369:32|369:32|383:45|383:45|393:54|419:40|419:40|435:63,1,204,2|0,0:2|0:2,0:2:0:0:
347,236,94205,1,0,0:0:0:0:
471,124,94355,1,0,0:0:0:0:
272,167,94655,1,0,0:0:0:0:
177,61,94805,5,0,0:0:0:0:
177,61,94955,1,0,0:0:0:0:
71,156,95105,1,8,0:0:0:0:
71,156,95255,1,0,0:0:0:0:
166,262,95405,1,10,0:0:0:0:
166,262,95555,2,0,L|236:232,1,68,4|0,0:0|0:0,0:0:0:0:
454,337,96005,6,0,L|363:314,1,85
411,160,96305,2,0,L|359:234,1,85,0|0,0:0|0:0,0:0:0:0:
469,241,96605,1,2,0:0:0:0:
290,330,96755,1,0,0:0:0:0:
307,131,96905,1,0,0:0:0:0:
126,170,97205,6,0,L|120:224,1,42.5,0|0,2:0|2:0,0:0:0:0:
173,173,97355,2,0,L|167:227,1,42.5,0|0,2:0|2:0,0:0:0:0:
220,176,97505,2,0,L|214:230,1,42.5,0|0,2:0|2:0,0:0:0:0:
267,179,97655,2,0,L|261:233,1,42.5,0|0,2:0|2:0,0:0:0:0:
314,182,97805,1,2,0:0:0:0:
324,310,97955,1,2,0:2:0:0:
412,162,98105,1,0,0:0:0:0:
355,80,98405,6,0,L|361:26,1,42.5,0|0,2:0|2:0,0:0:0:0:
308,76,98555,2,0,L|314:22,1,42.5,0|0,2:0|2:0,0:0:0:0:
261,74,98705,2,0,L|267:20,1,42.5,0|0,2:0|2:0,0:0:0:0:
214,71,98855,2,0,L|220:16,1,42.5,0|0,2:0|2:0,0:0:0:0:
167,68,99005,1,2,0:0:0:0:
241,178,99155,1,2,0:2:0:0:
74,216,99305,1,0,0:0:0:0:
100,318,99605,6,0,L|94:372,1,42.5,0|0,2:0|2:0,0:0:0:0:
147,321,99755,2,0,L|153:267,1,42.5,0|0,2:0|2:0,0:0:0:0:
194,324,99905,2,0,L|188:378,1,42.5,0|0,2:0|2:0,0:0:0:0:
241,327,100055,22,0,L|247:273,2,50.9999984436036,2|2|2,2:0|2:0|0:0,0:0:0:0:
365,207,100355,1,0,0:0:0:0:
384,275,100505,2,0,P|435:210|426:175,1,101.999996887207,2|4,0:2|0:0,0:0:0:0:
349,67,100805,6,0,B|274:67|216:31|216:31|242:69|238:103,1,203.999993774414,4|8,0:0|0:0,0:0:0:0:
197,255,101255,1,0,0:0:0:0:
295,143,101405,1,2,0:0:0:0:
294,330,101555,1,0,0:0:0:0:
295,143,101705,1,0,0:0:0:0:
111,107,102005,6,0,L|162:121,1,42.5,0|0,2:0|2:0,0:0:0:0:
103,153,102155,2,0,L|154:167,1,42.5,0|0,2:0|2:0,0:0:0:0:
95,199,102305,2,0,L|146:213,1,42.5,0|0,2:0|2:0,0:0:0:0:
86,245,102455,2,0,L|137:259,1,42.5,0|0,2:0|2:0,0:0:0:0:
78,291,102605,1,2,0:0:0:0:
215,222,102755,1,2,0:2:0:0:
158,384,102905,1,0,0:0:0:0:
378,315,103205,6,0,L|327:301,1,42.5,0|0,2:0|2:0,0:0:0:0:
386,269,103355,2,0,L|335:255,1,42.5,0|0,2:0|2:0,0:0:0:0:
394,223,103505,2,0,L|343:209,1,42.5,0|0,2:0|2:0,0:0:0:0:
403,177,103655,2,0,L|352:163,1,42.5,0|0,2:0|2:0,0:0:0:0:
410,130,103805,1,2,0:0:0:0:
456,11,103955,1,2,0:2:0:0:
298,74,104105,1,0,0:0:0:0:
117,41,104405,5,0,2:0:0:0:
117,41,104555,1,0,2:0:0:0:
99,198,104705,2,0,P|126:151|163:132,1,85,0|2,0:0|0:2,0:0:0:0:
171,128,104930,1,2,0:2:0:0:
192,125,105005,1,2,0:0:0:0:
317,149,105155,1,0,0:0:0:0:
318,25,105305,1,0,0:0:0:0:
318,25,105455,1,8,0:2:0:0:
409,142,105605,5,8,0:2:0:0:
409,142,105755,2,0,L|358:218,2,85,0|8|8,0:0|0:2|0:3,0:0:0:0:
255,218,106205,2,0,L|302:147,1,85,2|0,0:0|0:0,0:0:0:0:
148,223,106505,1,8,0:2:0:0:
86,115,106805,21,0,0:0:0:0:
14,160,106955,1,0,0:0:0:0:
124,45,107105,5,0,0:0:0:0:
52,0,107255,1,0,0:0:0:0:
165,112,107405,5,2,0:0:0:0:
391,89,108005,21,0,0:0:0:0:
463,43,108155,1,0,0:0:0:0:
352,159,108305,5,0,0:0:0:0:
424,204,108455,1,0,0:0:0:0:
312,92,108605,5,2,0:0:0:0:
237,131,108755,1,0,0:0:0:0:
153,35,108905,2,0,P|104:49|87:95,1,85,0|0,0:0|0:0,0:0:0:0:
66,243,109205,6,0,L|55:328,1,85
173,178,109655,1,0,0:0:0:0:
275,232,109805,2,0,B|328:268|328:268|362:260|362:260|408:288,2,152.999995330811,2|0|0,1:3|0:0|0:0,0:0:0:0:
271,116,110405,6,0,P|304:70|350:53,1,85,4|0,0:1|0:0,0:0:0:0:
336,173,110705,2,0,P|392:178|430:209,1,85,0|0,0:0|0:0,0:0:0:0:
356,266,111005,1,2,0:0:0:0:
142,251,111305,1,0,0:0:0:0:
136,267,111380,1,0,0:0:0:0:
130,283,111455,1,2,0:2:0:0:
124,299,111530,1,0,0:0:0:0:
118,315,111605,6,0,P|187:310|223:321,1,85,0|0,2:0|2:0,0:0:0:0:
320,346,111905,1,0,2:0:0:0:
320,346,112055,2,0,P|328:284|359:246,1,85,0|2,2:0|0:0,0:0:0:0:
400,323,112355,1,0,0:0:0:0:
450,151,112505,2,0,B|421:102|421:102|376:83,1,85,0|2,0:0|0:2,0:0:0:0:
268,44,112805,6,0,L|288:138,1,85,0|0,2:0|2:0,0:0:0:0:
161,84,113105,1,0,2:0:0:0:
161,84,113255,2,0,L|131:172,1,85,0|2,2:0|0:0,0:0:0:0:
44,107,113555,1,0,0:0:0:0:
102,245,113705,2,0,P|160:266|187:269,1,85,0|2,0:0|0:2,0:0:0:0:
368,221,114005,6,0,L|283:197,1,85,0|0,2:0|2:0,0:0:0:0:
463,201,114305,2,0,L|439:286,1,85,0|2,2:0|2:2,0:0:0:0:
421,128,114605,21,2,0:0:0:0:
367,310,114755,1,0,0:0:0:0:
376,97,114905,1,0,0:0:0:0:
328,258,115055,1,2,0:0:0:0:
330,65,115205,38,0,B|269:55|269:55|237:27|200:20|151:35,1,170
80,67,115655,1,0,0:0:0:0:
50,211,115805,1,2,0:0:0:0:
190,158,115955,1,0,0:0:0:0:
160,302,116105,1,0,0:0:0:0:
335,325,116405,6,0,L|373:358,1,42.5,0|0,2:0|2:0,0:0:0:0:
377,307,116555,2,0,L|415:340,1,42.5,0|0,2:0|2:0,0:0:0:0:
409,273,116705,2,0,L|447:306,1,42.5,0|0,2:0|2:0,0:0:0:0:
422,228,116855,2,0,L|460:261,1,42.5,0|0,2:0|2:0,0:0:0:0:
416,183,117005,1,2,0:0:0:0:
311,69,117155,1,2,0:2:0:0:
339,237,117305,1,0,0:0:0:0:
177,59,117605,6,0,L|139:26,1,42.5,0|0,2:0|2:0,0:0:0:0:
135,77,117755,2,0,L|97:44,1,42.5,0|0,2:0|2:0,0:0:0:0:
103,111,117905,2,0,L|65:78,1,42.5,0|0,2:0|2:0,0:0:0:0:
90,156,118055,2,0,L|52:123,1,42.5,0|0,2:0|2:0,0:0:0:0:
95,200,118205,1,2,0:0:0:0:
173,147,118355,1,2,0:2:0:0:
99,323,118505,1,0,0:0:0:0:
287,274,118805,6,0,L|343:268,1,42.5,0|0,2:0|2:0,0:0:0:0:
290,227,118955,2,0,L|247:222,1,42.5,0|0,2:0|2:0,0:0:0:0:
293,180,119105,2,0,L|349:174,1,42.5,0|0,2:0|2:0,0:0:0:0:
296,133,119255,22,0,L|246:127,2,50.9999984436036,2|2|2,2:0|2:0|0:0,0:0:0:0:
364,78,119555,1,0,0:0:0:0:
422,140,119705,2,0,B|444:201|394:249,1,101.999996887207,2|4,0:2|0:0,0:0:0:0:
296,341,120005,6,0,B|220:391|147:356|147:356|181:341|193:307,1,203.999993774414,4|8,0:0|0:0,0:0:0:0:
316,206,120455,1,0,0:0:0:0:
134,233,120605,1,2,0:0:0:0:
304,101,120755,1,0,0:0:0:0:
134,233,120905,1,0,0:0:0:0:
424,241,121205,6,0,P|474:257|475:257,1,42.5,0|0,2:0|2:0,0:0:0:0:
387,211,121355,2,0,P|340:235|339:235,1,42.5,0|0,2:0|2:0,0:0:0:0:
404,167,121505,2,0,P|454:183|455:183,1,42.5,0|0,2:0|2:0,0:0:0:0:
367,137,121655,2,0,P|320:161|319:161,1,42.5,0|0,2:0|2:0,0:0:0:0:
384,94,121805,1,2,0:0:0:0:
260,184,121955,1,2,0:2:0:0:
311,0,122105,1,0,0:0:0:0:
97,106,122405,6,0,P|117:112|138:114,1,42.5,0|0,2:0|2:0,0:0:0:0:
87,150,122555,2,0,P|74:167|57:179,1,42.5,0|0,2:0|2:0,0:0:0:0:
128,173,122705,2,0,P|148:180|170:182,1,42.5,0|0,2:0|2:0,0:0:0:0:
119,220,122855,2,0,P|106:237|89:249,1,42.5,0|0,2:0|2:0,0:0:0:0:
161,243,123005,1,2,0:0:0:0:
22,306,123155,1,2,0:2:0:0:
200,376,123305,1,0,0:0:0:0:
255,232,123605,5,0,2:0:0:0:
255,232,123755,1,0,0:0:0:0:
390,303,123905,2,0,P|401:252|431:212,1,85,0|2,2:0|0:2,0:0:0:0:
433,210,124130,1,2,0:2:0:0:
451,200,124205,1,2,0:0:0:0:
329,164,124355,1,0,0:0:0:0:
407,48,124505,1,0,0:0:0:0:
407,48,124655,1,8,0:2:0:0:
275,82,124805,5,8,0:2:0:0:
275,82,124955,2,0,L|185:64,2,85,0|8|8,0:0|0:2|0:3,0:0:0:0:
113,136,125405,2,0,L|196:152,1,85,2|0,0:0|0:0,0:0:0:0:
33,209,125705,1,8,0:2:0:0:
149,257,126005,21,0,0:0:0:0:
108,336,126155,1,0,0:0:0:0:
224,300,126305,5,0,0:0:0:0:
250,384,126455,1,0,0:0:0:0:
307,277,126605,5,2,0:0:0:0:
442,136,127205,21,0,0:0:0:0:
483,215,127355,1,0,0:0:0:0:
367,179,127505,5,0,0:0:0:0:
341,263,127655,1,0,0:0:0:0:
284,156,127805,5,2,0:0:0:0:
206,197,127955,1,0,0:0:0:0:
164,63,128105,2,0,B|199:26|247:34,1,85,0|0,0:0|0:0,0:0:0:0:
399,75,128405,38,0,L|420:162,1,85
311,264,128855,1,0,0:0:0:0:
375,302,129005,2,0,P|306:339|248:304,2,152.999995330811,2|0|0,0:0|0:0|0:0,0:0:0:0:
372,180,129605,6,0,P|330:136|283:126,1,85,4|0,2:1|2:0,0:0:0:0:
340,40,129905,2,0,P|280:39|240:65,1,85,0|0,2:0|2:0,0:0:0:0:
403,84,130205,1,2,0:0:0:0:
205,132,130355,1,0,0:0:0:0:
296,209,130505,1,0,0:0:0:0:
403,84,130805,6,0,L|389:176,1,85,4|0,2:1|2:0,0:0:0:0:
258,49,131105,2,0,L|292:141,1,85,0|0,2:0|2:0,0:0:0:0:
122,88,131405,1,2,0:0:0:0:
119,279,131555,1,0,0:0:0:0:
205,132,131705,1,0,0:0:0:0:
229,342,132005,6,0,P|215:299|252:257,1,85,4|0,2:1|2:0,0:0:0:0:
353,239,132305,2,0,L|373:145,1,85,0|0,2:0|2:0,0:0:0:0:
260,183,132605,1,2,0:0:0:0:
453,249,132755,1,0,0:0:0:0:
294,308,132905,1,0,0:0:0:0:
179,117,133205,5,0,0:0:0:0:
179,117,133355,2,0,B|150:102|140:78|140:78|123:95|135:114|102:103|102:103|117:120|87:119|108:137|79:134|79:134|106:163|72:173|72:173|99:183|81:211|81:211|116:204|100:230|114:241|114:241|129:221|139:209|174:204,1,386.749982295991
326,167,134855,6,0,P|337:195|317:232,1,68,0|8,0:2|0:2,0:0:0:0:
322,227,135155,1,0,0:0:0:0:
357,344,135305,1,0,0:0:0:0:
435,190,135455,1,0,0:0:0:0:
478,261,135605,1,0,0:0:0:0:
383,48,136205,5,8,0:2:0:0:
216,44,137255,6,0,B|153:69,1,68,0|8,0:0|0:2,0:0:0:0:
378,140,137855,2,0,B|440:165,1,68,0|0,0:0|0:0,0:0:0:0:
220,328,138305,1,0,0:2:0:0:
283,157,138605,1,8,0:2:0:0:
196,232,138905,1,0,0:0:0:0:
397,349,139205,6,0,P|458:301|451:175,1,203.999993774414,2|0,0:2|0:0,0:0:0:0:
376,248,139655,1,0,0:0:0:0:
376,248,139805,2,0,B|345:264|339:290|339:290|332:316|303:333,1,110.499994941712,8|0,0:2|0:0,0:0:0:0:
311,139,140105,2,0,B|310:104|330:86|330:86|349:67|349:33,1,110.499994941712
150,340,141005,5,8,0:2:0:0:
71,131,142205,1,8,0:2:0:0:
161,45,142355,5,0,0:0:0:0:
161,45,142505,2,0,L|197:124,1,85,0|0,0:0|0:0,0:0:0:0:
298,111,142805,2,0,P|329:101|358:114,4,50.9999984436036,0|0|0|0|8,0:0|0:0|0:0|0:0|0:2,0:0:0:0:
139,96,144005,6,0,P|28:196|48:269,1,203.999993774414,2|0,0:2|0:0,0:0:0:0:
150,331,144455,1,0,0:0:0:0:
123,196,144605,1,8,0:2:0:0:
123,196,144755,1,0,0:0:0:0:
244,263,144905,1,0,0:0:0:0:
244,263,145055,2,0,P|276:307|268:354,1,101.999996887207,0|0,0:0|0:0,0:0:0:0:
413,145,145805,5,8,0:2:0:0:
229,58,146855,6,0,L|299:35,1,68,0|8,0:0|0:2,0:0:0:0:
370,203,147455,2,0,L|440:144,1,68,0|0,0:0|0:0,0:0:0:0:
167,227,147905,2,0,P|162:274|198:309,1,85,0|0,0:0|0:0,0:0:0:0:
207,313,148205,1,8,0:2:0:0:
255,157,148805,6,0,P|212:59|125:55,1,203.999993774414,2|0,0:2|0:0,0:0:0:0:
42,124,149255,1,0,0:0:0:0:
61,247,149405,1,8,0:2:0:0:
164,140,149555,5,0,0:0:0:0:
164,140,149705,2,0,B|171:183|171:183|201:224,1,85,0|0,0:2|0:0,0:0:0:0:
290,344,150155,2,0,B|342:305|342:305|374:313|431:308|465:285,1,170
474,190,150605,2,0,B|386:231|337:204|337:204|306:232,1,170,8|2,0:2|0:2,0:0:0:0:
292,131,151205,6,0,P|227:226|256:303,1,170
316,222,151655,1,0,0:0:0:0:
376,324,151805,1,8,0:2:0:0:
376,324,151955,2,0,P|402:281|393:231,1,85
363,103,152255,2,0,P|337:146|346:196,1,85
331,52,152855,6,0,L|429:30,1,85,0|8,0:0|0:2,0:0:0:0:
170,201,153605,6,0,L|198:196,7,21.25,0|0|0|0|0|0|0|0,0:2|0:0|0:0|0:0|0:2|0:0|0:2|0:0,0:0:0:0:
309,264,154055,2,0,L|390:240,1,68,0|0,0:0|0:0,0:0:0:0:
341,161,154355,2,0,L|427:180,1,68,0|0,0:0|0:0,0:0:0:0:
424,100,154655,1,0,0:0:0:0:
457,268,154805,1,0,0:0:0:0:
296,42,155405,5,2,0:2:0:0:
110,75,156455,22,0,P|78:51|33:52,1,68,0|2,0:0|0:2,0:0:0:0:
65,253,157055,2,0,P|80:289|120:311,1,68,0|0,0:0|0:2,0:0:0:0:
247,216,157505,2,0,B|228:173|228:173|243:139,1,85,0|0,0:0|0:0,0:0:0:0:
275,100,157805,1,2,0:2:0:0:
376,37,158105,1,2,0:2:0:0:
428,143,158405,1,2,0:2:0:0:
296,272,158855,5,0,0:0:0:0:
296,272,159005,2,0,B|289:307|289:307|260:352,1,85
390,192,159305,2,0,B|397:227|397:227|426:272,1,85
32,213,160205,5,2,0:2:0:0:
162,140,160505,1,2,0:2:0:0:
39,54,160805,1,2,0:2:0:0:
220,39,161255,1,2,0:2:0:0:
220,39,161405,1,2,0:2:0:0:
254,120,161555,21,0,0:0:0:0:
254,120,161705,2,0,P|290:98|303:73,1,68,0|0,0:0|0:0,0:0:0:0:
343,170,162155,2,0,L|335:208,1,34,0|0,0:0|0:0,0:0:0:0:
411,210,162455,2,0,L|403:248,2,34,0|0|2,0:0|0:0|0:2,0:0:0:0:
178,332,163205,5,0,0:2:0:0:
90,242,163655,2,0,L|110:160,1,68,0|2,0:0|0:2,0:0:0:0:
89,65,163955,2,0,L|149:123,1,68,0|0,0:0|0:0,0:0:0:0:
242,153,164255,2,0,L|161:176,1,68,0|0,0:0|0:0,0:0:0:0:
285,31,165005,5,2,0:2:0:0:
400,108,166055,22,0,P|419:66|419:29,1,68,0|2,0:0|0:2,0:0:0:0:
311,225,166655,2,0,P|301:270|310:306,1,68,0|0,0:0|0:2,0:0:0:0:
376,264,166955,2,0,L|425:242,2,50.9999984436036
236,321,167405,1,2,0:2:0:0:
163,218,167705,1,2,0:2:0:0:
284,177,168005,1,2,0:2:0:0:
284,177,168455,6,0,L|295:120,1,50.9999984436036,0|2,0:2|0:2,0:0:0:0:
391,52,168755,1,0,0:0:0:0:
391,52,168905,2,0,L|380:109,1,50.9999984436036,0|0,0:0|0:0,0:0:0:0:
130,109,169805,5,2,0:2:0:0:
335,142,170105,1,2,0:2:0:0:
256,192,170405,12,2,172805,0:2:0:0:
