osu file format v14

[General]
AudioFilename: cursed song.mp3
AudioLeadIn: 0
PreviewTime: 94205
Countdown: 0
SampleSet: Normal
StackLeniency: 0.7
Mode: 1
LetterboxInBreaks: 0
WidescreenStoryboard: 0

[Editor]
Bookmarks: 38405,43205,48005,52805,57605,62405,67205,72005,76805
DistanceSpacing: 0.4
BeatDivisor: 4
GridSize: 32
TimelineZoom: 1.5

[Metadata]
Title:fuego (sakuraburst remix)
TitleUnicode:fuego (sakuraburst remix)
Artist:KOAN Sound & Asa
ArtistUnicode:KOAN Sound & Asa
Creator:Nifty
Version:muzukashii
Source:
Tags:neurofunk wub sanctuary ep
BeatmapID:1465471
BeatmapSetID:692383

[Difficulty]
HPDrainRate:6
CircleSize:2
OverallDifficulty:4
ApproachRate:2
SliderMultiplier:1.4
SliderTickRate:1

[Events]
//Background and Video events
0,0,"63801963_p0.jpg",0,-40
//Break Periods
//Storyboard Layer 0 (Background)
//Storyboard Layer 1 (Fail)
//Storyboard Layer 2 (Pass)
//Storyboard Layer 3 (Foreground)
//Storyboard Sound Samples

[TimingPoints]
5,300,4,1,0,50,1,0
5,-200,4,1,0,50,0,0
33605,300,4,1,0,50,1,0
33605,-200,4,1,0,50,0,0
34055,-185.185185185185,4,1,0,50,0,0
34655,-172.413793103448,4,1,0,50,0,0
35255,-161.290322580645,4,1,0,50,0,0
35855,-151.515151515152,4,1,0,50,0,0
36305,-142.857142857143,4,1,0,50,0,0
36605,-135.135135135135,4,1,0,50,0,0
36905,-128.205128205128,4,1,0,55,0,0
37205,-121.951219512195,4,1,0,60,0,0
37355,-119.047619047619,4,1,0,65,0,0
37655,-116.279069767442,4,1,0,70,0,0
37805,-113.636363636364,4,1,0,75,0,0
38255,-102.040816326531,4,1,0,80,0,0
38405,-100,4,1,0,80,0,0
76055,-102.040816326531,4,1,0,80,0,0
76205,-104.166666666667,4,1,0,80,0,0
76355,-106.382978723404,4,1,0,80,0,0
76505,-108.695652173913,4,1,0,80,0,0
76805,-111.111111111111,4,1,0,80,0,0
86405,-90.9090909090909,4,1,0,80,0,0
86855,-100,4,1,0,80,0,0
96005,-100,4,1,0,80,0,1
105605,-100,4,1,0,80,0,0
115205,-100,4,1,0,80,0,1
124805,-100,4,1,0,80,0,0
133130,-100,4,1,0,5,0,0
134330,-125,4,1,0,80,0,0
151655,-133.333333333333,4,1,0,80,0,0
152255,-138.888888888889,4,1,0,75,0,0
152405,-142.857142857143,4,1,0,70,0,0
152855,-149.253731343284,4,1,0,65,0,0
153005,-153.846153846154,4,1,0,60,0,0
153455,-161.290322580645,4,1,0,55,0,0
153605,-166.666666666667,4,1,0,50,0,0
170255,-200,4,1,0,5,0,0

[HitObjects]
288,128,33605,5,0,0:0:0:0:
256,128,34055,1,0,0:0:0:0:
256,128,34205,1,0,0:0:0:0:
288,128,34655,1,0,0:0:0:0:
288,128,34805,1,0,0:0:0:0:
256,128,35255,1,0,0:0:0:0:
256,128,35405,1,0,0:0:0:0:
256,128,35855,1,0,0:0:0:0:
256,128,36005,1,0,0:0:0:0:
256,128,36305,1,0,0:0:0:0:
256,128,36605,1,0,0:0:0:0:
256,128,36905,1,0,0:0:0:0:
256,128,37205,1,0,0:0:0:0:
256,128,37355,1,8,0:0:0:0:
256,128,37430,1,8,0:0:0:0:
256,128,37505,1,8,0:0:0:0:
256,128,37655,1,0,0:0:0:0:
256,128,37805,1,8,0:0:0:0:
256,128,38255,1,8,0:0:0:0:
256,128,38405,1,4,0:0:0:0:
256,128,38855,1,0,0:0:0:0:
256,128,39005,1,8,0:0:0:0:
256,128,39155,1,0,0:0:0:0:
256,128,39455,1,8,0:0:0:0:
256,128,39605,1,0,0:0:0:0:
256,128,39755,1,0,0:0:0:0:
256,128,39905,1,8,0:0:0:0:
256,128,40055,1,0,0:0:0:0:
256,128,40205,1,8,0:0:0:0:
256,128,40505,1,8,0:0:0:0:
256,128,40805,1,0,0:0:0:0:
256,128,41255,1,0,0:0:0:0:
256,128,41405,1,8,0:0:0:0:
256,128,41555,1,0,0:0:0:0:
256,128,41630,1,0,0:0:0:0:
256,128,41705,1,0,0:0:0:0:
224,128,41855,1,8,0:0:0:0:
256,128,42005,1,0,0:0:0:0:
256,128,42155,1,8,0:0:0:0:
256,128,42455,1,0,0:0:0:0:
256,128,42605,1,8,0:0:0:0:
256,128,42755,1,8,0:0:0:0:
256,128,42905,1,0,0:0:0:0:
256,128,43205,1,4,0:0:0:0:
256,128,43655,1,0,0:0:0:0:
256,128,43805,1,8,0:0:0:0:
256,128,43955,1,0,0:0:0:0:
256,128,44105,1,8,0:0:0:0:
256,128,44255,1,8,0:0:0:0:
256,128,44555,1,8,0:0:0:0:
256,128,44705,1,8,0:0:0:0:
256,128,44855,1,8,0:0:0:0:
256,128,45005,1,8,0:0:0:0:
256,128,45305,1,8,0:0:0:0:
256,128,45605,1,0,0:0:0:0:
256,128,45755,1,8,0:0:0:0:
256,128,46055,1,0,0:0:0:0:
256,128,46205,1,8,0:0:0:0:
256,128,46355,1,0,0:0:0:0:
256,128,46505,1,0,0:0:0:0:
256,128,46655,1,8,0:0:0:0:
256,128,46955,1,0,0:0:0:0:
256,128,47255,1,0,0:0:0:0:
256,128,47405,1,0,0:0:0:0:
256,128,47555,1,8,0:0:0:0:
256,128,47705,1,0,0:0:0:0:
256,128,48005,1,4,0:0:0:0:
256,128,48455,1,0,0:0:0:0:
256,128,48605,1,8,0:0:0:0:
256,128,48755,1,0,0:0:0:0:
256,128,48905,1,0,0:0:0:0:
256,128,49205,1,0,0:0:0:0:
256,128,49355,1,0,0:0:0:0:
256,128,49505,1,8,0:0:0:0:
256,128,49655,1,0,0:0:0:0:
256,128,49805,1,8,0:0:0:0:
256,128,50105,1,8,0:0:0:0:
256,128,50405,1,0,0:0:0:0:
256,128,50855,1,0,0:0:0:0:
256,128,51005,1,8,0:0:0:0:
256,128,51155,1,0,0:0:0:0:
256,128,51230,1,0,0:0:0:0:
256,128,51305,1,0,0:0:0:0:
224,128,51455,1,8,0:0:0:0:
256,128,51605,1,0,0:0:0:0:
256,128,51755,1,8,0:0:0:0:
256,128,52055,1,0,0:0:0:0:
256,128,52205,1,8,0:0:0:0:
256,128,52355,1,8,0:0:0:0:
256,128,52505,1,0,0:0:0:0:
256,128,52805,1,4,0:0:0:0:
256,128,53255,1,0,0:0:0:0:
256,128,53405,1,8,0:0:0:0:
256,128,53555,1,0,0:0:0:0:
256,128,53705,1,8,0:0:0:0:
256,128,53855,1,8,0:0:0:0:
256,128,54155,1,8,0:0:0:0:
256,128,54305,1,8,0:0:0:0:
256,128,54455,1,8,0:0:0:0:
256,128,54605,1,8,0:0:0:0:
256,128,54905,1,8,0:0:0:0:
256,128,55205,1,0,0:0:0:0:
256,128,55355,1,8,0:0:0:0:
256,128,55655,1,0,0:0:0:0:
256,128,55805,1,8,0:0:0:0:
256,128,55955,1,0,0:0:0:0:
256,128,56105,1,0,0:0:0:0:
256,128,56255,1,8,0:0:0:0:
256,128,56555,1,0,0:0:0:0:
256,128,56855,1,0,0:0:0:0:
256,128,57005,1,8,0:0:0:0:
256,128,57155,1,8,0:0:0:0:
256,128,57305,1,0,0:0:0:0:
256,128,57605,1,4,0:0:0:0:
256,128,58055,1,0,0:0:0:0:
256,128,58205,1,8,0:0:0:0:
256,128,58355,1,0,0:0:0:0:
256,128,58655,1,8,0:0:0:0:
256,128,58805,1,0,0:0:0:0:
256,128,58955,1,0,0:0:0:0:
256,128,59105,1,8,0:0:0:0:
256,128,59255,1,0,0:0:0:0:
256,128,59405,1,8,0:0:0:0:
256,128,59705,1,8,0:0:0:0:
256,128,60005,1,0,0:0:0:0:
256,128,60455,1,0,0:0:0:0:
256,128,60605,1,8,0:0:0:0:
256,128,60755,1,0,0:0:0:0:
256,128,60830,1,0,0:0:0:0:
256,128,60905,1,0,0:0:0:0:
224,128,61055,1,8,0:0:0:0:
256,128,61205,1,0,0:0:0:0:
256,128,61355,1,8,0:0:0:0:
256,128,61655,1,0,0:0:0:0:
256,128,61805,1,8,0:0:0:0:
256,128,61955,1,8,0:0:0:0:
256,128,62105,1,0,0:0:0:0:
256,128,62405,1,4,0:0:0:0:
256,128,62855,1,0,0:0:0:0:
256,128,63005,1,8,0:0:0:0:
256,128,63155,1,0,0:0:0:0:
256,128,63305,1,8,0:0:0:0:
256,128,63455,1,8,0:0:0:0:
256,128,63755,1,8,0:0:0:0:
256,128,63905,1,8,0:0:0:0:
256,128,64055,1,8,0:0:0:0:
256,128,64205,1,8,0:0:0:0:
256,128,64505,1,8,0:0:0:0:
256,128,64805,1,0,0:0:0:0:
256,128,64955,1,8,0:0:0:0:
256,128,65255,1,0,0:0:0:0:
256,128,65405,1,8,0:0:0:0:
256,128,65555,1,0,0:0:0:0:
256,128,65705,1,0,0:0:0:0:
256,128,65855,1,8,0:0:0:0:
256,128,66155,1,0,0:0:0:0:
256,128,66455,1,0,0:0:0:0:
256,128,66605,1,0,0:0:0:0:
256,128,66755,1,8,0:0:0:0:
256,128,66905,1,0,0:0:0:0:
256,128,67205,1,4,0:0:0:0:
256,128,67655,1,0,0:0:0:0:
256,128,67805,1,8,0:0:0:0:
256,128,67955,1,0,0:0:0:0:
256,128,68105,1,0,0:0:0:0:
256,128,68405,1,0,0:0:0:0:
256,128,68555,1,0,0:0:0:0:
256,128,68705,1,8,0:0:0:0:
256,128,68855,1,0,0:0:0:0:
256,128,69005,1,8,0:0:0:0:
256,128,69305,1,8,0:0:0:0:
256,128,69605,1,0,0:0:0:0:
256,128,70055,1,0,0:0:0:0:
256,128,70205,1,8,0:0:0:0:
256,128,70355,1,0,0:0:0:0:
256,128,70430,1,0,0:0:0:0:
256,128,70505,1,0,0:0:0:0:
224,128,70655,1,8,0:0:0:0:
256,128,70805,1,0,0:0:0:0:
256,128,70955,1,8,0:0:0:0:
256,128,71255,1,0,0:0:0:0:
256,128,71405,1,8,0:0:0:0:
256,128,71555,1,8,0:0:0:0:
256,128,71705,1,0,0:0:0:0:
256,128,72005,1,4,0:0:0:0:
256,128,72455,1,0,0:0:0:0:
256,128,72605,1,8,0:0:0:0:
256,128,72755,1,0,0:0:0:0:
256,128,72905,1,8,0:0:0:0:
256,128,73055,1,8,0:0:0:0:
256,128,73355,1,8,0:0:0:0:
256,128,73505,1,8,0:0:0:0:
256,128,73655,1,8,0:0:0:0:
256,128,73805,1,8,0:0:0:0:
256,128,74105,1,8,0:0:0:0:
256,128,74405,1,0,0:0:0:0:
256,128,74555,1,8,0:0:0:0:
256,128,74855,1,0,0:0:0:0:
256,128,75005,1,8,0:0:0:0:
256,128,75155,1,0,0:0:0:0:
256,128,75305,1,8,0:0:0:0:
256,128,75455,1,8,0:0:0:0:
256,128,75755,1,8,0:0:0:0:
256,128,76055,1,0,0:0:0:0:
256,128,76205,1,8,0:0:0:0:
256,128,76355,1,8,0:0:0:0:
256,128,76505,1,0,0:0:0:0:
256,128,76805,1,4,0:0:0:0:
256,128,77255,1,0,0:0:0:0:
256,128,77555,1,0,0:0:0:0:
256,128,77855,1,0,0:0:0:0:
256,128,78005,1,0,0:0:0:0:
256,128,78605,1,8,0:0:0:0:
256,128,79655,1,0,0:0:0:0:
256,128,80255,1,0,0:0:0:0:
256,128,80405,1,0,0:0:0:0:
256,128,80705,1,0,0:0:0:0:
256,128,81005,1,8,0:0:0:0:
256,128,81305,1,8,0:0:0:0:
256,128,81605,1,4,0:0:0:0:
288,128,82055,1,0,0:0:0:0:
256,128,82355,1,0,0:0:0:0:
256,128,82505,1,8,0:0:0:0:
256,128,82655,1,8,0:0:0:0:
256,128,83405,1,0,0:0:0:0:
256,128,83705,1,8,0:0:0:0:
256,128,84005,1,0,0:0:0:0:
256,128,84905,1,0,0:0:0:0:
256,128,85055,1,0,0:0:0:0:
256,128,85355,1,0,0:0:0:0:
256,128,85805,1,0,0:0:0:0:
256,128,86405,1,4,0:0:0:0:
256,128,86855,1,0,0:0:0:0:
256,128,87005,1,8,0:0:0:0:
256,128,87155,1,0,0:0:0:0:
256,128,87455,1,0,0:0:0:0:
256,128,87605,1,0,0:0:0:0:
256,128,88205,1,8,0:0:0:0:
256,128,89255,1,0,0:0:0:0:
256,160,89405,1,8,0:0:0:0:
256,128,89855,1,0,0:0:0:0:
256,128,90005,1,0,0:0:0:0:
256,128,90305,1,0,0:0:0:0:
256,128,90605,1,8,0:0:0:0:
256,128,90905,1,8,0:0:0:0:
256,128,91205,1,0,0:0:0:0:
256,128,91655,1,0,0:0:0:0:
256,128,91805,1,8,0:0:0:0:
256,128,91955,1,0,0:0:0:0:
256,128,92105,1,8,0:0:0:0:
256,128,92255,1,8,0:0:0:0:
256,128,93005,1,8,0:0:0:0:
256,128,93305,1,8,0:0:0:0:
256,128,93605,1,0,0:0:0:0:
256,128,94205,1,8,0:0:0:0:
256,128,94355,1,0,0:0:0:0:
256,128,94655,1,8,0:0:0:0:
256,128,94805,1,0,0:0:0:0:
256,128,95105,1,0,0:0:0:0:
256,128,95255,1,0,0:0:0:0:
256,128,95405,1,8,0:0:0:0:
256,128,95555,1,0,0:0:0:0:
224,128,96005,1,4,0:0:0:0:
224,128,96605,1,8,0:0:0:0:
224,128,96755,1,8,0:0:0:0:
224,128,96905,1,0,0:0:0:0:
224,128,97205,1,0,0:0:0:0:
224,128,97355,1,0,0:0:0:0:
224,128,97430,1,0,0:0:0:0:
224,128,97505,1,0,0:0:0:0:
224,128,97805,1,8,0:0:0:0:
224,128,97955,1,0,0:0:0:0:
224,128,98105,1,8,0:0:0:0:
224,128,98405,1,8,0:0:0:0:
224,128,98555,1,8,0:0:0:0:
224,128,98630,1,8,0:0:0:0:
224,128,98705,1,8,0:0:0:0:
224,128,99005,1,0,0:0:0:0:
224,128,99155,1,0,0:0:0:0:
224,128,99305,1,8,0:0:0:0:
224,128,99605,1,0,0:0:0:0:
224,128,99755,1,0,0:0:0:0:
224,128,99830,1,0,0:0:0:0:
224,128,99905,1,0,0:0:0:0:
224,128,100205,1,8,0:0:0:0:
224,128,100355,1,0,0:0:0:0:
224,128,100505,1,8,0:0:0:0:
224,128,100655,1,8,0:0:0:0:
224,128,100805,1,4,0:0:0:0:
224,128,101405,1,8,0:0:0:0:
224,128,101555,1,0,0:0:0:0:
224,128,101705,1,8,0:0:0:0:
224,128,102005,1,0,0:0:0:0:
224,128,102155,1,0,0:0:0:0:
224,128,102230,1,0,0:0:0:0:
224,128,102305,1,0,0:0:0:0:
224,128,102605,1,8,0:0:0:0:
224,128,102755,1,0,0:0:0:0:
224,128,102905,1,8,0:0:0:0:
224,128,103205,1,8,0:0:0:0:
224,128,103355,1,8,0:0:0:0:
224,128,103430,1,8,0:0:0:0:
224,128,103505,1,8,0:0:0:0:
224,128,103805,1,0,0:0:0:0:
224,128,103955,1,0,0:0:0:0:
224,128,104105,1,8,0:0:0:0:
224,128,104405,1,0,0:0:0:0:
224,128,104555,1,0,0:0:0:0:
224,128,104630,1,0,0:0:0:0:
224,128,104705,1,0,0:0:0:0:
224,128,105005,1,8,0:0:0:0:
224,128,105155,1,0,0:0:0:0:
224,128,105305,1,8,0:0:0:0:
224,128,105455,1,8,0:0:0:0:
224,128,105605,1,0,0:0:0:0:
224,128,105755,1,8,0:0:0:0:
224,128,106055,1,0,0:0:0:0:
224,128,106205,1,8,0:0:0:0:
224,128,106355,1,8,0:0:0:0:
224,128,106505,1,0,0:0:0:0:
224,128,106805,1,0,0:0:0:0:
224,128,106955,1,0,0:0:0:0:
224,128,107255,1,0,0:0:0:0:
224,128,107405,1,8,0:0:0:0:
224,128,107855,1,8,0:0:0:0:
224,128,108005,1,0,0:0:0:0:
224,128,108155,1,0,0:0:0:0:
224,128,108455,1,0,0:0:0:0:
224,128,108605,1,8,0:0:0:0:
224,128,108905,1,8,0:0:0:0:
224,128,109205,1,0,0:0:0:0:
224,128,109355,1,8,0:0:0:0:
224,128,109655,1,0,0:0:0:0:
224,128,109805,1,8,0:0:0:0:
224,128,110105,1,8,0:0:0:0:
224,128,110255,1,8,0:0:0:0:
224,128,110405,1,4,0:0:0:0:
224,128,110855,1,0,0:0:0:0:
224,128,111005,1,8,0:0:0:0:
224,128,111305,1,8,0:0:0:0:
224,128,111605,1,8,0:0:0:0:
224,96,111755,1,0,0:0:0:0:
224,128,111905,1,0,0:0:0:0:
224,128,112055,1,8,0:0:0:0:
224,128,112205,1,8,0:0:0:0:
224,128,112505,1,8,0:0:0:0:
224,128,112805,1,8,0:0:0:0:
224,128,112955,1,0,0:0:0:0:
224,128,113105,1,0,0:0:0:0:
224,128,113255,1,8,0:0:0:0:
224,128,113405,1,8,0:0:0:0:
224,128,113705,1,8,0:0:0:0:
224,128,114005,1,8,0:0:0:0:
224,128,114155,1,0,0:0:0:0:
224,128,114305,1,0,0:0:0:0:
224,128,114455,1,8,0:0:0:0:
224,128,114605,1,0,0:0:0:0:
224,128,114755,1,0,0:0:0:0:
224,128,114905,1,8,0:0:0:0:
224,128,115205,1,4,0:0:0:0:
224,128,115805,1,8,0:0:0:0:
224,128,115955,1,8,0:0:0:0:
224,128,116105,1,0,0:0:0:0:
224,128,116405,1,0,0:0:0:0:
224,128,116555,1,0,0:0:0:0:
224,128,116630,1,0,0:0:0:0:
224,128,116705,1,0,0:0:0:0:
224,128,117005,1,8,0:0:0:0:
224,128,117155,1,0,0:0:0:0:
224,128,117305,1,8,0:0:0:0:
224,128,117605,1,8,0:0:0:0:
224,128,117755,1,8,0:0:0:0:
224,128,117830,1,8,0:0:0:0:
224,128,117905,1,8,0:0:0:0:
224,128,118205,1,0,0:0:0:0:
224,128,118355,1,0,0:0:0:0:
224,128,118505,1,8,0:0:0:0:
224,128,118805,1,0,0:0:0:0:
224,128,118955,1,0,0:0:0:0:
224,128,119030,1,0,0:0:0:0:
224,128,119105,1,0,0:0:0:0:
224,128,119405,1,8,0:0:0:0:
224,128,119555,1,0,0:0:0:0:
224,128,119705,1,8,0:0:0:0:
224,128,120005,1,4,0:0:0:0:
224,128,120605,1,8,0:0:0:0:
224,128,120755,1,0,0:0:0:0:
224,128,120905,1,8,0:0:0:0:
224,128,121205,1,0,0:0:0:0:
224,128,121355,1,0,0:0:0:0:
224,128,121430,1,0,0:0:0:0:
224,128,121505,1,0,0:0:0:0:
224,128,121805,1,8,0:0:0:0:
224,128,121955,1,0,0:0:0:0:
224,128,122105,1,8,0:0:0:0:
224,128,122405,1,8,0:0:0:0:
224,128,122555,1,8,0:0:0:0:
224,128,122630,1,8,0:0:0:0:
224,128,122705,1,8,0:0:0:0:
224,128,123005,1,0,0:0:0:0:
224,128,123155,1,0,0:0:0:0:
224,128,123305,1,8,0:0:0:0:
224,128,123605,1,0,0:0:0:0:
224,128,123755,1,0,0:0:0:0:
224,128,123830,1,0,0:0:0:0:
224,128,123905,1,0,0:0:0:0:
224,128,124205,1,8,0:0:0:0:
224,128,124355,1,0,0:0:0:0:
224,128,124505,1,8,0:0:0:0:
224,128,124655,1,8,0:0:0:0:
224,128,124805,1,0,0:0:0:0:
224,128,124955,1,8,0:0:0:0:
224,128,125255,1,0,0:0:0:0:
224,128,125405,1,8,0:0:0:0:
224,128,125555,1,8,0:0:0:0:
224,128,125705,1,0,0:0:0:0:
224,128,126005,1,0,0:0:0:0:
224,128,126155,1,0,0:0:0:0:
224,128,126455,1,0,0:0:0:0:
224,128,126605,1,8,0:0:0:0:
224,128,127055,1,8,0:0:0:0:
224,128,127205,1,0,0:0:0:0:
224,128,127355,1,0,0:0:0:0:
224,128,127655,1,0,0:0:0:0:
224,128,127805,1,8,0:0:0:0:
224,128,128105,1,8,0:0:0:0:
224,128,128405,1,0,0:0:0:0:
224,128,128555,1,8,0:0:0:0:
224,128,128855,1,0,0:0:0:0:
224,128,129005,1,8,0:0:0:0:
224,128,129305,1,8,0:0:0:0:
224,128,129455,1,8,0:0:0:0:
224,128,129605,1,4,0:0:0:0:
224,128,130205,1,8,0:0:0:0:
224,128,130355,1,8,0:0:0:0:
224,128,130505,1,0,0:0:0:0:
224,128,130805,1,8,0:0:0:0:
224,128,131105,1,0,0:0:0:0:
224,128,131255,1,0,0:0:0:0:
224,128,131405,1,8,0:0:0:0:
224,128,131555,1,8,0:0:0:0:
224,128,131705,1,0,0:0:0:0:
224,128,132005,1,8,0:0:0:0:
224,128,132305,1,0,0:0:0:0:
224,128,132455,1,8,0:0:0:0:
224,128,132605,1,8,0:0:0:0:
224,128,132755,1,0,0:0:0:0:
224,128,132905,1,8,0:0:0:0:
256,192,133205,12,0,134255,0:0:0:0:
256,160,134405,5,0,0:0:0:0:
256,160,134855,1,0,0:0:0:0:
224,160,135005,1,8,0:0:0:0:
256,160,135155,1,0,0:0:0:0:
256,160,135455,1,0,0:0:0:0:
224,160,135605,1,0,0:0:0:0:
256,160,136205,1,8,0:0:0:0:
256,160,137255,1,0,0:0:0:0:
256,160,137405,1,8,0:0:0:0:
256,160,137855,1,8,0:0:0:0:
256,160,138005,1,0,0:0:0:0:
256,160,138305,1,0,0:0:0:0:
256,160,138605,1,8,0:0:0:0:
256,160,138905,1,0,0:0:0:0:
256,160,139205,1,0,0:0:0:0:
256,160,139805,1,8,0:0:0:0:
256,160,139955,1,0,0:0:0:0:
256,160,140105,1,8,0:0:0:0:
256,160,140255,1,8,0:0:0:0:
256,160,141005,1,8,0:0:0:0:
256,160,142205,1,8,0:0:0:0:
256,160,142505,1,0,0:0:0:0:
256,160,142655,1,0,0:0:0:0:
256,160,142955,1,0,0:0:0:0:
256,160,143405,1,8,0:0:0:0:
256,160,144005,1,0,0:0:0:0:
256,160,144455,1,0,0:0:0:0:
256,160,144605,1,8,0:0:0:0:
256,160,144755,1,0,0:0:0:0:
256,160,145055,1,0,0:0:0:0:
256,160,145205,1,0,0:0:0:0:
256,160,145805,1,8,0:0:0:0:
256,160,146855,1,0,0:0:0:0:
256,160,147005,1,8,0:0:0:0:
256,160,147455,1,8,0:0:0:0:
256,160,147605,1,0,0:0:0:0:
256,160,147905,1,0,0:0:0:0:
256,160,148205,1,8,0:0:0:0:
256,160,148805,1,0,0:0:0:0:
256,160,149255,1,0,0:0:0:0:
256,160,149405,1,8,0:0:0:0:
256,160,150605,5,8,0:0:0:0:
256,160,151205,1,0,0:0:0:0:
256,160,151655,5,0,0:0:0:0:
256,160,151805,1,8,0:0:0:0:
256,160,151955,1,0,0:0:0:0:
256,160,152255,1,0,0:0:0:0:
256,160,152405,1,0,0:0:0:0:
256,160,152855,1,0,0:0:0:0:
256,160,153005,1,8,0:0:0:0:
256,160,153455,1,0,0:0:0:0:
256,160,153605,1,0,0:0:0:0:
256,160,154055,1,0,0:0:0:0:
256,160,154205,1,8,0:0:0:0:
256,160,154355,1,0,0:0:0:0:
256,160,154655,1,0,0:0:0:0:
256,160,154805,1,0,0:0:0:0:
256,160,155405,1,8,0:0:0:0:
256,160,156455,1,0,0:0:0:0:
256,160,156605,1,8,0:0:0:0:
256,160,157055,1,8,0:0:0:0:
256,160,157205,1,0,0:0:0:0:
256,160,157505,1,0,0:0:0:0:
256,160,157805,1,8,0:0:0:0:
256,160,158405,1,0,0:0:0:0:
256,160,158855,1,8,0:0:0:0:
256,160,159305,1,8,0:0:0:0:
256,160,159455,1,8,0:0:0:0:
256,160,160205,1,8,0:0:0:0:
256,128,160805,1,0,0:0:0:0:
256,160,161405,1,8,0:0:0:0:
256,160,161705,1,8,0:0:0:0:
256,160,161855,1,8,0:0:0:0:
256,192,162155,1,0,0:0:0:0:
256,160,162605,1,8,0:0:0:0:
256,128,163205,1,0,0:0:0:0:
256,160,163655,1,8,0:0:0:0:
256,160,163805,1,8,0:0:0:0:
256,160,163955,1,0,0:0:0:0:
256,128,164255,1,8,0:0:0:0:
256,160,165005,1,8,0:0:0:0:
256,160,166055,1,0,0:0:0:0:
256,160,166205,1,8,0:0:0:0:
256,160,166655,1,8,0:0:0:0:
256,160,166805,1,0,0:0:0:0:
256,160,167105,1,0,0:0:0:0:
256,128,167405,1,8,0:0:0:0:
288,160,168005,1,0,0:0:0:0:
256,160,168605,1,8,0:0:0:0:
256,128,168905,1,8,0:0:0:0:
256,128,169055,1,8,0:0:0:0:
288,160,169805,1,8,0:0:0:0:
256,192,170405,12,0,172805,0:0:0:0:
