osu file format v14

[General]
AudioFilename: cursed song.mp3
AudioLeadIn: 0
PreviewTime: 94205
Countdown: 0
SampleSet: Normal
StackLeniency: 0.7
Mode: 1
LetterboxInBreaks: 0
WidescreenStoryboard: 1

[Editor]
Bookmarks: 38405,43205,48005,52805,57605,62405,67205,72005,76805,86405
DistanceSpacing: 0.4
BeatDivisor: 4
GridSize: 32
TimelineZoom: 0.9999999

[Metadata]
Title:fuego (sakuraburst remix)
TitleUnicode:fuego (sakuraburst remix)
Artist:KOAN Sound & Asa
ArtistUnicode:KOAN Sound & Asa
Creator:Nifty
Version:kantan
Source:
Tags:neurofunk wub sanctuary ep
BeatmapID:1465470
BeatmapSetID:692383

[Difficulty]
HPDrainRate:7.5
CircleSize:2
OverallDifficulty:2.5
ApproachRate:2
SliderMultiplier:1.4
SliderTickRate:1

[Events]
//Background and Video events
0,0,"63801963_p0.jpg",0,-40
//Break Periods
//Storyboard Layer 0 (Background)
//Storyboard Layer 1 (Fail)
//Storyboard Layer 2 (Pass)
//Storyboard Layer 3 (Foreground)
//Storyboard Sound Samples

[TimingPoints]
5,300,4,1,0,50,1,0
33605,300,4,1,0,50,1,0
96005,-100,4,1,0,80,0,1
105605,-100,4,1,0,80,0,0
115205,-100,4,1,0,80,0,1
124805,-100,4,1,0,80,0,0
133130,-100,4,1,0,5,0,0
134255,-100,4,1,0,80,0,0
153605,-100,4,1,0,50,0,0
170255,-100,4,1,0,5,0,0

[HitObjects]
224,128,33605,5,0,0:0:0:0:
224,128,34805,1,0,0:0:0:0:
224,128,36005,1,0,0:0:0:0:
224,128,36605,1,0,0:0:0:0:
224,128,37205,1,0,0:0:0:0:
224,128,37505,1,0,0:0:0:0:
224,128,37805,1,8,0:0:0:0:
224,128,38405,1,4,0:0:0:0:
224,128,39005,1,8,0:0:0:0:
224,128,39605,1,0,0:0:0:0:
224,128,39905,1,8,0:0:0:0:
224,128,40205,1,8,0:0:0:0:
224,128,40805,1,0,0:0:0:0:
224,128,41405,1,8,0:0:0:0:
224,128,41705,1,0,0:0:0:0:
224,128,42305,1,0,0:0:0:0:
224,128,42605,1,8,0:0:0:0:
224,128,43205,1,4,0:0:0:0:
224,128,43805,1,8,0:0:0:0:
224,128,45005,1,8,0:0:0:0:
224,128,45605,1,0,0:0:0:0:
224,128,46205,1,8,0:0:0:0:
224,128,47105,1,8,0:0:0:0:
224,128,47405,1,8,0:0:0:0:
224,128,48005,1,4,0:0:0:0:
224,128,48605,1,8,0:0:0:0:
224,128,49205,1,0,0:0:0:0:
200,141,49505,1,8,0:0:0:0:
224,128,49805,1,0,0:0:0:0:
224,128,50405,1,0,0:0:0:0:
224,128,51005,1,8,0:0:0:0:
224,96,51305,1,0,0:0:0:0:
224,96,51905,1,0,0:0:0:0:
224,128,52205,1,8,0:0:0:0:
224,128,52805,1,4,0:0:0:0:
224,128,53405,1,8,0:0:0:0:
224,128,54605,1,8,0:0:0:0:
224,128,55205,1,0,0:0:0:0:
224,128,55805,1,8,0:0:0:0:
224,96,56255,1,8,0:0:0:0:
224,128,57005,1,8,0:0:0:0:
256,128,57605,1,4,0:0:0:0:
224,128,58205,1,8,0:0:0:0:
256,128,58805,1,0,0:0:0:0:
224,128,59105,1,8,0:0:0:0:
224,128,59405,1,0,0:0:0:0:
224,128,60005,1,0,0:0:0:0:
224,128,60605,1,8,0:0:0:0:
256,96,60905,1,0,0:0:0:0:
224,128,61505,1,0,0:0:0:0:
224,128,61805,1,8,0:0:0:0:
224,128,62405,1,4,0:0:0:0:
224,128,63005,1,8,0:0:0:0:
224,128,64205,1,8,0:0:0:0:
224,128,64805,1,0,0:0:0:0:
224,128,65405,1,8,0:0:0:0:
224,128,66305,1,8,0:0:0:0:
256,128,66605,1,8,0:0:0:0:
224,128,67205,1,4,0:0:0:0:
224,128,67805,1,8,0:0:0:0:
224,128,68405,1,0,0:0:0:0:
224,128,68705,1,8,0:0:0:0:
224,128,69005,1,8,0:0:0:0:
224,128,69605,1,0,0:0:0:0:
224,128,70205,1,8,0:0:0:0:
224,128,70505,1,0,0:0:0:0:
224,128,71105,1,0,0:0:0:0:
224,128,71405,1,8,0:0:0:0:
224,128,72005,1,4,0:0:0:0:
224,128,72605,1,8,0:0:0:0:
224,128,73805,1,8,0:0:0:0:
224,128,74405,1,0,0:0:0:0:
224,128,75005,1,8,0:0:0:0:
260,80,75605,1,0,0:0:0:0:
256,128,75905,1,0,0:0:0:0:
224,128,76205,1,8,0:0:0:0:
256,128,76805,1,4,0:0:0:0:
256,128,78005,1,0,0:0:0:0:
256,128,78605,1,8,0:0:0:0:
256,128,80405,1,0,0:0:0:0:
256,128,81005,1,8,0:0:0:0:
256,128,81605,1,4,0:0:0:0:
256,128,83405,1,8,0:0:0:0:
256,128,84005,1,0,0:0:0:0:
256,128,85205,1,0,0:0:0:0:
256,128,86405,1,4,0:0:0:0:
256,128,87005,1,8,0:0:0:0:
256,128,88205,1,8,0:0:0:0:
256,128,89405,1,8,0:0:0:0:
256,128,90605,1,8,0:0:0:0:
256,128,91205,1,0,0:0:0:0:
256,128,91805,1,8,0:0:0:0:
256,128,93005,1,8,0:0:0:0:
256,128,93605,1,0,0:0:0:0:
256,128,94205,1,8,0:0:0:0:
256,128,94805,1,0,0:0:0:0:
256,128,95105,1,0,0:0:0:0:
256,128,95405,1,8,0:0:0:0:
256,128,96005,1,4,0:0:0:0:
256,128,96605,1,8,0:0:0:0:
256,128,96905,1,8,0:0:0:0:
256,128,97205,1,4,0:0:0:0:
256,128,97805,1,8,0:0:0:0:
256,128,98405,1,4,0:0:0:0:
256,128,99005,1,8,0:0:0:0:
256,128,99305,1,8,0:0:0:0:
256,128,99605,1,4,0:0:0:0:
256,128,100205,1,8,0:0:0:0:
256,128,100805,1,0,0:0:0:0:
256,128,102005,1,12,0:0:0:0:
256,128,102605,1,8,0:0:0:0:
256,128,102905,1,0,0:0:0:0:
256,128,103205,1,12,0:0:0:0:
256,128,103805,1,8,0:0:0:0:
256,128,104105,1,0,0:0:0:0:
256,128,104405,1,0,0:0:0:0:
256,128,105005,1,8,0:0:0:0:
256,128,105605,1,0,0:0:0:0:
256,128,106205,1,8,0:0:0:0:
256,128,106505,1,8,0:0:0:0:
256,128,106805,1,0,0:0:0:0:
256,128,108005,1,0,0:0:0:0:
256,128,108905,1,0,0:0:0:0:
256,128,109205,1,8,0:0:0:0:
256,128,109805,1,8,0:0:0:0:
256,128,110405,1,4,0:0:0:0:
256,128,111605,1,0,0:0:0:0:
256,128,111905,1,0,0:0:0:0:
272,125,112205,1,8,0:0:0:0:
256,128,112805,1,0,0:0:0:0:
251,114,113405,1,8,0:0:0:0:
256,128,114005,1,0,0:0:0:0:
256,128,114305,1,0,0:0:0:0:
256,128,114605,1,8,0:0:0:0:
256,128,115205,1,4,0:0:0:0:
256,128,115805,1,8,0:0:0:0:
256,128,116105,1,8,0:0:0:0:
256,128,116405,1,4,0:0:0:0:
256,128,117005,1,8,0:0:0:0:
256,128,117605,1,4,0:0:0:0:
256,128,118205,1,8,0:0:0:0:
256,128,118505,1,8,0:0:0:0:
256,128,118805,1,4,0:0:0:0:
256,128,119405,1,8,0:0:0:0:
256,128,120005,1,0,0:0:0:0:
256,128,121205,1,12,0:0:0:0:
256,128,121805,1,8,0:0:0:0:
256,128,122105,1,0,0:0:0:0:
256,128,122405,1,12,0:0:0:0:
256,128,123005,1,8,0:0:0:0:
256,128,123305,1,8,0:0:0:0:
256,128,123605,1,0,0:0:0:0:
256,128,124205,1,8,0:0:0:0:
256,128,124805,1,0,0:0:0:0:
256,128,125405,1,8,0:0:0:0:
256,128,125705,1,8,0:0:0:0:
256,128,126005,1,0,0:0:0:0:
256,128,127205,1,0,0:0:0:0:
256,128,128105,1,0,0:0:0:0:
256,128,128405,1,8,0:0:0:0:
256,128,129005,1,8,0:0:0:0:
256,128,129605,1,4,0:0:0:0:
256,128,130805,1,0,0:0:0:0:
256,128,131405,1,8,0:0:0:0:
256,128,132005,1,0,0:0:0:0:
256,128,132305,1,0,0:0:0:0:
256,128,132605,1,8,0:0:0:0:
256,192,133205,12,0,133805,0:0:0:0:
256,96,134405,5,0,0:0:0:0:
288,128,135005,1,8,0:0:0:0:
256,128,135605,1,0,0:0:0:0:
288,128,136205,1,8,0:0:0:0:
288,128,137405,1,8,0:0:0:0:
288,128,138005,1,0,0:0:0:0:
288,128,138305,1,0,0:0:0:0:
288,128,138605,1,8,0:0:0:0:
256,128,139205,1,0,0:0:0:0:
288,128,139805,1,8,0:0:0:0:
288,128,140105,1,0,0:0:0:0:
288,128,141005,1,8,0:0:0:0:
288,128,142205,1,8,0:0:0:0:
288,128,142505,1,0,0:0:0:0:
288,128,143405,1,8,0:0:0:0:
288,128,144005,1,0,0:0:0:0:
288,128,144605,1,8,0:0:0:0:
288,128,145205,1,0,0:0:0:0:
288,128,145805,1,8,0:0:0:0:
288,128,147005,1,8,0:0:0:0:
288,160,147605,1,0,0:0:0:0:
288,160,147905,1,0,0:0:0:0:
288,128,148205,1,8,0:0:0:0:
288,160,148805,1,0,0:0:0:0:
288,160,149405,1,8,0:0:0:0:
288,160,150605,1,8,0:0:0:0:
288,160,151205,1,0,0:0:0:0:
288,160,151805,1,8,0:0:0:0:
288,160,152405,1,0,0:0:0:0:
288,160,153005,1,8,0:0:0:0:
288,160,153605,1,0,0:0:0:0:
288,160,154205,1,8,0:0:0:0:
288,160,154805,1,0,0:0:0:0:
256,128,155405,1,8,0:0:0:0:
256,128,156605,1,8,0:0:0:0:
256,128,157205,1,0,0:0:0:0:
256,128,157805,1,8,0:0:0:0:
256,128,159005,1,8,0:0:0:0:
256,128,160205,1,8,0:0:0:0:
256,128,161405,1,8,0:0:0:0:
256,128,161705,1,0,0:0:0:0:
256,128,162605,1,8,0:0:0:0:
256,128,163205,1,0,0:0:0:0:
256,128,163805,1,8,0:0:0:0:
256,128,165005,1,8,0:0:0:0:
256,128,166205,1,8,0:0:0:0:
256,128,166805,1,0,0:0:0:0:
256,128,167405,1,8,0:0:0:0:
256,128,168605,1,8,0:0:0:0:
256,128,169805,1,8,0:0:0:0:
256,192,170405,12,0,172805,0:0:0:0:
