osu file format v14

[General]
AudioFilename: cursed song.mp3
AudioLeadIn: 0
PreviewTime: 94205
Countdown: 0
SampleSet: Normal
StackLeniency: 0.7
Mode: 1
LetterboxInBreaks: 0
WidescreenStoryboard: 0

[Editor]
DistanceSpacing: 0.4
BeatDivisor: 4
GridSize: 32
TimelineZoom: 1.5

[Metadata]
Title:fuego (sakuraburst remix)
TitleUnicode:fuego (sakuraburst remix)
Artist:KOAN Sound & Asa
ArtistUnicode:KOAN Sound & Asa
Creator:Nifty
Version:embers oni
Source:
Tags:neurofunk wub sanctuary ep
BeatmapID:1465469
BeatmapSetID:692383

[Difficulty]
HPDrainRate:5
CircleSize:2
OverallDifficulty:6
ApproachRate:2
SliderMultiplier:1.4
SliderTickRate:1

[Events]
//Background and Video events
0,0,"63801963_p0.jpg",0,-40
//Break Periods
//Storyboard Layer 0 (Background)
//Storyboard Layer 1 (Fail)
//Storyboard Layer 2 (Pass)
//Storyboard Layer 3 (Foreground)
//Storyboard Sound Samples

[TimingPoints]
5,300,4,1,0,50,1,0
5,-200,4,1,0,50,0,0
33605,300,4,1,0,50,1,0
33605,-200,4,1,0,50,0,0
34055,-172.413793103448,4,1,0,50,0,0
34205,-166.666666666667,4,1,0,50,0,0
34655,-147.058823529412,4,1,0,50,0,0
34805,-142.857142857143,4,1,0,50,0,0
35255,-128.205128205128,4,1,0,50,0,0
35405,-125,4,1,0,50,0,0
35855,-113.636363636364,4,1,0,50,0,0
36005,-111.111111111111,4,1,0,50,0,0
36305,-105.263157894737,4,1,0,50,0,0
36605,-95.2380952380952,4,1,0,50,0,0
36905,-86.9565217391304,4,1,0,50,0,0
37205,-80,4,1,0,50,0,0
37355,-83.3333333333333,4,1,0,50,0,0
37430,-85.4700854700855,4,1,0,50,0,0
37505,-87.719298245614,4,1,0,50,0,0
37955,-86.9565217391304,4,1,0,58,0,0
38105,-83.3333333333333,4,1,0,65,0,0
38255,-80,4,1,0,72,0,0
38405,-83.3333333333333,4,1,0,80,0,0
38705,-100,4,1,0,80,0,0
39455,-92.5925925925926,4,1,0,80,0,0
39530,-96.1538461538461,4,1,0,80,0,0
39605,-100,4,1,0,80,0,0
40130,-96.1538461538461,4,1,0,80,0,0
40205,-92.5925925925926,4,1,0,80,0,0
40505,-96.1538461538461,4,1,0,80,0,0
40805,-100,4,1,0,80,0,0
43205,-83.3333333333333,4,1,0,80,0,0
43655,-100,4,1,0,80,0,0
44630,-96.1538461538461,4,1,0,80,0,0
44705,-92.5925925925926,4,1,0,80,0,0
44855,-96.1538461538461,4,1,0,80,0,0
45005,-100,4,1,0,80,0,0
45155,-96.1538461538461,4,1,0,80,0,0
45305,-92.5925925925926,4,1,0,80,0,0
45605,-100,4,1,0,80,0,0
48005,-83.3333333333333,4,1,0,80,0,0
48305,-100,4,1,0,80,0,0
49205,-92.5925925925926,4,1,0,80,0,0
49280,-96.1538461538461,4,1,0,80,0,0
49355,-100,4,1,0,80,0,0
49730,-96.1538461538461,4,1,0,80,0,0
49805,-92.5925925925926,4,1,0,80,0,0
50105,-96.1538461538461,4,1,0,80,0,0
50405,-100,4,1,0,80,0,0
52805,-83.3333333333333,4,1,0,80,0,0
53255,-100,4,1,0,80,0,0
54230,-96.1538461538461,4,1,0,80,0,0
54305,-92.5925925925926,4,1,0,80,0,0
54455,-96.1538461538461,4,1,0,80,0,0
54605,-100,4,1,0,80,0,0
54755,-96.1538461538461,4,1,0,80,0,0
54905,-92.5925925925926,4,1,0,80,0,0
55205,-100,4,1,0,80,0,0
57305,-90.9090909090909,4,1,0,80,0,0
57455,-86.9565217391304,4,1,0,80,0,0
57605,-83.3333333333333,4,1,0,80,0,0
57905,-100,4,1,0,80,0,0
58655,-92.5925925925926,4,1,0,80,0,0
58730,-96.1538461538461,4,1,0,80,0,0
58805,-100,4,1,0,80,0,0
59330,-96.1538461538461,4,1,0,80,0,0
59405,-92.5925925925926,4,1,0,80,0,0
59705,-96.1538461538461,4,1,0,80,0,0
60005,-100,4,1,0,80,0,0
62405,-83.3333333333333,4,1,0,80,0,0
62855,-100,4,1,0,80,0,0
63830,-96.1538461538461,4,1,0,80,0,0
63905,-92.5925925925926,4,1,0,80,0,0
64055,-96.1538461538461,4,1,0,80,0,0
64205,-100,4,1,0,80,0,0
64355,-96.1538461538461,4,1,0,80,0,0
64505,-92.5925925925926,4,1,0,80,0,0
64805,-100,4,1,0,80,0,0
66605,-95.2380952380952,4,1,0,80,0,0
66680,-94.3396226415094,4,1,0,80,0,0
66755,-93.4579439252336,4,1,0,80,0,0
66905,-90.9090909090909,4,1,0,80,0,0
67055,-86.9565217391304,4,1,0,80,0,0
67205,-83.3333333333333,4,1,0,80,0,0
67505,-100,4,1,0,80,0,0
68405,-92.5925925925926,4,1,0,80,0,0
68480,-96.1538461538461,4,1,0,80,0,0
68555,-100,4,1,0,80,0,0
68930,-96.1538461538461,4,1,0,80,0,0
69005,-92.5925925925926,4,1,0,80,0,0
69305,-96.1538461538461,4,1,0,80,0,0
69605,-100,4,1,0,80,0,0
72005,-83.3333333333333,4,1,0,80,0,0
72455,-100,4,1,0,80,0,0
73430,-96.1538461538461,4,1,0,80,0,0
73505,-92.5925925925926,4,1,0,80,0,0
73655,-96.1538461538461,4,1,0,80,0,0
73805,-100,4,1,0,80,0,0
73955,-96.1538461538461,4,1,0,80,0,0
74105,-92.5925925925926,4,1,0,80,0,0
74405,-100,4,1,0,80,0,0
75605,-95.2380952380952,4,1,0,80,0,0
75755,-90.9090909090909,4,1,0,80,0,0
75905,-86.9565217391304,4,1,0,80,0,0
76205,-90.9090909090909,4,1,0,80,0,0
76355,-95.2380952380952,4,1,0,80,0,0
76505,-100,4,1,0,80,0,0
76655,-105.263157894737,4,1,0,80,0,0
76805,-111.111111111111,4,1,0,80,0,0
86405,-76.9230769230769,4,1,0,80,0,0
86855,-100,4,1,0,80,0,0
94355,-98.0392156862745,4,1,0,80,0,0
94655,-96.1538461538461,4,1,0,80,0,0
94805,-94.3396226415094,4,1,0,80,0,0
94955,-92.5925925925926,4,1,0,80,0,0
95105,-90.9090909090909,4,1,0,80,0,0
95255,-89.2857142857143,4,1,0,80,0,0
95405,-87.719298245614,4,1,0,80,0,0
95555,-86.2068965517241,4,1,0,80,0,0
95855,-84.7457627118644,4,1,0,80,0,0
96005,-83.3333333333333,4,1,0,80,0,1
96455,-86.9565217391304,4,1,0,80,0,1
96530,-87.719298245614,4,1,0,80,0,1
96605,-88.4955752212389,4,1,0,80,0,1
96755,-90.9090909090909,4,1,0,80,0,1
96905,-95.2380952380952,4,1,0,80,0,1
97205,-104.166666666667,4,1,0,80,0,1
97280,-101.010101010101,4,1,0,80,0,1
97355,-98.0392156862745,4,1,0,80,0,1
97430,-95.2380952380952,4,1,0,80,0,1
97505,-92.5925925925926,4,1,0,80,0,1
97580,-90.0900900900901,4,1,0,80,0,1
97655,-87.719298245614,4,1,0,80,0,1
97730,-85.4700854700855,4,1,0,80,0,1
97805,-83.3333333333333,4,1,0,80,0,1
97955,-80,4,1,0,80,0,1
98105,-76.9230769230769,4,1,0,80,0,1
98405,-69.4444444444444,4,1,0,80,0,1
98480,-70.9219858156028,4,1,0,80,0,1
98555,-72.463768115942,4,1,0,80,0,1
98630,-74.0740740740741,4,1,0,80,0,1
98705,-75.7575757575758,4,1,0,80,0,1
98780,-77.5193798449612,4,1,0,80,0,1
98855,-79.3650793650794,4,1,0,80,0,1
98930,-81.3008130081301,4,1,0,80,0,1
99005,-83.3333333333333,4,1,0,80,0,1
99155,-86.9565217391304,4,1,0,80,0,1
99305,-90.9090909090909,4,1,0,80,0,1
99605,-104.166666666667,4,1,0,80,0,1
99680,-101.010101010101,4,1,0,80,0,1
99755,-98.0392156862745,4,1,0,80,0,1
99830,-95.2380952380952,4,1,0,80,0,1
99905,-92.5925925925926,4,1,0,80,0,1
99980,-90.0900900900901,4,1,0,80,0,1
100055,-87.719298245614,4,1,0,80,0,1
100130,-85.4700854700855,4,1,0,80,0,1
100205,-83.3333333333333,4,1,0,80,0,1
100355,-81.9672131147541,4,1,0,80,0,1
100505,-80.6451612903226,4,1,0,80,0,1
100580,-80,4,1,0,80,0,1
100655,-79.3650793650794,4,1,0,80,0,1
100805,-76.9230769230769,4,1,0,80,0,1
101105,-83.3333333333333,4,1,0,80,0,1
101255,-86.9565217391304,4,1,0,80,0,1
101405,-90.9090909090909,4,1,0,80,0,1
101555,-95.2380952380952,4,1,0,80,0,1
101705,-100,4,1,0,80,0,1
102005,-104.166666666667,4,1,0,80,0,1
102080,-101.010101010101,4,1,0,80,0,1
102155,-98.0392156862745,4,1,0,80,0,1
102230,-95.2380952380952,4,1,0,80,0,1
102305,-92.5925925925926,4,1,0,80,0,1
102380,-90.0900900900901,4,1,0,80,0,1
102455,-87.719298245614,4,1,0,80,0,1
102530,-85.4700854700855,4,1,0,80,0,1
102605,-83.3333333333333,4,1,0,80,0,1
102755,-80,4,1,0,80,0,1
102905,-76.9230769230769,4,1,0,80,0,1
103205,-69.4444444444444,4,1,0,80,0,1
103280,-70.9219858156028,4,1,0,80,0,1
103355,-72.463768115942,4,1,0,80,0,1
103430,-74.0740740740741,4,1,0,80,0,1
103505,-75.7575757575758,4,1,0,80,0,1
103580,-77.5193798449612,4,1,0,80,0,1
103655,-79.3650793650794,4,1,0,80,0,1
103730,-81.3008130081301,4,1,0,80,0,1
103805,-83.3333333333333,4,1,0,80,0,1
103955,-86.9565217391304,4,1,0,80,0,1
104105,-90.9090909090909,4,1,0,80,0,1
104405,-104.166666666667,4,1,0,80,0,1
104480,-101.010101010101,4,1,0,80,0,1
104555,-98.0392156862745,4,1,0,80,0,1
104630,-95.2380952380952,4,1,0,80,0,1
104705,-92.5925925925926,4,1,0,80,0,1
104780,-90.0900900900901,4,1,0,80,0,1
104855,-87.719298245614,4,1,0,80,0,1
104930,-85.4700854700855,4,1,0,80,0,1
105005,-83.3333333333333,4,1,0,80,0,1
105605,-83.3333333333333,4,1,0,80,0,1
105905,-86.9565217391304,4,1,0,80,0,0
106355,-90.9090909090909,4,1,0,80,0,0
106505,-95.2380952380952,4,1,0,80,0,0
106805,-100,4,1,0,80,0,0
109655,-98.0392156862745,4,1,0,80,0,0
109805,-96.1538461538461,4,1,0,80,0,0
110105,-94.3396226415094,4,1,0,80,0,0
110255,-92.5925925925926,4,1,0,80,0,0
110405,-90.9090909090909,4,1,0,80,0,0
114455,-88.4955752212389,4,1,0,80,0,0
114605,-86.2068965517241,4,1,0,80,0,0
114905,-84.0336134453781,4,1,0,80,0,0
115055,-83.3333333333333,4,1,0,80,0,0
115205,-83.3333333333333,4,1,0,80,0,1
115655,-86.9565217391304,4,1,0,80,0,1
115955,-90.9090909090909,4,1,0,80,0,1
116105,-95.2380952380952,4,1,0,80,0,1
116405,-104.166666666667,4,1,0,80,0,1
116480,-101.010101010101,4,1,0,80,0,1
116555,-98.0392156862745,4,1,0,80,0,1
116630,-95.2380952380952,4,1,0,80,0,1
116705,-92.5925925925926,4,1,0,80,0,1
116780,-90.0900900900901,4,1,0,80,0,1
116855,-87.719298245614,4,1,0,80,0,1
116930,-85.4700854700855,4,1,0,80,0,1
117005,-83.3333333333333,4,1,0,80,0,1
117155,-80,4,1,0,80,0,1
117230,-79.6812749003984,4,1,0,80,0,1
117305,-78.7401574803149,4,1,0,80,0,1
117455,-76.9230769230769,4,1,0,80,0,1
117605,-69.4444444444444,4,1,0,80,0,1
117680,-70.9219858156028,4,1,0,80,0,1
117755,-72.463768115942,4,1,0,80,0,1
117830,-74.0740740740741,4,1,0,80,0,1
117905,-75.7575757575758,4,1,0,80,0,1
117980,-77.5193798449612,4,1,0,80,0,1
118055,-79.3650793650794,4,1,0,80,0,1
118130,-81.3008130081301,4,1,0,80,0,1
118205,-83.3333333333333,4,1,0,80,0,1
118355,-89.2857142857143,4,1,0,80,0,1
118430,-90.0900900900901,4,1,0,80,0,1
118505,-90.9090909090909,4,1,0,80,0,1
118655,-98.0392156862745,4,1,0,80,0,1
118805,-104.166666666667,4,1,0,80,0,1
118880,-101.010101010101,4,1,0,80,0,1
118955,-98.0392156862745,4,1,0,80,0,1
119030,-95.2380952380952,4,1,0,80,0,1
119105,-92.5925925925926,4,1,0,80,0,1
119180,-90.0900900900901,4,1,0,80,0,1
119255,-87.719298245614,4,1,0,80,0,1
119330,-85.4700854700855,4,1,0,80,0,1
119405,-83.3333333333333,4,1,0,80,0,1
119555,-81.3008130081301,4,1,0,80,0,1
119855,-79.3650793650794,4,1,0,80,0,1
120005,-76.9230769230769,4,1,0,80,0,1
120305,-80,4,1,0,80,0,1
120455,-83.3333333333333,4,1,0,80,0,1
120605,-86.9565217391304,4,1,0,80,0,1
120755,-90.9090909090909,4,1,0,80,0,1
120830,-91.743119266055,4,1,0,80,0,1
120905,-92.5925925925926,4,1,0,80,0,1
121205,-104.166666666667,4,1,0,80,0,1
121280,-101.010101010101,4,1,0,80,0,1
121355,-98.0392156862745,4,1,0,80,0,1
121430,-95.2380952380952,4,1,0,80,0,1
121505,-92.5925925925926,4,1,0,80,0,1
121580,-90.0900900900901,4,1,0,80,0,1
121655,-87.719298245614,4,1,0,80,0,1
121730,-85.4700854700855,4,1,0,80,0,1
121805,-83.3333333333333,4,1,0,80,0,1
121955,-80,4,1,0,80,0,1
122030,-79.3650793650794,4,1,0,80,0,1
122105,-78.7401574803149,4,1,0,80,0,1
122255,-76.9230769230769,4,1,0,80,0,1
122405,-69.4444444444444,4,1,0,80,0,1
122480,-70.9219858156028,4,1,0,80,0,1
122555,-72.463768115942,4,1,0,80,0,1
122630,-74.0740740740741,4,1,0,80,0,1
122705,-75.7575757575758,4,1,0,80,0,1
122780,-77.5193798449612,4,1,0,80,0,1
122855,-79.3650793650794,4,1,0,80,0,1
122930,-81.3008130081301,4,1,0,80,0,1
123005,-83.3333333333333,4,1,0,80,0,1
123155,-89.2857142857143,4,1,0,80,0,1
123230,-90.9090909090909,4,1,0,80,0,1
123305,-92.5925925925926,4,1,0,80,0,1
123455,-100,4,1,0,80,0,1
123605,-104.166666666667,4,1,0,80,0,1
123680,-101.010101010101,4,1,0,80,0,1
123755,-98.0392156862745,4,1,0,80,0,1
123830,-95.2380952380952,4,1,0,80,0,1
123905,-92.5925925925926,4,1,0,80,0,1
123980,-90.0900900900901,4,1,0,80,0,1
124055,-87.719298245614,4,1,0,80,0,1
124130,-85.4700854700855,4,1,0,80,0,1
124205,-83.3333333333333,4,1,0,80,0,1
124805,-83.3333333333333,4,1,0,80,0,1
125105,-86.9565217391304,4,1,0,80,0,0
125555,-90.9090909090909,4,1,0,80,0,0
125705,-95.2380952380952,4,1,0,80,0,0
126005,-100,4,1,0,80,0,0
128855,-98.0392156862745,4,1,0,80,0,0
129005,-96.1538461538461,4,1,0,80,0,0
129305,-94.3396226415094,4,1,0,80,0,0
129455,-93.0232558139535,4,1,0,80,0,0
129605,-90.9090909090909,4,1,0,80,0,0
133130,-90.9090909090909,4,1,0,5,0,0
134405,-125,4,1,0,80,0,0
139280,-121.951219512195,4,1,0,80,0,0
139355,-119.047619047619,4,1,0,80,0,0
139505,-125,4,1,0,80,0,0
144080,-121.951219512195,4,1,0,80,0,0
144155,-119.047619047619,4,1,0,80,0,0
144305,-125,4,1,0,80,0,0
148880,-121.951219512195,4,1,0,80,0,0
148955,-119.047619047619,4,1,0,80,0,0
149105,-125,4,1,0,80,0,0
151655,-128.205128205128,4,1,0,80,0,0
151805,-131.578947368421,4,1,0,80,0,0
151955,-135.135135135135,4,1,0,80,0,0
152255,-138.888888888889,4,1,0,80,0,0
152405,-142.857142857143,4,1,0,80,0,0
152855,-147.058823529412,4,1,0,80,0,0
153005,-151.515151515152,4,1,0,80,0,0
153455,-166.666666666667,4,1,0,80,0,0
153680,-163.934426229508,4,1,0,70,0,0
153755,-161.290322580645,4,1,0,60,0,0
153905,-166.666666666667,4,1,0,50,0,0
170105,-178.571428571429,4,1,0,50,0,0
170405,-192.307692307692,4,1,0,10,0,0

[HitObjects]
256,64,33605,5,0,0:0:0:0:
256,64,34055,1,0,0:0:0:0:
256,64,34205,1,0,0:0:0:0:
256,64,34655,1,0,0:0:0:0:
256,64,34805,1,0,0:0:0:0:
256,64,35255,1,0,0:0:0:0:
256,64,35405,1,0,0:0:0:0:
256,64,35855,1,0,0:0:0:0:
256,64,36005,1,0,0:0:0:0:
256,64,36305,1,0,0:0:0:0:
256,64,36605,1,0,0:0:0:0:
256,64,36905,1,0,0:0:0:0:
256,64,37205,1,0,0:0:0:0:
256,64,37355,1,8,0:0:0:0:
256,64,37430,1,0,0:0:0:0:
256,64,37505,1,0,0:0:0:0:
256,64,37655,1,0,0:0:0:0:
256,64,37805,1,8,0:0:0:0:
256,64,37955,1,0,0:0:0:0:
256,64,38105,1,0,0:0:0:0:
256,64,38255,1,8,0:0:0:0:
256,64,38405,1,4,0:0:0:0:
256,64,38705,1,0,0:0:0:0:
256,64,38780,1,0,0:0:0:0:
256,64,38855,1,0,0:0:0:0:
256,64,39005,1,8,0:0:0:0:
256,64,39155,1,0,0:0:0:0:
256,64,39305,1,0,0:0:0:0:
256,64,39455,1,8,0:0:0:0:
256,64,39530,1,0,0:0:0:0:
256,64,39605,1,0,0:0:0:0:
256,64,39755,1,0,0:0:0:0:
256,64,39905,1,8,0:0:0:0:
256,64,40055,1,0,0:0:0:0:
256,64,40130,1,0,0:0:0:0:
256,64,40205,1,8,0:0:0:0:
256,64,40505,1,8,0:0:0:0:
256,64,40805,1,0,0:0:0:0:
256,64,40955,1,0,0:0:0:0:
256,64,41030,1,0,0:0:0:0:
256,64,41105,1,0,0:0:0:0:
256,64,41255,1,0,0:0:0:0:
256,64,41405,1,8,0:0:0:0:
256,64,41555,1,0,0:0:0:0:
256,64,41630,1,0,0:0:0:0:
256,64,41705,1,8,0:0:0:0:
256,64,41780,1,8,0:0:0:0:
256,64,41855,1,0,0:0:0:0:
256,64,42005,1,0,0:0:0:0:
256,64,42155,1,8,0:0:0:0:
256,64,42230,1,0,0:0:0:0:
256,64,42305,1,8,0:0:0:0:
256,64,42455,1,0,0:0:0:0:
256,64,42530,1,0,0:0:0:0:
256,64,42605,1,8,0:0:0:0:
256,64,42755,1,8,0:0:0:0:
256,64,42905,1,0,0:0:0:0:
256,64,43205,1,4,0:0:0:0:
256,64,43655,1,0,0:0:0:0:
256,64,43805,1,8,0:0:0:0:
256,64,43955,1,0,0:0:0:0:
256,64,44030,1,0,0:0:0:0:
256,64,44105,1,8,0:0:0:0:
256,64,44255,1,8,0:0:0:0:
256,64,44555,1,8,0:0:0:0:
256,64,44630,1,8,0:0:0:0:
256,64,44705,1,8,0:0:0:0:
256,64,44855,1,8,0:0:0:0:
256,64,45005,1,8,0:0:0:0:
256,64,45155,1,0,0:0:0:0:
256,64,45305,1,8,0:0:0:0:
256,64,45605,1,0,0:0:0:0:
256,64,45755,1,8,0:0:0:0:
256,64,46055,1,0,0:0:0:0:
256,64,46205,1,8,0:0:0:0:
256,64,46355,1,0,0:0:0:0:
256,64,46430,1,0,0:0:0:0:
256,64,46505,1,0,0:0:0:0:
256,64,46655,1,8,0:0:0:0:
256,64,46955,1,0,0:0:0:0:
256,64,47105,1,8,0:0:0:0:
256,64,47255,1,0,0:0:0:0:
256,64,47405,1,0,0:0:0:0:
256,64,47555,1,8,0:0:0:0:
256,64,47705,1,8,0:0:0:0:
256,64,47780,1,8,0:0:0:0:
256,64,47855,1,0,0:0:0:0:
256,64,48005,1,4,0:0:0:0:
288,64,48305,1,0,0:0:0:0:
288,64,48380,1,0,0:0:0:0:
256,64,48455,1,0,0:0:0:0:
256,64,48605,1,8,0:0:0:0:
256,64,48755,1,0,0:0:0:0:
256,64,48905,1,0,0:0:0:0:
256,64,49055,1,8,0:0:0:0:
256,64,49205,1,0,0:0:0:0:
256,64,49280,1,8,0:0:0:0:
256,64,49355,1,0,0:0:0:0:
256,64,49505,1,8,0:0:0:0:
256,64,49655,1,0,0:0:0:0:
256,64,49730,1,0,0:0:0:0:
256,64,49805,1,8,0:0:0:0:
256,64,50105,1,8,0:0:0:0:
256,64,50405,1,0,0:0:0:0:
256,64,50855,1,0,0:0:0:0:
256,64,51005,1,8,0:0:0:0:
256,64,51155,1,0,0:0:0:0:
256,64,51230,1,0,0:0:0:0:
256,64,51305,1,8,0:0:0:0:
256,64,51380,1,8,0:0:0:0:
256,64,51455,1,0,0:0:0:0:
256,64,51605,1,0,0:0:0:0:
256,64,51755,1,8,0:0:0:0:
256,64,51830,1,0,0:0:0:0:
256,64,51905,1,8,0:0:0:0:
256,64,52055,1,0,0:0:0:0:
256,64,52130,1,0,0:0:0:0:
256,64,52205,1,8,0:0:0:0:
256,64,52355,1,8,0:0:0:0:
256,64,52505,1,0,0:0:0:0:
256,64,52805,1,4,0:0:0:0:
256,64,53255,1,0,0:0:0:0:
256,64,53405,1,8,0:0:0:0:
256,64,53555,1,0,0:0:0:0:
256,64,53630,1,0,0:0:0:0:
256,64,53705,1,8,0:0:0:0:
256,64,53855,1,8,0:0:0:0:
256,64,54155,1,8,0:0:0:0:
256,64,54230,1,8,0:0:0:0:
256,64,54305,1,8,0:0:0:0:
256,64,54455,1,8,0:0:0:0:
256,64,54605,1,8,0:0:0:0:
256,64,54755,1,0,0:0:0:0:
256,64,54905,1,8,0:0:0:0:
256,64,55205,1,0,0:0:0:0:
256,64,55355,1,8,0:0:0:0:
256,64,55505,1,8,0:0:0:0:
256,64,55655,1,0,0:0:0:0:
256,64,55805,1,8,0:0:0:0:
256,64,55880,1,8,0:0:0:0:
256,64,55955,1,0,0:0:0:0:
256,64,56105,1,0,0:0:0:0:
256,64,56255,1,8,0:0:0:0:
256,64,56555,1,8,0:0:0:0:
256,64,56855,1,0,0:0:0:0:
256,64,57005,1,8,0:0:0:0:
256,64,57155,1,8,0:0:0:0:
256,64,57305,1,0,0:0:0:0:
256,64,57455,1,0,0:0:0:0:
256,64,57605,1,4,0:0:0:0:
256,64,57905,1,0,0:0:0:0:
256,64,57980,1,0,0:0:0:0:
256,64,58055,1,0,0:0:0:0:
256,64,58205,1,8,0:0:0:0:
256,64,58355,1,0,0:0:0:0:
256,64,58505,1,0,0:0:0:0:
256,64,58655,1,8,0:0:0:0:
256,64,58730,1,0,0:0:0:0:
256,64,58805,1,0,0:0:0:0:
256,64,58955,1,0,0:0:0:0:
256,64,59105,1,8,0:0:0:0:
256,64,59255,1,0,0:0:0:0:
256,64,59330,1,0,0:0:0:0:
256,64,59405,1,8,0:0:0:0:
256,64,59705,1,8,0:0:0:0:
256,64,60005,1,0,0:0:0:0:
256,64,60455,1,0,0:0:0:0:
256,64,60605,1,8,0:0:0:0:
256,64,60755,1,0,0:0:0:0:
256,64,60830,1,0,0:0:0:0:
256,64,60905,1,8,0:0:0:0:
256,64,60980,1,8,0:0:0:0:
256,64,61055,1,0,0:0:0:0:
256,64,61205,1,0,0:0:0:0:
256,64,61355,1,8,0:0:0:0:
256,64,61430,1,0,0:0:0:0:
256,64,61505,1,8,0:0:0:0:
256,64,61655,1,0,0:0:0:0:
256,64,61730,1,0,0:0:0:0:
256,64,61805,1,8,0:0:0:0:
256,64,61955,1,0,0:0:0:0:
256,64,62105,1,8,0:0:0:0:
256,64,62405,1,4,0:0:0:0:
256,64,62855,1,0,0:0:0:0:
256,64,63005,1,8,0:0:0:0:
256,64,63155,1,0,0:0:0:0:
256,64,63230,1,0,0:0:0:0:
256,64,63305,1,8,0:0:0:0:
256,64,63455,1,8,0:0:0:0:
256,64,63755,1,8,0:0:0:0:
256,64,63830,1,8,0:0:0:0:
256,64,63905,1,8,0:0:0:0:
256,64,64055,1,8,0:0:0:0:
256,64,64205,1,8,0:0:0:0:
256,64,64355,1,0,0:0:0:0:
256,64,64505,1,8,0:0:0:0:
256,64,64805,1,0,0:0:0:0:
256,64,64955,1,8,0:0:0:0:
256,64,65105,1,8,0:0:0:0:
256,64,65180,1,0,0:0:0:0:
256,64,65255,1,0,0:0:0:0:
256,64,65405,1,8,0:0:0:0:
256,64,65555,1,0,0:0:0:0:
256,64,65705,1,0,0:0:0:0:
256,64,65855,1,8,0:0:0:0:
256,64,66155,1,0,0:0:0:0:
256,64,66305,1,8,0:0:0:0:
256,64,66455,1,0,0:0:0:0:
256,64,66605,1,8,0:0:0:0:
256,64,66680,1,0,0:0:0:0:
256,64,66755,1,8,0:0:0:0:
256,64,66905,1,8,0:0:0:0:
256,64,67055,1,0,0:0:0:0:
256,64,67205,1,4,0:0:0:0:
224,64,67505,1,0,0:0:0:0:
256,64,67580,1,0,0:0:0:0:
256,64,67655,1,0,0:0:0:0:
256,64,67805,1,8,0:0:0:0:
256,64,67955,1,0,0:0:0:0:
256,64,68105,1,0,0:0:0:0:
256,64,68255,1,8,0:0:0:0:
256,32,68405,1,0,0:0:0:0:
256,32,68480,1,8,0:0:0:0:
256,32,68555,1,0,0:0:0:0:
256,64,68705,1,8,0:0:0:0:
256,64,68855,1,0,0:0:0:0:
256,64,68930,1,0,0:0:0:0:
256,64,69005,1,8,0:0:0:0:
256,32,69305,1,8,0:0:0:0:
256,64,69605,1,0,0:0:0:0:
256,64,70055,1,0,0:0:0:0:
256,64,70205,1,8,0:0:0:0:
256,64,70355,1,0,0:0:0:0:
256,64,70430,1,0,0:0:0:0:
256,64,70505,1,8,0:0:0:0:
256,64,70580,1,8,0:0:0:0:
256,64,70655,1,0,0:0:0:0:
256,64,70805,1,0,0:0:0:0:
256,64,70955,1,8,0:0:0:0:
256,64,71105,1,8,0:0:0:0:
256,64,71180,1,8,0:0:0:0:
256,64,71255,1,0,0:0:0:0:
256,64,71405,1,8,0:0:0:0:
256,64,71555,1,8,0:0:0:0:
256,64,71705,1,0,0:0:0:0:
256,64,72005,1,4,0:0:0:0:
256,64,72455,1,0,0:0:0:0:
256,64,72605,1,8,0:0:0:0:
256,64,72755,1,0,0:0:0:0:
256,64,72830,1,0,0:0:0:0:
256,64,72905,1,8,0:0:0:0:
256,64,73055,1,8,0:0:0:0:
256,64,73355,1,8,0:0:0:0:
256,64,73430,1,8,0:0:0:0:
256,64,73505,1,8,0:0:0:0:
256,64,73655,1,8,0:0:0:0:
256,64,73805,1,8,0:0:0:0:
256,64,73955,1,0,0:0:0:0:
256,64,74105,1,8,0:0:0:0:
256,64,74405,1,0,0:0:0:0:
256,64,74555,1,8,0:0:0:0:
256,64,74855,1,0,0:0:0:0:
256,64,75005,1,8,0:0:0:0:
256,64,75155,1,0,0:0:0:0:
256,64,75305,1,8,0:0:0:0:
256,64,75380,1,8,0:0:0:0:
256,64,75455,1,0,0:0:0:0:
256,64,75605,1,0,0:0:0:0:
256,64,75755,1,8,0:0:0:0:
256,64,75905,1,0,0:0:0:0:
256,64,76205,1,8,0:0:0:0:
256,64,76355,1,0,0:0:0:0:
256,64,76505,1,0,0:0:0:0:
256,64,76655,1,0,0:0:0:0:
256,64,76805,1,4,0:0:0:0:
256,64,77255,1,8,0:0:0:0:
256,64,77555,1,8,0:0:0:0:
256,64,77705,1,0,0:0:0:0:
256,64,77855,1,8,0:0:0:0:
256,64,78005,1,0,0:0:0:0:
256,64,78605,1,8,0:0:0:0:
256,64,79655,1,8,0:0:0:0:
256,64,80255,1,8,0:0:0:0:
256,64,80405,1,0,0:0:0:0:
256,64,80705,1,0,0:0:0:0:
256,64,80855,1,0,0:0:0:0:
256,64,81005,1,8,0:0:0:0:
256,64,81155,1,8,0:0:0:0:
256,64,81305,1,0,0:0:0:0:
256,64,81455,1,0,0:0:0:0:
256,64,81605,1,4,0:0:0:0:
256,64,82055,1,0,0:0:0:0:
256,64,82130,1,0,0:0:0:0:
256,64,82205,1,0,0:0:0:0:
256,64,82355,1,0,0:0:0:0:
256,64,82505,1,8,0:0:0:0:
256,64,82655,1,8,0:0:0:0:
256,64,83405,1,0,0:0:0:0:
256,64,83705,1,8,0:0:0:0:
256,96,84005,1,0,0:0:0:0:
256,64,84755,1,0,0:0:0:0:
256,64,84905,1,8,0:0:0:0:
256,64,85055,1,8,0:0:0:0:
256,64,85355,1,8,0:0:0:0:
256,64,85655,1,0,0:0:0:0:
256,64,85805,1,8,0:0:0:0:
256,64,86405,1,4,0:0:0:0:
256,64,86855,1,0,0:0:0:0:
256,64,87005,1,8,0:0:0:0:
256,64,87155,1,8,0:0:0:0:
256,64,87305,1,0,0:0:0:0:
256,64,87455,1,8,0:0:0:0:
256,64,87605,1,0,0:0:0:0:
256,64,87905,1,0,0:0:0:0:
256,64,88205,1,8,0:0:0:0:
256,64,88805,1,0,0:0:0:0:
256,64,89255,1,0,0:0:0:0:
256,64,89405,1,8,0:0:0:0:
256,64,89705,1,0,0:0:0:0:
256,64,89855,1,8,0:0:0:0:
256,64,90005,1,0,0:0:0:0:
256,64,90305,1,0,0:0:0:0:
256,64,90605,1,8,0:0:0:0:
256,64,90905,1,0,0:0:0:0:
256,64,91205,1,0,0:0:0:0:
256,64,91655,1,0,0:0:0:0:
256,64,91805,1,8,0:0:0:0:
256,64,91955,1,0,0:0:0:0:
256,64,92105,1,8,0:0:0:0:
256,64,92255,1,8,0:0:0:0:
256,64,92555,1,8,0:0:0:0:
256,64,92705,1,0,0:0:0:0:
256,64,93005,1,8,0:0:0:0:
256,64,93305,1,8,0:0:0:0:
256,64,93605,1,0,0:0:0:0:
256,64,94205,1,8,0:0:0:0:
256,64,94355,1,0,0:0:0:0:
256,64,94655,1,8,0:0:0:0:
256,64,94805,1,0,0:0:0:0:
256,64,94955,1,0,0:0:0:0:
256,64,95105,1,8,0:0:0:0:
256,64,95255,1,0,0:0:0:0:
256,64,95405,1,8,0:0:0:0:
256,64,95555,1,0,0:0:0:0:
256,64,95630,1,0,0:0:0:0:
256,64,95705,1,8,0:0:0:0:
256,64,95855,1,8,0:0:0:0:
256,64,96005,1,4,0:0:0:0:
256,64,96305,1,8,0:0:0:0:
256,64,96455,1,0,0:0:0:0:
256,64,96530,1,0,0:0:0:0:
256,64,96605,1,0,0:0:0:0:
256,64,96755,1,8,0:0:0:0:
256,64,96905,1,0,0:0:0:0:
256,64,97205,1,8,0:0:0:0:
256,64,97280,1,8,0:0:0:0:
256,64,97355,1,8,0:0:0:0:
256,64,97430,1,8,0:0:0:0:
256,64,97505,1,8,0:0:0:0:
256,64,97580,1,8,0:0:0:0:
256,64,97655,1,8,0:0:0:0:
256,64,97730,1,8,0:0:0:0:
256,64,97805,1,0,0:0:0:0:
256,64,97955,1,0,0:0:0:0:
256,64,98105,1,8,0:0:0:0:
256,64,98405,1,0,0:0:0:0:
256,64,98480,1,0,0:0:0:0:
256,64,98555,1,8,0:0:0:0:
256,64,98630,1,8,0:0:0:0:
256,64,98705,1,8,0:0:0:0:
256,64,98780,1,8,0:0:0:0:
256,64,98855,1,8,0:0:0:0:
256,64,98930,1,8,0:0:0:0:
256,64,99005,1,0,0:0:0:0:
256,64,99155,1,0,0:0:0:0:
256,64,99305,1,8,0:0:0:0:
256,64,99605,1,8,0:0:0:0:
256,64,99680,1,8,0:0:0:0:
256,64,99755,1,8,0:0:0:0:
256,64,99830,1,8,0:0:0:0:
256,64,99905,1,8,0:0:0:0:
256,64,99980,1,8,0:0:0:0:
256,64,100055,1,8,0:0:0:0:
256,64,100130,1,8,0:0:0:0:
256,64,100205,1,0,0:0:0:0:
256,64,100355,1,0,0:0:0:0:
256,64,100505,1,8,0:0:0:0:
256,64,100580,1,0,0:0:0:0:
256,64,100655,1,8,0:0:0:0:
256,64,100805,1,4,0:0:0:0:
256,64,101105,1,0,0:0:0:0:
256,64,101255,1,0,0:0:0:0:
256,64,101405,1,8,0:0:0:0:
256,64,101555,1,0,0:0:0:0:
256,64,101705,1,8,0:0:0:0:
256,64,102005,1,0,0:0:0:0:
256,64,102080,1,0,0:0:0:0:
256,64,102155,1,0,0:0:0:0:
256,64,102230,1,0,0:0:0:0:
256,64,102305,1,0,0:0:0:0:
256,64,102380,1,0,0:0:0:0:
256,64,102455,1,0,0:0:0:0:
256,64,102530,1,0,0:0:0:0:
256,64,102605,1,8,0:0:0:0:
256,64,102755,1,0,0:0:0:0:
256,64,102905,1,8,0:0:0:0:
256,64,103205,1,8,0:0:0:0:
256,64,103280,1,8,0:0:0:0:
256,64,103355,1,0,0:0:0:0:
256,64,103430,1,0,0:0:0:0:
256,64,103505,1,0,0:0:0:0:
256,64,103580,1,0,0:0:0:0:
256,64,103655,1,0,0:0:0:0:
256,64,103730,1,0,0:0:0:0:
256,64,103805,1,8,0:0:0:0:
256,64,103955,1,0,0:0:0:0:
256,64,104105,1,8,0:0:0:0:
256,64,104405,1,0,0:0:0:0:
256,64,104480,1,8,0:0:0:0:
256,64,104555,1,0,0:0:0:0:
256,64,104630,1,8,0:0:0:0:
256,64,104705,1,0,0:0:0:0:
256,64,104780,1,0,0:0:0:0:
256,64,104855,1,0,0:0:0:0:
256,64,104930,1,0,0:0:0:0:
256,64,105005,1,8,0:0:0:0:
256,64,105155,1,0,0:0:0:0:
256,64,105305,1,8,0:0:0:0:
256,64,105380,1,0,0:0:0:0:
256,64,105455,1,8,0:0:0:0:
256,64,105605,1,0,0:0:0:0:
256,64,105680,1,0,0:0:0:0:
256,64,105755,1,0,0:0:0:0:
256,64,105905,1,8,0:0:0:0:
256,64,106055,1,0,0:0:0:0:
256,64,106130,1,0,0:0:0:0:
256,64,106205,1,8,0:0:0:0:
256,64,106355,1,0,0:0:0:0:
256,64,106505,1,8,0:0:0:0:
256,64,106805,1,0,0:0:0:0:
256,64,106955,1,8,0:0:0:0:
256,64,107255,1,8,0:0:0:0:
256,64,107405,1,8,0:0:0:0:
256,64,107855,1,8,0:0:0:0:
256,64,107930,1,0,0:0:0:0:
256,64,108005,1,0,0:0:0:0:
256,64,108155,1,8,0:0:0:0:
256,64,108455,1,0,0:0:0:0:
256,64,108605,1,8,0:0:0:0:
256,64,108755,1,8,0:0:0:0:
256,64,108905,1,0,0:0:0:0:
256,64,109205,1,0,0:0:0:0:
256,64,109355,1,8,0:0:0:0:
256,64,109655,1,0,0:0:0:0:
256,64,109805,1,8,0:0:0:0:
256,64,109880,1,8,0:0:0:0:
256,64,109955,1,8,0:0:0:0:
256,64,110105,1,8,0:0:0:0:
256,64,110255,1,8,0:0:0:0:
256,64,110405,1,4,0:0:0:0:
256,64,110705,1,8,0:0:0:0:
256,64,110855,1,0,0:0:0:0:
256,64,111005,1,8,0:0:0:0:
256,64,111305,1,8,0:0:0:0:
256,64,111455,1,8,0:0:0:0:
256,64,111605,1,0,0:0:0:0:
256,64,111680,1,8,0:0:0:0:
256,64,111755,1,0,0:0:0:0:
256,64,111830,1,8,0:0:0:0:
256,64,111905,1,0,0:0:0:0:
256,64,112055,1,0,0:0:0:0:
256,64,112205,1,8,0:0:0:0:
256,64,112355,1,0,0:0:0:0:
256,64,112430,1,0,0:0:0:0:
256,64,112505,1,0,0:0:0:0:
256,64,112655,1,8,0:0:0:0:
256,64,112805,1,0,0:0:0:0:
256,64,112880,1,8,0:0:0:0:
256,64,112955,1,0,0:0:0:0:
256,64,113030,1,8,0:0:0:0:
256,64,113105,1,0,0:0:0:0:
256,64,113255,1,0,0:0:0:0:
256,64,113405,1,8,0:0:0:0:
256,64,113555,1,0,0:0:0:0:
256,64,113630,1,0,0:0:0:0:
256,64,113705,1,0,0:0:0:0:
256,64,113855,1,8,0:0:0:0:
256,64,114005,1,0,0:0:0:0:
256,64,114080,1,8,0:0:0:0:
256,64,114155,1,0,0:0:0:0:
256,64,114230,1,8,0:0:0:0:
256,64,114305,1,0,0:0:0:0:
256,64,114455,1,0,0:0:0:0:
256,64,114605,1,8,0:0:0:0:
256,64,114680,1,0,0:0:0:0:
256,64,114755,1,8,0:0:0:0:
256,64,114905,1,0,0:0:0:0:
256,64,115055,1,8,0:0:0:0:
256,64,115130,1,8,0:0:0:0:
256,64,115205,1,4,0:0:0:0:
256,64,115505,1,8,0:0:0:0:
256,64,115655,1,0,0:0:0:0:
256,64,115730,1,0,0:0:0:0:
256,64,115805,1,0,0:0:0:0:
256,64,115955,1,8,0:0:0:0:
256,64,116105,1,0,0:0:0:0:
224,64,116405,1,8,0:0:0:0:
256,64,116480,1,8,0:0:0:0:
224,64,116555,1,8,0:0:0:0:
256,64,116630,1,8,0:0:0:0:
224,64,116705,1,8,0:0:0:0:
288,64,116780,1,8,0:0:0:0:
224,64,116855,1,8,0:0:0:0:
256,64,116930,1,8,0:0:0:0:
224,64,117005,1,0,0:0:0:0:
256,64,117155,1,0,0:0:0:0:
256,64,117230,1,0,0:0:0:0:
256,64,117305,1,8,0:0:0:0:
256,64,117455,1,8,0:0:0:0:
256,64,117605,1,0,0:0:0:0:
256,64,117680,1,0,0:0:0:0:
256,64,117755,1,0,0:0:0:0:
256,64,117830,1,0,0:0:0:0:
256,64,117905,1,0,0:0:0:0:
256,64,117980,1,0,0:0:0:0:
256,64,118055,1,0,0:0:0:0:
256,64,118130,1,0,0:0:0:0:
256,64,118205,1,8,0:0:0:0:
256,64,118355,1,0,0:0:0:0:
256,64,118430,1,0,0:0:0:0:
256,64,118505,1,8,0:0:0:0:
256,64,118655,1,0,0:0:0:0:
256,64,118805,1,8,0:0:0:0:
256,64,118880,1,8,0:0:0:0:
256,64,118955,1,8,0:0:0:0:
256,64,119030,1,8,0:0:0:0:
256,64,119105,1,8,0:0:0:0:
256,64,119180,1,8,0:0:0:0:
256,64,119255,1,8,0:0:0:0:
256,64,119330,1,8,0:0:0:0:
256,64,119405,1,0,0:0:0:0:
256,64,119555,1,8,0:0:0:0:
256,64,119630,1,0,0:0:0:0:
256,64,119705,1,8,0:0:0:0:
256,64,119855,1,0,0:0:0:0:
256,64,120005,1,8,0:0:0:0:
256,64,120080,1,8,0:0:0:0:
256,64,120155,1,0,0:0:0:0:
256,64,120305,1,8,0:0:0:0:
256,64,120455,1,0,0:0:0:0:
256,64,120605,1,8,0:0:0:0:
256,64,120755,1,0,0:0:0:0:
256,64,120830,1,0,0:0:0:0:
256,64,120905,1,8,0:0:0:0:
256,64,121205,1,0,0:0:0:0:
256,64,121280,1,0,0:0:0:0:
256,64,121355,1,0,0:0:0:0:
256,64,121430,1,0,0:0:0:0:
256,64,121505,1,0,0:0:0:0:
256,64,121580,1,0,0:0:0:0:
256,64,121655,1,0,0:0:0:0:
256,64,121730,1,0,0:0:0:0:
256,64,121805,1,8,0:0:0:0:
256,64,121955,1,0,0:0:0:0:
256,64,122030,1,0,0:0:0:0:
256,64,122105,1,8,0:0:0:0:
256,64,122255,1,0,0:0:0:0:
256,64,122405,1,8,0:0:0:0:
256,64,122480,1,8,0:0:0:0:
256,64,122555,1,8,0:0:0:0:
256,64,122630,1,8,0:0:0:0:
256,64,122705,1,8,0:0:0:0:
256,64,122780,1,8,0:0:0:0:
256,64,122855,1,8,0:0:0:0:
256,64,122930,1,8,0:0:0:0:
256,64,123005,1,0,0:0:0:0:
256,64,123155,1,8,0:0:0:0:
256,64,123230,1,0,0:0:0:0:
256,64,123305,1,8,0:0:0:0:
256,64,123455,1,8,0:0:0:0:
256,64,123605,1,0,0:0:0:0:
256,64,123680,1,8,0:0:0:0:
256,64,123755,1,0,0:0:0:0:
256,64,123830,1,8,0:0:0:0:
256,64,123905,1,0,0:0:0:0:
256,64,123980,1,0,0:0:0:0:
256,64,124055,1,0,0:0:0:0:
256,64,124130,1,0,0:0:0:0:
256,64,124205,1,8,0:0:0:0:
256,64,124355,1,0,0:0:0:0:
256,64,124430,1,0,0:0:0:0:
256,64,124505,1,8,0:0:0:0:
256,64,124655,1,0,0:0:0:0:
256,64,124805,1,8,0:0:0:0:
256,64,124880,1,8,0:0:0:0:
256,64,124955,1,0,0:0:0:0:
256,64,125105,1,8,0:0:0:0:
256,64,125255,1,0,0:0:0:0:
256,64,125330,1,0,0:0:0:0:
256,64,125405,1,8,0:0:0:0:
256,64,125555,1,0,0:0:0:0:
256,64,125705,1,8,0:0:0:0:
256,64,126005,1,0,0:0:0:0:
256,64,126155,1,8,0:0:0:0:
256,64,126455,1,8,0:0:0:0:
256,64,126605,1,8,0:0:0:0:
256,64,127055,1,8,0:0:0:0:
256,64,127130,1,0,0:0:0:0:
256,64,127205,1,0,0:0:0:0:
256,64,127355,1,8,0:0:0:0:
256,64,127655,1,8,0:0:0:0:
256,64,127805,1,8,0:0:0:0:
256,64,127955,1,0,0:0:0:0:
256,64,128105,1,8,0:0:0:0:
256,64,128405,1,0,0:0:0:0:
256,64,128555,1,8,0:0:0:0:
256,64,128855,1,0,0:0:0:0:
256,64,129005,1,8,0:0:0:0:
256,64,129080,1,8,0:0:0:0:
256,64,129155,1,8,0:0:0:0:
256,64,129305,1,8,0:0:0:0:
256,32,129455,1,8,0:0:0:0:
256,64,129605,1,4,0:0:0:0:
256,64,129905,1,0,0:0:0:0:
256,64,130055,1,8,0:0:0:0:
256,64,130205,1,8,0:0:0:0:
256,64,130355,1,0,0:0:0:0:
256,64,130505,1,8,0:0:0:0:
256,64,130805,1,8,0:0:0:0:
256,64,130880,1,0,0:0:0:0:
256,64,130955,1,8,0:0:0:0:
256,64,131030,1,0,0:0:0:0:
256,64,131105,1,8,0:0:0:0:
256,64,131255,1,0,0:0:0:0:
256,64,131405,1,8,0:0:0:0:
256,64,131555,1,0,0:0:0:0:
256,64,131630,1,0,0:0:0:0:
256,64,131705,1,0,0:0:0:0:
256,64,131855,1,0,0:0:0:0:
256,64,132005,1,8,0:0:0:0:
256,64,132080,1,0,0:0:0:0:
256,64,132155,1,8,0:0:0:0:
256,64,132230,1,0,0:0:0:0:
256,64,132305,1,8,0:0:0:0:
256,64,132455,1,0,0:0:0:0:
256,64,132605,1,8,0:0:0:0:
256,64,132755,1,0,0:0:0:0:
256,64,132830,1,0,0:0:0:0:
256,64,132905,1,0,0:0:0:0:
256,64,133055,1,8,0:0:0:0:
256,192,133205,12,0,134255,0:0:0:0:
256,96,134405,5,0,0:0:0:0:
256,96,134855,5,8,0:0:0:0:
256,64,135005,1,0,0:0:0:0:
256,64,135155,1,8,0:0:0:0:
256,64,135305,1,0,0:0:0:0:
256,64,135455,1,0,0:0:0:0:
256,64,135605,1,8,0:0:0:0:
256,64,136205,1,8,0:0:0:0:
256,64,137255,1,0,0:0:0:0:
256,64,137405,1,8,0:0:0:0:
256,64,137555,1,0,0:0:0:0:
256,64,137855,1,8,0:0:0:0:
256,64,138005,1,0,0:0:0:0:
256,64,138305,1,8,0:0:0:0:
256,64,138455,1,0,0:0:0:0:
256,64,138605,1,8,0:0:0:0:
256,64,138755,1,8,0:0:0:0:
256,64,138905,1,0,0:0:0:0:
256,64,139205,1,0,0:0:0:0:
256,64,139280,1,8,0:0:0:0:
256,64,139355,1,8,0:0:0:0:
256,64,139655,1,0,0:0:0:0:
256,64,139805,1,8,0:0:0:0:
256,64,139955,1,0,0:0:0:0:
256,64,140105,1,8,0:0:0:0:
256,64,140255,1,8,0:0:0:0:
256,64,141005,1,8,0:0:0:0:
256,64,142205,1,8,0:0:0:0:
256,64,142355,1,0,0:0:0:0:
256,64,142505,1,0,0:0:0:0:
256,64,142655,1,8,0:0:0:0:
256,64,142805,1,0,0:0:0:0:
256,64,142955,1,8,0:0:0:0:
256,64,143255,1,0,0:0:0:0:
256,64,143405,1,8,0:0:0:0:
256,64,144005,1,0,0:0:0:0:
256,64,144080,1,0,0:0:0:0:
256,64,144155,1,8,0:0:0:0:
256,64,144455,1,0,0:0:0:0:
256,64,144605,1,8,0:0:0:0:
256,64,144755,1,0,0:0:0:0:
256,64,144905,1,0,0:0:0:0:
256,64,145055,1,8,0:0:0:0:
256,64,145205,1,0,0:0:0:0:
256,64,145805,1,8,0:0:0:0:
256,64,146855,1,0,0:0:0:0:
256,64,147005,1,8,0:0:0:0:
256,64,147455,1,8,0:0:0:0:
256,64,147605,1,0,0:0:0:0:
256,64,147905,1,8,0:0:0:0:
256,64,148055,1,0,0:0:0:0:
256,64,148205,1,8,0:0:0:0:
256,64,148805,1,0,0:0:0:0:
256,64,148880,1,8,0:0:0:0:
256,64,148955,1,8,0:0:0:0:
256,64,149255,1,0,0:0:0:0:
256,64,149405,1,8,0:0:0:0:
256,64,150605,1,8,0:0:0:0:
256,64,151205,1,0,0:0:0:0:
256,64,151655,1,0,0:0:0:0:
256,64,151805,1,8,0:0:0:0:
256,64,151955,1,0,0:0:0:0:
256,64,152255,1,0,0:0:0:0:
256,64,152405,1,0,0:0:0:0:
256,64,152855,1,0,0:0:0:0:
256,64,153005,1,8,0:0:0:0:
256,64,153455,1,8,0:0:0:0:
256,64,153605,1,0,0:0:0:0:
224,64,153680,1,0,0:0:0:0:
256,64,153755,1,8,0:0:0:0:
256,64,154055,1,0,0:0:0:0:
256,64,154205,1,8,0:0:0:0:
256,64,154355,1,0,0:0:0:0:
256,64,154505,1,0,0:0:0:0:
256,64,154655,1,8,0:0:0:0:
256,64,154805,1,0,0:0:0:0:
256,64,155405,1,8,0:0:0:0:
256,64,156455,1,0,0:0:0:0:
256,64,156605,1,8,0:0:0:0:
256,64,157055,1,8,0:0:0:0:
256,64,157205,1,0,0:0:0:0:
256,64,157505,1,8,0:0:0:0:
256,64,157655,1,0,0:0:0:0:
256,64,157805,1,8,0:0:0:0:
256,64,158105,1,0,0:0:0:0:
256,64,158405,1,0,0:0:0:0:
256,64,158855,1,0,0:0:0:0:
256,64,159005,1,8,0:0:0:0:
256,64,159155,1,0,0:0:0:0:
256,64,159305,1,8,0:0:0:0:
256,64,159455,1,8,0:0:0:0:
256,64,160205,1,8,0:0:0:0:
256,64,160505,1,0,0:0:0:0:
256,64,160805,1,0,0:0:0:0:
256,64,161255,1,0,0:0:0:0:
256,64,161405,1,8,0:0:0:0:
224,32,161555,1,0,0:0:0:0:
224,32,161705,1,0,0:0:0:0:
224,32,161855,1,8,0:0:0:0:
256,64,162155,1,8,0:0:0:0:
256,64,162455,1,0,0:0:0:0:
256,64,162605,1,8,0:0:0:0:
256,64,163205,1,8,0:0:0:0:
256,64,163655,1,0,0:0:0:0:
256,64,163805,1,8,0:0:0:0:
256,64,163955,1,8,0:0:0:0:
256,64,164105,1,0,0:0:0:0:
256,64,164255,1,8,0:0:0:0:
256,64,165005,1,8,0:0:0:0:
256,64,166055,1,0,0:0:0:0:
256,64,166205,1,8,0:0:0:0:
256,64,166655,1,8,0:0:0:0:
256,64,166805,1,0,0:0:0:0:
256,64,167105,1,0,0:0:0:0:
256,64,167405,1,8,0:0:0:0:
256,64,167705,1,0,0:0:0:0:
256,64,168005,1,0,0:0:0:0:
256,64,168455,1,0,0:0:0:0:
256,64,168605,1,8,0:0:0:0:
256,64,168755,1,0,0:0:0:0:
256,64,168905,1,8,0:0:0:0:
256,64,169055,1,8,0:0:0:0:
256,64,169805,1,8,0:0:0:0:
256,64,170105,1,8,0:0:0:0:
256,192,170405,12,8,172805,0:0:0:0:
