osu file format v14

[General]
AudioFilename: audio.mp3
AudioLeadIn: 0
PreviewTime: 94730
Countdown: 0
SampleSet: None
StackLeniency: 0.7
Mode: 0
LetterboxInBreaks: 0
WidescreenStoryboard: 1

[Editor]
Bookmarks: 5,33605,37505,37805,38105,38405,57605,76505,76805,100505,100805,115205,119705,120005,151205,153605
DistanceSpacing: 1.2
BeatDivisor: 4
GridSize: 4
TimelineZoom: 2.5

[Metadata]
Title:fuego (sakuraburst remix)
TitleUnicode:fuego (sakuraburst remix)
Artist:KOAN Sound & Asa
ArtistUnicode:KOAN Sound & Asa
Creator:Egotrip
Version:Normal
Source:
Tags:Frey KOAN sound asa sakuraburst remix
BeatmapID:1419566
BeatmapSetID:669318

[Difficulty]
HPDrainRate:3
CircleSize:3.5
OverallDifficulty:3
ApproachRate:5
SliderMultiplier:0.9
SliderTickRate:1

[Events]
//Background and Video events
0,0,"33974448_p0.jpg",0,0
//Break Periods
2,77005,93485
//Storyboard Layer 0 (Background)
//Storyboard Layer 1 (Fail)
//Storyboard Layer 2 (Pass)
//Storyboard Layer 3 (Foreground)
//Storyboard Sound Samples

[TimingPoints]
5,300,4,3,1,40,1,0
33605,-133.333333333333,4,3,1,40,0,0

[Colours]
Combo1 : 106,103,167
Combo2 : 143,107,121
Combo3 : 205,165,218
Combo4 : 77,36,55
Combo5 : 183,64,196
Combo6 : 110,110,110

[HitObjects]
48,104,33605,6,0,L|160:96,1,101.250003862381
180,76,34205,2,0,P|192:120|188:176,1,101.250003862381
156,196,34805,6,0,P|144:240|152:296,1,101.250003862381
172,328,35405,2,0,B|224:340|224:340|280:328,1,101.250003862381
304,308,36005,5,0,0:0:0:0:
276,232,36305,1,0,0:0:0:0:
336,180,36605,2,0,L|412:172,1,67.5000025749207
484,168,37205,6,0,P|492:208|484:244,1,67.5000025749207
492,316,37805,2,0,L|384:308,1,101.250003862381,2|0,0:0|0:0,0:0:0:0:
352,320,38405,6,0,L|244:312,1,101.250003862381,12|0,0:0|0:0,0:0:0:0:
212,308,39005,2,0,L|208:356,2,33.7500012874604,2|0|0,0:0|0:0|0:0,0:0:0:0:
148,256,39605,6,0,P|132:224|144:152,1,101.250003862381,8|0,0:0|0:0,0:0:0:0:
168,132,40205,2,0,L|248:128,1,67.5000025749207,2|0,0:0|0:0,0:0:0:0:
316,116,40805,6,0,B|364:104|364:104|424:116,1,101.250003862381,12|0,0:0|0:0,0:0:0:0:
448,136,41405,2,0,L|452:88,2,33.7500012874604,2|0|0,0:0|0:0|0:0,0:0:0:0:
488,208,42005,6,0,P|504:260|488:312,1,101.250003862381,8|0,0:0|0:0,0:0:0:0:
468,336,42605,2,0,L|400:332,1,67.5000025749207,2|0,0:0|0:0,0:0:0:0:
332,292,43205,6,0,L|264:296,1,67.5000025749207,12|0,0:0|0:0,0:0:0:0:
204,352,43805,2,0,P|184:316|192:256,1,101.250003862381,2|0,0:0|0:0,0:0:0:0:
252,208,44555,2,8,L|300:204,2,33.7500012874604
252,128,45155,2,8,L|300:124,2,33.7500012874604
216,112,45605,6,0,P|168:96|112:104,1,101.250003862381,4|0,0:0|0:0,0:0:0:0:
84,76,46205,2,0,P|93:129|92:176,1,101.250003862381,2|0,0:0|0:0,0:0:0:0:
52,248,46955,2,8,L|8:240,2,33.7500012874604
76,280,47405,2,0,L|188:276,1,101.250003862381,2|0,0:0|0:0,0:0:0:0:
212,296,48005,6,0,L|324:292,1,101.250003862381,12|0,0:0|0:0,0:0:0:0:
352,300,48605,2,0,L|356:344,2,33.7500012874604,2|0|0,0:0|0:0|0:0,0:0:0:0:
424,260,49205,6,0,L|432:160,1,101.250003862381,8|0,0:0|0:0,0:0:0:0:
456,128,49805,2,0,L|376:132,1,67.5000025749208,2|0,0:0|0:0,0:0:0:0:
320,88,50405,6,0,P|264:72|216:88,1,101.250003862381,12|0,0:0|0:0,0:0:0:0:
184,96,51005,2,0,L|160:64,2,33.7500012874604,2|0|0,0:0|0:0|0:0,0:0:0:0:
212,172,51605,6,0,L|104:176,1,101.250003862381,8|0,0:0|0:0,0:0:0:0:
72,164,52205,2,0,P|64:200|68:232,1,67.5000025749208,2|0,0:0|0:0,0:0:0:0:
76,312,52805,6,0,L|148:308,1,67.5000025749208,12|0,0:0|0:0,0:0:0:0:
216,344,53405,2,0,L|328:340,1,101.250003862381,2|0,0:0|0:0,0:0:0:0:
392,304,54155,6,8,P|400:324|400:348,2,33.7500012874604
416,228,54755,2,8,P|435:236|452:253,2,33.7500012874604
380,208,55205,6,0,P|332:192|276:200,1,101.250003862381,4|0,0:0|0:0,0:0:0:0:
248,176,55805,2,0,L|256:276,1,101.250003862381,2|0,0:0|0:0,0:0:0:0:
248,356,56555,2,0,L|144:348,1,101.250003862381
80,308,57305,1,8,0:0:0:0:
148,264,57605,6,0,L|256:256,1,101.250003862381,12|0,0:0|0:0,0:0:0:0:
288,252,58205,2,0,L|292:300,2,33.7500012874604,2|0|0,0:0|0:0|0:0,0:0:0:0:
352,200,58805,6,0,P|368:168|356:96,1,101.250003862381,8|0,0:0|0:0,0:0:0:0:
332,76,59405,2,0,L|252:72,1,67.5000025749207,2|0,0:0|0:0,0:0:0:0:
184,60,60005,6,0,B|136:48|136:48|76:60,1,101.250003862381,12|0,0:0|0:0,0:0:0:0:
52,80,60605,2,0,L|48:32,2,33.7500012874604,2|0|0,0:0|0:0|0:0,0:0:0:0:
12,152,61205,6,0,P|-4:204|12:256,1,101.250003862381,8|0,0:0|0:0,0:0:0:0:
32,280,61805,2,0,L|100:276,1,67.5000025749207,2|0,0:0|0:0,0:0:0:0:
168,236,62405,6,0,L|236:240,1,67.5000025749207,12|0,0:0|0:0,0:0:0:0:
296,296,63005,2,0,P|316:260|308:200,1,101.250003862381,2|0,0:0|0:0,0:0:0:0:
248,152,63755,6,8,L|200:148,2,33.7500012874604
248,72,64355,2,8,L|200:68,2,33.7500012874604
284,56,64805,6,0,P|332:40|388:48,1,101.250003862381,12|0,0:0|0:0,0:0:0:0:
416,20,65405,2,0,L|408:120,1,101.250003862381,2|0,0:0|0:0,0:0:0:0:
448,192,66155,2,8,L|492:184,2,33.7500012874604
424,224,66605,2,0,L|312:220,1,101.250003862381,2|0,0:0|0:0,0:0:0:0:
288,240,67205,6,0,L|176:236,1,101.250003862381,4|0,0:0|0:0,0:0:0:0:
148,244,67805,2,0,L|144:288,2,33.7500012874604,2|0|0,0:0|0:0|0:0,0:0:0:0:
76,204,68405,2,0,P|76:152|68:104,1,101.250003862381,8|0,0:0|0:0,0:0:0:0:
44,72,69005,2,0,L|124:76,1,67.5000025749208,2|0,0:0|0:0,0:0:0:0:
180,32,69605,6,0,P|236:16|284:32,1,101.250003862381,12|0,0:0|0:0,0:0:0:0:
316,40,70205,2,0,L|340:8,2,33.7500012874604,2|0|0,0:0|0:0|0:0,0:0:0:0:
288,116,70805,2,0,L|396:120,1,101.250003862381,8|0,0:0|0:0,0:0:0:0:
428,108,71405,2,0,P|436:144|432:176,1,67.5000025749208,2|0,0:0|0:0,0:0:0:0:
424,256,72005,6,0,L|352:252,1,67.5000025749208,12|0,0:0|0:0,0:0:0:0:
284,288,72605,2,0,L|172:284,1,101.250003862381,2|0,0:0|0:0,0:0:0:0:
108,248,73355,6,8,P|100:268|100:292,2,33.7500012874604
84,172,73955,2,8,P|64:180|47:197,2,33.7500012874604
120,152,74405,6,0,P|168:136|224:144,1,101.250003862381,4|0,0:0|0:0,0:0:0:0:
252,120,75005,2,0,P|248:184|244:220,1,101.250003862381,2|0,0:0|0:0,0:0:0:0:
252,300,75755,2,0,L|356:292,1,101.250003862381
432,280,76505,5,8,0:0:0:0:
422,199,76805,1,12,0:0:0:0:
248,76,94805,6,8,L|316:72,2,67.5000025749208
172,48,95705,1,8,0:0:0:0:
132,116,96005,6,0,P|128:164|128:192,1,67.5000025749208,12|0,0:0|0:0,0:0:0:0:
188,232,96605,2,0,L|108:228,1,67.5000025749208,2|0,0:0|0:0,0:0:0:0:
60,176,97205,6,0,P|44:204|44:252,1,67.5000025749208,8|8,0:0|0:0,0:0:0:0:
88,304,97805,2,0,L|200:308,1,101.250003862381,2|0,0:0|0:0,0:0:0:0:
228,324,98405,6,0,L|296:328,1,67.5000025749208,8|8,0:0|0:0,0:0:0:0:
372,360,99005,2,0,P|380:328|380:256,1,101.250003862381,2|0,0:0|0:0,0:0:0:0:
364,224,99605,6,0,B|328:212|328:212|296:224,2,67.5000025749208,8|8|2,0:0|0:0|0:0,0:0:0:0:
440,196,100505,1,4,0:0:0:0:
500,140,100805,6,0,L|384:136,1,101.250003862381,8|0,0:0|0:0,0:0:0:0:
364,116,101405,2,0,L|296:112,1,67.5000025749208,2|0,0:0|0:0,0:0:0:0:
216,92,102005,6,0,B|208:72|208:72|216:16,2,67.5000025749208,8|8|2,0:0|0:0|0:0,0:0:0:0:
188,168,102905,1,0,0:0:0:0:
183,248,103205,6,0,P|217:243|245:225,1,67.5000025749208,8|8,0:0|0:0,0:0:0:0:
188,168,103805,2,0,L|108:164,1,67.5000025749208,2|0,0:0|0:0,0:0:0:0:
40,148,104405,6,0,P|28:184|32:256,1,101.250003862381,12|0,0:0|0:0,0:0:0:0:
56,276,105005,1,2,0:0:0:0:
108,336,105305,2,0,L|216:332,1,101.250003862381,4|0,0:0|0:0,0:0:0:0:
248,340,105905,6,0,L|324:336,1,67.5000025749208,8|2,0:0|0:0,0:0:0:0:
396,352,106505,1,0,0:0:0:0:
464,308,106805,6,0,B|472:264|464:208,1,101.250003862381,8|0,0:0|0:0,0:0:0:0:
428,188,107405,2,0,B|420:144|428:88,1,101.250003862381,2|0,0:0|0:0,0:0:0:0:
468,76,108005,6,0,L|356:72,1,101.250003862381,8|0,0:0|0:0,0:0:0:0:
336,48,108605,1,2,0:0:0:0:
264,80,108905,2,8,P|260:96|264:124,1,33.7500012874604
288,144,109205,6,0,P|300:184|292:248,1,101.250003862381,12|0,0:0|0:0,0:0:0:0:
320,272,109805,2,0,L|208:260,1,101.250003862381,2|0,0:0|0:0,0:0:0:0:
180,276,110405,6,0,L|68:264,1,101.250003862381,4|0,0:0|0:0,0:0:0:0:
44,244,111005,1,2,0:0:0:0:
24,164,111305,1,8,0:0:0:0:
56,88,111605,6,0,L|164:84,1,101.250003862381,8|0,0:0|0:0,0:0:0:0:
192,64,112205,1,2,0:0:0:0:
260,108,112505,1,8,0:0:0:0:
320,52,112805,6,0,L|432:48,1,101.250003862381,8|0,0:0|0:0,0:0:0:0:
452,20,113405,2,0,P|440:72|452:128,1,101.250003862381,2|0,0:0|0:0,0:0:0:0:
480,140,114005,6,0,P|492:192|480:248,1,101.250003862381,8|0,0:0|0:0,0:0:0:0:
496,272,114605,2,0,L|420:272,1,67.5000025749208,2|0,0:0|0:0,0:0:0:0:
372,324,115205,5,4,0:0:0:0:
300,288,115505,1,8,0:0:0:0:
236,336,115805,2,0,L|156:340,1,67.5000025749208,2|0,0:0|0:0,0:0:0:0:
88,344,116405,6,8,P|80:308|84:272,1,67.5000025749208
156,240,117005,2,0,P|104:248|56:220,1,101.250003862381,2|0,0:0|0:0,0:0:0:0:
40,192,117605,6,8,B|48:160|40:120,1,67.5000025749208
12,48,118205,2,0,L|128:44,1,101.250003862381,2|0,0:0|0:0,0:0:0:0:
148,68,118805,6,0,L|224:64,2,67.5000025749208,8|8|2,0:0|0:0|0:0,0:0:0:0:
172,144,119705,1,4,0:0:0:0:
232,200,120005,6,0,L|308:196,1,67.5000025749208,8|0,0:0|0:0,0:0:0:0:
380,184,120605,2,0,P|392:224|388:256,1,67.5000025749208,2|0,0:0|0:0,0:0:0:0:
332,308,121205,5,8,0:0:0:0:
252,292,121505,1,8,0:0:0:0:
196,352,121805,2,0,L|88:348,1,101.250003862381,2|0,0:0|0:0,0:0:0:0:
60,368,122405,6,8,P|60:340|44:296,1,67.5000025749208
12,228,123005,2,0,L|120:224,1,101.250003862381,2|0,0:0|0:0,0:0:0:0:
152,208,123605,6,8,L|228:204,1,67.5000025749208
288,164,124205,1,2,0:0:0:0:
348,220,124505,1,12,0:0:0:0:
408,168,124805,6,0,P|424:116|412:56,1,101.250003862381,8|0,0:0|0:0,0:0:0:0:
396,36,125405,2,0,B|360:28|360:28|320:36,1,67.5000025749208,2|0,0:0|0:0,0:0:0:0:
264,80,126005,6,0,B|228:88|228:88|188:80,1,67.5000025749208,8|0,0:0|0:0,0:0:0:0:
140,24,126605,2,0,P|145:77|144:136,1,101.250003862381,2|0,0:0|0:0,0:0:0:0:
120,156,127205,6,0,L|48:152,2,67.5000025749208,8|8|2,0:0|0:0|0:0,0:0:0:0:
196,184,128105,1,8,0:0:0:0:
272,212,128405,6,0,P|276:248|272:320,1,101.250003862381,4|0,0:0|0:0,0:0:0:0:
236,332,129005,2,0,L|352:328,1,101.250003862381,2|0,0:0|0:0,0:0:0:0:
372,348,129605,5,12,0:0:0:0:
452,328,129905,1,0,0:0:0:0:
492,256,130205,2,0,P|496:224|496:176,1,67.5000025749208,2|0,0:0|0:0,0:0:0:0:
452,120,130805,5,8,0:0:0:0:
372,100,131105,1,8,0:0:0:0:
320,160,131405,2,0,P|260:168|216:160,1,101.250003862381,2|0,0:0|0:0,0:0:0:0:
204,124,132005,6,0,P|160:116|104:124,1,101.250003862381,8|0,0:0|0:0,0:0:0:0:
72,148,132605,2,0,B|56:200|56:200|68:252,1,101.250003862381,2|0,0:0|0:0,0:0:0:0:
88,280,133205,6,0,L|200:276,1,101.250003862381,8|0,0:0|0:0,0:0:0:0:
228,288,133805,2,0,L|340:284,1,101.250003862381
352,316,134405,6,0,P|352:268|360:208,1,101.250003862381,4|0,0:0|0:0,0:0:0:0:
376,180,135005,2,0,L|488:176,1,101.250003862381
500,168,135605,2,0,P|508:128|500:64,1,101.250003862381
472,40,136205,1,0,0:0:0:0:
148,40,137405,6,0,P|148:88|156:148,1,101.250003862381
172,176,138005,2,0,L|244:180,1,67.5000025749208
304,128,138605,1,0,0:0:0:0:
380,160,138905,1,0,0:0:0:0:
436,216,139205,6,0,P|444:256|436:320,1,101.250003862381
412,348,139805,2,0,L|336:348,1,67.5000025749208
308,364,140255,1,0,0:0:0:0:
140,252,141005,6,0,P|128:208|140:116,2,135.000005149842
208,292,142505,1,0,0:0:0:0:
260,228,142805,5,0,0:0:0:0:
324,276,143105,1,0,0:0:0:0:
380,220,143405,2,0,L|460:216,1,67.5000025749208
324,276,144005,6,0,P|304:248|312:176,1,101.250003862381
336,156,144605,2,0,P|348:104|336:56,1,101.250003862381
312,24,145205,2,0,L|236:24,1,67.5000025749208
164,16,145805,2,0,P|128:140|152:244,1,236.250009012223
188,260,147005,6,0,L|296:252,1,101.250003862381
328,256,147605,2,0,L|396:252,1,67.5000025749208
476,244,148205,1,0,0:0:0:0:
464,324,148505,1,0,0:0:0:0:
380,332,148805,6,0,L|312:336,1,67.5000025749208
272,332,149255,2,0,L|171:339,1,101.250003862381
132,348,149855,2,0,P|120:304|124:240,1,101.250003862381
184,196,150605,2,0,L|256:192,1,67.5000025749208
332,192,151205,6,0,B|340:140|340:140|324:84,1,101.250003862381
300,64,151805,2,0,P|256:44|196:68,1,101.250003862381
200,96,152405,6,0,P|156:116|96:92,1,101.250003862381
84,68,153005,2,0,L|80:184,1,101.250003862381
48,196,153605,6,0,P|88:196|140:236,1,101.250003862381
164,260,154205,2,0,P|204:260|256:220,1,101.250003862381
244,184,154805,2,0,L|356:188,1,101.250003862381
380,164,155405,1,0,0:0:0:0:
164,260,156605,6,0,B|108:268|108:268|56:256,1,101.250003862381
28,244,157205,2,0,B|16:204|32:176,1,67.5000025749208
88,120,157805,1,0,0:0:0:0:
160,156,158105,1,0,0:0:0:0:
224,104,158405,6,0,L|332:100,1,101.250003862381
364,88,159005,2,0,P|380:136|380:164,1,67.5000025749208
368,192,159455,1,0,0:0:0:0:
184,340,160205,5,0,0:0:0:0:
252,296,160505,1,0,0:0:0:0:
316,348,160805,2,0,L|424:344,1,101.250003862381
456,340,161405,2,0,P|464:304|460:236,1,101.250003862381
436,208,162005,5,0,0:0:0:0:
360,240,162305,1,0,0:0:0:0:
300,188,162605,1,0,0:0:0:0:
204,56,163205,6,0,L|96:52,1,101.250003862381
64,40,163805,2,0,P|56:88|56:148,1,101.250003862381
40,176,164405,2,0,B|108:164|108:164|184:188,1,135.000005149842
321,249,166055,1,0,0:0:0:0:
321,249,166205,6,0,L|217:257,1,101.250003862381
181,249,166805,2,0,P|171:214|171:178,1,67.5000025749208
204,112,167405,1,0,0:0:0:0:
280,140,167705,1,0,0:0:0:0:
336,80,168005,6,0,L|444:76,1,101.250003862381
472,56,168605,2,0,P|480:100|476:164,1,101.250003862381
396,344,169805,5,0,0:0:0:0:
316,340,170105,1,0,0:0:0:0:
236,336,170405,1,0,0:0:0:0:
256,192,170480,12,0,172805,0:0:0:0:
