osu file format v14

[General]
AudioFilename: audio (cut by A r M i N).mp3
AudioLeadIn: 0
PreviewTime: 94409
Countdown: 0
SampleSet: None
StackLeniency: 0.7
Mode: 3
LetterboxInBreaks: 0
SpecialStyle: 0
WidescreenStoryboard: 1

[Editor]
DistanceSpacing: 1.1
BeatDivisor: 4
GridSize: 4
TimelineZoom: 2.6

[Metadata]
Title:fuego (sakuraburst remix)
TitleUnicode:fuego (sakuraburst remix)
Artist:KOAN Sound & Asa
ArtistUnicode:KOAN Sound & Asa
Creator:Couil
Version:NM
Source:
Tags:experimental electronic music SV
BeatmapID:1313122
BeatmapSetID:622946

[Difficulty]
HPDrainRate:7
CircleSize:4
OverallDifficulty:7
ApproachRate:5
SliderMultiplier:1.4
SliderTickRate:1

[Events]
//Background and Video events
0,0,"Elegant-Art-of-Girl-Crazy-Background.jpg",0,0
//Break Periods
//Storyboard Layer 0 (Background)
//Storyboard Layer 1 (Fail)
//Storyboard Layer 2 (Pass)
//Storyboard Layer 3 (Foreground)
//Storyboard Sound Samples

[TimingPoints]
59,300,4,3,1,80,1,0
97259,-100,4,3,1,80,0,1
110459,-100,4,3,1,80,0,0
116459,-100,4,3,1,80,0,1
129659,-100,4,3,1,80,0,0

[HitObjects]
64,192,19259,5,0,0:0:0:0:
448,192,19259,1,0,0:0:0:0:
320,192,19709,1,0,0:0:0:0:
192,192,19859,1,8,0:0:0:0:
448,192,20459,1,0,0:0:0:0:
192,192,20459,1,0,0:0:0:0:
64,192,20909,1,0,0:0:0:0:
320,192,21059,1,8,0:0:0:0:
448,192,21659,1,0,0:0:0:0:
64,192,21659,1,0,0:0:0:0:
320,192,22109,1,0,0:0:0:0:
192,192,22259,1,8,0:0:0:0:
64,192,22859,1,0,0:0:0:0:
320,192,22859,1,0,0:0:0:0:
448,192,23309,128,0,23609:0:0:0:0:
64,192,23459,1,8,0:0:0:0:
192,192,23759,128,0,24059:0:0:0:0:
448,192,24059,1,0,0:0:0:0:
64,192,24059,1,0,0:0:0:0:
320,192,24509,1,0,0:0:0:0:
64,192,24659,1,8,0:0:0:0:
192,192,25146,128,0,25259:0:0:0:0:
320,192,25259,1,0,0:0:0:0:
448,192,25259,1,0,0:0:0:0:
448,192,25559,128,0,25859:0:0:0:0:
64,192,25709,1,0,0:0:0:0:
320,192,25859,1,8,0:0:0:0:
64,192,26459,1,0,0:0:0:0:
448,192,26459,1,0,0:0:0:0:
320,192,26909,1,0,0:0:0:0:
192,192,27059,1,8,0:0:0:0:
448,192,27359,128,0,27959:0:0:0:0:
192,192,27659,1,0,0:0:0:0:
64,192,27659,1,0,0:0:0:0:
320,192,27959,128,0,28559:0:0:0:0:
64,192,28259,1,8,0:0:0:0:
192,192,28559,128,8,28859:0:0:0:0:
64,192,28859,1,0,0:0:0:0:
448,192,28859,1,0,0:0:0:0:
320,192,29309,1,0,0:0:0:0:
192,192,29459,1,8,0:0:0:0:
64,192,29759,1,0,0:0:0:0:
320,192,29909,1,0,0:0:0:0:
192,192,30059,1,0,0:0:0:0:
448,192,30059,1,0,0:0:0:0:
320,192,30509,1,0,0:0:0:0:
192,192,30659,1,8,0:0:0:0:
320,192,30959,128,0,31259:0:0:0:0:
64,192,31259,1,0,0:0:0:0:
448,192,31259,1,0,0:0:0:0:
192,192,31709,1,0,0:0:0:0:
320,192,31859,1,8,0:0:0:0:
64,192,32159,1,0,0:0:0:0:
320,192,32309,1,0,0:0:0:0:
448,192,32459,1,0,0:0:0:0:
192,192,32459,1,0,0:0:0:0:
320,192,32909,1,0,0:0:0:0:
64,192,33059,1,8,0:0:0:0:
192,192,33359,128,0,33659:0:0:0:0:
448,192,33659,1,0,0:0:0:0:
64,192,33659,1,0,0:0:0:0:
320,192,34109,1,0,0:0:0:0:
192,192,34259,1,8,0:0:0:0:
64,192,34709,1,0,0:0:0:0:
448,192,34859,1,0,0:0:0:0:
320,192,35309,1,0,0:0:0:0:
64,192,35459,1,8,0:0:0:0:
192,192,35909,1,0,0:0:0:0:
448,192,36059,1,0,0:0:0:0:
64,192,36359,1,8,0:0:0:0:
448,192,36659,1,0,0:0:0:0:
64,192,36959,1,8,0:0:0:0:
320,192,37259,1,0,0:0:0:0:
448,192,37259,1,0,0:0:0:0:
320,192,37709,1,0,0:0:0:0:
64,192,37859,1,0,0:0:0:0:
192,192,37859,1,8,0:0:0:0:
448,192,38009,1,0,0:0:0:0:
64,192,38159,1,0,0:0:0:0:
320,192,38309,1,8,0:0:0:0:
448,192,38309,1,0,0:0:0:0:
64,192,38459,1,0,0:0:0:0:
192,192,38534,1,0,0:0:0:0:
448,192,38609,1,0,0:0:0:0:
320,192,38684,1,0,0:0:0:0:
64,192,38759,1,0,0:0:0:0:
192,192,38834,1,0,0:0:0:0:
320,192,38909,128,0,39059:0:0:0:0:
64,192,39059,1,8,0:0:0:0:
448,192,39209,128,0,39659:0:0:0:0:
64,192,39659,1,0,0:0:0:0:
320,192,39809,1,0,0:0:0:0:
64,192,39959,1,0,0:0:0:0:
448,192,39959,1,4,0:0:0:0:
192,192,40109,1,0,0:0:0:0:
320,192,40259,1,8,0:0:0:0:
192,192,40559,1,8,0:0:0:0:
64,192,40859,1,0,0:0:0:0:
320,192,40934,1,0,0:0:0:0:
448,192,41009,1,0,0:0:0:0:
64,192,41084,1,0,0:0:0:0:
192,192,41159,1,0,0:0:0:0:
320,192,41234,1,0,0:0:0:0:
448,192,41309,128,0,41459:0:0:0:0:
64,192,41459,1,8,0:0:0:0:
320,192,41609,128,0,41684:0:0:0:0:
448,192,41759,128,0,41834:0:0:0:0:
192,192,41909,128,0,42059:0:0:0:0:
448,192,42059,1,0,0:0:0:0:
64,192,42209,1,8,0:0:0:0:
320,192,42359,1,4,0:0:0:0:
448,192,42359,1,0,0:0:0:0:
192,192,42509,128,0,42584:0:0:0:0:
448,192,42659,1,8,0:0:0:0:
320,192,42809,1,0,0:0:0:0:
64,192,42959,1,0,0:0:0:0:
448,192,43259,1,0,0:0:0:0:
320,192,43334,1,0,0:0:0:0:
192,192,43409,1,0,0:0:0:0:
64,192,43484,1,0,0:0:0:0:
448,192,43559,1,0,0:0:0:0:
320,192,43634,1,0,0:0:0:0:
192,192,43709,128,0,43859:0:0:0:0:
448,192,43859,1,8,0:0:0:0:
64,192,44009,128,0,44159:0:0:0:0:
320,192,44159,128,0,44459:0:0:0:0:
448,192,44309,128,0,44459:0:0:0:0:
192,192,44609,1,0,0:0:0:0:
320,192,44684,1,0,0:0:0:0:
64,192,44759,1,0,0:0:0:0:
448,192,44909,1,0,0:0:0:0:
64,192,45059,1,0,0:0:0:0:
192,192,45059,1,12,0:0:0:0:
320,192,45209,128,0,45359:0:0:0:0:
192,192,45359,128,0,45509:0:0:0:0:
448,192,45659,1,0,0:0:0:0:
320,192,45734,1,0,0:0:0:0:
192,192,45809,1,0,0:0:0:0:
448,192,45884,1,0,0:0:0:0:
64,192,45959,1,4,0:0:0:0:
192,192,46034,1,0,0:0:0:0:
320,192,46109,128,0,46259:0:0:0:0:
64,192,46259,1,8,0:0:0:0:
448,192,46409,1,0,0:0:0:0:
192,192,46559,128,0,46859:0:0:0:0:
320,192,46709,128,0,46859:0:0:0:0:
64,192,47009,128,0,47159:0:0:0:0:
448,192,47159,1,4,0:0:0:0:
192,192,47159,1,0,0:0:0:0:
320,192,47309,128,0,47459:0:0:0:0:
192,192,47459,1,8,0:0:0:0:
64,192,47609,1,4,0:0:0:0:
448,192,47609,1,4,0:0:0:0:
320,192,47759,128,8,47909:0:0:0:0:
192,192,47909,128,8,48059:0:0:0:0:
448,192,48059,1,0,0:0:0:0:
320,192,48134,1,0,0:0:0:0:
64,192,48209,1,0,0:0:0:0:
192,192,48284,1,0,0:0:0:0:
448,192,48359,1,0,0:0:0:0:
320,192,48434,1,0,0:0:0:0:
192,192,48509,128,0,48659:0:0:0:0:
448,192,48659,1,8,0:0:0:0:
64,192,48809,128,0,49259:0:0:0:0:
448,192,49259,1,0,0:0:0:0:
192,192,49409,1,0,0:0:0:0:
448,192,49559,1,0,0:0:0:0:
64,192,49559,1,4,0:0:0:0:
320,192,49709,1,0,0:0:0:0:
192,192,49859,1,8,0:0:0:0:
320,192,50159,1,8,0:0:0:0:
448,192,50459,1,0,0:0:0:0:
192,192,50534,1,0,0:0:0:0:
64,192,50609,1,0,0:0:0:0:
448,192,50684,1,0,0:0:0:0:
320,192,50759,1,0,0:0:0:0:
192,192,50834,1,0,0:0:0:0:
64,192,50909,128,0,51059:0:0:0:0:
448,192,51059,1,8,0:0:0:0:
320,192,51209,128,0,51284:0:0:0:0:
192,192,51359,128,0,51434:0:0:0:0:
320,192,51509,128,0,51659:0:0:0:0:
64,192,51659,1,0,0:0:0:0:
448,192,51809,1,8,0:0:0:0:
192,192,51959,1,4,0:0:0:0:
64,192,51959,1,0,0:0:0:0:
320,192,52109,128,0,52184:0:0:0:0:
64,192,52259,1,8,0:0:0:0:
192,192,52409,1,0,0:0:0:0:
448,192,52559,1,0,0:0:0:0:
64,192,52859,1,0,0:0:0:0:
192,192,52934,1,0,0:0:0:0:
320,192,53009,1,0,0:0:0:0:
448,192,53084,1,0,0:0:0:0:
64,192,53159,1,0,0:0:0:0:
192,192,53234,1,0,0:0:0:0:
320,192,53309,128,0,53459:0:0:0:0:
64,192,53459,1,8,0:0:0:0:
448,192,53609,128,0,53759:0:0:0:0:
192,192,53759,128,0,54059:0:0:0:0:
64,192,53909,128,0,54059:0:0:0:0:
320,192,54209,1,0,0:0:0:0:
192,192,54284,1,0,0:0:0:0:
448,192,54359,1,0,0:0:0:0:
64,192,54509,1,0,0:0:0:0:
448,192,54659,1,0,0:0:0:0:
320,192,54659,1,12,0:0:0:0:
192,192,54809,128,0,54959:0:0:0:0:
320,192,54959,128,0,55109:0:0:0:0:
64,192,55259,1,0,0:0:0:0:
192,192,55334,1,0,0:0:0:0:
320,192,55409,1,0,0:0:0:0:
64,192,55484,1,0,0:0:0:0:
448,192,55559,1,4,0:0:0:0:
320,192,55634,1,0,0:0:0:0:
192,192,55709,128,0,55859:0:0:0:0:
448,192,55859,128,8,56009:0:0:0:0:
64,192,56009,1,0,0:0:0:0:
320,192,56159,1,0,0:0:0:0:
192,192,56309,1,8,0:0:0:0:
448,192,56609,1,4,0:0:0:0:
64,192,56609,1,0,0:0:0:0:
192,192,56909,1,0,0:0:0:0:
320,192,57059,1,8,0:0:0:0:
64,192,57209,1,0,0:0:0:0:
448,192,57359,1,0,0:0:0:0:
320,192,57509,128,8,57659:0:0:0:0:
64,192,57659,1,0,0:0:0:0:
192,192,57734,1,0,0:0:0:0:
448,192,57809,1,0,0:0:0:0:
320,192,57884,1,0,0:0:0:0:
64,192,57959,1,0,0:0:0:0:
192,192,58034,1,0,0:0:0:0:
320,192,58109,128,0,58259:0:0:0:0:
64,192,58259,1,8,0:0:0:0:
448,192,58409,128,0,58859:0:0:0:0:
64,192,58859,1,0,0:0:0:0:
320,192,59009,1,0,0:0:0:0:
64,192,59159,1,0,0:0:0:0:
448,192,59159,1,4,0:0:0:0:
192,192,59309,1,0,0:0:0:0:
320,192,59459,1,8,0:0:0:0:
192,192,59759,1,8,0:0:0:0:
64,192,60059,1,0,0:0:0:0:
320,192,60134,1,0,0:0:0:0:
448,192,60209,1,0,0:0:0:0:
64,192,60284,1,0,0:0:0:0:
192,192,60359,1,0,0:0:0:0:
320,192,60434,1,0,0:0:0:0:
448,192,60509,128,0,60659:0:0:0:0:
64,192,60659,1,8,0:0:0:0:
320,192,60809,128,0,60884:0:0:0:0:
448,192,60959,128,0,61034:0:0:0:0:
192,192,61109,128,0,61259:0:0:0:0:
448,192,61259,1,0,0:0:0:0:
64,192,61409,1,8,0:0:0:0:
320,192,61559,1,4,0:0:0:0:
448,192,61559,1,0,0:0:0:0:
192,192,61709,128,0,61784:0:0:0:0:
448,192,61859,1,8,0:0:0:0:
320,192,62009,1,0,0:0:0:0:
64,192,62159,1,8,0:0:0:0:
448,192,62459,1,0,0:0:0:0:
320,192,62534,1,0,0:0:0:0:
192,192,62609,1,0,0:0:0:0:
64,192,62684,1,0,0:0:0:0:
448,192,62759,1,0,0:0:0:0:
320,192,62834,1,0,0:0:0:0:
192,192,62909,128,0,63059:0:0:0:0:
448,192,63059,1,8,0:0:0:0:
64,192,63209,128,0,63359:0:0:0:0:
448,192,63359,128,0,63659:0:0:0:0:
320,192,63509,128,0,63659:0:0:0:0:
192,192,63809,1,0,0:0:0:0:
320,192,63884,1,0,0:0:0:0:
64,192,63959,1,0,0:0:0:0:
448,192,64109,1,0,0:0:0:0:
64,192,64259,1,0,0:0:0:0:
192,192,64259,1,12,0:0:0:0:
320,192,64409,128,0,64559:0:0:0:0:
192,192,64559,128,0,64709:0:0:0:0:
448,192,64859,1,0,0:0:0:0:
320,192,64934,1,0,0:0:0:0:
192,192,65009,1,0,0:0:0:0:
448,192,65084,1,0,0:0:0:0:
64,192,65159,1,4,0:0:0:0:
192,192,65234,1,0,0:0:0:0:
320,192,65309,128,0,65459:0:0:0:0:
64,192,65459,1,8,0:0:0:0:
448,192,65609,1,0,0:0:0:0:
192,192,65759,128,0,66059:0:0:0:0:
320,192,65909,128,0,66059:0:0:0:0:
64,192,66209,128,0,66359:0:0:0:0:
448,192,66359,1,4,0:0:0:0:
192,192,66359,1,0,0:0:0:0:
320,192,66509,128,0,66659:0:0:0:0:
192,192,66659,1,8,0:0:0:0:
64,192,66809,1,4,0:0:0:0:
448,192,66809,1,4,0:0:0:0:
320,192,66959,128,8,67109:0:0:0:0:
192,192,67109,128,8,67259:0:0:0:0:
448,192,67259,1,0,0:0:0:0:
320,192,67334,1,0,0:0:0:0:
64,192,67409,1,0,0:0:0:0:
192,192,67484,1,0,0:0:0:0:
448,192,67559,1,0,0:0:0:0:
320,192,67634,1,0,0:0:0:0:
192,192,67709,128,0,67859:0:0:0:0:
448,192,67859,1,8,0:0:0:0:
64,192,68009,128,0,68459:0:0:0:0:
448,192,68459,1,0,0:0:0:0:
192,192,68609,1,0,0:0:0:0:
448,192,68759,1,0,0:0:0:0:
64,192,68759,1,4,0:0:0:0:
320,192,68909,1,0,0:0:0:0:
192,192,69059,1,8,0:0:0:0:
320,192,69359,1,8,0:0:0:0:
448,192,69659,1,0,0:0:0:0:
192,192,69734,1,0,0:0:0:0:
64,192,69809,1,0,0:0:0:0:
448,192,69884,1,0,0:0:0:0:
320,192,69959,1,0,0:0:0:0:
192,192,70034,1,0,0:0:0:0:
64,192,70109,128,0,70259:0:0:0:0:
448,192,70259,1,8,0:0:0:0:
192,192,70409,128,0,70484:0:0:0:0:
64,192,70559,128,0,70634:0:0:0:0:
320,192,70709,128,0,70859:0:0:0:0:
64,192,70859,1,0,0:0:0:0:
448,192,71009,1,8,0:0:0:0:
192,192,71159,1,4,0:0:0:0:
64,192,71159,1,0,0:0:0:0:
320,192,71309,128,0,71384:0:0:0:0:
64,192,71459,1,8,0:0:0:0:
192,192,71609,1,0,0:0:0:0:
320,192,71759,1,0,0:0:0:0:
64,192,72059,1,0,0:0:0:0:
192,192,72134,1,0,0:0:0:0:
320,192,72209,1,0,0:0:0:0:
448,192,72284,1,0,0:0:0:0:
64,192,72359,1,0,0:0:0:0:
192,192,72434,1,0,0:0:0:0:
320,192,72509,128,0,72659:0:0:0:0:
64,192,72659,1,8,0:0:0:0:
448,192,72809,128,0,72959:0:0:0:0:
64,192,72959,128,0,73259:0:0:0:0:
192,192,73109,128,0,73259:0:0:0:0:
320,192,73409,1,0,0:0:0:0:
192,192,73484,1,0,0:0:0:0:
448,192,73559,1,0,0:0:0:0:
64,192,73709,1,0,0:0:0:0:
448,192,73859,1,0,0:0:0:0:
320,192,73859,1,12,0:0:0:0:
192,192,74009,128,0,74159:0:0:0:0:
320,192,74159,128,0,74309:0:0:0:0:
64,192,74459,1,0,0:0:0:0:
192,192,74534,1,0,0:0:0:0:
320,192,74609,1,0,0:0:0:0:
64,192,74684,1,0,0:0:0:0:
448,192,74759,1,4,0:0:0:0:
320,192,74834,1,0,0:0:0:0:
192,192,74909,128,0,75059:0:0:0:0:
448,192,75059,1,8,0:0:0:0:
64,192,75209,1,0,0:0:0:0:
320,192,75359,1,8,0:0:0:0:
192,192,75509,1,8,0:0:0:0:
64,192,75659,1,0,0:0:0:0:
448,192,75809,1,8,0:0:0:0:
192,192,75959,1,0,0:0:0:0:
320,192,75959,1,4,0:0:0:0:
448,192,76259,1,8,0:0:0:0:
64,192,76409,1,0,0:0:0:0:
320,192,76559,1,8,0:0:0:0:
192,192,76709,1,8,0:0:0:0:
64,192,76859,128,0,77309:0:0:0:0:
448,192,76859,128,8,77309:0:0:0:0:
320,192,77309,1,0,0:0:0:0:
192,192,77609,1,0,0:0:0:0:
448,192,77909,1,0,0:0:0:0:
64,192,78059,1,0,0:0:0:0:
320,192,78659,1,0,0:0:0:0:
192,192,79709,1,0,0:0:0:0:
448,192,80309,1,0,0:0:0:0:
64,192,80459,1,0,0:0:0:0:
448,192,80759,128,0,81059:0:0:0:0:
320,192,81059,1,4,0:0:0:0:
64,192,81209,1,0,0:0:0:0:
448,192,81359,1,4,0:0:0:0:
192,192,81509,1,0,0:0:0:0:
448,192,81659,128,0,82109:0:0:0:0:
64,192,81659,128,4,82109:0:0:0:0:
320,192,82109,1,0,0:0:0:0:
192,192,82409,128,0,82559:0:0:0:0:
320,192,82559,128,0,82709:0:0:0:0:
64,192,82709,128,0,82859:0:0:0:0:
192,192,82859,1,4,0:0:0:0:
320,192,83459,1,4,0:0:0:0:
448,192,83759,1,0,0:0:0:0:
64,192,84059,1,4,0:0:0:0:
192,192,84659,1,4,0:0:0:0:
320,192,84959,128,0,85109:0:0:0:0:
192,192,85109,128,0,85259:0:0:0:0:
448,192,85259,128,4,85409:0:0:0:0:
320,192,85859,1,4,0:0:0:0:
64,192,86459,128,4,86909:0:0:0:0:
448,192,86459,128,0,86909:0:0:0:0:
192,192,86909,1,0,0:0:0:0:
320,192,87209,1,0,0:0:0:0:
64,192,87509,1,0,0:0:0:0:
448,192,87659,1,0,0:0:0:0:
192,192,88259,1,12,0:0:0:0:
320,192,88859,1,4,0:0:0:0:
448,192,89309,1,0,0:0:0:0:
192,192,89459,1,12,0:0:0:0:
64,192,89909,1,0,0:0:0:0:
320,192,90059,1,4,0:0:0:0:
192,192,90359,1,0,0:0:0:0:
448,192,90659,1,12,0:0:0:0:
320,192,90959,1,4,0:0:0:0:
192,192,91259,1,4,0:0:0:0:
64,192,91259,1,0,0:0:0:0:
320,192,91709,1,0,0:0:0:0:
448,192,91859,1,8,0:0:0:0:
192,192,92009,128,0,92159:0:0:0:0:
320,192,92159,128,0,92309:0:0:0:0:
64,192,92309,128,0,92459:0:0:0:0:
448,192,92609,1,0,0:0:0:0:
320,192,92759,1,0,0:0:0:0:
192,192,93059,1,8,0:0:0:0:
320,192,93359,1,0,0:0:0:0:
448,192,93659,128,0,94259:0:0:0:0:
64,192,93659,128,0,94259:0:0:0:0:
192,192,94259,1,8,0:0:0:0:
320,192,94409,128,0,94709:0:0:0:0:
192,192,94709,1,0,0:0:0:0:
64,192,94859,1,0,0:0:0:0:
448,192,95009,1,0,0:0:0:0:
192,192,95159,1,0,0:0:0:0:
320,192,95309,1,0,0:0:0:0:
64,192,95459,1,0,0:0:0:0:
448,192,95459,1,8,0:0:0:0:
320,192,95609,1,0,0:0:0:0:
192,192,95909,1,0,0:0:0:0:
64,192,96059,128,0,96359:0:0:0:0:
448,192,96059,128,0,96359:0:0:0:0:
320,192,96359,1,0,0:0:0:0:
192,192,96509,1,0,0:0:0:0:
448,192,96659,1,8,0:0:0:0:
320,192,96659,1,0,0:0:0:0:
64,192,96809,1,0,0:0:0:0:
320,192,96959,128,0,97109:0:0:0:0:
192,192,97259,128,0,97409:0:0:0:0:
320,192,97409,128,0,97559:0:0:0:0:
192,192,97559,128,0,97709:0:0:0:0:
320,192,97709,128,0,97859:0:0:0:0:
64,192,97859,1,0,0:0:0:0:
448,192,97859,1,8,0:0:0:0:
192,192,98009,1,0,0:0:0:0:
320,192,98159,128,0,98459:0:0:0:0:
192,192,98459,128,0,98609:0:0:0:0:
320,192,98609,128,0,98759:0:0:0:0:
192,192,98759,128,0,98909:0:0:0:0:
320,192,98909,128,0,99059:0:0:0:0:
64,192,99059,1,8,0:0:0:0:
448,192,99059,1,0,0:0:0:0:
192,192,99209,1,0,0:0:0:0:
320,192,99359,128,0,99659:0:0:0:0:
192,192,99659,128,0,99809:0:0:0:0:
320,192,99809,128,0,99959:0:0:0:0:
192,192,99959,128,0,100109:0:0:0:0:
448,192,100109,1,0,0:0:0:0:
320,192,100184,1,0,0:0:0:0:
64,192,100259,1,0,0:0:0:0:
192,192,100259,1,8,0:0:0:0:
448,192,100409,1,0,0:0:0:0:
192,192,100559,128,0,100634:0:0:0:0:
320,192,100709,128,0,100784:0:0:0:0:
64,192,100859,128,0,101159:0:0:0:0:
448,192,100859,128,0,101159:0:0:0:0:
192,192,101159,1,0,0:0:0:0:
320,192,101309,1,0,0:0:0:0:
192,192,101459,1,8,0:0:0:0:
64,192,101459,1,0,0:0:0:0:
448,192,101609,1,0,0:0:0:0:
192,192,101759,128,0,101909:0:0:0:0:
448,192,102059,128,0,102209:0:0:0:0:
64,192,102209,128,0,102359:0:0:0:0:
448,192,102359,128,0,102509:0:0:0:0:
64,192,102509,128,0,102659:0:0:0:0:
192,192,102659,1,8,0:0:0:0:
448,192,102659,1,0,0:0:0:0:
320,192,102809,1,0,0:0:0:0:
192,192,102959,128,0,103109:0:0:0:0:
448,192,103259,128,0,103409:0:0:0:0:
64,192,103409,128,0,103559:0:0:0:0:
448,192,103559,128,0,103709:0:0:0:0:
64,192,103709,128,0,103859:0:0:0:0:
192,192,103859,1,0,0:0:0:0:
448,192,103859,1,8,0:0:0:0:
320,192,104009,1,0,0:0:0:0:
192,192,104159,128,0,104309:0:0:0:0:
448,192,104459,1,0,0:0:0:0:
64,192,104609,1,0,0:0:0:0:
448,192,104759,128,0,104909:0:0:0:0:
64,192,104909,1,0,0:0:0:0:
192,192,104984,1,0,0:0:0:0:
448,192,105059,1,0,0:0:0:0:
320,192,105059,1,8,0:0:0:0:
192,192,105209,128,0,105359:0:0:0:0:
448,192,105359,1,0,0:0:0:0:
64,192,105509,1,0,0:0:0:0:
448,192,105659,128,4,105959:0:0:0:0:
64,192,105809,1,0,0:0:0:0:
192,192,105959,128,4,106259:0:0:0:0:
320,192,106109,1,0,0:0:0:0:
448,192,106259,1,12,0:0:0:0:
64,192,106259,1,0,0:0:0:0:
320,192,106409,1,0,0:0:0:0:
64,192,106559,1,4,0:0:0:0:
192,192,106709,1,0,0:0:0:0:
448,192,106859,128,0,107009:0:0:0:0:
192,192,107009,128,0,107309:0:0:0:0:
320,192,107309,128,0,107459:0:0:0:0:
64,192,107459,128,0,107759:0:0:0:0:
448,192,107459,1,8,0:0:0:0:
320,192,107909,1,0,0:0:0:0:
64,192,108059,128,0,108209:0:0:0:0:
320,192,108209,128,0,108509:0:0:0:0:
192,192,108509,128,0,108659:0:0:0:0:
448,192,108659,1,0,0:0:0:0:
64,192,108659,1,8,0:0:0:0:
320,192,108809,1,0,0:0:0:0:
192,192,108959,128,0,109259:0:0:0:0:
448,192,109259,1,0,0:0:0:0:
320,192,109409,128,0,109559:0:0:0:0:
192,192,109709,1,0,0:0:0:0:
320,192,109859,128,8,110159:0:0:0:0:
64,192,109859,1,0,0:0:0:0:
64,192,110159,128,0,110309:0:0:0:0:
448,192,110309,128,0,110459:0:0:0:0:
192,192,110459,1,0,0:0:0:0:
320,192,110759,128,4,110834:0:0:0:0:
192,192,110909,128,4,110984:0:0:0:0:
64,192,111059,1,8,0:0:0:0:
448,192,111059,1,0,0:0:0:0:
192,192,111359,128,4,111509:0:0:0:0:
320,192,111659,1,0,0:0:0:0:
320,192,111809,128,0,112109:0:0:0:0:
192,192,112109,1,0,0:0:0:0:
448,192,112259,1,8,0:0:0:0:
64,192,112259,1,0,0:0:0:0:
320,192,112409,1,0,0:0:0:0:
192,192,112559,128,0,112859:0:0:0:0:
320,192,112859,1,0,0:0:0:0:
320,192,113009,128,0,113309:0:0:0:0:
192,192,113309,1,0,0:0:0:0:
64,192,113459,1,8,0:0:0:0:
448,192,113459,1,0,0:0:0:0:
320,192,113609,1,0,0:0:0:0:
192,192,113759,128,0,114059:0:0:0:0:
320,192,114059,1,0,0:0:0:0:
320,192,114209,128,0,114509:0:0:0:0:
64,192,114509,1,0,0:0:0:0:
192,192,114584,1,0,0:0:0:0:
320,192,114659,1,8,0:0:0:0:
448,192,114659,1,0,0:0:0:0:
64,192,114809,1,0,0:0:0:0:
320,192,114959,1,0,0:0:0:0:
192,192,115109,1,0,0:0:0:0:
448,192,115259,128,0,115559:0:0:0:0:
64,192,115259,128,0,115559:0:0:0:0:
192,192,115559,1,0,0:0:0:0:
320,192,115709,1,0,0:0:0:0:
192,192,115859,1,8,0:0:0:0:
64,192,115859,1,0,0:0:0:0:
448,192,116009,1,0,0:0:0:0:
192,192,116159,128,0,116309:0:0:0:0:
320,192,116459,128,0,116609:0:0:0:0:
192,192,116609,128,0,116759:0:0:0:0:
320,192,116759,128,0,116909:0:0:0:0:
192,192,116909,128,0,117059:0:0:0:0:
448,192,117059,1,0,0:0:0:0:
64,192,117059,1,8,0:0:0:0:
320,192,117209,1,0,0:0:0:0:
192,192,117359,128,0,117659:0:0:0:0:
320,192,117659,128,0,117809:0:0:0:0:
192,192,117809,128,0,117959:0:0:0:0:
320,192,117959,128,0,118109:0:0:0:0:
192,192,118109,128,0,118259:0:0:0:0:
448,192,118259,1,8,0:0:0:0:
64,192,118259,1,0,0:0:0:0:
320,192,118409,1,0,0:0:0:0:
192,192,118559,128,0,118859:0:0:0:0:
320,192,118859,128,0,119009:0:0:0:0:
192,192,119009,128,0,119159:0:0:0:0:
320,192,119159,128,0,119309:0:0:0:0:
64,192,119309,1,0,0:0:0:0:
192,192,119384,1,0,0:0:0:0:
320,192,119459,1,8,0:0:0:0:
448,192,119459,1,0,0:0:0:0:
64,192,119609,1,0,0:0:0:0:
320,192,119759,128,0,119834:0:0:0:0:
192,192,119909,128,0,119984:0:0:0:0:
448,192,120059,128,0,120359:0:0:0:0:
64,192,120059,128,0,120359:0:0:0:0:
320,192,120359,1,0,0:0:0:0:
192,192,120509,1,0,0:0:0:0:
448,192,120659,1,0,0:0:0:0:
320,192,120659,1,8,0:0:0:0:
64,192,120809,1,0,0:0:0:0:
320,192,120959,128,0,121109:0:0:0:0:
64,192,121259,128,0,121409:0:0:0:0:
448,192,121409,128,0,121559:0:0:0:0:
64,192,121559,128,0,121709:0:0:0:0:
448,192,121709,128,0,121859:0:0:0:0:
64,192,121859,1,0,0:0:0:0:
320,192,121859,1,8,0:0:0:0:
192,192,122009,1,0,0:0:0:0:
320,192,122159,128,0,122309:0:0:0:0:
64,192,122459,128,0,122609:0:0:0:0:
448,192,122609,128,0,122759:0:0:0:0:
64,192,122759,128,0,122909:0:0:0:0:
448,192,122909,128,0,123059:0:0:0:0:
64,192,123059,1,8,0:0:0:0:
320,192,123059,1,0,0:0:0:0:
192,192,123209,1,0,0:0:0:0:
320,192,123359,128,0,123509:0:0:0:0:
64,192,123659,1,0,0:0:0:0:
448,192,123809,1,0,0:0:0:0:
64,192,123959,128,0,124109:0:0:0:0:
448,192,124109,1,0,0:0:0:0:
320,192,124184,1,0,0:0:0:0:
192,192,124259,1,8,0:0:0:0:
64,192,124259,1,0,0:0:0:0:
320,192,124409,128,0,124559:0:0:0:0:
192,192,124559,1,0,0:0:0:0:
320,192,124709,1,0,0:0:0:0:
64,192,124859,128,4,125159:0:0:0:0:
448,192,125009,1,0,0:0:0:0:
320,192,125159,128,4,125459:0:0:0:0:
192,192,125309,1,0,0:0:0:0:
64,192,125459,1,12,0:0:0:0:
448,192,125459,1,0,0:0:0:0:
192,192,125609,1,0,0:0:0:0:
448,192,125759,1,4,0:0:0:0:
320,192,125909,1,0,0:0:0:0:
64,192,126059,128,0,126209:0:0:0:0:
320,192,126209,128,0,126509:0:0:0:0:
192,192,126509,128,0,126659:0:0:0:0:
448,192,126659,128,0,126959:0:0:0:0:
64,192,126659,1,8,0:0:0:0:
192,192,127109,1,0,0:0:0:0:
448,192,127259,128,0,127409:0:0:0:0:
192,192,127409,128,0,127709:0:0:0:0:
320,192,127709,128,0,127859:0:0:0:0:
64,192,127859,1,0,0:0:0:0:
448,192,127859,1,8,0:0:0:0:
320,192,128009,1,0,0:0:0:0:
192,192,128159,128,0,128459:0:0:0:0:
448,192,128459,1,0,0:0:0:0:
320,192,128609,128,0,128759:0:0:0:0:
64,192,128909,1,0,0:0:0:0:
192,192,129059,128,0,129359:0:0:0:0:
320,192,129059,1,12,0:0:0:0:
448,192,129359,128,0,129509:0:0:0:0:
64,192,129509,128,0,129659:0:0:0:0:
320,192,129659,1,0,0:0:0:0:
192,192,129959,128,4,130034:0:0:0:0:
320,192,130109,128,4,130184:0:0:0:0:
448,192,130259,1,8,0:0:0:0:
64,192,130259,1,0,0:0:0:0:
192,192,130409,1,0,0:0:0:0:
320,192,130559,128,4,130709:0:0:0:0:
192,192,130859,1,0,0:0:0:0:
192,192,131009,128,0,131309:0:0:0:0:
320,192,131309,1,0,0:0:0:0:
64,192,131459,1,8,0:0:0:0:
448,192,131459,1,0,0:0:0:0:
192,192,131609,1,0,0:0:0:0:
320,192,131759,128,0,131909:0:0:0:0:
192,192,132059,1,0,0:0:0:0:
192,192,132209,128,0,132509:0:0:0:0:
320,192,132509,1,0,0:0:0:0:
448,192,132659,1,8,0:0:0:0:
64,192,132659,1,0,0:0:0:0:
192,192,132809,1,0,0:0:0:0:
320,192,132959,128,0,133109:0:0:0:0:
64,192,133259,1,0,0:0:0:0:
448,192,133259,1,0,0:0:0:0:
192,192,133859,1,8,0:0:0:0:
448,192,134459,1,4,0:0:0:0:
64,192,134459,1,0,0:0:0:0:
