osu file format v14

[General]
AudioFilename: audio (cut by A r M i N).mp3
AudioLeadIn: 0
PreviewTime: 94409
Countdown: 0
SampleSet: None
StackLeniency: 0.7
Mode: 3
LetterboxInBreaks: 0
SpecialStyle: 0
WidescreenStoryboard: 0

[Editor]
DistanceSpacing: 1.1
BeatDivisor: 8
GridSize: 4
TimelineZoom: 2.7

[Metadata]
Title:fuego (sakuraburst remix)
TitleUnicode:fuego (sakuraburst remix)
Artist:KOAN Sound & Asa
ArtistUnicode:KOAN Sound & Asa
Creator:Couil
Version:MX
Source:
Tags:experimental electronic music SV
BeatmapID:1313121
BeatmapSetID:622946

[Difficulty]
HPDrainRate:8.2
CircleSize:4
OverallDifficulty:8.4
ApproachRate:5
SliderMultiplier:1.4
SliderTickRate:1

[Events]
//Background and Video events
0,0,"Elegant-Art-of-Girl-Crazy-Background.jpg",0,0
//Break Periods
//Storyboard Layer 0 (Background)
//Storyboard Layer 1 (Fail)
//Storyboard Layer 2 (Pass)
//Storyboard Layer 3 (Foreground)
//Storyboard Sound Samples

[TimingPoints]
59,300,4,3,1,80,1,0
59,-113.636363636364,4,3,1,80,0,0
28909,-112.359550561798,4,3,1,80,0,0
28959,-111.111111111111,4,3,1,80,0,0
29009,-109.89010989011,4,3,1,80,0,0
29059,-108.695652173913,4,3,1,80,0,0
29109,-107.52688172043,4,3,1,80,0,0
29159,-106.382978723404,4,3,1,80,0,0
29209,-105.263157894737,4,3,1,80,0,0
29259,-104.166666666667,4,3,1,80,0,0
29309,-103.092783505155,4,3,1,80,0,0
29359,-102.040816326531,4,3,1,80,0,0
29409,-101.010101010101,4,3,1,80,0,0
29459,-100,4,3,1,80,0,0
33659,-76.9230769230769,4,3,1,80,0,0
33709,-83.3333333333333,4,3,1,80,0,0
33759,-90.9090909090909,4,3,1,80,0,0
33809,-100,4,3,1,80,0,0
33859,-111.111111111111,4,3,1,80,0,0
33909,-125,4,3,1,80,0,0
33959,-142.857142857143,4,3,1,80,0,0
34009,-166.666666666667,4,3,1,80,0,0
34059,-200,4,3,1,80,0,0
34109,-76.9230769230769,4,3,1,80,0,0
34159,-111.111111111111,4,3,1,80,0,0
34258,-76.9230769230769,4,3,1,80,0,0
34308,-83.3333333333333,4,3,1,80,0,0
34358,-90.9090909090909,4,3,1,80,0,0
34408,-100,4,3,1,80,0,0
34458,-111.111111111111,4,3,1,80,0,0
34508,-125,4,3,1,80,0,0
34558,-142.857142857143,4,3,1,80,0,0
34608,-166.666666666667,4,3,1,80,0,0
34658,-200,4,3,1,80,0,0
34708,-76.9230769230769,4,3,1,80,0,0
34758,-111.111111111111,4,3,1,80,0,0
34858,-76.9230769230769,4,3,1,80,0,0
34908,-83.3333333333333,4,3,1,80,0,0
34958,-90.9090909090909,4,3,1,80,0,0
35008,-100,4,3,1,80,0,0
35058,-111.111111111111,4,3,1,80,0,0
35108,-125,4,3,1,80,0,0
35158,-142.857142857143,4,3,1,80,0,0
35208,-166.666666666667,4,3,1,80,0,0
35258,-200,4,3,1,80,0,0
35308,-76.9230769230769,4,3,1,80,0,0
35358,-111.111111111111,4,3,1,80,0,0
35458,-76.9230769230769,4,3,1,80,0,0
35508,-83.3333333333333,4,3,1,80,0,0
35558,-90.9090909090909,4,3,1,80,0,0
35608,-100,4,3,1,80,0,0
35658,-111.111111111111,4,3,1,80,0,0
35708,-125,4,3,1,80,0,0
35758,-142.857142857143,4,3,1,80,0,0
35808,-166.666666666667,4,3,1,80,0,0
35858,-200,4,3,1,80,0,0
35908,-76.9230769230769,4,3,1,80,0,0
35958,-111.111111111111,4,3,1,80,0,0
36058,-76.9230769230769,4,3,1,80,0,0
36108,-88.4955752212389,4,3,1,80,0,0
36158,-104.166666666667,4,3,1,80,0,0
36208,-126.582278481013,4,3,1,80,0,0
36258,-161.290322580645,4,3,1,80,0,0
36308,-222.222222222222,4,3,1,80,0,0
36358,-76.9230769230769,4,3,1,80,0,0
36408,-88.4955752212389,4,3,1,80,0,0
36458,-104.166666666667,4,3,1,80,0,0
36508,-126.582278481013,4,3,1,80,0,0
36558,-161.290322580645,4,3,1,80,0,0
36608,-222.222222222222,4,3,1,80,0,0
36658,-76.9230769230769,4,3,1,80,0,0
36708,-88.4955752212389,4,3,1,80,0,0
36758,-104.166666666667,4,3,1,80,0,0
36808,-126.582278481013,4,3,1,80,0,0
36858,-161.290322580645,4,3,1,80,0,0
36908,-222.222222222222,4,3,1,80,0,0
36958,-76.9230769230769,4,3,1,80,0,0
37008,-88.4955752212389,4,3,1,80,0,0
37058,-104.166666666667,4,3,1,80,0,0
37108,-126.582278481013,4,3,1,80,0,0
37158,-161.290322580645,4,3,1,80,0,0
37208,-222.222222222222,4,3,1,80,0,0
37259,-333.333333333333,4,3,1,80,0,0
37484,-250,4,3,1,80,0,0
37559,-200,4,3,1,80,0,0
37634,-166.666666666667,4,3,1,80,0,0
37709,-125,4,3,1,80,0,0
37855,-10,4,3,1,80,0,0
37858,-31.25,4,3,1,80,0,0
37859,-10,4,3,1,80,0,0
37865,-23.8095238095238,4,3,1,80,0,0
37866,-166.666666666667,4,3,1,80,0,0
38009,-125,4,3,1,80,0,0
38155,-10,4,3,1,80,0,0
38158,-31.25,4,3,1,80,0,0
38177,-125,4,3,1,80,0,0
38309,-10,4,3,1,80,0,0
38315,-23.8095238095238,4,3,1,80,0,0
38316,-166.666666666667,4,3,1,80,0,0
38323,-10,4,3,1,80,0,0
38326,-31.25,4,3,1,80,0,0
38327,-166.666666666667,4,3,1,80,0,0
38459,-125,4,3,1,80,0,0
38507,-10,4,3,1,80,0,0
38508,-62.5,4,3,1,80,0,0
38509,-125,4,3,1,80,0,0
38557,-10,4,3,1,80,0,0
38558,-62.5,4,3,1,80,0,0
38559,-142.857142857143,4,3,1,80,0,0
38607,-10,4,3,1,80,0,0
38608,-15.625,4,3,1,80,0,0
38609,-142.857142857143,4,3,1,80,0,0
38657,-10,4,3,1,80,0,0
38658,-15.625,4,3,1,80,0,0
38659,-166.666666666667,4,3,1,80,0,0
38706,-10,4,3,1,80,0,0
38708,-55.5555555555556,4,3,1,80,0,0
38709,-166.666666666667,4,3,1,80,0,0
38756,-10,4,3,1,80,0,0
38758,-55.5555555555556,4,3,1,80,0,0
38759,-166.666666666667,4,3,1,80,0,0
38806,-10,4,3,1,80,0,0
38808,-55.5555555555556,4,3,1,80,0,0
38809,-166.666666666667,4,3,1,80,0,0
38856,-10,4,3,1,80,0,0
38858,-55.5555555555556,4,3,1,80,0,0
38859,-166.666666666667,4,3,1,80,0,0
38906,-10,4,3,1,80,0,0
38908,-55.5555555555556,4,3,1,80,0,0
38909,-100,4,3,1,80,0,0
39059,-10,4,3,1,80,0,0
39065,-23.8095238095238,4,3,1,80,0,0
39066,-166.666666666667,4,3,1,80,0,0
39209,-100,4,3,1,80,0,0
39246,-111.111111111111,4,3,1,80,0,0
39284,-125,4,3,1,80,0,0
39321,-142.857142857143,4,3,1,80,0,0
39359,-166.666666666667,4,3,1,80,0,0
39409,-200,4,3,1,80,0,0
39459,-250,4,3,1,80,0,0
39509,-333.333333333333,4,3,1,80,0,0
39559,-500,4,3,1,80,0,0
39609,-1000,4,3,1,80,0,0
39646,-10,4,3,1,80,0,0
39658,-38.4615384615385,4,3,1,80,0,0
39659,-10,4,3,1,80,0,0
39665,-23.8095238095238,4,3,1,80,0,0
39666,-166.666666666667,4,3,1,80,0,0
39809,-100,4,3,1,80,0,0
39959,-10,4,3,1,80,0,0
39965,-23.8095238095238,4,3,1,80,0,0
39966,-166.666666666667,4,3,1,80,0,0
40109,-100,4,3,1,80,0,0
40259,-10,4,3,1,80,0,0
40286,-35.7142857142857,4,3,1,80,0,0
40287,-1000,4,3,1,80,0,0
40559,-100,4,3,1,80,0,0
40859,-125,4,3,1,80,0,0
40907,-10,4,3,1,80,0,0
40908,-62.5,4,3,1,80,0,0
40909,-125,4,3,1,80,0,0
40957,-10,4,3,1,80,0,0
40958,-62.5,4,3,1,80,0,0
40959,-142.857142857143,4,3,1,80,0,0
41007,-10,4,3,1,80,0,0
41008,-15.625,4,3,1,80,0,0
41009,-142.857142857143,4,3,1,80,0,0
41057,-10,4,3,1,80,0,0
41058,-15.625,4,3,1,80,0,0
41059,-166.666666666667,4,3,1,80,0,0
41106,-10,4,3,1,80,0,0
41108,-55.5555555555556,4,3,1,80,0,0
41109,-166.666666666667,4,3,1,80,0,0
41156,-10,4,3,1,80,0,0
41158,-55.5555555555556,4,3,1,80,0,0
41159,-166.666666666667,4,3,1,80,0,0
41206,-10,4,3,1,80,0,0
41208,-55.5555555555556,4,3,1,80,0,0
41209,-166.666666666667,4,3,1,80,0,0
41256,-10,4,3,1,80,0,0
41258,-55.5555555555556,4,3,1,80,0,0
41259,-166.666666666667,4,3,1,80,0,0
41306,-10,4,3,1,80,0,0
41308,-55.5555555555556,4,3,1,80,0,0
41309,-100,4,3,1,80,0,0
41459,-10,4,3,1,80,0,0
41465,-23.8095238095238,4,3,1,80,0,0
41466,-166.666666666667,4,3,1,80,0,0
41609,-32.258064516129,4,3,1,80,0,0
41627,-333.333333333333,4,3,1,80,0,0
41684,-32.258064516129,4,3,1,80,0,0
41702,-333.333333333333,4,3,1,80,0,0
41759,-32.258064516129,4,3,1,80,0,0
41777,-333.333333333333,4,3,1,80,0,0
41834,-32.258064516129,4,3,1,80,0,0
41852,-333.333333333333,4,3,1,80,0,0
41909,-32.258064516129,4,3,1,80,0,0
41927,-333.333333333333,4,3,1,80,0,0
41984,-32.258064516129,4,3,1,80,0,0
42002,-333.333333333333,4,3,1,80,0,0
42059,-10,4,3,1,80,0,0
42061,-41.6666666666667,4,3,1,80,0,0
42062,-125,4,3,1,80,0,0
42209,-10,4,3,1,80,0,0
42214,-111.111111111111,4,3,1,80,0,0
42215,-250,4,3,1,80,0,0
42234,-200,4,3,1,80,0,0
42259,-166.666666666667,4,3,1,80,0,0
42284,-142.857142857143,4,3,1,80,0,0
42309,-125,4,3,1,80,0,0
42334,-111.111111111111,4,3,1,80,0,0
42359,-10,4,3,1,80,0,0
42365,-23.8095238095238,4,3,1,80,0,0
42366,-166.666666666667,4,3,1,80,0,0
42509,-32.258064516129,4,3,1,80,0,0
42527,-333.333333333333,4,3,1,80,0,0
42584,-32.258064516129,4,3,1,80,0,0
42602,-333.333333333333,4,3,1,80,0,0
42659,-10,4,3,1,80,0,0
42661,-41.6666666666667,4,3,1,80,0,0
42662,-125,4,3,1,80,0,0
42809,-10,4,3,1,80,0,0
42811,-35.7142857142857,4,3,1,80,0,0
42812,-1000,4,3,1,80,0,0
42834,-10,4,3,1,80,0,0
42836,-35.7142857142857,4,3,1,80,0,0
42837,-1000,4,3,1,80,0,0
42859,-10,4,3,1,80,0,0
42861,-35.7142857142857,4,3,1,80,0,0
42862,-1000,4,3,1,80,0,0
42884,-10,4,3,1,80,0,0
42886,-35.7142857142857,4,3,1,80,0,0
42887,-1000,4,3,1,80,0,0
42909,-10,4,3,1,80,0,0
42911,-35.7142857142857,4,3,1,80,0,0
42912,-1000,4,3,1,80,0,0
42934,-10,4,3,1,80,0,0
42936,-35.7142857142857,4,3,1,80,0,0
42937,-1000,4,3,1,80,0,0
42959,-45.4545454545455,4,3,1,80,0,0
42996,-125,4,3,1,80,0,0
43034,-166.666666666667,4,3,1,80,0,0
43071,-250.000000000001,4,3,1,80,0,0
43109,-500,4,3,1,80,0,0
43246,-10,4,3,1,80,0,0
43258,-38.4615384615385,4,3,1,80,0,0
43259,-142.857142857143,4,3,1,80,0,0
43307,-10,4,3,1,80,0,0
43308,-15.625,4,3,1,80,0,0
43309,-142.857142857143,4,3,1,80,0,0
43357,-10,4,3,1,80,0,0
43358,-15.625,4,3,1,80,0,0
43359,-166.666666666667,4,3,1,80,0,0
43406,-10,4,3,1,80,0,0
43408,-55.5555555555556,4,3,1,80,0,0
43409,-166.666666666667,4,3,1,80,0,0
43456,-10,4,3,1,80,0,0
43458,-55.5555555555556,4,3,1,80,0,0
43459,-200,4,3,1,80,0,0
43506,-10,4,3,1,80,0,0
43508,-15.3846153846154,4,3,1,80,0,0
43509,-200,4,3,1,80,0,0
43556,-10,4,3,1,80,0,0
43558,-15.3846153846154,4,3,1,80,0,0
43559,-200,4,3,1,80,0,0
43606,-10,4,3,1,80,0,0
43608,-15.3846153846154,4,3,1,80,0,0
43609,-200,4,3,1,80,0,0
43656,-10,4,3,1,80,0,0
43658,-15.3846153846154,4,3,1,80,0,0
43659,-200,4,3,1,80,0,0
43706,-10,4,3,1,80,0,0
43708,-15.3846153846154,4,3,1,80,0,0
43709,-100,4,3,1,80,0,0
43859,-10,4,3,1,80,0,0
43865,-23.8095238095238,4,3,1,80,0,0
43866,-166.666666666667,4,3,1,80,0,0
44009,-100,4,3,1,80,0,0
44159,-500,4,3,1,80,0,0
44181,-10,4,3,1,80,0,0
44183,-166.666666666667,4,3,1,80,0,0
44184,-500,4,3,1,80,0,0
44206,-10,4,3,1,80,0,0
44208,-166.666666666667,4,3,1,80,0,0
44209,-500,4,3,1,80,0,0
44231,-10,4,3,1,80,0,0
44233,-166.666666666667,4,3,1,80,0,0
44234,-500,4,3,1,80,0,0
44256,-10,4,3,1,80,0,0
44258,-166.666666666667,4,3,1,80,0,0
44259,-500,4,3,1,80,0,0
44281,-10,4,3,1,80,0,0
44283,-166.666666666667,4,3,1,80,0,0
44284,-500,4,3,1,80,0,0
44306,-10,4,3,1,80,0,0
44308,-166.666666666667,4,3,1,80,0,0
44309,-500,4,3,1,80,0,0
44331,-10,4,3,1,80,0,0
44333,-166.666666666667,4,3,1,80,0,0
44334,-500,4,3,1,80,0,0
44356,-10,4,3,1,80,0,0
44358,-166.666666666667,4,3,1,80,0,0
44359,-500,4,3,1,80,0,0
44381,-10,4,3,1,80,0,0
44383,-166.666666666667,4,3,1,80,0,0
44384,-500,4,3,1,80,0,0
44406,-10,4,3,1,80,0,0
44408,-166.666666666667,4,3,1,80,0,0
44409,-500,4,3,1,80,0,0
44431,-10,4,3,1,80,0,0
44433,-166.666666666667,4,3,1,80,0,0
44434,-500,4,3,1,80,0,0
44456,-10,4,3,1,80,0,0
44458,-166.666666666667,4,3,1,80,0,0
44459,-1000,4,3,1,80,0,0
44595,-10,4,3,1,80,0,0
44608,-15.625,4,3,1,80,0,0
44609,-10,4,3,1,80,0,0
44612,-41.6666666666667,4,3,1,80,0,0
44613,-166.666666666667,4,3,1,80,0,0
44684,-10,4,3,1,80,0,0
44687,-41.6666666666667,4,3,1,80,0,0
44688,-166.666666666667,4,3,1,80,0,0
44759,-10,4,3,1,80,0,0
44765,-23.8095238095238,4,3,1,80,0,0
44766,-166.666666666667,4,3,1,80,0,0
44909,-10,4,3,1,80,0,0
44915,-23.8095238095238,4,3,1,80,0,0
44916,-166.666666666667,4,3,1,80,0,0
45059,-10,4,3,1,80,0,0
45068,-25,4,3,1,80,0,0
45069,-250,4,3,1,80,0,0
45209,-10,4,3,1,80,0,0
45213,-14.2857142857143,4,3,1,80,0,0
45214,-250,4,3,1,80,0,0
45284,-10,4,3,1,80,0,0
45288,-14.2857142857143,4,3,1,80,0,0
45289,-250,4,3,1,80,0,0
45354,-10,4,3,1,80,0,0
45358,-14.2857142857143,4,3,1,80,0,0
45359,-250,4,3,1,80,0,0
45429,-10,4,3,1,80,0,0
45433,-14.2857142857143,4,3,1,80,0,0
45434,-250,4,3,1,80,0,0
45504,-10,4,3,1,80,0,0
45508,-14.2857142857143,4,3,1,80,0,0
45509,-10,4,3,1,80,0,0
45518,-25,4,3,1,80,0,0
45519,-250,4,3,1,80,0,0
45659,-142.857142857143,4,3,1,80,0,0
45707,-10,4,3,1,80,0,0
45708,-15.625,4,3,1,80,0,0
45709,-166.666666666667,4,3,1,80,0,0
45756,-10,4,3,1,80,0,0
45758,-55.5555555555556,4,3,1,80,0,0
45759,-200,4,3,1,80,0,0
45806,-10,4,3,1,80,0,0
45808,-15.3846153846154,4,3,1,80,0,0
45809,-200,4,3,1,80,0,0
45856,-10,4,3,1,80,0,0
45858,-15.3846153846154,4,3,1,80,0,0
45859,-200,4,3,1,80,0,0
45906,-10,4,3,1,80,0,0
45908,-15.3846153846154,4,3,1,80,0,0
45909,-200,4,3,1,80,0,0
45956,-10,4,3,1,80,0,0
45958,-15.3846153846154,4,3,1,80,0,0
45959,-100,4,3,1,80,0,0
46109,-10,4,3,1,80,0,0
46115,-23.8095238095238,4,3,1,80,0,0
46116,-166.666666666667,4,3,1,80,0,0
46259,-10,4,3,1,80,0,0
46265,-23.8095238095238,4,3,1,80,0,0
46266,-166.666666666667,4,3,1,80,0,0
46409,-100,4,3,1,80,0,0
46559,-500,4,3,1,80,0,0
46581,-10,4,3,1,80,0,0
46583,-166.666666666667,4,3,1,80,0,0
46584,-500,4,3,1,80,0,0
46606,-10,4,3,1,80,0,0
46608,-166.666666666667,4,3,1,80,0,0
46609,-500,4,3,1,80,0,0
46631,-10,4,3,1,80,0,0
46633,-166.666666666667,4,3,1,80,0,0
46634,-500,4,3,1,80,0,0
46656,-10,4,3,1,80,0,0
46658,-166.666666666667,4,3,1,80,0,0
46659,-500,4,3,1,80,0,0
46681,-10,4,3,1,80,0,0
46683,-166.666666666667,4,3,1,80,0,0
46684,-500,4,3,1,80,0,0
46706,-10,4,3,1,80,0,0
46708,-166.666666666667,4,3,1,80,0,0
46709,-500,4,3,1,80,0,0
46731,-10,4,3,1,80,0,0
46733,-166.666666666667,4,3,1,80,0,0
46734,-500,4,3,1,80,0,0
46756,-10,4,3,1,80,0,0
46758,-166.666666666667,4,3,1,80,0,0
46759,-500,4,3,1,80,0,0
46781,-10,4,3,1,80,0,0
46783,-166.666666666667,4,3,1,80,0,0
46784,-500,4,3,1,80,0,0
46806,-10,4,3,1,80,0,0
46808,-166.666666666667,4,3,1,80,0,0
46809,-500,4,3,1,80,0,0
46831,-10,4,3,1,80,0,0
46833,-166.666666666667,4,3,1,80,0,0
46834,-500,4,3,1,80,0,0
46856,-10,4,3,1,80,0,0
46858,-166.666666666667,4,3,1,80,0,0
46859,-1000,4,3,1,80,0,0
46995,-10,4,3,1,80,0,0
47008,-15.625,4,3,1,80,0,0
47009,-10,4,3,1,80,0,0
47011,-29.4117647058824,4,3,1,80,0,0
47012,-250,4,3,1,80,0,0
47046,-10,4,3,1,80,0,0
47048,-29.4117647058824,4,3,1,80,0,0
47049,-250,4,3,1,80,0,0
47084,-10,4,3,1,80,0,0
47086,-29.4117647058824,4,3,1,80,0,0
47087,-250,4,3,1,80,0,0
47121,-10,4,3,1,80,0,0
47123,-29.4117647058824,4,3,1,80,0,0
47124,-250,4,3,1,80,0,0
47299,-10,4,3,1,80,0,0
47308,-25,4,3,1,80,0,0
47309,-10,4,3,1,80,0,0
47311,-29.4117647058824,4,3,1,80,0,0
47312,-250,4,3,1,80,0,0
47346,-10,4,3,1,80,0,0
47348,-29.4117647058824,4,3,1,80,0,0
47349,-250,4,3,1,80,0,0
47384,-10,4,3,1,80,0,0
47386,-29.4117647058824,4,3,1,80,0,0
47387,-250,4,3,1,80,0,0
47421,-10,4,3,1,80,0,0
47423,-29.4117647058824,4,3,1,80,0,0
47424,-250,4,3,1,80,0,0
47459,-10,4,3,1,80,0,0
47468,-25,4,3,1,80,0,0
47469,-250,4,3,1,80,0,0
47609,-10,4,3,1,80,0,0
47616,-71.4285714285714,4,3,1,80,0,0
47617,-125,4,3,1,80,0,0
47759,-10,4,3,1,80,0,0
47762,-250,4,3,1,80,0,0
47763,-500,4,3,1,80,0,0
47796,-10,4,3,1,80,0,0
47799,-250,4,3,1,80,0,0
47800,-500,4,3,1,80,0,0
47834,-10,4,3,1,80,0,0
47837,-250,4,3,1,80,0,0
47838,-500,4,3,1,80,0,0
47871,-10,4,3,1,80,0,0
47874,-250,4,3,1,80,0,0
47875,-500,4,3,1,80,0,0
47909,-10,4,3,1,80,0,0
47912,-250,4,3,1,80,0,0
47913,-500,4,3,1,80,0,0
47946,-10,4,3,1,80,0,0
47949,-250,4,3,1,80,0,0
47950,-500,4,3,1,80,0,0
47984,-10,4,3,1,80,0,0
47987,-250,4,3,1,80,0,0
47988,-500,4,3,1,80,0,0
48021,-10,4,3,1,80,0,0
48024,-250,4,3,1,80,0,0
48025,-500,4,3,1,80,0,0
48059,-125,4,3,1,80,0,0
48107,-10,4,3,1,80,0,0
48108,-62.5,4,3,1,80,0,0
48109,-125,4,3,1,80,0,0
48157,-10,4,3,1,80,0,0
48158,-62.5,4,3,1,80,0,0
48159,-142.857142857143,4,3,1,80,0,0
48207,-10,4,3,1,80,0,0
48208,-15.625,4,3,1,80,0,0
48209,-142.857142857143,4,3,1,80,0,0
48257,-10,4,3,1,80,0,0
48258,-15.625,4,3,1,80,0,0
48259,-166.666666666667,4,3,1,80,0,0
48306,-10,4,3,1,80,0,0
48308,-55.5555555555556,4,3,1,80,0,0
48309,-166.666666666667,4,3,1,80,0,0
48356,-10,4,3,1,80,0,0
48358,-55.5555555555556,4,3,1,80,0,0
48359,-166.666666666667,4,3,1,80,0,0
48406,-10,4,3,1,80,0,0
48408,-55.5555555555556,4,3,1,80,0,0
48409,-166.666666666667,4,3,1,80,0,0
48456,-10,4,3,1,80,0,0
48458,-55.5555555555556,4,3,1,80,0,0
48459,-166.666666666667,4,3,1,80,0,0
48506,-10,4,3,1,80,0,0
48508,-55.5555555555556,4,3,1,80,0,0
48509,-100,4,3,1,80,0,0
48659,-10,4,3,1,80,0,0
48665,-23.8095238095238,4,3,1,80,0,0
48666,-166.666666666667,4,3,1,80,0,0
48809,-100,4,3,1,80,0,0
48846,-111.111111111111,4,3,1,80,0,0
48884,-125,4,3,1,80,0,0
48921,-142.857142857143,4,3,1,80,0,0
48959,-166.666666666667,4,3,1,80,0,0
49009,-200,4,3,1,80,0,0
49059,-250,4,3,1,80,0,0
49109,-333.333333333333,4,3,1,80,0,0
49159,-500,4,3,1,80,0,0
49209,-1000,4,3,1,80,0,0
49246,-10,4,3,1,80,0,0
49258,-38.4615384615385,4,3,1,80,0,0
49259,-10,4,3,1,80,0,0
49265,-23.8095238095238,4,3,1,80,0,0
49266,-166.666666666667,4,3,1,80,0,0
49409,-100,4,3,1,80,0,0
49559,-10,4,3,1,80,0,0
49565,-23.8095238095238,4,3,1,80,0,0
49566,-166.666666666667,4,3,1,80,0,0
49709,-100,4,3,1,80,0,0
49859,-10,4,3,1,80,0,0
49886,-35.7142857142857,4,3,1,80,0,0
49887,-1000,4,3,1,80,0,0
50159,-100,4,3,1,80,0,0
50459,-125,4,3,1,80,0,0
50507,-10,4,3,1,80,0,0
50508,-62.5,4,3,1,80,0,0
50509,-125,4,3,1,80,0,0
50557,-10,4,3,1,80,0,0
50558,-62.5,4,3,1,80,0,0
50559,-142.857142857143,4,3,1,80,0,0
50607,-10,4,3,1,80,0,0
50608,-15.625,4,3,1,80,0,0
50609,-142.857142857143,4,3,1,80,0,0
50657,-10,4,3,1,80,0,0
50658,-15.625,4,3,1,80,0,0
50659,-166.666666666667,4,3,1,80,0,0
50706,-10,4,3,1,80,0,0
50708,-55.5555555555556,4,3,1,80,0,0
50709,-166.666666666667,4,3,1,80,0,0
50756,-10,4,3,1,80,0,0
50758,-55.5555555555556,4,3,1,80,0,0
50759,-166.666666666667,4,3,1,80,0,0
50806,-10,4,3,1,80,0,0
50808,-55.5555555555556,4,3,1,80,0,0
50809,-166.666666666667,4,3,1,80,0,0
50856,-10,4,3,1,80,0,0
50858,-55.5555555555556,4,3,1,80,0,0
50859,-166.666666666667,4,3,1,80,0,0
50906,-10,4,3,1,80,0,0
50908,-55.5555555555556,4,3,1,80,0,0
50909,-100,4,3,1,80,0,0
51059,-10,4,3,1,80,0,0
51065,-23.8095238095238,4,3,1,80,0,0
51066,-166.666666666667,4,3,1,80,0,0
51209,-32.258064516129,4,3,1,80,0,0
51227,-333.333333333333,4,3,1,80,0,0
51284,-32.258064516129,4,3,1,80,0,0
51302,-333.333333333333,4,3,1,80,0,0
51359,-32.258064516129,4,3,1,80,0,0
51377,-333.333333333333,4,3,1,80,0,0
51434,-32.258064516129,4,3,1,80,0,0
51452,-333.333333333333,4,3,1,80,0,0
51509,-32.258064516129,4,3,1,80,0,0
51527,-333.333333333333,4,3,1,80,0,0
51584,-32.258064516129,4,3,1,80,0,0
51602,-333.333333333333,4,3,1,80,0,0
51659,-10,4,3,1,80,0,0
51661,-41.6666666666667,4,3,1,80,0,0
51662,-125,4,3,1,80,0,0
51809,-10,4,3,1,80,0,0
51814,-111.111111111111,4,3,1,80,0,0
51815,-250,4,3,1,80,0,0
51834,-200,4,3,1,80,0,0
51859,-166.666666666667,4,3,1,80,0,0
51884,-142.857142857143,4,3,1,80,0,0
51909,-125,4,3,1,80,0,0
51934,-111.111111111111,4,3,1,80,0,0
51959,-10,4,3,1,80,0,0
51965,-23.8095238095238,4,3,1,80,0,0
51966,-166.666666666667,4,3,1,80,0,0
52109,-32.258064516129,4,3,1,80,0,0
52127,-333.333333333333,4,3,1,80,0,0
52184,-32.258064516129,4,3,1,80,0,0
52202,-333.333333333333,4,3,1,80,0,0
52259,-10,4,3,1,80,0,0
52261,-41.6666666666667,4,3,1,80,0,0
52262,-125,4,3,1,80,0,0
52409,-10,4,3,1,80,0,0
52411,-35.7142857142857,4,3,1,80,0,0
52412,-1000,4,3,1,80,0,0
52434,-10,4,3,1,80,0,0
52436,-35.7142857142857,4,3,1,80,0,0
52437,-1000,4,3,1,80,0,0
52459,-10,4,3,1,80,0,0
52461,-35.7142857142857,4,3,1,80,0,0
52462,-1000,4,3,1,80,0,0
52484,-10,4,3,1,80,0,0
52486,-35.7142857142857,4,3,1,80,0,0
52487,-1000,4,3,1,80,0,0
52509,-10,4,3,1,80,0,0
52511,-35.7142857142857,4,3,1,80,0,0
52512,-1000,4,3,1,80,0,0
52534,-10,4,3,1,80,0,0
52536,-35.7142857142857,4,3,1,80,0,0
52537,-1000,4,3,1,80,0,0
52559,-45.4545454545455,4,3,1,80,0,0
52596,-125,4,3,1,80,0,0
52634,-166.666666666667,4,3,1,80,0,0
52671,-250.000000000001,4,3,1,80,0,0
52709,-500,4,3,1,80,0,0
52846,-10,4,3,1,80,0,0
52858,-38.4615384615385,4,3,1,80,0,0
52859,-142.857142857143,4,3,1,80,0,0
52907,-10,4,3,1,80,0,0
52908,-15.625,4,3,1,80,0,0
52909,-142.857142857143,4,3,1,80,0,0
52957,-10,4,3,1,80,0,0
52958,-15.625,4,3,1,80,0,0
52959,-166.666666666667,4,3,1,80,0,0
53006,-10,4,3,1,80,0,0
53008,-55.5555555555556,4,3,1,80,0,0
53009,-166.666666666667,4,3,1,80,0,0
53056,-10,4,3,1,80,0,0
53058,-55.5555555555556,4,3,1,80,0,0
53059,-200,4,3,1,80,0,0
53106,-10,4,3,1,80,0,0
53108,-15.3846153846154,4,3,1,80,0,0
53109,-200,4,3,1,80,0,0
53156,-10,4,3,1,80,0,0
53158,-15.3846153846154,4,3,1,80,0,0
53159,-200,4,3,1,80,0,0
53206,-10,4,3,1,80,0,0
53208,-15.3846153846154,4,3,1,80,0,0
53209,-200,4,3,1,80,0,0
53256,-10,4,3,1,80,0,0
53258,-15.3846153846154,4,3,1,80,0,0
53259,-200,4,3,1,80,0,0
53306,-10,4,3,1,80,0,0
53308,-15.3846153846154,4,3,1,80,0,0
53309,-100,4,3,1,80,0,0
53459,-10,4,3,1,80,0,0
53465,-23.8095238095238,4,3,1,80,0,0
53466,-166.666666666667,4,3,1,80,0,0
53609,-100,4,3,1,80,0,0
53759,-500,4,3,1,80,0,0
53781,-10,4,3,1,80,0,0
53783,-166.666666666667,4,3,1,80,0,0
53784,-500,4,3,1,80,0,0
53806,-10,4,3,1,80,0,0
53808,-166.666666666667,4,3,1,80,0,0
53809,-500,4,3,1,80,0,0
53831,-10,4,3,1,80,0,0
53833,-166.666666666667,4,3,1,80,0,0
53834,-500,4,3,1,80,0,0
53856,-10,4,3,1,80,0,0
53858,-166.666666666667,4,3,1,80,0,0
53859,-500,4,3,1,80,0,0
53881,-10,4,3,1,80,0,0
53883,-166.666666666667,4,3,1,80,0,0
53884,-500,4,3,1,80,0,0
53906,-10,4,3,1,80,0,0
53908,-166.666666666667,4,3,1,80,0,0
53909,-500,4,3,1,80,0,0
53931,-10,4,3,1,80,0,0
53933,-166.666666666667,4,3,1,80,0,0
53934,-500,4,3,1,80,0,0
53956,-10,4,3,1,80,0,0
53958,-166.666666666667,4,3,1,80,0,0
53959,-500,4,3,1,80,0,0
53981,-10,4,3,1,80,0,0
53983,-166.666666666667,4,3,1,80,0,0
53984,-500,4,3,1,80,0,0
54006,-10,4,3,1,80,0,0
54008,-166.666666666667,4,3,1,80,0,0
54009,-500,4,3,1,80,0,0
54031,-10,4,3,1,80,0,0
54033,-166.666666666667,4,3,1,80,0,0
54034,-500,4,3,1,80,0,0
54056,-10,4,3,1,80,0,0
54058,-166.666666666667,4,3,1,80,0,0
54059,-1000,4,3,1,80,0,0
54195,-10,4,3,1,80,0,0
54208,-15.625,4,3,1,80,0,0
54209,-10,4,3,1,80,0,0
54212,-41.6666666666667,4,3,1,80,0,0
54213,-166.666666666667,4,3,1,80,0,0
54284,-10,4,3,1,80,0,0
54287,-41.6666666666667,4,3,1,80,0,0
54288,-166.666666666667,4,3,1,80,0,0
54359,-10,4,3,1,80,0,0
54365,-23.8095238095238,4,3,1,80,0,0
54366,-166.666666666667,4,3,1,80,0,0
54509,-10,4,3,1,80,0,0
54515,-23.8095238095238,4,3,1,80,0,0
54516,-166.666666666667,4,3,1,80,0,0
54659,-10,4,3,1,80,0,0
54668,-25,4,3,1,80,0,0
54669,-250,4,3,1,80,0,0
54809,-10,4,3,1,80,0,0
54813,-14.2857142857143,4,3,1,80,0,0
54814,-250,4,3,1,80,0,0
54884,-10,4,3,1,80,0,0
54888,-14.2857142857143,4,3,1,80,0,0
54889,-250,4,3,1,80,0,0
54954,-10,4,3,1,80,0,0
54958,-14.2857142857143,4,3,1,80,0,0
54959,-250,4,3,1,80,0,0
55029,-10,4,3,1,80,0,0
55033,-14.2857142857143,4,3,1,80,0,0
55034,-250,4,3,1,80,0,0
55104,-10,4,3,1,80,0,0
55108,-14.2857142857143,4,3,1,80,0,0
55109,-10,4,3,1,80,0,0
55118,-25,4,3,1,80,0,0
55119,-250,4,3,1,80,0,0
55259,-142.857142857143,4,3,1,80,0,0
55307,-10,4,3,1,80,0,0
55308,-15.625,4,3,1,80,0,0
55309,-166.666666666667,4,3,1,80,0,0
55356,-10,4,3,1,80,0,0
55358,-55.5555555555556,4,3,1,80,0,0
55359,-200,4,3,1,80,0,0
55406,-10,4,3,1,80,0,0
55408,-15.3846153846154,4,3,1,80,0,0
55409,-200,4,3,1,80,0,0
55456,-10,4,3,1,80,0,0
55458,-15.3846153846154,4,3,1,80,0,0
55459,-200,4,3,1,80,0,0
55506,-10,4,3,1,80,0,0
55508,-15.3846153846154,4,3,1,80,0,0
55509,-200,4,3,1,80,0,0
55556,-10,4,3,1,80,0,0
55558,-15.3846153846154,4,3,1,80,0,0
55559,-100,4,3,1,80,0,0
55709,-10,4,3,1,80,0,0
55715,-23.8095238095238,4,3,1,80,0,0
55716,-166.666666666667,4,3,1,80,0,0
55859,-10,4,3,1,80,0,0
55866,-11.1111111111111,4,3,1,80,0,0
55867,-263.157894736842,4,3,1,80,0,0
55896,-142.857142857143,4,3,1,80,0,0
55934,-333.333333333333,4,3,1,80,0,0
55971,-142.857142857143,4,3,1,80,0,0
56009,-100,4,3,1,80,0,0
56159,-10,4,3,1,80,0,0
56165,-23.8095238095238,4,3,1,80,0,0
56166,-166.666666666667,4,3,1,80,0,0
56309,-10,4,3,1,80,0,0
56333,-20,4,3,1,80,0,0
56334,-500,4,3,1,80,0,0
56609,-10,4,3,1,80,0,0
56611,-35.7142857142857,4,3,1,80,0,0
56612,-1000,4,3,1,80,0,0
56634,-10,4,3,1,80,0,0
56636,-35.7142857142857,4,3,1,80,0,0
56637,-1000,4,3,1,80,0,0
56659,-10,4,3,1,80,0,0
56661,-35.7142857142857,4,3,1,80,0,0
56662,-1000,4,3,1,80,0,0
56684,-10,4,3,1,80,0,0
56686,-35.7142857142857,4,3,1,80,0,0
56687,-1000,4,3,1,80,0,0
56709,-10,4,3,1,80,0,0
56711,-35.7142857142857,4,3,1,80,0,0
56712,-1000,4,3,1,80,0,0
56734,-10,4,3,1,80,0,0
56736,-35.7142857142857,4,3,1,80,0,0
56737,-1000,4,3,1,80,0,0
56759,-10,4,3,1,80,0,0
56761,-35.7142857142857,4,3,1,80,0,0
56762,-1000,4,3,1,80,0,0
56784,-10,4,3,1,80,0,0
56786,-35.7142857142857,4,3,1,80,0,0
56787,-1000,4,3,1,80,0,0
56809,-10,4,3,1,80,0,0
56811,-35.7142857142857,4,3,1,80,0,0
56812,-1000,4,3,1,80,0,0
56834,-10,4,3,1,80,0,0
56836,-35.7142857142857,4,3,1,80,0,0
56837,-1000,4,3,1,80,0,0
56859,-10,4,3,1,80,0,0
56861,-35.7142857142857,4,3,1,80,0,0
56862,-1000,4,3,1,80,0,0
56884,-10,4,3,1,80,0,0
56886,-35.7142857142857,4,3,1,80,0,0
56887,-1000,4,3,1,80,0,0
56909,-100,4,3,1,80,0,0
57059,-10,4,3,1,80,0,0
57065,-23.8095238095238,4,3,1,80,0,0
57066,-166.666666666667,4,3,1,80,0,0
57209,-10,4,3,1,80,0,0
57215,-23.8095238095238,4,3,1,80,0,0
57216,-166.666666666667,4,3,1,80,0,0
57359,-10,4,3,1,80,0,0
57365,-23.8095238095238,4,3,1,80,0,0
57366,-166.666666666667,4,3,1,80,0,0
57509,-10,4,3,1,80,0,0
57515,-23.8095238095238,4,3,1,80,0,0
57516,-166.666666666667,4,3,1,80,0,0
57659,-125,4,3,1,80,0,0
57707,-10,4,3,1,80,0,0
57708,-62.5,4,3,1,80,0,0
57709,-125,4,3,1,80,0,0
57757,-10,4,3,1,80,0,0
57758,-62.5,4,3,1,80,0,0
57759,-142.857142857143,4,3,1,80,0,0
57807,-10,4,3,1,80,0,0
57808,-15.625,4,3,1,80,0,0
57809,-142.857142857143,4,3,1,80,0,0
57857,-10,4,3,1,80,0,0
57858,-15.625,4,3,1,80,0,0
57859,-166.666666666667,4,3,1,80,0,0
57906,-10,4,3,1,80,0,0
57908,-55.5555555555556,4,3,1,80,0,0
57909,-166.666666666667,4,3,1,80,0,0
57956,-10,4,3,1,80,0,0
57958,-55.5555555555556,4,3,1,80,0,0
57959,-166.666666666667,4,3,1,80,0,0
58006,-10,4,3,1,80,0,0
58008,-55.5555555555556,4,3,1,80,0,0
58009,-166.666666666667,4,3,1,80,0,0
58056,-10,4,3,1,80,0,0
58058,-55.5555555555556,4,3,1,80,0,0
58059,-166.666666666667,4,3,1,80,0,0
58106,-10,4,3,1,80,0,0
58108,-55.5555555555556,4,3,1,80,0,0
58109,-100,4,3,1,80,0,0
58259,-10,4,3,1,80,0,0
58265,-23.8095238095238,4,3,1,80,0,0
58266,-166.666666666667,4,3,1,80,0,0
58409,-100,4,3,1,80,0,0
58446,-111.111111111111,4,3,1,80,0,0
58484,-125,4,3,1,80,0,0
58521,-142.857142857143,4,3,1,80,0,0
58559,-166.666666666667,4,3,1,80,0,0
58609,-200,4,3,1,80,0,0
58659,-250,4,3,1,80,0,0
58709,-333.333333333333,4,3,1,80,0,0
58759,-500,4,3,1,80,0,0
58809,-1000,4,3,1,80,0,0
58846,-10,4,3,1,80,0,0
58858,-38.4615384615385,4,3,1,80,0,0
58859,-10,4,3,1,80,0,0
58865,-23.8095238095238,4,3,1,80,0,0
58866,-166.666666666667,4,3,1,80,0,0
59009,-100,4,3,1,80,0,0
59159,-10,4,3,1,80,0,0
59165,-23.8095238095238,4,3,1,80,0,0
59166,-166.666666666667,4,3,1,80,0,0
59309,-100,4,3,1,80,0,0
59459,-10,4,3,1,80,0,0
59486,-35.7142857142857,4,3,1,80,0,0
59487,-1000,4,3,1,80,0,0
59759,-100,4,3,1,80,0,0
60059,-125,4,3,1,80,0,0
60107,-10,4,3,1,80,0,0
60108,-62.5,4,3,1,80,0,0
60109,-125,4,3,1,80,0,0
60157,-10,4,3,1,80,0,0
60158,-62.5,4,3,1,80,0,0
60159,-142.857142857143,4,3,1,80,0,0
60207,-10,4,3,1,80,0,0
60208,-15.625,4,3,1,80,0,0
60209,-142.857142857143,4,3,1,80,0,0
60257,-10,4,3,1,80,0,0
60258,-15.625,4,3,1,80,0,0
60259,-166.666666666667,4,3,1,80,0,0
60306,-10,4,3,1,80,0,0
60308,-55.5555555555556,4,3,1,80,0,0
60309,-166.666666666667,4,3,1,80,0,0
60356,-10,4,3,1,80,0,0
60358,-55.5555555555556,4,3,1,80,0,0
60359,-166.666666666667,4,3,1,80,0,0
60406,-10,4,3,1,80,0,0
60408,-55.5555555555556,4,3,1,80,0,0
60409,-166.666666666667,4,3,1,80,0,0
60456,-10,4,3,1,80,0,0
60458,-55.5555555555556,4,3,1,80,0,0
60459,-166.666666666667,4,3,1,80,0,0
60506,-10,4,3,1,80,0,0
60508,-55.5555555555556,4,3,1,80,0,0
60509,-100,4,3,1,80,0,0
60659,-10,4,3,1,80,0,0
60665,-23.8095238095238,4,3,1,80,0,0
60666,-166.666666666667,4,3,1,80,0,0
60809,-32.258064516129,4,3,1,80,0,0
60827,-333.333333333333,4,3,1,80,0,0
60884,-32.258064516129,4,3,1,80,0,0
60902,-333.333333333333,4,3,1,80,0,0
60959,-32.258064516129,4,3,1,80,0,0
60977,-333.333333333333,4,3,1,80,0,0
61034,-32.258064516129,4,3,1,80,0,0
61052,-333.333333333333,4,3,1,80,0,0
61109,-32.258064516129,4,3,1,80,0,0
61127,-333.333333333333,4,3,1,80,0,0
61184,-32.258064516129,4,3,1,80,0,0
61202,-333.333333333333,4,3,1,80,0,0
61259,-10,4,3,1,80,0,0
61261,-41.6666666666667,4,3,1,80,0,0
61262,-125,4,3,1,80,0,0
61409,-10,4,3,1,80,0,0
61414,-111.111111111111,4,3,1,80,0,0
61415,-250,4,3,1,80,0,0
61434,-200,4,3,1,80,0,0
61459,-166.666666666667,4,3,1,80,0,0
61484,-142.857142857143,4,3,1,80,0,0
61509,-125,4,3,1,80,0,0
61534,-111.111111111111,4,3,1,80,0,0
61559,-10,4,3,1,80,0,0
61565,-23.8095238095238,4,3,1,80,0,0
61566,-166.666666666667,4,3,1,80,0,0
61709,-32.258064516129,4,3,1,80,0,0
61727,-333.333333333333,4,3,1,80,0,0
61784,-32.258064516129,4,3,1,80,0,0
61802,-333.333333333333,4,3,1,80,0,0
61859,-10,4,3,1,80,0,0
61861,-41.6666666666667,4,3,1,80,0,0
61862,-125,4,3,1,80,0,0
62009,-10,4,3,1,80,0,0
62011,-35.7142857142857,4,3,1,80,0,0
62012,-1000,4,3,1,80,0,0
62034,-10,4,3,1,80,0,0
62036,-35.7142857142857,4,3,1,80,0,0
62037,-1000,4,3,1,80,0,0
62059,-10,4,3,1,80,0,0
62061,-35.7142857142857,4,3,1,80,0,0
62062,-1000,4,3,1,80,0,0
62084,-10,4,3,1,80,0,0
62086,-35.7142857142857,4,3,1,80,0,0
62087,-1000,4,3,1,80,0,0
62109,-10,4,3,1,80,0,0
62111,-35.7142857142857,4,3,1,80,0,0
62112,-1000,4,3,1,80,0,0
62134,-10,4,3,1,80,0,0
62136,-35.7142857142857,4,3,1,80,0,0
62137,-1000,4,3,1,80,0,0
62159,-45.4545454545455,4,3,1,80,0,0
62196,-125,4,3,1,80,0,0
62234,-166.666666666667,4,3,1,80,0,0
62271,-250.000000000001,4,3,1,80,0,0
62309,-500,4,3,1,80,0,0
62446,-10,4,3,1,80,0,0
62458,-38.4615384615385,4,3,1,80,0,0
62459,-142.857142857143,4,3,1,80,0,0
62507,-10,4,3,1,80,0,0
62508,-15.625,4,3,1,80,0,0
62509,-142.857142857143,4,3,1,80,0,0
62557,-10,4,3,1,80,0,0
62558,-15.625,4,3,1,80,0,0
62559,-166.666666666667,4,3,1,80,0,0
62606,-10,4,3,1,80,0,0
62608,-55.5555555555556,4,3,1,80,0,0
62609,-166.666666666667,4,3,1,80,0,0
62656,-10,4,3,1,80,0,0
62658,-55.5555555555556,4,3,1,80,0,0
62659,-200,4,3,1,80,0,0
62706,-10,4,3,1,80,0,0
62708,-15.3846153846154,4,3,1,80,0,0
62709,-200,4,3,1,80,0,0
62756,-10,4,3,1,80,0,0
62758,-15.3846153846154,4,3,1,80,0,0
62759,-200,4,3,1,80,0,0
62806,-10,4,3,1,80,0,0
62808,-15.3846153846154,4,3,1,80,0,0
62809,-200,4,3,1,80,0,0
62856,-10,4,3,1,80,0,0
62858,-15.3846153846154,4,3,1,80,0,0
62859,-200,4,3,1,80,0,0
62906,-10,4,3,1,80,0,0
62908,-15.3846153846154,4,3,1,80,0,0
62909,-100,4,3,1,80,0,0
63059,-10,4,3,1,80,0,0
63065,-23.8095238095238,4,3,1,80,0,0
63066,-166.666666666667,4,3,1,80,0,0
63209,-100,4,3,1,80,0,0
63359,-500,4,3,1,80,0,0
63381,-10,4,3,1,80,0,0
63383,-166.666666666667,4,3,1,80,0,0
63384,-500,4,3,1,80,0,0
63406,-10,4,3,1,80,0,0
63408,-166.666666666667,4,3,1,80,0,0
63409,-500,4,3,1,80,0,0
63431,-10,4,3,1,80,0,0
63433,-166.666666666667,4,3,1,80,0,0
63434,-500,4,3,1,80,0,0
63456,-10,4,3,1,80,0,0
63458,-166.666666666667,4,3,1,80,0,0
63459,-500,4,3,1,80,0,0
63481,-10,4,3,1,80,0,0
63483,-166.666666666667,4,3,1,80,0,0
63484,-500,4,3,1,80,0,0
63506,-10,4,3,1,80,0,0
63508,-166.666666666667,4,3,1,80,0,0
63509,-500,4,3,1,80,0,0
63531,-10,4,3,1,80,0,0
63533,-166.666666666667,4,3,1,80,0,0
63534,-500,4,3,1,80,0,0
63556,-10,4,3,1,80,0,0
63558,-166.666666666667,4,3,1,80,0,0
63559,-500,4,3,1,80,0,0
63581,-10,4,3,1,80,0,0
63583,-166.666666666667,4,3,1,80,0,0
63584,-500,4,3,1,80,0,0
63606,-10,4,3,1,80,0,0
63608,-166.666666666667,4,3,1,80,0,0
63609,-500,4,3,1,80,0,0
63631,-10,4,3,1,80,0,0
63633,-166.666666666667,4,3,1,80,0,0
63634,-500,4,3,1,80,0,0
63656,-10,4,3,1,80,0,0
63658,-166.666666666667,4,3,1,80,0,0
63659,-1000,4,3,1,80,0,0
63795,-10,4,3,1,80,0,0
63808,-15.625,4,3,1,80,0,0
63809,-10,4,3,1,80,0,0
63812,-41.6666666666667,4,3,1,80,0,0
63813,-166.666666666667,4,3,1,80,0,0
63884,-10,4,3,1,80,0,0
63887,-41.6666666666667,4,3,1,80,0,0
63888,-166.666666666667,4,3,1,80,0,0
63959,-10,4,3,1,80,0,0
63965,-23.8095238095238,4,3,1,80,0,0
63966,-166.666666666667,4,3,1,80,0,0
64109,-10,4,3,1,80,0,0
64115,-23.8095238095238,4,3,1,80,0,0
64116,-166.666666666667,4,3,1,80,0,0
64259,-10,4,3,1,80,0,0
64268,-25,4,3,1,80,0,0
64269,-250,4,3,1,80,0,0
64409,-10,4,3,1,80,0,0
64413,-14.2857142857143,4,3,1,80,0,0
64414,-250,4,3,1,80,0,0
64484,-10,4,3,1,80,0,0
64488,-14.2857142857143,4,3,1,80,0,0
64489,-250,4,3,1,80,0,0
64554,-10,4,3,1,80,0,0
64558,-14.2857142857143,4,3,1,80,0,0
64559,-250,4,3,1,80,0,0
64629,-10,4,3,1,80,0,0
64633,-14.2857142857143,4,3,1,80,0,0
64634,-250,4,3,1,80,0,0
64704,-10,4,3,1,80,0,0
64708,-14.2857142857143,4,3,1,80,0,0
64709,-10,4,3,1,80,0,0
64718,-25,4,3,1,80,0,0
64719,-250,4,3,1,80,0,0
64859,-142.857142857143,4,3,1,80,0,0
64907,-10,4,3,1,80,0,0
64908,-15.625,4,3,1,80,0,0
64909,-166.666666666667,4,3,1,80,0,0
64956,-10,4,3,1,80,0,0
64958,-55.5555555555556,4,3,1,80,0,0
64959,-200,4,3,1,80,0,0
65006,-10,4,3,1,80,0,0
65008,-15.3846153846154,4,3,1,80,0,0
65009,-200,4,3,1,80,0,0
65056,-10,4,3,1,80,0,0
65058,-15.3846153846154,4,3,1,80,0,0
65059,-200,4,3,1,80,0,0
65106,-10,4,3,1,80,0,0
65108,-15.3846153846154,4,3,1,80,0,0
65109,-200,4,3,1,80,0,0
65156,-10,4,3,1,80,0,0
65158,-15.3846153846154,4,3,1,80,0,0
65159,-100,4,3,1,80,0,0
65309,-10,4,3,1,80,0,0
65315,-23.8095238095238,4,3,1,80,0,0
65316,-166.666666666667,4,3,1,80,0,0
65459,-10,4,3,1,80,0,0
65465,-23.8095238095238,4,3,1,80,0,0
65466,-166.666666666667,4,3,1,80,0,0
65609,-100,4,3,1,80,0,0
65759,-500,4,3,1,80,0,0
65781,-10,4,3,1,80,0,0
65783,-166.666666666667,4,3,1,80,0,0
65784,-500,4,3,1,80,0,0
65806,-10,4,3,1,80,0,0
65808,-166.666666666667,4,3,1,80,0,0
65809,-500,4,3,1,80,0,0
65831,-10,4,3,1,80,0,0
65833,-166.666666666667,4,3,1,80,0,0
65834,-500,4,3,1,80,0,0
65856,-10,4,3,1,80,0,0
65858,-166.666666666667,4,3,1,80,0,0
65859,-500,4,3,1,80,0,0
65881,-10,4,3,1,80,0,0
65883,-166.666666666667,4,3,1,80,0,0
65884,-500,4,3,1,80,0,0
65906,-10,4,3,1,80,0,0
65908,-166.666666666667,4,3,1,80,0,0
65909,-500,4,3,1,80,0,0
65931,-10,4,3,1,80,0,0
65933,-166.666666666667,4,3,1,80,0,0
65934,-500,4,3,1,80,0,0
65956,-10,4,3,1,80,0,0
65958,-166.666666666667,4,3,1,80,0,0
65959,-500,4,3,1,80,0,0
65981,-10,4,3,1,80,0,0
65983,-166.666666666667,4,3,1,80,0,0
65984,-500,4,3,1,80,0,0
66006,-10,4,3,1,80,0,0
66008,-166.666666666667,4,3,1,80,0,0
66009,-500,4,3,1,80,0,0
66031,-10,4,3,1,80,0,0
66033,-166.666666666667,4,3,1,80,0,0
66034,-500,4,3,1,80,0,0
66056,-10,4,3,1,80,0,0
66058,-166.666666666667,4,3,1,80,0,0
66059,-1000,4,3,1,80,0,0
66195,-10,4,3,1,80,0,0
66208,-15.625,4,3,1,80,0,0
66209,-10,4,3,1,80,0,0
66211,-29.4117647058824,4,3,1,80,0,0
66212,-250,4,3,1,80,0,0
66246,-10,4,3,1,80,0,0
66248,-29.4117647058824,4,3,1,80,0,0
66249,-250,4,3,1,80,0,0
66284,-10,4,3,1,80,0,0
66286,-29.4117647058824,4,3,1,80,0,0
66287,-250,4,3,1,80,0,0
66321,-10,4,3,1,80,0,0
66323,-29.4117647058824,4,3,1,80,0,0
66324,-250,4,3,1,80,0,0
66499,-10,4,3,1,80,0,0
66508,-25,4,3,1,80,0,0
66509,-10,4,3,1,80,0,0
66511,-29.4117647058824,4,3,1,80,0,0
66512,-250,4,3,1,80,0,0
66546,-10,4,3,1,80,0,0
66548,-29.4117647058824,4,3,1,80,0,0
66549,-250,4,3,1,80,0,0
66584,-10,4,3,1,80,0,0
66586,-29.4117647058824,4,3,1,80,0,0
66587,-250,4,3,1,80,0,0
66621,-10,4,3,1,80,0,0
66623,-29.4117647058824,4,3,1,80,0,0
66624,-250,4,3,1,80,0,0
66659,-10,4,3,1,80,0,0
66668,-25,4,3,1,80,0,0
66669,-250,4,3,1,80,0,0
66809,-10,4,3,1,80,0,0
66816,-71.4285714285714,4,3,1,80,0,0
66817,-125,4,3,1,80,0,0
66959,-10,4,3,1,80,0,0
66962,-27.027027027027,4,3,1,80,0,0
66963,-1000,4,3,1,80,0,0
66996,-10,4,3,1,80,0,0
66999,-27.027027027027,4,3,1,80,0,0
67000,-1000,4,3,1,80,0,0
67034,-10,4,3,1,80,0,0
67037,-27.027027027027,4,3,1,80,0,0
67038,-1000,4,3,1,80,0,0
67071,-10,4,3,1,80,0,0
67074,-27.027027027027,4,3,1,80,0,0
67075,-1000,4,3,1,80,0,0
67109,-10,4,3,1,80,0,0
67112,-27.027027027027,4,3,1,80,0,0
67113,-1000,4,3,1,80,0,0
67146,-10,4,3,1,80,0,0
67149,-27.027027027027,4,3,1,80,0,0
67150,-1000,4,3,1,80,0,0
67184,-10,4,3,1,80,0,0
67187,-27.027027027027,4,3,1,80,0,0
67188,-1000,4,3,1,80,0,0
67221,-10,4,3,1,80,0,0
67224,-27.027027027027,4,3,1,80,0,0
67225,-1000,4,3,1,80,0,0
67259,-125,4,3,1,80,0,0
67307,-10,4,3,1,80,0,0
67308,-62.5,4,3,1,80,0,0
67309,-125,4,3,1,80,0,0
67357,-10,4,3,1,80,0,0
67358,-62.5,4,3,1,80,0,0
67359,-142.857142857143,4,3,1,80,0,0
67407,-10,4,3,1,80,0,0
67408,-15.625,4,3,1,80,0,0
67409,-142.857142857143,4,3,1,80,0,0
67457,-10,4,3,1,80,0,0
67458,-15.625,4,3,1,80,0,0
67459,-166.666666666667,4,3,1,80,0,0
67506,-10,4,3,1,80,0,0
67508,-55.5555555555556,4,3,1,80,0,0
67509,-166.666666666667,4,3,1,80,0,0
67556,-10,4,3,1,80,0,0
67558,-55.5555555555556,4,3,1,80,0,0
67559,-166.666666666667,4,3,1,80,0,0
67606,-10,4,3,1,80,0,0
67608,-55.5555555555556,4,3,1,80,0,0
67609,-166.666666666667,4,3,1,80,0,0
67656,-10,4,3,1,80,0,0
67658,-55.5555555555556,4,3,1,80,0,0
67659,-166.666666666667,4,3,1,80,0,0
67706,-10,4,3,1,80,0,0
67708,-55.5555555555556,4,3,1,80,0,0
67709,-100,4,3,1,80,0,0
67859,-10,4,3,1,80,0,0
67865,-23.8095238095238,4,3,1,80,0,0
67866,-166.666666666667,4,3,1,80,0,0
68009,-100,4,3,1,80,0,0
68046,-111.111111111111,4,3,1,80,0,0
68084,-125,4,3,1,80,0,0
68121,-142.857142857143,4,3,1,80,0,0
68159,-166.666666666667,4,3,1,80,0,0
68209,-200,4,3,1,80,0,0
68259,-250,4,3,1,80,0,0
68309,-333.333333333333,4,3,1,80,0,0
68359,-500,4,3,1,80,0,0
68409,-1000,4,3,1,80,0,0
68446,-10,4,3,1,80,0,0
68458,-38.4615384615385,4,3,1,80,0,0
68459,-10,4,3,1,80,0,0
68465,-23.8095238095238,4,3,1,80,0,0
68466,-166.666666666667,4,3,1,80,0,0
68609,-100,4,3,1,80,0,0
68759,-10,4,3,1,80,0,0
68765,-23.8095238095238,4,3,1,80,0,0
68766,-166.666666666667,4,3,1,80,0,0
68909,-100,4,3,1,80,0,0
69059,-10,4,3,1,80,0,0
69086,-35.7142857142857,4,3,1,80,0,0
69087,-1000,4,3,1,80,0,0
69359,-100,4,3,1,80,0,0
69659,-125,4,3,1,80,0,0
69707,-10,4,3,1,80,0,0
69708,-62.5,4,3,1,80,0,0
69709,-125,4,3,1,80,0,0
69757,-10,4,3,1,80,0,0
69758,-62.5,4,3,1,80,0,0
69759,-142.857142857143,4,3,1,80,0,0
69807,-10,4,3,1,80,0,0
69808,-15.625,4,3,1,80,0,0
69809,-142.857142857143,4,3,1,80,0,0
69857,-10,4,3,1,80,0,0
69858,-15.625,4,3,1,80,0,0
69859,-166.666666666667,4,3,1,80,0,0
69906,-10,4,3,1,80,0,0
69908,-55.5555555555556,4,3,1,80,0,0
69909,-166.666666666667,4,3,1,80,0,0
69956,-10,4,3,1,80,0,0
69958,-55.5555555555556,4,3,1,80,0,0
69959,-166.666666666667,4,3,1,80,0,0
70006,-10,4,3,1,80,0,0
70008,-55.5555555555556,4,3,1,80,0,0
70009,-166.666666666667,4,3,1,80,0,0
70056,-10,4,3,1,80,0,0
70058,-55.5555555555556,4,3,1,80,0,0
70059,-166.666666666667,4,3,1,80,0,0
70106,-10,4,3,1,80,0,0
70108,-55.5555555555556,4,3,1,80,0,0
70109,-100,4,3,1,80,0,0
70259,-10,4,3,1,80,0,0
70265,-23.8095238095238,4,3,1,80,0,0
70266,-166.666666666667,4,3,1,80,0,0
70409,-32.258064516129,4,3,1,80,0,0
70427,-333.333333333333,4,3,1,80,0,0
70484,-32.258064516129,4,3,1,80,0,0
70502,-333.333333333333,4,3,1,80,0,0
70559,-32.258064516129,4,3,1,80,0,0
70577,-333.333333333333,4,3,1,80,0,0
70634,-32.258064516129,4,3,1,80,0,0
70652,-333.333333333333,4,3,1,80,0,0
70709,-32.258064516129,4,3,1,80,0,0
70727,-333.333333333333,4,3,1,80,0,0
70784,-32.258064516129,4,3,1,80,0,0
70802,-333.333333333333,4,3,1,80,0,0
70859,-10,4,3,1,80,0,0
70861,-41.6666666666667,4,3,1,80,0,0
70862,-125,4,3,1,80,0,0
71009,-10,4,3,1,80,0,0
71014,-111.111111111111,4,3,1,80,0,0
71015,-250,4,3,1,80,0,0
71034,-200,4,3,1,80,0,0
71059,-166.666666666667,4,3,1,80,0,0
71084,-142.857142857143,4,3,1,80,0,0
71109,-125,4,3,1,80,0,0
71134,-111.111111111111,4,3,1,80,0,0
71159,-10,4,3,1,80,0,0
71165,-23.8095238095238,4,3,1,80,0,0
71166,-166.666666666667,4,3,1,80,0,0
71309,-32.258064516129,4,3,1,80,0,0
71327,-333.333333333333,4,3,1,80,0,0
71384,-32.258064516129,4,3,1,80,0,0
71402,-333.333333333333,4,3,1,80,0,0
71459,-10,4,3,1,80,0,0
71461,-41.6666666666667,4,3,1,80,0,0
71462,-125,4,3,1,80,0,0
71609,-10,4,3,1,80,0,0
71611,-35.7142857142857,4,3,1,80,0,0
71612,-1000,4,3,1,80,0,0
71634,-10,4,3,1,80,0,0
71636,-35.7142857142857,4,3,1,80,0,0
71637,-1000,4,3,1,80,0,0
71659,-10,4,3,1,80,0,0
71661,-35.7142857142857,4,3,1,80,0,0
71662,-1000,4,3,1,80,0,0
71684,-10,4,3,1,80,0,0
71686,-35.7142857142857,4,3,1,80,0,0
71687,-1000,4,3,1,80,0,0
71709,-10,4,3,1,80,0,0
71711,-35.7142857142857,4,3,1,80,0,0
71712,-1000,4,3,1,80,0,0
71734,-10,4,3,1,80,0,0
71736,-35.7142857142857,4,3,1,80,0,0
71737,-1000,4,3,1,80,0,0
71759,-45.4545454545455,4,3,1,80,0,0
71796,-125,4,3,1,80,0,0
71834,-166.666666666667,4,3,1,80,0,0
71871,-250.000000000001,4,3,1,80,0,0
71909,-500,4,3,1,80,0,0
72046,-10,4,3,1,80,0,0
72058,-38.4615384615385,4,3,1,80,0,0
72059,-142.857142857143,4,3,1,80,0,0
72107,-10,4,3,1,80,0,0
72108,-15.625,4,3,1,80,0,0
72109,-142.857142857143,4,3,1,80,0,0
72157,-10,4,3,1,80,0,0
72158,-15.625,4,3,1,80,0,0
72159,-166.666666666667,4,3,1,80,0,0
72206,-10,4,3,1,80,0,0
72208,-55.5555555555556,4,3,1,80,0,0
72209,-166.666666666667,4,3,1,80,0,0
72256,-10,4,3,1,80,0,0
72258,-55.5555555555556,4,3,1,80,0,0
72259,-200,4,3,1,80,0,0
72306,-10,4,3,1,80,0,0
72308,-15.3846153846154,4,3,1,80,0,0
72309,-200,4,3,1,80,0,0
72356,-10,4,3,1,80,0,0
72358,-15.3846153846154,4,3,1,80,0,0
72359,-200,4,3,1,80,0,0
72406,-10,4,3,1,80,0,0
72408,-15.3846153846154,4,3,1,80,0,0
72409,-200,4,3,1,80,0,0
72456,-10,4,3,1,80,0,0
72458,-15.3846153846154,4,3,1,80,0,0
72459,-200,4,3,1,80,0,0
72506,-10,4,3,1,80,0,0
72508,-15.3846153846154,4,3,1,80,0,0
72509,-100,4,3,1,80,0,0
72659,-10,4,3,1,80,0,0
72665,-23.8095238095238,4,3,1,80,0,0
72666,-166.666666666667,4,3,1,80,0,0
72809,-100,4,3,1,80,0,0
72959,-500,4,3,1,80,0,0
72981,-10,4,3,1,80,0,0
72983,-166.666666666667,4,3,1,80,0,0
72984,-500,4,3,1,80,0,0
73006,-10,4,3,1,80,0,0
73008,-166.666666666667,4,3,1,80,0,0
73009,-500,4,3,1,80,0,0
73031,-10,4,3,1,80,0,0
73033,-166.666666666667,4,3,1,80,0,0
73034,-500,4,3,1,80,0,0
73056,-10,4,3,1,80,0,0
73058,-166.666666666667,4,3,1,80,0,0
73059,-500,4,3,1,80,0,0
73081,-10,4,3,1,80,0,0
73083,-166.666666666667,4,3,1,80,0,0
73084,-500,4,3,1,80,0,0
73106,-10,4,3,1,80,0,0
73108,-166.666666666667,4,3,1,80,0,0
73109,-500,4,3,1,80,0,0
73131,-10,4,3,1,80,0,0
73133,-166.666666666667,4,3,1,80,0,0
73134,-500,4,3,1,80,0,0
73156,-10,4,3,1,80,0,0
73158,-166.666666666667,4,3,1,80,0,0
73159,-500,4,3,1,80,0,0
73181,-10,4,3,1,80,0,0
73183,-166.666666666667,4,3,1,80,0,0
73184,-500,4,3,1,80,0,0
73206,-10,4,3,1,80,0,0
73208,-166.666666666667,4,3,1,80,0,0
73209,-500,4,3,1,80,0,0
73231,-10,4,3,1,80,0,0
73233,-166.666666666667,4,3,1,80,0,0
73234,-500,4,3,1,80,0,0
73256,-10,4,3,1,80,0,0
73258,-166.666666666667,4,3,1,80,0,0
73259,-1000,4,3,1,80,0,0
73395,-10,4,3,1,80,0,0
73408,-15.625,4,3,1,80,0,0
73409,-10,4,3,1,80,0,0
73412,-41.6666666666667,4,3,1,80,0,0
73413,-166.666666666667,4,3,1,80,0,0
73484,-10,4,3,1,80,0,0
73487,-41.6666666666667,4,3,1,80,0,0
73488,-166.666666666667,4,3,1,80,0,0
73559,-10,4,3,1,80,0,0
73565,-23.8095238095238,4,3,1,80,0,0
73566,-166.666666666667,4,3,1,80,0,0
73709,-10,4,3,1,80,0,0
73715,-23.8095238095238,4,3,1,80,0,0
73716,-166.666666666667,4,3,1,80,0,0
73859,-10,4,3,1,80,0,0
73868,-25,4,3,1,80,0,0
73869,-250,4,3,1,80,0,0
74009,-10,4,3,1,80,0,0
74013,-14.2857142857143,4,3,1,80,0,0
74014,-250,4,3,1,80,0,0
74084,-10,4,3,1,80,0,0
74088,-14.2857142857143,4,3,1,80,0,0
74089,-250,4,3,1,80,0,0
74154,-10,4,3,1,80,0,0
74158,-14.2857142857143,4,3,1,80,0,0
74159,-250,4,3,1,80,0,0
74229,-10,4,3,1,80,0,0
74233,-14.2857142857143,4,3,1,80,0,0
74234,-250,4,3,1,80,0,0
74304,-10,4,3,1,80,0,0
74308,-14.2857142857143,4,3,1,80,0,0
74309,-10,4,3,1,80,0,0
74318,-25,4,3,1,80,0,0
74319,-250,4,3,1,80,0,0
74459,-142.857142857143,4,3,1,80,0,0
74507,-10,4,3,1,80,0,0
74508,-15.625,4,3,1,80,0,0
74509,-166.666666666667,4,3,1,80,0,0
74556,-10,4,3,1,80,0,0
74558,-55.5555555555556,4,3,1,80,0,0
74559,-200,4,3,1,80,0,0
74606,-10,4,3,1,80,0,0
74608,-15.3846153846154,4,3,1,80,0,0
74609,-200,4,3,1,80,0,0
74656,-10,4,3,1,80,0,0
74658,-15.3846153846154,4,3,1,80,0,0
74659,-200,4,3,1,80,0,0
74706,-10,4,3,1,80,0,0
74708,-15.3846153846154,4,3,1,80,0,0
74709,-200,4,3,1,80,0,0
74756,-10,4,3,1,80,0,0
74758,-15.3846153846154,4,3,1,80,0,0
74759,-100,4,3,1,80,0,0
74909,-10,4,3,1,80,0,0
74915,-23.8095238095238,4,3,1,80,0,0
74916,-166.666666666667,4,3,1,80,0,0
75059,-10,4,3,1,80,0,0
75065,-23.8095238095238,4,3,1,80,0,0
75066,-166.666666666667,4,3,1,80,0,0
75209,-10,4,3,1,80,0,0
75213,-11.7647058823529,4,3,1,80,0,0
75214,-142.857142857143,4,3,1,80,0,0
75359,-10,4,3,1,80,0,0
75363,-11.7647058823529,4,3,1,80,0,0
75364,-142.857142857143,4,3,1,80,0,0
75509,-10,4,3,1,80,0,0
75513,-11.7647058823529,4,3,1,80,0,0
75514,-142.857142857143,4,3,1,80,0,0
75659,-10,4,3,1,80,0,0
75663,-11.7647058823529,4,3,1,80,0,0
75664,-142.857142857143,4,3,1,80,0,0
75809,-10,4,3,1,80,0,0
75813,-11.7647058823529,4,3,1,80,0,0
75814,-142.857142857143,4,3,1,80,0,0
75959,-10,4,3,1,80,0,0
75979,-42.5531914893617,4,3,1,80,0,0
75980,-285.714285714286,4,3,1,80,0,0
76259,-10,4,3,1,80,0,0
76263,-11.7647058823529,4,3,1,80,0,0
76264,-142.857142857143,4,3,1,80,0,0
76409,-10,4,3,1,80,0,0
76413,-11.7647058823529,4,3,1,80,0,0
76414,-142.857142857143,4,3,1,80,0,0
76559,-10,4,3,1,80,0,0
76563,-11.7647058823529,4,3,1,80,0,0
76564,-142.857142857143,4,3,1,80,0,0
76709,-10,4,3,1,80,0,0
76711,-21.7391304347826,4,3,1,80,0,0
76712,-142.857142857143,4,3,1,80,0,0
76784,-10,4,3,1,80,0,0
76786,-21.7391304347826,4,3,1,80,0,0
76787,-142.857142857143,4,3,1,80,0,0
76859,-1000,4,3,1,80,0,0
76896,-111.111111111111,4,3,1,80,0,0
76934,-1000,4,3,1,80,0,0
76971,-111.111111111111,4,3,1,80,0,0
77009,-1000,4,3,1,80,0,0
77046,-111.111111111111,4,3,1,80,0,0
77084,-1000,4,3,1,80,0,0
77121,-111.111111111111,4,3,1,80,0,0
77159,-1000,4,3,1,80,0,0
77196,-111.111111111111,4,3,1,80,0,0
77234,-1000,4,3,1,80,0,0
77271,-100,4,3,1,80,0,0
81659,-1000,4,3,1,80,0,0
81696,-111.111111111111,4,3,1,80,0,0
81734,-1000,4,3,1,80,0,0
81771,-111.111111111111,4,3,1,80,0,0
81809,-1000,4,3,1,80,0,0
81846,-111.111111111111,4,3,1,80,0,0
81884,-1000,4,3,1,80,0,0
81921,-111.111111111111,4,3,1,80,0,0
81959,-1000,4,3,1,80,0,0
81996,-111.111111111111,4,3,1,80,0,0
82034,-1000,4,3,1,80,0,0
82071,-100,4,3,1,80,0,0
86459,-1000,4,3,1,80,0,0
86496,-111.111111111111,4,3,1,80,0,0
86534,-1000,4,3,1,80,0,0
86571,-111.111111111111,4,3,1,80,0,0
86609,-1000,4,3,1,80,0,0
86646,-111.111111111111,4,3,1,80,0,0
86684,-1000,4,3,1,80,0,0
86721,-111.111111111111,4,3,1,80,0,0
86759,-1000,4,3,1,80,0,0
86796,-111.111111111111,4,3,1,80,0,0
86834,-1000,4,3,1,80,0,0
86871,-100,4,3,1,80,0,0
91259,-113.636363636364,4,3,1,80,0,0
93659,-10,4,3,1,80,0,0
93690,-16.6666666666667,4,3,1,80,0,0
93691,-625,4,3,1,80,0,0
93715,-125,4,3,1,80,0,0
93734,-500,4,3,1,80,0,0
93752,-125,4,3,1,80,0,0
93771,-500,4,3,1,80,0,0
93789,-125,4,3,1,80,0,0
93809,-500,4,3,1,80,0,0
93834,-125,4,3,1,80,0,0
93859,-500,4,3,1,80,0,0
93884,-125,4,3,1,80,0,0
93909,-500,4,3,1,80,0,0
93934,-125,4,3,1,80,0,0
93959,-500,4,3,1,80,0,0
93996,-125,4,3,1,80,0,0
94034,-500,4,3,1,80,0,0
94071,-125,4,3,1,80,0,0
94109,-500,4,3,1,80,0,0
94184,-125,4,3,1,80,0,0
94259,-100,4,3,1,80,0,0
94409,-10,4,3,1,80,0,0
94418,-14.2857142857143,4,3,1,80,0,0
94419,-200,4,3,1,80,0,0
94434,-90.9090909090909,4,3,1,80,0,0
94459,-333.333333333333,4,3,1,80,0,0
94484,-90.9090909090909,4,3,1,80,0,0
94509,-333.333333333333,4,3,1,80,0,0
94534,-90.9090909090909,4,3,1,80,0,0
94559,-333.333333333333,4,3,1,80,0,0
94584,-90.9090909090909,4,3,1,80,0,0
94609,-333.333333333333,4,3,1,80,0,0
94634,-90.9090909090909,4,3,1,80,0,0
94659,-333.333333333333,4,3,1,80,0,0
94684,-90.9090909090909,4,3,1,80,0,0
94709,-500,4,3,1,80,0,0
94734,-83.3333333333333,4,3,1,80,0,0
94759,-1000,4,3,1,80,0,0
94784,-76.9230769230769,4,3,1,80,0,0
94809,-1000,4,3,1,80,0,0
94834,-76.9230769230769,4,3,1,80,0,0
94859,-10,4,3,1,80,0,0
94862,-31.25,4,3,1,80,0,0
94863,-125,4,3,1,80,0,0
95009,-100,4,3,1,80,0,0
95159,-10,4,3,1,80,0,0
95162,-31.25,4,3,1,80,0,0
95163,-125,4,3,1,80,0,0
95309,-10,4,3,1,80,0,0
95312,-31.25,4,3,1,80,0,0
95313,-125,4,3,1,80,0,0
95459,-10,4,3,1,80,0,0
95462,-31.25,4,3,1,80,0,0
95463,-125,4,3,1,80,0,0
95609,-100,4,3,1,80,0,0
96059,-10,4,3,1,80,0,0
96068,-14.2857142857143,4,3,1,80,0,0
96069,-200,4,3,1,80,0,0
96084,-90.9090909090909,4,3,1,80,0,0
96109,-333.333333333333,4,3,1,80,0,0
96134,-90.9090909090909,4,3,1,80,0,0
96159,-333.333333333333,4,3,1,80,0,0
96184,-90.9090909090909,4,3,1,80,0,0
96209,-333.333333333333,4,3,1,80,0,0
96234,-90.9090909090909,4,3,1,80,0,0
96259,-333.333333333333,4,3,1,80,0,0
96284,-90.9090909090909,4,3,1,80,0,0
96309,-333.333333333333,4,3,1,80,0,0
96334,-90.9090909090909,4,3,1,80,0,0
96359,-11.8343195266272,4,3,1,80,0,0
96360,-105.263157894737,4,3,1,80,0,0
96509,-10,4,3,1,80,0,0
96510,-14.7058823529412,4,3,1,80,0,0
96511,-111.111111111111,4,3,1,80,0,0
96659,-10,4,3,1,80,0,0
96662,-31.25,4,3,1,80,0,0
96663,-125,4,3,1,80,0,0
96809,-10,4,3,1,80,0,0
96815,-23.8095238095238,4,3,1,80,0,0
96816,-166.666666666667,4,3,1,80,0,0
96959,-10,4,3,1,80,0,0
96983,-20,4,3,1,80,0,0
96984,-500,4,3,1,80,0,0
97259,-10,4,3,1,80,0,1
97265,-23.8095238095238,4,3,1,80,0,1
97266,-250.000000000001,4,3,1,80,0,1
97409,-10,4,3,1,80,0,1
97415,-23.8095238095238,4,3,1,80,0,1
97416,-250.000000000001,4,3,1,80,0,1
97559,-10,4,3,1,80,0,1
97565,-23.8095238095238,4,3,1,80,0,1
97566,-250.000000000001,4,3,1,80,0,1
97709,-10,4,3,1,80,0,1
97715,-23.8095238095238,4,3,1,80,0,1
97716,-250.000000000001,4,3,1,80,0,1
97859,-10,4,3,1,80,0,1
97862,-31.25,4,3,1,80,0,1
97863,-125,4,3,1,80,0,1
98009,-10,4,3,1,80,0,1
98015,-23.8095238095238,4,3,1,80,0,1
98016,-166.666666666667,4,3,1,80,0,1
98159,-10,4,3,1,80,0,1
98183,-20,4,3,1,80,0,1
98184,-10,4,3,1,80,0,1
98185,-41.6666666666667,4,3,1,80,0,1
98186,-833.333333333333,4,3,1,80,0,1
98209,-10,4,3,1,80,0,1
98210,-41.6666666666667,4,3,1,80,0,1
98211,-833.333333333333,4,3,1,80,0,1
98234,-10,4,3,1,80,0,1
98235,-41.6666666666667,4,3,1,80,0,1
98236,-833.333333333333,4,3,1,80,0,1
98259,-10,4,3,1,80,0,1
98260,-41.6666666666667,4,3,1,80,0,1
98261,-833.333333333333,4,3,1,80,0,1
98284,-10,4,3,1,80,0,1
98285,-41.6666666666667,4,3,1,80,0,1
98286,-833.333333333333,4,3,1,80,0,1
98309,-10,4,3,1,80,0,1
98310,-41.6666666666667,4,3,1,80,0,1
98311,-833.333333333333,4,3,1,80,0,1
98334,-10,4,3,1,80,0,1
98335,-41.6666666666667,4,3,1,80,0,1
98336,-833.333333333333,4,3,1,80,0,1
98359,-10,4,3,1,80,0,1
98360,-41.6666666666667,4,3,1,80,0,1
98361,-833.333333333333,4,3,1,80,0,1
98384,-10,4,3,1,80,0,1
98385,-41.6666666666667,4,3,1,80,0,1
98386,-833.333333333333,4,3,1,80,0,1
98409,-10,4,3,1,80,0,1
98410,-41.6666666666667,4,3,1,80,0,1
98411,-833.333333333333,4,3,1,80,0,1
98434,-10,4,3,1,80,0,1
98435,-41.6666666666667,4,3,1,80,0,1
98436,-833.333333333333,4,3,1,80,0,1
98459,-10,4,3,1,80,0,1
98465,-23.8095238095238,4,3,1,80,0,1
98466,-250.000000000001,4,3,1,80,0,1
98609,-10,4,3,1,80,0,1
98615,-23.8095238095238,4,3,1,80,0,1
98616,-250.000000000001,4,3,1,80,0,1
98759,-10,4,3,1,80,0,1
98765,-23.8095238095238,4,3,1,80,0,1
98766,-250.000000000001,4,3,1,80,0,1
98909,-10,4,3,1,80,0,1
98915,-23.8095238095238,4,3,1,80,0,1
98916,-250.000000000001,4,3,1,80,0,1
99059,-10,4,3,1,80,0,1
99062,-31.25,4,3,1,80,0,1
99063,-125,4,3,1,80,0,1
99209,-10,4,3,1,80,0,1
99215,-23.8095238095238,4,3,1,80,0,1
99216,-166.666666666667,4,3,1,80,0,1
99359,-10,4,3,1,80,0,1
99383,-20,4,3,1,80,0,1
99384,-10,4,3,1,80,0,1
99385,-41.6666666666667,4,3,1,80,0,1
99386,-833.333333333333,4,3,1,80,0,1
99409,-10,4,3,1,80,0,1
99410,-41.6666666666667,4,3,1,80,0,1
99411,-833.333333333333,4,3,1,80,0,1
99434,-10,4,3,1,80,0,1
99435,-41.6666666666667,4,3,1,80,0,1
99436,-833.333333333333,4,3,1,80,0,1
99459,-10,4,3,1,80,0,1
99460,-41.6666666666667,4,3,1,80,0,1
99461,-833.333333333333,4,3,1,80,0,1
99484,-10,4,3,1,80,0,1
99485,-41.6666666666667,4,3,1,80,0,1
99486,-833.333333333333,4,3,1,80,0,1
99509,-10,4,3,1,80,0,1
99510,-41.6666666666667,4,3,1,80,0,1
99511,-833.333333333333,4,3,1,80,0,1
99534,-10,4,3,1,80,0,1
99535,-41.6666666666667,4,3,1,80,0,1
99536,-833.333333333333,4,3,1,80,0,1
99559,-10,4,3,1,80,0,1
99560,-41.6666666666667,4,3,1,80,0,1
99561,-833.333333333333,4,3,1,80,0,1
99584,-10,4,3,1,80,0,1
99585,-41.6666666666667,4,3,1,80,0,1
99586,-833.333333333333,4,3,1,80,0,1
99609,-10,4,3,1,80,0,1
99610,-41.6666666666667,4,3,1,80,0,1
99611,-833.333333333333,4,3,1,80,0,1
99634,-10,4,3,1,80,0,1
99635,-41.6666666666667,4,3,1,80,0,1
99636,-833.333333333333,4,3,1,80,0,1
99659,-10,4,3,1,80,0,1
99665,-23.8095238095238,4,3,1,80,0,1
99666,-250.000000000001,4,3,1,80,0,1
99809,-10,4,3,1,80,0,1
99815,-23.8095238095238,4,3,1,80,0,1
99816,-250.000000000001,4,3,1,80,0,1
99959,-10,4,3,1,80,0,1
99965,-23.8095238095238,4,3,1,80,0,1
99966,-250.000000000001,4,3,1,80,0,1
100109,-10,4,3,1,80,0,1
100113,-14.2857142857143,4,3,1,80,0,1
100114,-250,4,3,1,80,0,1
100184,-10,4,3,1,80,0,1
100188,-14.2857142857143,4,3,1,80,0,1
100189,-250,4,3,1,80,0,1
100259,-10,4,3,1,80,0,1
100262,-31.25,4,3,1,80,0,1
100263,-125,4,3,1,80,0,1
100409,-10,4,3,1,80,0,1
100415,-23.8095238095238,4,3,1,80,0,1
100434,-10,4,3,1,80,0,1
100435,-41.6666666666667,4,3,1,80,0,1
100436,-833.333333333333,4,3,1,80,0,1
100459,-10,4,3,1,80,0,1
100460,-41.6666666666667,4,3,1,80,0,1
100461,-833.333333333333,4,3,1,80,0,1
100484,-10,4,3,1,80,0,1
100485,-41.6666666666667,4,3,1,80,0,1
100486,-833.333333333333,4,3,1,80,0,1
100509,-10,4,3,1,80,0,1
100510,-41.6666666666667,4,3,1,80,0,1
100511,-833.333333333333,4,3,1,80,0,1
100534,-10,4,3,1,80,0,1
100535,-41.6666666666667,4,3,1,80,0,1
100536,-833.333333333333,4,3,1,80,0,1
100559,-10,4,3,1,80,0,1
100562,-31.25,4,3,1,80,0,1
100563,-125,4,3,1,80,0,1
100709,-10,4,3,1,80,0,1
100712,-31.25,4,3,1,80,0,1
100713,-125,4,3,1,80,0,1
100859,-10,4,3,1,80,0,1
100866,-142.857142857143,4,3,1,80,0,1
100867,-250,4,3,1,80,0,1
100934,-166.666666666667,4,3,1,80,0,1
100971,-125,4,3,1,80,0,1
101009,-10,4,3,1,80,0,1
101010,-62.5,4,3,1,80,0,1
101011,-125,4,3,1,80,0,1
101059,-10,4,3,1,80,0,1
101061,-55.5555555555556,4,3,1,80,0,1
101062,-166.666666666667,4,3,1,80,0,1
101109,-10,4,3,1,80,0,1
101112,-62.5,4,3,1,80,0,1
101113,-250.000000000001,4,3,1,80,0,1
101159,-10,4,3,1,80,0,1
101163,-100,4,3,1,80,0,1
101164,-500.000000000005,4,3,1,80,0,1
101209,-100,4,3,1,80,0,1
101309,-10,4,3,1,80,0,1
101310,-14.7058823529412,4,3,1,80,0,1
101311,-111.111111111111,4,3,1,80,0,1
101459,-10,4,3,1,80,0,1
101462,-31.25,4,3,1,80,0,1
101463,-125,4,3,1,80,0,1
101609,-10,4,3,1,80,0,1
101615,-23.8095238095238,4,3,1,80,0,1
101616,-166.666666666667,4,3,1,80,0,1
101759,-10,4,3,1,80,0,1
101783,-20,4,3,1,80,0,1
101784,-500,4,3,1,80,0,1
102059,-10,4,3,1,80,0,1
102065,-23.8095238095238,4,3,1,80,0,1
102066,-250.000000000001,4,3,1,80,0,1
102209,-10,4,3,1,80,0,1
102215,-23.8095238095238,4,3,1,80,0,1
102216,-250.000000000001,4,3,1,80,0,1
102359,-10,4,3,1,80,0,1
102365,-23.8095238095238,4,3,1,80,0,1
102366,-250.000000000001,4,3,1,80,0,1
102509,-10,4,3,1,80,0,1
102515,-23.8095238095238,4,3,1,80,0,1
102516,-250.000000000001,4,3,1,80,0,1
102659,-10,4,3,1,80,0,1
102662,-31.25,4,3,1,80,0,1
102663,-125,4,3,1,80,0,1
102809,-10,4,3,1,80,0,1
102815,-23.8095238095238,4,3,1,80,0,1
102816,-166.666666666667,4,3,1,80,0,1
102959,-10,4,3,1,80,0,1
102983,-20,4,3,1,80,0,1
102984,-500,4,3,1,80,0,1
103259,-10,4,3,1,80,0,1
103265,-23.8095238095238,4,3,1,80,0,1
103266,-250.000000000001,4,3,1,80,0,1
103409,-10,4,3,1,80,0,1
103415,-23.8095238095238,4,3,1,80,0,1
103416,-250.000000000001,4,3,1,80,0,1
103559,-10,4,3,1,80,0,1
103565,-23.8095238095238,4,3,1,80,0,1
103566,-250.000000000001,4,3,1,80,0,1
103709,-10,4,3,1,80,0,1
103715,-23.8095238095238,4,3,1,80,0,1
103716,-250.000000000001,4,3,1,80,0,1
103859,-10,4,3,1,80,0,1
103862,-31.25,4,3,1,80,0,1
103863,-125,4,3,1,80,0,1
104009,-10,4,3,1,80,0,1
104015,-23.8095238095238,4,3,1,80,0,1
104016,-166.666666666667,4,3,1,80,0,1
104159,-10,4,3,1,80,0,1
104183,-20,4,3,1,80,0,1
104184,-500,4,3,1,80,0,1
104459,-10,4,3,1,80,0,1
104465,-23.8095238095238,4,3,1,80,0,1
104466,-250.000000000001,4,3,1,80,0,1
104609,-10,4,3,1,80,0,1
104615,-23.8095238095238,4,3,1,80,0,1
104616,-250.000000000001,4,3,1,80,0,1
104759,-10,4,3,1,80,0,1
104761,-29.4117647058824,4,3,1,80,0,1
104762,-250,4,3,1,80,0,1
104796,-10,4,3,1,80,0,1
104798,-29.4117647058824,4,3,1,80,0,1
104799,-250,4,3,1,80,0,1
104834,-10,4,3,1,80,0,1
104836,-29.4117647058824,4,3,1,80,0,1
104837,-250,4,3,1,80,0,1
104871,-10,4,3,1,80,0,1
104873,-29.4117647058824,4,3,1,80,0,1
104874,-250,4,3,1,80,0,1
104909,-10,4,3,1,80,0,1
104913,-14.2857142857143,4,3,1,80,0,1
104914,-250,4,3,1,80,0,1
104984,-10,4,3,1,80,0,1
104988,-14.2857142857143,4,3,1,80,0,1
104989,-250,4,3,1,80,0,1
105059,-10,4,3,1,80,0,1
105062,-31.25,4,3,1,80,0,1
105063,-125,4,3,1,80,0,1
105209,-10,4,3,1,80,0,1
105215,-23.8095238095238,4,3,1,80,0,1
105234,-10,4,3,1,80,0,1
105235,-41.6666666666667,4,3,1,80,0,1
105236,-833.333333333333,4,3,1,80,0,1
105259,-10,4,3,1,80,0,1
105260,-41.6666666666667,4,3,1,80,0,1
105261,-833.333333333333,4,3,1,80,0,1
105284,-10,4,3,1,80,0,1
105285,-41.6666666666667,4,3,1,80,0,1
105286,-833.333333333333,4,3,1,80,0,1
105309,-10,4,3,1,80,0,1
105310,-41.6666666666667,4,3,1,80,0,1
105311,-833.333333333333,4,3,1,80,0,1
105334,-10,4,3,1,80,0,1
105335,-41.6666666666667,4,3,1,80,0,1
105336,-833.333333333333,4,3,1,80,0,1
105359,-10,4,3,1,80,0,1
105362,-31.25,4,3,1,80,0,1
105363,-125,4,3,1,80,0,1
105509,-10,4,3,1,80,0,1
105512,-31.25,4,3,1,80,0,1
105513,-125,4,3,1,80,0,1
105659,-10,4,3,1,80,0,1
105661,-29.4117647058824,4,3,1,80,0,1
105662,-250,4,3,1,80,0,1
105696,-10,4,3,1,80,0,1
105698,-29.4117647058824,4,3,1,80,0,1
105699,-250,4,3,1,80,0,1
105734,-10,4,3,1,80,0,1
105736,-29.4117647058824,4,3,1,80,0,1
105737,-250,4,3,1,80,0,1
105771,-10,4,3,1,80,0,1
105773,-29.4117647058824,4,3,1,80,0,1
105774,-250,4,3,1,80,0,1
105809,-10,4,3,1,80,0,1
105811,-29.4117647058824,4,3,1,80,0,1
105812,-250,4,3,1,80,0,1
105846,-10,4,3,1,80,0,1
105848,-29.4117647058824,4,3,1,80,0,1
105849,-250,4,3,1,80,0,1
105884,-10,4,3,1,80,0,1
105886,-29.4117647058824,4,3,1,80,0,1
105887,-250,4,3,1,80,0,1
105921,-10,4,3,1,80,0,1
105923,-29.4117647058824,4,3,1,80,0,1
105924,-250,4,3,1,80,0,1
105959,-10,4,3,1,80,0,1
105961,-29.4117647058824,4,3,1,80,0,1
105962,-250,4,3,1,80,0,1
105996,-10,4,3,1,80,0,1
105998,-29.4117647058824,4,3,1,80,0,1
105999,-250,4,3,1,80,0,1
106034,-10,4,3,1,80,0,1
106036,-29.4117647058824,4,3,1,80,0,1
106037,-250,4,3,1,80,0,1
106071,-10,4,3,1,80,0,1
106073,-29.4117647058824,4,3,1,80,0,1
106074,-250,4,3,1,80,0,1
106109,-10,4,3,1,80,0,1
106111,-29.4117647058824,4,3,1,80,0,1
106112,-250,4,3,1,80,0,1
106146,-10,4,3,1,80,0,1
106148,-29.4117647058824,4,3,1,80,0,1
106149,-250,4,3,1,80,0,1
106184,-10,4,3,1,80,0,1
106186,-29.4117647058824,4,3,1,80,0,1
106187,-250,4,3,1,80,0,1
106221,-10,4,3,1,80,0,1
106223,-29.4117647058824,4,3,1,80,0,1
106224,-250,4,3,1,80,0,1
106259,-35.7142857142857,4,3,1,80,0,1
106277,-250,4,3,1,80,0,1
106334,-35.7142857142857,4,3,1,80,0,1
106352,-250,4,3,1,80,0,1
106409,-35.7142857142857,4,3,1,80,0,1
106427,-250,4,3,1,80,0,1
106484,-35.7142857142857,4,3,1,80,0,1
106502,-250,4,3,1,80,0,1
106559,-35.7142857142857,4,3,1,80,0,1
106584,-250,4,3,1,80,0,1
106659,-35.7142857142857,4,3,1,80,0,1
106684,-250,4,3,1,80,0,1
106759,-35.7142857142857,4,3,1,80,0,1
106784,-250,4,3,1,80,0,1
106859,-10,4,3,1,80,0,1
106865,-23.8095238095238,4,3,1,80,0,1
106866,-166.666666666667,4,3,1,80,0,1
107009,-10,4,3,1,80,0,1
107015,-23.8095238095238,4,3,1,80,0,1
107016,-166.666666666667,4,3,1,80,0,1
107159,-10,4,3,1,80,0,1
107161,-16.6666666666667,4,3,1,80,0,1
107162,-166.666666666667,4,3,1,80,0,1
107196,-10,4,3,1,80,0,1
107198,-16.6666666666667,4,3,1,80,0,1
107199,-166.666666666667,4,3,1,80,0,1
107234,-10,4,3,1,80,0,1
107236,-16.6666666666667,4,3,1,80,0,1
107237,-166.666666666667,4,3,1,80,0,1
107271,-10,4,3,1,80,0,1
107273,-16.6666666666667,4,3,1,80,0,1
107274,-166.666666666667,4,3,1,80,0,1
107309,-10,4,3,1,80,0,1
107315,-23.8095238095238,4,3,1,80,0,1
107316,-166.666666666667,4,3,1,80,0,1
107459,-10,4,3,1,80,0,1
107483,-20,4,3,1,80,0,1
107484,-500.000000000003,4,3,1,80,0,1
107759,-1000,4,3,1,80,0,1
107894,-10,4,3,1,80,0,1
107908,-15.625,4,3,1,80,0,1
107909,-100,4,3,1,80,0,1
108059,-100,4,3,1,80,0,1
108065,-23.8095238095238,4,3,1,80,0,1
108066,-166.666666666667,4,3,1,80,0,1
108209,-10,4,3,1,80,0,1
108215,-23.8095238095238,4,3,1,80,0,1
108216,-166.666666666667,4,3,1,80,0,1
108359,-10,4,3,1,80,0,1
108361,-16.6666666666667,4,3,1,80,0,1
108362,-166.666666666667,4,3,1,80,0,1
108396,-10,4,3,1,80,0,1
108398,-16.6666666666667,4,3,1,80,0,1
108399,-166.666666666667,4,3,1,80,0,1
108434,-10,4,3,1,80,0,1
108436,-16.6666666666667,4,3,1,80,0,1
108437,-166.666666666667,4,3,1,80,0,1
108471,-10,4,3,1,80,0,1
108473,-16.6666666666667,4,3,1,80,0,1
108474,-166.666666666667,4,3,1,80,0,1
108509,-10,4,3,1,80,0,1
108515,-23.8095238095238,4,3,1,80,0,1
108516,-166.666666666667,4,3,1,80,0,1
108659,-10,4,3,1,80,0,1
108665,-71.4285714285714,4,3,1,80,0,1
108666,-500.000000000003,4,3,1,80,0,1
108802,-10,4,3,1,80,0,1
108808,-71.4285714285714,4,3,1,80,0,1
108809,-10,4,3,1,80,0,1
108815,-23.8095238095238,4,3,1,80,0,1
108816,-166.666666666667,4,3,1,80,0,1
108959,-10,4,3,1,80,0,1
108965,-23.8095238095238,4,3,1,80,0,1
108966,-166.666666666667,4,3,1,80,0,1
109109,-10,4,3,1,80,0,1
109111,-16.6666666666667,4,3,1,80,0,1
109112,-166.666666666667,4,3,1,80,0,1
109146,-10,4,3,1,80,0,1
109148,-16.6666666666667,4,3,1,80,0,1
109149,-166.666666666667,4,3,1,80,0,1
109184,-10,4,3,1,80,0,1
109186,-16.6666666666667,4,3,1,80,0,1
109187,-166.666666666667,4,3,1,80,0,1
109221,-10,4,3,1,80,0,1
109223,-16.6666666666667,4,3,1,80,0,1
109224,-166.666666666667,4,3,1,80,0,1
109259,-10,4,3,1,80,0,1
109265,-23.8095238095238,4,3,1,80,0,1
109266,-166.666666666667,4,3,1,80,0,1
109409,-10,4,3,1,80,0,1
109410,-16.6666666666667,4,3,1,80,0,1
109411,-166.666666666667,4,3,1,80,0,1
109446,-10,4,3,1,80,0,1
109447,-16.6666666666667,4,3,1,80,0,1
109448,-166.666666666667,4,3,1,80,0,1
109484,-10,4,3,1,80,0,1
109486,-29.4117647058824,4,3,1,80,0,1
109487,-250,4,3,1,80,0,1
109521,-10,4,3,1,80,0,1
109523,-29.4117647058824,4,3,1,80,0,1
109524,-250,4,3,1,80,0,1
109596,-1000,4,3,1,80,0,1
109698,-10,4,3,1,80,0,1
109708,-35.7142857142857,4,3,1,80,0,1
109709,-10,4,3,1,80,0,1
109715,-23.8095238095238,4,3,1,80,0,1
109716,-166.666666666667,4,3,1,80,0,1
109859,-21.7391304347826,4,3,1,80,0,1
109896,-250,4,3,1,80,0,1
110121,-100,4,3,1,80,0,1
110159,-45.4545454545455,4,3,1,80,0,1
110196,-250,4,3,1,80,0,1
110234,-100,4,3,1,80,0,1
110346,-62.5,4,3,1,80,0,1
110365,-250,4,3,1,80,0,1
110384,-100,4,3,1,80,0,1
110459,-10,4,3,1,80,0,0
110465,-17.8571428571429,4,3,1,80,0,0
110466,-125,4,3,1,80,0,0
110759,-10,4,3,1,80,0,0
110762,-31.25,4,3,1,80,0,0
110763,-125,4,3,1,80,0,0
110796,-14.8809523809524,4,3,1,80,0,0
110797,-125,4,3,1,80,0,0
110834,-14.8809523809524,4,3,1,80,0,0
110835,-125,4,3,1,80,0,0
110871,-14.8809523809524,4,3,1,80,0,0
110872,-125,4,3,1,80,0,0
110909,-10,4,3,1,80,0,0
110912,-31.25,4,3,1,80,0,0
110913,-125,4,3,1,80,0,0
110946,-14.8809523809524,4,3,1,80,0,0
110947,-125,4,3,1,80,0,0
110984,-14.8809523809524,4,3,1,80,0,0
110985,-125,4,3,1,80,0,0
111021,-14.8809523809524,4,3,1,80,0,0
111022,-125,4,3,1,80,0,0
111059,-10,4,3,1,80,0,0
111065,-17.8571428571429,4,3,1,80,0,0
111066,-125,4,3,1,80,0,0
111359,-10,4,3,1,80,0,0
111383,-20,4,3,1,80,0,0
111384,-500,4,3,1,80,0,0
111659,-10,4,3,1,80,0,0
111665,-23.8095238095238,4,3,1,80,0,0
111666,-166.666666666667,4,3,1,80,0,0
111809,-10,4,3,1,80,0,0
111815,-23.8095238095238,4,3,1,80,0,0
111816,-250,4,3,1,80,0,0
111827,-21.1864406779661,4,3,1,80,0,0
111828,-250,4,3,1,80,0,0
111846,-21.1864406779661,4,3,1,80,0,0
111847,-250,4,3,1,80,0,0
111865,-21.1864406779661,4,3,1,80,0,0
111866,-250,4,3,1,80,0,0
111884,-21.1864406779661,4,3,1,80,0,0
111885,-250,4,3,1,80,0,0
111902,-21.1864406779661,4,3,1,80,0,0
111903,-250,4,3,1,80,0,0
111921,-21.1864406779661,4,3,1,80,0,0
111922,-250,4,3,1,80,0,0
111940,-21.1864406779661,4,3,1,80,0,0
111941,-250,4,3,1,80,0,0
111959,-10,4,3,1,80,0,0
111960,-62.5,4,3,1,80,0,0
111961,-250,4,3,1,80,0,0
111977,-10,4,3,1,80,0,0
111978,-62.5,4,3,1,80,0,0
111979,-250,4,3,1,80,0,0
111996,-10,4,3,1,80,0,0
111997,-62.5,4,3,1,80,0,0
111998,-250,4,3,1,80,0,0
112015,-10,4,3,1,80,0,0
112016,-62.5,4,3,1,80,0,0
112017,-250,4,3,1,80,0,0
112034,-10,4,3,1,80,0,0
112035,-62.5,4,3,1,80,0,0
112036,-250,4,3,1,80,0,0
112052,-10,4,3,1,80,0,0
112053,-62.5,4,3,1,80,0,0
112054,-250,4,3,1,80,0,0
112071,-10,4,3,1,80,0,0
112072,-62.5,4,3,1,80,0,0
112073,-250,4,3,1,80,0,0
112090,-10,4,3,1,80,0,0
112091,-62.5,4,3,1,80,0,0
112092,-250,4,3,1,80,0,0
112109,-10,4,3,1,80,0,0
112115,-23.8095238095238,4,3,1,80,0,0
112116,-250,4,3,1,80,0,0
112259,-10,4,3,1,80,0,0
112262,-31.25,4,3,1,80,0,0
112263,-125,4,3,1,80,0,0
112409,-10,4,3,1,80,0,0
112412,-31.25,4,3,1,80,0,0
112413,-125,4,3,1,80,0,0
112559,-10,4,3,1,80,0,0
112583,-20,4,3,1,80,0,0
112584,-10,4,3,1,80,0,0
112585,-41.6666666666667,4,3,1,80,0,0
112586,-833.333333333333,4,3,1,80,0,0
112609,-10,4,3,1,80,0,0
112610,-41.6666666666667,4,3,1,80,0,0
112611,-833.333333333333,4,3,1,80,0,0
112634,-10,4,3,1,80,0,0
112635,-41.6666666666667,4,3,1,80,0,0
112636,-833.333333333333,4,3,1,80,0,0
112659,-10,4,3,1,80,0,0
112660,-41.6666666666667,4,3,1,80,0,0
112661,-833.333333333333,4,3,1,80,0,0
112684,-10,4,3,1,80,0,0
112685,-41.6666666666667,4,3,1,80,0,0
112686,-833.333333333333,4,3,1,80,0,0
112709,-10,4,3,1,80,0,0
112710,-41.6666666666667,4,3,1,80,0,0
112711,-833.333333333333,4,3,1,80,0,0
112734,-10,4,3,1,80,0,0
112735,-41.6666666666667,4,3,1,80,0,0
112736,-833.333333333333,4,3,1,80,0,0
112759,-10,4,3,1,80,0,0
112760,-41.6666666666667,4,3,1,80,0,0
112761,-833.333333333333,4,3,1,80,0,0
112784,-10,4,3,1,80,0,0
112785,-41.6666666666667,4,3,1,80,0,0
112786,-833.333333333333,4,3,1,80,0,0
112809,-10,4,3,1,80,0,0
112810,-41.6666666666667,4,3,1,80,0,0
112811,-833.333333333333,4,3,1,80,0,0
112834,-10,4,3,1,80,0,0
112835,-41.6666666666667,4,3,1,80,0,0
112836,-833.333333333333,4,3,1,80,0,0
112859,-10,4,3,1,80,0,0
112865,-23.8095238095238,4,3,1,80,0,0
112866,-166.666666666667,4,3,1,80,0,0
113009,-10,4,3,1,80,0,0
113015,-23.8095238095238,4,3,1,80,0,0
113016,-250,4,3,1,80,0,0
113027,-21.1864406779661,4,3,1,80,0,0
113028,-250,4,3,1,80,0,0
113046,-21.1864406779661,4,3,1,80,0,0
113047,-250,4,3,1,80,0,0
113065,-21.1864406779661,4,3,1,80,0,0
113066,-250,4,3,1,80,0,0
113084,-21.1864406779661,4,3,1,80,0,0
113085,-250,4,3,1,80,0,0
113102,-21.1864406779661,4,3,1,80,0,0
113103,-250,4,3,1,80,0,0
113121,-21.1864406779661,4,3,1,80,0,0
113122,-250,4,3,1,80,0,0
113140,-21.1864406779661,4,3,1,80,0,0
113141,-250,4,3,1,80,0,0
113159,-10,4,3,1,80,0,0
113160,-62.5,4,3,1,80,0,0
113161,-250,4,3,1,80,0,0
113177,-10,4,3,1,80,0,0
113178,-62.5,4,3,1,80,0,0
113179,-250,4,3,1,80,0,0
113196,-10,4,3,1,80,0,0
113197,-62.5,4,3,1,80,0,0
113198,-250,4,3,1,80,0,0
113215,-10,4,3,1,80,0,0
113216,-62.5,4,3,1,80,0,0
113217,-250,4,3,1,80,0,0
113234,-10,4,3,1,80,0,0
113235,-62.5,4,3,1,80,0,0
113236,-250,4,3,1,80,0,0
113252,-10,4,3,1,80,0,0
113253,-62.5,4,3,1,80,0,0
113254,-250,4,3,1,80,0,0
113271,-10,4,3,1,80,0,0
113272,-62.5,4,3,1,80,0,0
113273,-250,4,3,1,80,0,0
113290,-10,4,3,1,80,0,0
113291,-62.5,4,3,1,80,0,0
113292,-250,4,3,1,80,0,0
113309,-10,4,3,1,80,0,0
113315,-23.8095238095238,4,3,1,80,0,0
113316,-250,4,3,1,80,0,0
113459,-10,4,3,1,80,0,0
113462,-31.25,4,3,1,80,0,0
113463,-125,4,3,1,80,0,0
113609,-10,4,3,1,80,0,0
113612,-31.25,4,3,1,80,0,0
113613,-125,4,3,1,80,0,0
113759,-10,4,3,1,80,0,0
113783,-20,4,3,1,80,0,0
113784,-10,4,3,1,80,0,0
113785,-41.6666666666667,4,3,1,80,0,0
113786,-833.333333333333,4,3,1,80,0,0
113809,-10,4,3,1,80,0,0
113810,-41.6666666666667,4,3,1,80,0,0
113811,-833.333333333333,4,3,1,80,0,0
113834,-10,4,3,1,80,0,0
113835,-41.6666666666667,4,3,1,80,0,0
113836,-833.333333333333,4,3,1,80,0,0
113859,-10,4,3,1,80,0,0
113860,-41.6666666666667,4,3,1,80,0,0
113861,-833.333333333333,4,3,1,80,0,0
113884,-10,4,3,1,80,0,0
113885,-41.6666666666667,4,3,1,80,0,0
113886,-833.333333333333,4,3,1,80,0,0
113909,-10,4,3,1,80,0,0
113910,-41.6666666666667,4,3,1,80,0,0
113911,-833.333333333333,4,3,1,80,0,0
113934,-10,4,3,1,80,0,0
113935,-41.6666666666667,4,3,1,80,0,0
113936,-833.333333333333,4,3,1,80,0,0
113959,-10,4,3,1,80,0,0
113960,-41.6666666666667,4,3,1,80,0,0
113961,-833.333333333333,4,3,1,80,0,0
113984,-10,4,3,1,80,0,0
113985,-41.6666666666667,4,3,1,80,0,0
113986,-833.333333333333,4,3,1,80,0,0
114009,-10,4,3,1,80,0,0
114010,-41.6666666666667,4,3,1,80,0,0
114011,-833.333333333333,4,3,1,80,0,0
114034,-10,4,3,1,80,0,0
114035,-41.6666666666667,4,3,1,80,0,0
114036,-833.333333333333,4,3,1,80,0,0
114059,-10,4,3,1,80,0,0
114065,-23.8095238095238,4,3,1,80,0,0
114066,-166.666666666667,4,3,1,80,0,0
114209,-10,4,3,1,80,0,0
114215,-23.8095238095238,4,3,1,80,0,0
114216,-250,4,3,1,80,0,0
114227,-21.1864406779661,4,3,1,80,0,0
114228,-250,4,3,1,80,0,0
114246,-21.1864406779661,4,3,1,80,0,0
114247,-250,4,3,1,80,0,0
114265,-21.1864406779661,4,3,1,80,0,0
114266,-250,4,3,1,80,0,0
114284,-21.1864406779661,4,3,1,80,0,0
114285,-250,4,3,1,80,0,0
114302,-21.1864406779661,4,3,1,80,0,0
114303,-250,4,3,1,80,0,0
114321,-21.1864406779661,4,3,1,80,0,0
114322,-250,4,3,1,80,0,0
114340,-21.1864406779661,4,3,1,80,0,0
114341,-250,4,3,1,80,0,0
114359,-10,4,3,1,80,0,0
114360,-62.5,4,3,1,80,0,0
114361,-250,4,3,1,80,0,0
114377,-10,4,3,1,80,0,0
114378,-62.5,4,3,1,80,0,0
114379,-250,4,3,1,80,0,0
114396,-10,4,3,1,80,0,0
114397,-62.5,4,3,1,80,0,0
114398,-250,4,3,1,80,0,0
114414,-10,4,3,1,80,0,0
114415,-62.5,4,3,1,80,0,0
114416,-250,4,3,1,80,0,0
114434,-10,4,3,1,80,0,0
114435,-62.5,4,3,1,80,0,0
114436,-250,4,3,1,80,0,0
114452,-10,4,3,1,80,0,0
114453,-62.5,4,3,1,80,0,0
114454,-250,4,3,1,80,0,0
114471,-10,4,3,1,80,0,0
114472,-62.5,4,3,1,80,0,0
114473,-250,4,3,1,80,0,0
114489,-10,4,3,1,80,0,0
114490,-62.5,4,3,1,80,0,0
114491,-250,4,3,1,80,0,0
114509,-10,4,3,1,80,0,0
114512,-41.6666666666667,4,3,1,80,0,0
114513,-166.666666666667,4,3,1,80,0,0
114584,-10,4,3,1,80,0,0
114587,-41.6666666666667,4,3,1,80,0,0
114588,-166.666666666667,4,3,1,80,0,0
114659,-10,4,3,1,80,0,0
114665,-23.8095238095238,4,3,1,80,0,0
114666,-166.666666666667,4,3,1,80,0,0
114809,-10,4,3,1,80,0,0
114815,-23.8095238095238,4,3,1,80,0,0
114816,-166.666666666667,4,3,1,80,0,0
114959,-10,4,3,1,80,0,0
114965,-23.8095238095238,4,3,1,80,0,0
114966,-166.666666666667,4,3,1,80,0,0
115109,-10,4,3,1,80,0,0
115115,-23.8095238095238,4,3,1,80,0,0
115116,-166.666666666667,4,3,1,80,0,0
115259,-10,4,3,1,80,0,0
115274,-12.5,4,3,1,80,0,0
115275,-500,4,3,1,80,0,0
115296,-125,4,3,1,80,0,0
115334,-285.714285714286,4,3,1,80,0,0
115371,-125,4,3,1,80,0,0
115409,-500,4,3,1,80,0,0
115446,-125,4,3,1,80,0,0
115484,-500,4,3,1,80,0,0
115521,-125,4,3,1,80,0,0
115559,-11.8343195266272,4,3,1,80,0,0
115560,-105.263157894737,4,3,1,80,0,0
115709,-10,4,3,1,80,0,0
115710,-14.7058823529412,4,3,1,80,0,0
115711,-111.111111111111,4,3,1,80,0,0
115859,-10,4,3,1,80,0,0
115862,-31.25,4,3,1,80,0,0
115863,-125,4,3,1,80,0,0
116009,-10,4,3,1,80,0,0
116015,-23.8095238095238,4,3,1,80,0,0
116016,-166.666666666667,4,3,1,80,0,0
116159,-10,4,3,1,80,0,0
116183,-20,4,3,1,80,0,0
116184,-500,4,3,1,80,0,0
116459,-10,4,3,1,80,0,1
116465,-23.8095238095238,4,3,1,80,0,1
116466,-250.000000000001,4,3,1,80,0,1
116609,-10,4,3,1,80,0,1
116615,-23.8095238095238,4,3,1,80,0,1
116616,-250.000000000001,4,3,1,80,0,1
116759,-10,4,3,1,80,0,1
116765,-23.8095238095238,4,3,1,80,0,1
116766,-250.000000000001,4,3,1,80,0,1
116909,-10,4,3,1,80,0,1
116915,-23.8095238095238,4,3,1,80,0,1
116916,-250.000000000001,4,3,1,80,0,1
117059,-10,4,3,1,80,0,1
117062,-31.25,4,3,1,80,0,1
117063,-125,4,3,1,80,0,1
117209,-10,4,3,1,80,0,1
117215,-23.8095238095238,4,3,1,80,0,1
117216,-166.666666666667,4,3,1,80,0,1
117359,-10,4,3,1,80,0,1
117383,-20,4,3,1,80,0,1
117384,-10,4,3,1,80,0,1
117385,-41.6666666666667,4,3,1,80,0,1
117386,-833.333333333333,4,3,1,80,0,1
117409,-10,4,3,1,80,0,1
117410,-41.6666666666667,4,3,1,80,0,1
117411,-833.333333333333,4,3,1,80,0,1
117434,-10,4,3,1,80,0,1
117435,-41.6666666666667,4,3,1,80,0,1
117436,-833.333333333333,4,3,1,80,0,1
117459,-10,4,3,1,80,0,1
117460,-41.6666666666667,4,3,1,80,0,1
117461,-833.333333333333,4,3,1,80,0,1
117484,-10,4,3,1,80,0,1
117485,-41.6666666666667,4,3,1,80,0,1
117486,-833.333333333333,4,3,1,80,0,1
117509,-10,4,3,1,80,0,1
117510,-41.6666666666667,4,3,1,80,0,1
117511,-833.333333333333,4,3,1,80,0,1
117534,-10,4,3,1,80,0,1
117535,-41.6666666666667,4,3,1,80,0,1
117536,-833.333333333333,4,3,1,80,0,1
117559,-10,4,3,1,80,0,1
117560,-41.6666666666667,4,3,1,80,0,1
117561,-833.333333333333,4,3,1,80,0,1
117584,-10,4,3,1,80,0,1
117585,-41.6666666666667,4,3,1,80,0,1
117586,-833.333333333333,4,3,1,80,0,1
117609,-10,4,3,1,80,0,1
117610,-41.6666666666667,4,3,1,80,0,1
117611,-833.333333333333,4,3,1,80,0,1
117634,-10,4,3,1,80,0,1
117635,-41.6666666666667,4,3,1,80,0,1
117636,-833.333333333333,4,3,1,80,0,1
117659,-10,4,3,1,80,0,1
117665,-23.8095238095238,4,3,1,80,0,1
117666,-250.000000000001,4,3,1,80,0,1
117809,-10,4,3,1,80,0,1
117815,-23.8095238095238,4,3,1,80,0,1
117816,-250.000000000001,4,3,1,80,0,1
117959,-10,4,3,1,80,0,1
117965,-23.8095238095238,4,3,1,80,0,1
117966,-250.000000000001,4,3,1,80,0,1
118109,-10,4,3,1,80,0,1
118115,-23.8095238095238,4,3,1,80,0,1
118116,-250.000000000001,4,3,1,80,0,1
118259,-10,4,3,1,80,0,1
118262,-31.25,4,3,1,80,0,1
118263,-125,4,3,1,80,0,1
118409,-10,4,3,1,80,0,1
118415,-23.8095238095238,4,3,1,80,0,1
118416,-166.666666666667,4,3,1,80,0,1
118559,-10,4,3,1,80,0,1
118583,-20,4,3,1,80,0,1
118584,-10,4,3,1,80,0,1
118585,-41.6666666666667,4,3,1,80,0,1
118586,-833.333333333333,4,3,1,80,0,1
118609,-10,4,3,1,80,0,1
118610,-41.6666666666667,4,3,1,80,0,1
118611,-833.333333333333,4,3,1,80,0,1
118634,-10,4,3,1,80,0,1
118635,-41.6666666666667,4,3,1,80,0,1
118636,-833.333333333333,4,3,1,80,0,1
118659,-10,4,3,1,80,0,1
118660,-41.6666666666667,4,3,1,80,0,1
118661,-833.333333333333,4,3,1,80,0,1
118684,-10,4,3,1,80,0,1
118685,-41.6666666666667,4,3,1,80,0,1
118686,-833.333333333333,4,3,1,80,0,1
118709,-10,4,3,1,80,0,1
118710,-41.6666666666667,4,3,1,80,0,1
118711,-833.333333333333,4,3,1,80,0,1
118734,-10,4,3,1,80,0,1
118735,-41.6666666666667,4,3,1,80,0,1
118736,-833.333333333333,4,3,1,80,0,1
118759,-10,4,3,1,80,0,1
118760,-41.6666666666667,4,3,1,80,0,1
118761,-833.333333333333,4,3,1,80,0,1
118784,-10,4,3,1,80,0,1
118785,-41.6666666666667,4,3,1,80,0,1
118786,-833.333333333333,4,3,1,80,0,1
118809,-10,4,3,1,80,0,1
118810,-41.6666666666667,4,3,1,80,0,1
118811,-833.333333333333,4,3,1,80,0,1
118834,-10,4,3,1,80,0,1
118835,-41.6666666666667,4,3,1,80,0,1
118836,-833.333333333333,4,3,1,80,0,1
118859,-10,4,3,1,80,0,1
118865,-23.8095238095238,4,3,1,80,0,1
118866,-250.000000000001,4,3,1,80,0,1
119009,-10,4,3,1,80,0,1
119015,-23.8095238095238,4,3,1,80,0,1
119016,-250.000000000001,4,3,1,80,0,1
119159,-10,4,3,1,80,0,1
119165,-23.8095238095238,4,3,1,80,0,1
119166,-250.000000000001,4,3,1,80,0,1
119309,-10,4,3,1,80,0,1
119313,-14.2857142857143,4,3,1,80,0,1
119314,-250,4,3,1,80,0,1
119384,-10,4,3,1,80,0,1
119388,-14.2857142857143,4,3,1,80,0,1
119389,-250,4,3,1,80,0,1
119459,-10,4,3,1,80,0,1
119462,-31.25,4,3,1,80,0,1
119463,-125,4,3,1,80,0,1
119609,-10,4,3,1,80,0,1
119615,-23.8095238095238,4,3,1,80,0,1
119634,-10,4,3,1,80,0,1
119635,-41.6666666666667,4,3,1,80,0,1
119636,-833.333333333333,4,3,1,80,0,1
119659,-10,4,3,1,80,0,1
119660,-41.6666666666667,4,3,1,80,0,1
119661,-833.333333333333,4,3,1,80,0,1
119684,-10,4,3,1,80,0,1
119685,-41.6666666666667,4,3,1,80,0,1
119686,-833.333333333333,4,3,1,80,0,1
119709,-10,4,3,1,80,0,1
119710,-41.6666666666667,4,3,1,80,0,1
119711,-833.333333333333,4,3,1,80,0,1
119734,-10,4,3,1,80,0,1
119735,-41.6666666666667,4,3,1,80,0,1
119736,-833.333333333333,4,3,1,80,0,1
119759,-10,4,3,1,80,0,1
119762,-31.25,4,3,1,80,0,1
119763,-125,4,3,1,80,0,1
119909,-10,4,3,1,80,0,1
119912,-31.25,4,3,1,80,0,1
119913,-125,4,3,1,80,0,1
120059,-10,4,3,1,80,0,1
120066,-142.857142857143,4,3,1,80,0,1
120067,-250,4,3,1,80,0,1
120134,-166.666666666667,4,3,1,80,0,1
120171,-125,4,3,1,80,0,1
120209,-10,4,3,1,80,0,1
120210,-62.5,4,3,1,80,0,1
120211,-125,4,3,1,80,0,1
120259,-10,4,3,1,80,0,1
120261,-55.5555555555556,4,3,1,80,0,1
120262,-166.666666666667,4,3,1,80,0,1
120309,-10,4,3,1,80,0,1
120312,-62.5,4,3,1,80,0,1
120313,-250.000000000001,4,3,1,80,0,1
120359,-10,4,3,1,80,0,1
120363,-100,4,3,1,80,0,1
120364,-500.000000000005,4,3,1,80,0,1
120409,-100,4,3,1,80,0,1
120509,-10,4,3,1,80,0,1
120510,-14.7058823529412,4,3,1,80,0,1
120511,-111.111111111111,4,3,1,80,0,1
120659,-10,4,3,1,80,0,1
120662,-31.25,4,3,1,80,0,1
120663,-125,4,3,1,80,0,1
120809,-10,4,3,1,80,0,1
120815,-23.8095238095238,4,3,1,80,0,1
120816,-166.666666666667,4,3,1,80,0,1
120959,-10,4,3,1,80,0,1
120983,-20,4,3,1,80,0,1
120984,-500,4,3,1,80,0,1
121259,-10,4,3,1,80,0,1
121265,-23.8095238095238,4,3,1,80,0,1
121266,-250.000000000001,4,3,1,80,0,1
121409,-10,4,3,1,80,0,1
121415,-23.8095238095238,4,3,1,80,0,1
121416,-250.000000000001,4,3,1,80,0,1
121559,-10,4,3,1,80,0,1
121565,-23.8095238095238,4,3,1,80,0,1
121566,-250.000000000001,4,3,1,80,0,1
121709,-10,4,3,1,80,0,1
121715,-23.8095238095238,4,3,1,80,0,1
121716,-250.000000000001,4,3,1,80,0,1
121859,-10,4,3,1,80,0,1
121862,-31.25,4,3,1,80,0,1
121863,-125,4,3,1,80,0,1
122009,-10,4,3,1,80,0,1
122015,-23.8095238095238,4,3,1,80,0,1
122016,-166.666666666667,4,3,1,80,0,1
122159,-10,4,3,1,80,0,1
122183,-20,4,3,1,80,0,1
122184,-500,4,3,1,80,0,1
122459,-10,4,3,1,80,0,1
122465,-23.8095238095238,4,3,1,80,0,1
122466,-250.000000000001,4,3,1,80,0,1
122609,-10,4,3,1,80,0,1
122615,-23.8095238095238,4,3,1,80,0,1
122616,-250.000000000001,4,3,1,80,0,1
122759,-10,4,3,1,80,0,1
122765,-23.8095238095238,4,3,1,80,0,1
122766,-250.000000000001,4,3,1,80,0,1
122909,-10,4,3,1,80,0,1
122915,-23.8095238095238,4,3,1,80,0,1
122916,-250.000000000001,4,3,1,80,0,1
123059,-10,4,3,1,80,0,1
123062,-31.25,4,3,1,80,0,1
123063,-125,4,3,1,80,0,1
123209,-10,4,3,1,80,0,1
123215,-23.8095238095238,4,3,1,80,0,1
123216,-166.666666666667,4,3,1,80,0,1
123359,-10,4,3,1,80,0,1
123383,-20,4,3,1,80,0,1
123384,-500,4,3,1,80,0,1
123659,-10,4,3,1,80,0,1
123665,-23.8095238095238,4,3,1,80,0,1
123666,-250.000000000001,4,3,1,80,0,1
123809,-10,4,3,1,80,0,1
123815,-23.8095238095238,4,3,1,80,0,1
123816,-250.000000000001,4,3,1,80,0,1
123959,-10,4,3,1,80,0,1
123961,-29.4117647058824,4,3,1,80,0,1
123962,-250,4,3,1,80,0,1
123996,-10,4,3,1,80,0,1
123998,-29.4117647058824,4,3,1,80,0,1
123999,-250,4,3,1,80,0,1
124034,-10,4,3,1,80,0,1
124036,-29.4117647058824,4,3,1,80,0,1
124037,-250,4,3,1,80,0,1
124071,-10,4,3,1,80,0,1
124073,-29.4117647058824,4,3,1,80,0,1
124074,-250,4,3,1,80,0,1
124109,-10,4,3,1,80,0,1
124113,-14.2857142857143,4,3,1,80,0,1
124114,-250,4,3,1,80,0,1
124184,-10,4,3,1,80,0,1
124188,-14.2857142857143,4,3,1,80,0,1
124189,-250,4,3,1,80,0,1
124259,-10,4,3,1,80,0,1
124262,-31.25,4,3,1,80,0,1
124263,-125,4,3,1,80,0,1
124409,-10,4,3,1,80,0,1
124415,-23.8095238095238,4,3,1,80,0,1
124434,-10,4,3,1,80,0,1
124435,-41.6666666666667,4,3,1,80,0,1
124436,-833.333333333333,4,3,1,80,0,1
124459,-10,4,3,1,80,0,1
124460,-41.6666666666667,4,3,1,80,0,1
124461,-833.333333333333,4,3,1,80,0,1
124484,-10,4,3,1,80,0,1
124485,-41.6666666666667,4,3,1,80,0,1
124486,-833.333333333333,4,3,1,80,0,1
124509,-10,4,3,1,80,0,1
124510,-41.6666666666667,4,3,1,80,0,1
124511,-833.333333333333,4,3,1,80,0,1
124534,-10,4,3,1,80,0,1
124535,-41.6666666666667,4,3,1,80,0,1
124536,-833.333333333333,4,3,1,80,0,1
124559,-10,4,3,1,80,0,1
124562,-31.25,4,3,1,80,0,1
124563,-125,4,3,1,80,0,1
124709,-10,4,3,1,80,0,1
124712,-31.25,4,3,1,80,0,1
124713,-125,4,3,1,80,0,1
124859,-10,4,3,1,80,0,1
124861,-29.4117647058824,4,3,1,80,0,1
124862,-250,4,3,1,80,0,1
124896,-10,4,3,1,80,0,1
124898,-29.4117647058824,4,3,1,80,0,1
124899,-250,4,3,1,80,0,1
124934,-10,4,3,1,80,0,1
124936,-29.4117647058824,4,3,1,80,0,1
124937,-250,4,3,1,80,0,1
124971,-10,4,3,1,80,0,1
124973,-29.4117647058824,4,3,1,80,0,1
124974,-250,4,3,1,80,0,1
125009,-10,4,3,1,80,0,1
125011,-29.4117647058824,4,3,1,80,0,1
125012,-250,4,3,1,80,0,1
125046,-10,4,3,1,80,0,1
125048,-29.4117647058824,4,3,1,80,0,1
125049,-250,4,3,1,80,0,1
125084,-10,4,3,1,80,0,1
125086,-29.4117647058824,4,3,1,80,0,1
125087,-250,4,3,1,80,0,1
125121,-10,4,3,1,80,0,1
125123,-29.4117647058824,4,3,1,80,0,1
125124,-250,4,3,1,80,0,1
125159,-10,4,3,1,80,0,1
125161,-29.4117647058824,4,3,1,80,0,1
125162,-250,4,3,1,80,0,1
125196,-10,4,3,1,80,0,1
125198,-29.4117647058824,4,3,1,80,0,1
125199,-250,4,3,1,80,0,1
125234,-10,4,3,1,80,0,1
125236,-29.4117647058824,4,3,1,80,0,1
125237,-250,4,3,1,80,0,1
125271,-10,4,3,1,80,0,1
125273,-29.4117647058824,4,3,1,80,0,1
125274,-250,4,3,1,80,0,1
125309,-10,4,3,1,80,0,1
125311,-29.4117647058824,4,3,1,80,0,1
125312,-250,4,3,1,80,0,1
125346,-10,4,3,1,80,0,1
125348,-29.4117647058824,4,3,1,80,0,1
125349,-250,4,3,1,80,0,1
125384,-10,4,3,1,80,0,1
125386,-29.4117647058824,4,3,1,80,0,1
125387,-250,4,3,1,80,0,1
125421,-10,4,3,1,80,0,1
125423,-29.4117647058824,4,3,1,80,0,1
125424,-250,4,3,1,80,0,1
125459,-35.7142857142857,4,3,1,80,0,1
125477,-250,4,3,1,80,0,1
125534,-35.7142857142857,4,3,1,80,0,1
125552,-250,4,3,1,80,0,1
125609,-35.7142857142857,4,3,1,80,0,1
125627,-250,4,3,1,80,0,1
125684,-35.7142857142857,4,3,1,80,0,1
125702,-250,4,3,1,80,0,1
125759,-35.7142857142857,4,3,1,80,0,1
125784,-250,4,3,1,80,0,1
125859,-35.7142857142857,4,3,1,80,0,1
125884,-250,4,3,1,80,0,1
125959,-35.7142857142857,4,3,1,80,0,1
125984,-250,4,3,1,80,0,1
126059,-10,4,3,1,80,0,1
126065,-23.8095238095238,4,3,1,80,0,1
126066,-166.666666666667,4,3,1,80,0,1
126209,-10,4,3,1,80,0,1
126215,-23.8095238095238,4,3,1,80,0,1
126216,-166.666666666667,4,3,1,80,0,1
126359,-10,4,3,1,80,0,1
126361,-16.6666666666667,4,3,1,80,0,1
126362,-166.666666666667,4,3,1,80,0,1
126396,-10,4,3,1,80,0,1
126398,-16.6666666666667,4,3,1,80,0,1
126399,-166.666666666667,4,3,1,80,0,1
126434,-10,4,3,1,80,0,1
126436,-16.6666666666667,4,3,1,80,0,1
126437,-166.666666666667,4,3,1,80,0,1
126471,-10,4,3,1,80,0,1
126473,-16.6666666666667,4,3,1,80,0,1
126474,-166.666666666667,4,3,1,80,0,1
126509,-10,4,3,1,80,0,1
126515,-23.8095238095238,4,3,1,80,0,1
126516,-166.666666666667,4,3,1,80,0,1
126659,-10,4,3,1,80,0,1
126683,-20,4,3,1,80,0,1
126684,-500.000000000003,4,3,1,80,0,1
126959,-1000,4,3,1,80,0,1
127094,-10,4,3,1,80,0,1
127108,-15.625,4,3,1,80,0,1
127109,-100,4,3,1,80,0,1
127259,-100,4,3,1,80,0,1
127265,-23.8095238095238,4,3,1,80,0,1
127266,-166.666666666667,4,3,1,80,0,1
127409,-10,4,3,1,80,0,1
127415,-23.8095238095238,4,3,1,80,0,1
127416,-166.666666666667,4,3,1,80,0,1
127559,-10,4,3,1,80,0,1
127561,-16.6666666666667,4,3,1,80,0,1
127562,-166.666666666667,4,3,1,80,0,1
127596,-10,4,3,1,80,0,1
127598,-16.6666666666667,4,3,1,80,0,1
127599,-166.666666666667,4,3,1,80,0,1
127634,-10,4,3,1,80,0,1
127636,-16.6666666666667,4,3,1,80,0,1
127637,-166.666666666667,4,3,1,80,0,1
127671,-10,4,3,1,80,0,1
127673,-16.6666666666667,4,3,1,80,0,1
127674,-166.666666666667,4,3,1,80,0,1
127709,-10,4,3,1,80,0,1
127715,-23.8095238095238,4,3,1,80,0,1
127716,-166.666666666667,4,3,1,80,0,1
127859,-10,4,3,1,80,0,1
127865,-71.4285714285714,4,3,1,80,0,1
127866,-500.000000000003,4,3,1,80,0,1
128002,-10,4,3,1,80,0,1
128008,-71.4285714285714,4,3,1,80,0,1
128009,-10,4,3,1,80,0,1
128015,-23.8095238095238,4,3,1,80,0,1
128016,-166.666666666667,4,3,1,80,0,1
128159,-10,4,3,1,80,0,1
128165,-23.8095238095238,4,3,1,80,0,1
128166,-166.666666666667,4,3,1,80,0,1
128309,-10,4,3,1,80,0,1
128311,-16.6666666666667,4,3,1,80,0,1
128312,-166.666666666667,4,3,1,80,0,1
128346,-10,4,3,1,80,0,1
128348,-16.6666666666667,4,3,1,80,0,1
128349,-166.666666666667,4,3,1,80,0,1
128384,-10,4,3,1,80,0,1
128386,-16.6666666666667,4,3,1,80,0,1
128387,-166.666666666667,4,3,1,80,0,1
128421,-10,4,3,1,80,0,1
128423,-16.6666666666667,4,3,1,80,0,1
128424,-166.666666666667,4,3,1,80,0,1
128459,-10,4,3,1,80,0,1
128465,-23.8095238095238,4,3,1,80,0,1
128466,-166.666666666667,4,3,1,80,0,1
128609,-10,4,3,1,80,0,1
128610,-16.6666666666667,4,3,1,80,0,1
128611,-166.666666666667,4,3,1,80,0,1
128646,-10,4,3,1,80,0,1
128647,-16.6666666666667,4,3,1,80,0,1
128648,-166.666666666667,4,3,1,80,0,1
128684,-10,4,3,1,80,0,1
128686,-29.4117647058824,4,3,1,80,0,1
128687,-250,4,3,1,80,0,1
128721,-10,4,3,1,80,0,1
128723,-29.4117647058824,4,3,1,80,0,1
128724,-250,4,3,1,80,0,1
128796,-1000,4,3,1,80,0,1
128898,-10,4,3,1,80,0,1
128908,-35.7142857142857,4,3,1,80,0,1
128909,-10,4,3,1,80,0,1
128915,-23.8095238095238,4,3,1,80,0,1
128916,-166.666666666667,4,3,1,80,0,1
129059,-21.7391304347826,4,3,1,80,0,1
129096,-250,4,3,1,80,0,1
129321,-100,4,3,1,80,0,1
129359,-45.4545454545455,4,3,1,80,0,1
129396,-250,4,3,1,80,0,1
129434,-100,4,3,1,80,0,1
129546,-62.5,4,3,1,80,0,1
129565,-250,4,3,1,80,0,1
129584,-100,4,3,1,80,0,1
129659,-10,4,3,1,80,0,0
129665,-17.8571428571429,4,3,1,80,0,0
129666,-125,4,3,1,80,0,0
129959,-10,4,3,1,80,0,0
129962,-31.25,4,3,1,80,0,0
129963,-125,4,3,1,80,0,0
129996,-14.8809523809524,4,3,1,80,0,0
129997,-125,4,3,1,80,0,0
130034,-14.8809523809524,4,3,1,80,0,0
130035,-125,4,3,1,80,0,0
130071,-14.8809523809524,4,3,1,80,0,0
130072,-125,4,3,1,80,0,0
130109,-10,4,3,1,80,0,0
130112,-31.25,4,3,1,80,0,0
130113,-125,4,3,1,80,0,0
130146,-14.8809523809524,4,3,1,80,0,0
130147,-125,4,3,1,80,0,0
130184,-14.8809523809524,4,3,1,80,0,0
130185,-125,4,3,1,80,0,0
130221,-14.8809523809524,4,3,1,80,0,0
130222,-125,4,3,1,80,0,0
130259,-10,4,3,1,80,0,0
130262,-31.25,4,3,1,80,0,0
130263,-125,4,3,1,80,0,0
130409,-10,4,3,1,80,0,0
130412,-31.25,4,3,1,80,0,0
130413,-125,4,3,1,80,0,0
130559,-10,4,3,1,80,0,0
130583,-20,4,3,1,80,0,0
130584,-500,4,3,1,80,0,0
130859,-10,4,3,1,80,0,0
130865,-23.8095238095238,4,3,1,80,0,0
130866,-166.666666666667,4,3,1,80,0,0
131009,-10,4,3,1,80,0,0
131015,-23.8095238095238,4,3,1,80,0,0
131016,-250,4,3,1,80,0,0
131027,-21.1864406779661,4,3,1,80,0,0
131028,-250,4,3,1,80,0,0
131046,-21.1864406779661,4,3,1,80,0,0
131047,-250,4,3,1,80,0,0
131065,-21.1864406779661,4,3,1,80,0,0
131066,-250,4,3,1,80,0,0
131084,-21.1864406779661,4,3,1,80,0,0
131085,-250,4,3,1,80,0,0
131102,-21.1864406779661,4,3,1,80,0,0
131103,-250,4,3,1,80,0,0
131121,-21.1864406779661,4,3,1,80,0,0
131122,-250,4,3,1,80,0,0
131140,-21.1864406779661,4,3,1,80,0,0
131141,-250,4,3,1,80,0,0
131159,-10,4,3,1,80,0,0
131160,-62.5,4,3,1,80,0,0
131161,-250,4,3,1,80,0,0
131177,-10,4,3,1,80,0,0
131178,-62.5,4,3,1,80,0,0
131179,-250,4,3,1,80,0,0
131196,-10,4,3,1,80,0,0
131197,-62.5,4,3,1,80,0,0
131198,-250,4,3,1,80,0,0
131215,-10,4,3,1,80,0,0
131216,-62.5,4,3,1,80,0,0
131217,-250,4,3,1,80,0,0
131234,-10,4,3,1,80,0,0
131235,-62.5,4,3,1,80,0,0
131236,-250,4,3,1,80,0,0
131252,-10,4,3,1,80,0,0
131253,-62.5,4,3,1,80,0,0
131254,-250,4,3,1,80,0,0
131271,-10,4,3,1,80,0,0
131272,-62.5,4,3,1,80,0,0
131273,-250,4,3,1,80,0,0
131290,-10,4,3,1,80,0,0
131291,-62.5,4,3,1,80,0,0
131292,-250,4,3,1,80,0,0
131309,-10,4,3,1,80,0,0
131315,-23.8095238095238,4,3,1,80,0,0
131316,-250,4,3,1,80,0,0
131459,-10,4,3,1,80,0,0
131462,-31.25,4,3,1,80,0,0
131463,-125,4,3,1,80,0,0
131609,-10,4,3,1,80,0,0
131612,-31.25,4,3,1,80,0,0
131613,-125,4,3,1,80,0,0
131759,-10,4,3,1,80,0,0
131783,-20,4,3,1,80,0,0
131784,-500,4,3,1,80,0,0
132059,-10,4,3,1,80,0,0
132065,-23.8095238095238,4,3,1,80,0,0
132066,-166.666666666667,4,3,1,80,0,0
132209,-10,4,3,1,80,0,0
132215,-23.8095238095238,4,3,1,80,0,0
132216,-250,4,3,1,80,0,0
132227,-21.1864406779661,4,3,1,80,0,0
132228,-250,4,3,1,80,0,0
132246,-21.1864406779661,4,3,1,80,0,0
132247,-250,4,3,1,80,0,0
132265,-21.1864406779661,4,3,1,80,0,0
132266,-250,4,3,1,80,0,0
132284,-21.1864406779661,4,3,1,80,0,0
132285,-250,4,3,1,80,0,0
132302,-21.1864406779661,4,3,1,80,0,0
132303,-250,4,3,1,80,0,0
132321,-21.1864406779661,4,3,1,80,0,0
132322,-250,4,3,1,80,0,0
132340,-21.1864406779661,4,3,1,80,0,0
132341,-250,4,3,1,80,0,0
132359,-10,4,3,1,80,0,0
132360,-62.5,4,3,1,80,0,0
132361,-250,4,3,1,80,0,0
132377,-10,4,3,1,80,0,0
132378,-62.5,4,3,1,80,0,0
132379,-250,4,3,1,80,0,0
132396,-10,4,3,1,80,0,0
132397,-62.5,4,3,1,80,0,0
132398,-250,4,3,1,80,0,0
132415,-10,4,3,1,80,0,0
132416,-62.5,4,3,1,80,0,0
132417,-250,4,3,1,80,0,0
132434,-10,4,3,1,80,0,0
132435,-62.5,4,3,1,80,0,0
132436,-250,4,3,1,80,0,0
132452,-10,4,3,1,80,0,0
132453,-62.5,4,3,1,80,0,0
132454,-250,4,3,1,80,0,0
132471,-10,4,3,1,80,0,0
132472,-62.5,4,3,1,80,0,0
132473,-250,4,3,1,80,0,0
132490,-10,4,3,1,80,0,0
132491,-62.5,4,3,1,80,0,0
132492,-250,4,3,1,80,0,0
132509,-10,4,3,1,80,0,0
132515,-23.8095238095238,4,3,1,80,0,0
132516,-250,4,3,1,80,0,0
132659,-10,4,3,1,80,0,0
132662,-31.25,4,3,1,80,0,0
132663,-125,4,3,1,80,0,0
132809,-10,4,3,1,80,0,0
132812,-31.25,4,3,1,80,0,0
132813,-125,4,3,1,80,0,0
132959,-111.111111111111,4,3,1,80,0,0
132996,-100,4,3,1,80,0,0
133034,-90.9090909090909,4,3,1,80,0,0
133071,-83.3333333333333,4,3,1,80,0,0
133109,-500,4,3,1,80,0,0
133247,-10,4,3,1,80,0,0
133258,-20.4081632653061,4,3,1,80,0,0
133259,-62.5,4,3,1,80,0,0
133296,-100,4,3,1,80,0,0
133409,-111.111111111111,4,3,1,80,0,0
133446,-117.647058823529,4,3,1,80,0,0
133484,-125,4,3,1,80,0,0
133521,-111.111111111111,4,3,1,80,0,0
133559,-100,4,3,1,80,0,0
133596,-90.9090909090909,4,3,1,80,0,0
133634,-83.3333333333333,4,3,1,80,0,0
133671,-76.9230769230769,4,3,1,80,0,0
133934,-83.3333333333333,4,3,1,80,0,0
134009,-90.9090909090909,4,3,1,80,0,0
134084,-100,4,3,1,80,0,0
134159,-111.111111111111,4,3,1,80,0,0
134234,-125,4,3,1,80,0,0
134309,-142.857142857143,4,3,1,80,0,0
134384,-166.666666666667,4,3,1,80,0,0

[HitObjects]
448,192,19259,128,0,21659:0:0:0:0:
64,192,19259,1,0,0:0:0:0:
320,192,19709,1,0,0:0:0:0:
192,192,19859,1,8,0:0:0:0:
64,192,20459,1,0,0:0:0:0:
192,192,20909,1,0,0:0:0:0:
320,192,21059,1,8,0:0:0:0:
192,192,21659,1,0,0:0:0:0:
64,192,21659,128,0,24059:0:0:0:0:
320,192,22109,1,0,0:0:0:0:
192,192,22259,1,8,0:0:0:0:
192,192,22859,1,0,0:0:0:0:
448,192,23309,1,0,0:0:0:0:
320,192,23309,128,0,23609:0:0:0:0:
192,192,23459,1,8,0:0:0:0:
448,192,23759,128,0,24059:0:0:0:0:
320,192,24059,128,0,26459:0:0:0:0:
192,192,24059,1,0,0:0:0:0:
64,192,24509,1,0,0:0:0:0:
448,192,24659,1,8,0:0:0:0:
192,192,25146,128,0,25259:0:0:0:0:
64,192,25259,1,0,0:0:0:0:
448,192,25559,128,0,25859:0:0:0:0:
64,192,25709,1,0,0:0:0:0:
192,192,25859,1,8,0:0:0:0:
192,192,26459,128,0,28859:0:0:0:0:
448,192,26459,1,0,0:0:0:0:
64,192,26909,1,0,0:0:0:0:
320,192,27059,1,8,0:0:0:0:
64,192,27359,128,0,27959:0:0:0:0:
320,192,27659,1,0,0:0:0:0:
448,192,27959,128,0,28559:0:0:0:0:
64,192,28109,1,0,0:0:0:0:
320,192,28259,1,8,0:0:0:0:
320,192,28559,128,8,28859:0:0:0:0:
448,192,28859,1,0,0:0:0:0:
64,192,28859,1,0,0:0:0:0:
64,192,29159,1,0,0:0:0:0:
448,192,29309,1,0,0:0:0:0:
192,192,29459,1,8,0:0:0:0:
448,192,29609,1,0,0:0:0:0:
320,192,29759,1,0,0:0:0:0:
192,192,29909,1,0,0:0:0:0:
64,192,30059,1,0,0:0:0:0:
448,192,30059,1,0,0:0:0:0:
320,192,30359,1,0,0:0:0:0:
64,192,30509,1,0,0:0:0:0:
448,192,30659,1,8,0:0:0:0:
64,192,30959,1,0,0:0:0:0:
320,192,31034,128,0,31259:0:0:0:0:
192,192,31109,1,0,0:0:0:0:
64,192,31259,1,0,0:0:0:0:
448,192,31259,1,0,0:0:0:0:
192,192,31559,1,0,0:0:0:0:
320,192,31709,1,0,0:0:0:0:
64,192,31859,1,8,0:0:0:0:
320,192,32009,1,0,0:0:0:0:
448,192,32159,1,0,0:0:0:0:
192,192,32309,1,0,0:0:0:0:
64,192,32459,1,0,0:0:0:0:
320,192,32459,1,0,0:0:0:0:
64,192,32759,1,0,0:0:0:0:
320,192,32909,1,0,0:0:0:0:
192,192,33059,1,8,0:0:0:0:
448,192,33359,1,0,0:0:0:0:
192,192,33459,128,0,33659:0:0:0:0:
320,192,33509,1,0,0:0:0:0:
64,192,33659,1,0,0:0:0:0:
320,192,33659,1,0,0:0:0:0:
448,192,33659,1,0,0:0:0:0:
320,192,34109,1,0,0:0:0:0:
64,192,34259,1,0,0:0:0:0:
192,192,34259,1,8,0:0:0:0:
448,192,34259,1,0,0:0:0:0:
192,192,34709,1,0,0:0:0:0:
64,192,34859,1,0,0:0:0:0:
320,192,34859,1,0,0:0:0:0:
448,192,34859,1,0,0:0:0:0:
448,192,35309,1,0,0:0:0:0:
320,192,35459,1,0,0:0:0:0:
192,192,35459,1,8,0:0:0:0:
64,192,35459,1,0,0:0:0:0:
64,192,35909,1,0,0:0:0:0:
192,192,36059,1,0,0:0:0:0:
320,192,36059,1,0,0:0:0:0:
448,192,36059,1,0,0:0:0:0:
320,192,36359,1,8,0:0:0:0:
64,192,36359,1,0,0:0:0:0:
448,192,36359,1,0,0:0:0:0:
64,192,36659,1,0,0:0:0:0:
192,192,36659,1,0,0:0:0:0:
448,192,36659,1,0,0:0:0:0:
64,192,36959,1,0,0:0:0:0:
320,192,36959,1,8,0:0:0:0:
448,192,36959,1,0,0:0:0:0:
192,192,37259,1,0,0:0:0:0:
64,192,37259,1,0,0:0:0:0:
448,192,37259,1,0,0:0:0:0:
320,192,37709,1,0,0:0:0:0:
192,192,37709,1,0,0:0:0:0:
448,192,37859,1,0,0:0:0:0:
192,192,37859,1,8,0:0:0:0:
64,192,37859,1,0,0:0:0:0:
448,192,38009,1,0,0:0:0:0:
320,192,38009,1,0,0:0:0:0:
192,192,38159,1,0,0:0:0:0:
64,192,38159,1,0,0:0:0:0:
64,192,38309,1,8,0:0:0:0:
320,192,38309,1,0,0:0:0:0:
448,192,38309,1,0,0:0:0:0:
192,192,38459,1,0,0:0:0:0:
448,192,38459,1,0,0:0:0:0:
320,192,38509,1,0,0:0:0:0:
64,192,38559,1,0,0:0:0:0:
192,192,38609,1,0,0:0:0:0:
320,192,38659,1,0,0:0:0:0:
448,192,38709,1,0,0:0:0:0:
64,192,38759,1,0,0:0:0:0:
192,192,38809,1,0,0:0:0:0:
448,192,38859,1,0,0:0:0:0:
320,192,38909,128,0,39059:0:0:0:0:
192,192,39059,1,8,0:0:0:0:
64,192,39059,1,0,0:0:0:0:
448,192,39059,1,0,0:0:0:0:
64,192,39209,1,0,0:0:0:0:
448,192,39209,1,0,0:0:0:0:
320,192,39209,128,0,39509:0:0:0:0:
448,192,39659,1,0,0:0:0:0:
64,192,39659,1,0,0:0:0:0:
192,192,39809,128,0,39959:0:0:0:0:
64,192,39959,1,0,0:0:0:0:
448,192,39959,1,0,0:0:0:0:
320,192,39959,1,4,0:0:0:0:
192,192,40109,128,0,40259:0:0:0:0:
64,192,40259,1,0,0:0:0:0:
448,192,40259,1,8,0:0:0:0:
64,192,40559,1,0,0:0:0:0:
448,192,40559,1,0,0:0:0:0:
192,192,40559,128,8,40709:0:0:0:0:
64,192,40859,1,0,0:0:0:0:
448,192,40859,1,0,0:0:0:0:
320,192,40909,1,0,0:0:0:0:
192,192,40959,1,0,0:0:0:0:
448,192,41009,1,0,0:0:0:0:
64,192,41059,1,0,0:0:0:0:
320,192,41109,1,0,0:0:0:0:
192,192,41159,1,0,0:0:0:0:
64,192,41209,1,0,0:0:0:0:
448,192,41259,1,0,0:0:0:0:
320,192,41309,128,0,41459:0:0:0:0:
192,192,41459,1,8,0:0:0:0:
448,192,41459,1,0,0:0:0:0:
64,192,41459,1,0,0:0:0:0:
64,192,41609,1,0,0:0:0:0:
320,192,41609,1,0,0:0:0:0:
448,192,41609,1,0,0:0:0:0:
192,192,41684,1,0,0:0:0:0:
448,192,41759,1,0,0:0:0:0:
320,192,41834,1,0,0:0:0:0:
64,192,41909,128,0,42059:0:0:0:0:
192,192,41984,128,0,42059:0:0:0:0:
320,192,42059,1,0,0:0:0:0:
448,192,42059,1,0,0:0:0:0:
192,192,42209,1,8,0:0:0:0:
320,192,42209,1,0,0:0:0:0:
448,192,42359,128,0,42509:0:0:0:0:
64,192,42359,1,0,0:0:0:0:
192,192,42359,1,4,0:0:0:0:
320,192,42509,1,0,0:0:0:0:
192,192,42584,1,0,0:0:0:0:
64,192,42659,1,0,0:0:0:0:
320,192,42659,1,8,0:0:0:0:
448,192,42659,1,0,0:0:0:0:
192,192,42809,128,0,42959:0:0:0:0:
64,192,42959,1,0,0:0:0:0:
448,192,42959,1,0,0:0:0:0:
448,192,43259,1,0,0:0:0:0:
64,192,43259,1,0,0:0:0:0:
192,192,43309,1,0,0:0:0:0:
320,192,43359,1,0,0:0:0:0:
448,192,43409,1,0,0:0:0:0:
64,192,43459,1,0,0:0:0:0:
192,192,43509,1,0,0:0:0:0:
448,192,43559,1,0,0:0:0:0:
320,192,43609,1,0,0:0:0:0:
64,192,43659,1,0,0:0:0:0:
192,192,43709,128,0,43859:0:0:0:0:
64,192,43859,1,0,0:0:0:0:
320,192,43859,1,8,0:0:0:0:
448,192,43859,1,0,0:0:0:0:
64,192,44009,1,0,0:0:0:0:
192,192,44009,1,0,0:0:0:0:
448,192,44159,128,0,44309:0:0:0:0:
192,192,44159,1,0,0:0:0:0:
64,192,44309,128,0,44459:0:0:0:0:
320,192,44309,1,0,0:0:0:0:
448,192,44609,1,0,0:0:0:0:
320,192,44609,1,0,0:0:0:0:
64,192,44684,1,0,0:0:0:0:
192,192,44684,1,0,0:0:0:0:
448,192,44759,1,0,0:0:0:0:
320,192,44759,1,0,0:0:0:0:
192,192,44909,1,0,0:0:0:0:
64,192,44909,1,0,0:0:0:0:
64,192,45059,128,0,45209:0:0:0:0:
448,192,45059,1,0,0:0:0:0:
320,192,45059,1,12,0:0:0:0:
320,192,45209,128,0,45284:0:0:0:0:
448,192,45284,1,0,0:0:0:0:
192,192,45359,128,0,45434:0:0:0:0:
64,192,45434,1,0,0:0:0:0:
320,192,45509,1,0,0:0:0:0:
448,192,45509,1,0,0:0:0:0:
64,192,45659,1,0,0:0:0:0:
448,192,45659,1,0,0:0:0:0:
320,192,45709,1,0,0:0:0:0:
192,192,45759,1,0,0:0:0:0:
448,192,45809,1,0,0:0:0:0:
320,192,45859,1,0,0:0:0:0:
64,192,45909,1,0,0:0:0:0:
192,192,45959,128,4,46109:0:0:0:0:
320,192,46109,1,0,0:0:0:0:
64,192,46109,1,0,0:0:0:0:
448,192,46109,1,0,0:0:0:0:
192,192,46259,1,8,0:0:0:0:
64,192,46259,1,0,0:0:0:0:
448,192,46259,1,0,0:0:0:0:
448,192,46409,1,0,0:0:0:0:
320,192,46409,1,0,0:0:0:0:
64,192,46559,128,0,46859:0:0:0:0:
192,192,46559,128,0,46859:0:0:0:0:
448,192,46709,128,0,46859:0:0:0:0:
320,192,46709,128,0,46859:0:0:0:0:
448,192,47009,1,0,0:0:0:0:
320,192,47046,1,0,0:0:0:0:
64,192,47084,1,0,0:0:0:0:
192,192,47121,1,0,0:0:0:0:
320,192,47159,1,4,0:0:0:0:
448,192,47159,1,0,0:0:0:0:
64,192,47309,1,0,0:0:0:0:
192,192,47346,1,0,0:0:0:0:
448,192,47384,1,0,0:0:0:0:
320,192,47421,1,0,0:0:0:0:
192,192,47459,1,8,0:0:0:0:
64,192,47459,1,0,0:0:0:0:
448,192,47609,1,4,0:0:0:0:
64,192,47609,1,0,0:0:0:0:
320,192,47759,1,8,0:0:0:0:
448,192,47759,1,0,0:0:0:0:
192,192,47909,1,8,0:0:0:0:
64,192,47909,1,0,0:0:0:0:
64,192,48059,1,0,0:0:0:0:
320,192,48059,1,0,0:0:0:0:
192,192,48109,1,0,0:0:0:0:
448,192,48159,1,0,0:0:0:0:
64,192,48209,1,0,0:0:0:0:
192,192,48259,1,0,0:0:0:0:
320,192,48309,1,0,0:0:0:0:
448,192,48359,1,0,0:0:0:0:
64,192,48409,1,0,0:0:0:0:
192,192,48459,1,0,0:0:0:0:
320,192,48509,128,0,48659:0:0:0:0:
64,192,48659,1,0,0:0:0:0:
192,192,48659,1,8,0:0:0:0:
448,192,48659,1,0,0:0:0:0:
64,192,48809,1,0,0:0:0:0:
448,192,48809,1,0,0:0:0:0:
320,192,48809,128,0,49109:0:0:0:0:
448,192,49259,1,0,0:0:0:0:
64,192,49259,1,0,0:0:0:0:
192,192,49409,128,0,49559:0:0:0:0:
320,192,49559,1,4,0:0:0:0:
64,192,49559,1,0,0:0:0:0:
448,192,49559,1,0,0:0:0:0:
192,192,49709,128,0,49859:0:0:0:0:
64,192,49859,1,0,0:0:0:0:
448,192,49859,1,8,0:0:0:0:
64,192,50159,1,0,0:0:0:0:
448,192,50159,1,0,0:0:0:0:
192,192,50159,128,8,50309:0:0:0:0:
448,192,50459,1,0,0:0:0:0:
192,192,50459,1,0,0:0:0:0:
64,192,50509,1,0,0:0:0:0:
320,192,50559,1,0,0:0:0:0:
192,192,50609,1,0,0:0:0:0:
64,192,50659,1,0,0:0:0:0:
320,192,50709,1,0,0:0:0:0:
448,192,50759,1,0,0:0:0:0:
64,192,50809,1,0,0:0:0:0:
192,192,50859,1,0,0:0:0:0:
320,192,50909,128,0,51059:0:0:0:0:
192,192,51059,1,8,0:0:0:0:
64,192,51059,1,0,0:0:0:0:
448,192,51059,1,0,0:0:0:0:
64,192,51209,1,0,0:0:0:0:
320,192,51209,1,0,0:0:0:0:
448,192,51209,1,0,0:0:0:0:
192,192,51284,1,0,0:0:0:0:
448,192,51359,1,0,0:0:0:0:
320,192,51434,1,0,0:0:0:0:
64,192,51509,128,0,51659:0:0:0:0:
192,192,51584,128,0,51659:0:0:0:0:
320,192,51659,1,0,0:0:0:0:
448,192,51659,1,0,0:0:0:0:
192,192,51809,1,8,0:0:0:0:
320,192,51809,1,0,0:0:0:0:
64,192,51959,1,0,0:0:0:0:
192,192,51959,1,4,0:0:0:0:
448,192,51959,1,0,0:0:0:0:
320,192,52109,1,0,0:0:0:0:
192,192,52184,1,0,0:0:0:0:
64,192,52259,1,0,0:0:0:0:
320,192,52259,1,8,0:0:0:0:
448,192,52259,1,0,0:0:0:0:
192,192,52409,128,0,52559:0:0:0:0:
64,192,52559,1,0,0:0:0:0:
448,192,52559,1,0,0:0:0:0:
192,192,52859,1,0,0:0:0:0:
448,192,52859,1,0,0:0:0:0:
320,192,52909,1,0,0:0:0:0:
64,192,52959,1,0,0:0:0:0:
448,192,53009,1,0,0:0:0:0:
320,192,53059,1,0,0:0:0:0:
192,192,53109,1,0,0:0:0:0:
64,192,53159,1,0,0:0:0:0:
448,192,53209,1,0,0:0:0:0:
320,192,53259,1,0,0:0:0:0:
192,192,53309,128,0,53459:0:0:0:0:
64,192,53459,1,0,0:0:0:0:
320,192,53459,1,8,0:0:0:0:
448,192,53459,1,0,0:0:0:0:
64,192,53609,1,0,0:0:0:0:
192,192,53609,1,0,0:0:0:0:
448,192,53759,1,0,0:0:0:0:
192,192,53759,128,0,53909:0:0:0:0:
320,192,53909,128,0,54059:0:0:0:0:
64,192,53909,1,0,0:0:0:0:
448,192,54209,1,0,0:0:0:0:
320,192,54209,1,0,0:0:0:0:
64,192,54284,1,0,0:0:0:0:
192,192,54284,1,0,0:0:0:0:
448,192,54359,1,0,0:0:0:0:
320,192,54359,1,0,0:0:0:0:
64,192,54509,1,0,0:0:0:0:
192,192,54509,1,0,0:0:0:0:
320,192,54659,1,12,0:0:0:0:
448,192,54659,1,0,0:0:0:0:
64,192,54659,128,0,54809:0:0:0:0:
320,192,54809,128,0,54884:0:0:0:0:
448,192,54884,1,0,0:0:0:0:
192,192,54959,128,0,55034:0:0:0:0:
64,192,55034,1,0,0:0:0:0:
320,192,55109,1,0,0:0:0:0:
448,192,55109,1,0,0:0:0:0:
64,192,55259,1,0,0:0:0:0:
448,192,55259,1,0,0:0:0:0:
320,192,55309,1,0,0:0:0:0:
192,192,55359,1,0,0:0:0:0:
64,192,55409,1,0,0:0:0:0:
320,192,55459,1,0,0:0:0:0:
448,192,55509,1,0,0:0:0:0:
192,192,55559,128,4,55709:0:0:0:0:
320,192,55709,1,0,0:0:0:0:
64,192,55709,1,0,0:0:0:0:
448,192,55709,1,0,0:0:0:0:
192,192,55859,1,8,0:0:0:0:
64,192,55859,1,0,0:0:0:0:
448,192,55859,1,0,0:0:0:0:
448,192,56009,1,0,0:0:0:0:
320,192,56009,1,0,0:0:0:0:
192,192,56159,1,0,0:0:0:0:
64,192,56309,1,0,0:0:0:0:
320,192,56309,1,8,0:0:0:0:
448,192,56309,1,0,0:0:0:0:
448,192,56609,128,0,56909:0:0:0:0:
64,192,56609,128,0,56909:0:0:0:0:
192,192,56609,1,4,0:0:0:0:
320,192,56909,1,0,0:0:0:0:
192,192,56909,1,0,0:0:0:0:
448,192,57059,1,0,0:0:0:0:
64,192,57059,1,0,0:0:0:0:
192,192,57059,1,8,0:0:0:0:
320,192,57209,1,0,0:0:0:0:
448,192,57209,1,0,0:0:0:0:
192,192,57359,1,0,0:0:0:0:
64,192,57359,1,0,0:0:0:0:
64,192,57509,1,0,0:0:0:0:
448,192,57509,1,8,0:0:0:0:
448,192,57659,1,0,0:0:0:0:
192,192,57659,1,0,0:0:0:0:
320,192,57709,1,0,0:0:0:0:
64,192,57759,1,0,0:0:0:0:
192,192,57809,1,0,0:0:0:0:
320,192,57859,1,0,0:0:0:0:
448,192,57909,1,0,0:0:0:0:
64,192,57959,1,0,0:0:0:0:
192,192,58009,1,0,0:0:0:0:
448,192,58059,1,0,0:0:0:0:
320,192,58109,128,0,58259:0:0:0:0:
64,192,58259,1,0,0:0:0:0:
192,192,58259,1,8,0:0:0:0:
448,192,58259,1,0,0:0:0:0:
192,192,58409,128,0,58709:0:0:0:0:
448,192,58409,1,0,0:0:0:0:
64,192,58409,1,0,0:0:0:0:
64,192,58859,1,0,0:0:0:0:
448,192,58859,1,0,0:0:0:0:
320,192,59009,128,0,59159:0:0:0:0:
448,192,59159,1,0,0:0:0:0:
192,192,59159,1,4,0:0:0:0:
64,192,59159,1,0,0:0:0:0:
320,192,59309,128,0,59459:0:0:0:0:
448,192,59459,1,0,0:0:0:0:
64,192,59459,1,8,0:0:0:0:
448,192,59759,1,0,0:0:0:0:
64,192,59759,1,0,0:0:0:0:
320,192,59759,128,8,59909:0:0:0:0:
448,192,60059,1,0,0:0:0:0:
64,192,60059,1,0,0:0:0:0:
320,192,60109,1,0,0:0:0:0:
192,192,60159,1,0,0:0:0:0:
448,192,60209,1,0,0:0:0:0:
320,192,60259,1,0,0:0:0:0:
64,192,60309,1,0,0:0:0:0:
192,192,60359,1,0,0:0:0:0:
320,192,60409,1,0,0:0:0:0:
448,192,60459,1,0,0:0:0:0:
64,192,60509,128,0,60659:0:0:0:0:
320,192,60659,1,8,0:0:0:0:
448,192,60659,1,0,0:0:0:0:
192,192,60659,1,0,0:0:0:0:
448,192,60809,1,0,0:0:0:0:
192,192,60809,1,0,0:0:0:0:
64,192,60809,1,0,0:0:0:0:
320,192,60884,1,0,0:0:0:0:
64,192,60959,1,0,0:0:0:0:
192,192,61034,1,0,0:0:0:0:
448,192,61109,128,0,61259:0:0:0:0:
320,192,61184,128,0,61259:0:0:0:0:
192,192,61259,1,0,0:0:0:0:
64,192,61259,1,0,0:0:0:0:
320,192,61409,1,0,0:0:0:0:
192,192,61409,1,8,0:0:0:0:
448,192,61559,1,0,0:0:0:0:
320,192,61559,1,4,0:0:0:0:
64,192,61559,128,0,61709:0:0:0:0:
192,192,61709,1,0,0:0:0:0:
320,192,61784,1,0,0:0:0:0:
448,192,61859,1,0,0:0:0:0:
192,192,61859,1,8,0:0:0:0:
64,192,61859,1,0,0:0:0:0:
320,192,62009,128,0,62159:0:0:0:0:
448,192,62159,1,0,0:0:0:0:
64,192,62159,1,0,0:0:0:0:
448,192,62459,1,0,0:0:0:0:
64,192,62459,1,0,0:0:0:0:
192,192,62509,1,0,0:0:0:0:
320,192,62559,1,0,0:0:0:0:
448,192,62609,1,0,0:0:0:0:
64,192,62659,1,0,0:0:0:0:
192,192,62709,1,0,0:0:0:0:
320,192,62759,1,0,0:0:0:0:
64,192,62809,1,0,0:0:0:0:
448,192,62859,1,0,0:0:0:0:
192,192,62909,128,0,63059:0:0:0:0:
448,192,63059,1,0,0:0:0:0:
320,192,63059,1,8,0:0:0:0:
64,192,63059,1,0,0:0:0:0:
192,192,63209,1,0,0:0:0:0:
64,192,63209,1,0,0:0:0:0:
448,192,63359,128,0,63509:0:0:0:0:
192,192,63359,1,0,0:0:0:0:
64,192,63509,128,0,63659:0:0:0:0:
320,192,63509,1,0,0:0:0:0:
448,192,63809,1,0,0:0:0:0:
320,192,63809,1,0,0:0:0:0:
64,192,63884,1,0,0:0:0:0:
192,192,63884,1,0,0:0:0:0:
448,192,63959,1,0,0:0:0:0:
320,192,63959,1,0,0:0:0:0:
64,192,64109,1,0,0:0:0:0:
192,192,64109,1,0,0:0:0:0:
320,192,64259,1,12,0:0:0:0:
448,192,64259,1,0,0:0:0:0:
64,192,64259,128,0,64409:0:0:0:0:
320,192,64409,128,0,64484:0:0:0:0:
448,192,64484,1,0,0:0:0:0:
192,192,64559,128,0,64634:0:0:0:0:
64,192,64634,1,0,0:0:0:0:
320,192,64709,1,0,0:0:0:0:
448,192,64709,1,0,0:0:0:0:
64,192,64859,1,0,0:0:0:0:
448,192,64859,1,0,0:0:0:0:
320,192,64909,1,0,0:0:0:0:
192,192,64959,1,0,0:0:0:0:
448,192,65009,1,0,0:0:0:0:
64,192,65059,1,0,0:0:0:0:
192,192,65109,1,0,0:0:0:0:
320,192,65159,128,4,65309:0:0:0:0:
448,192,65309,1,0,0:0:0:0:
64,192,65309,1,0,0:0:0:0:
192,192,65309,1,0,0:0:0:0:
320,192,65459,1,8,0:0:0:0:
448,192,65459,1,0,0:0:0:0:
64,192,65459,1,0,0:0:0:0:
64,192,65609,1,0,0:0:0:0:
192,192,65609,1,0,0:0:0:0:
448,192,65759,128,0,66059:0:0:0:0:
320,192,65759,128,0,66059:0:0:0:0:
64,192,65909,128,0,66059:0:0:0:0:
192,192,65909,128,0,66059:0:0:0:0:
64,192,66209,1,0,0:0:0:0:
192,192,66246,1,0,0:0:0:0:
448,192,66284,1,0,0:0:0:0:
320,192,66321,1,0,0:0:0:0:
192,192,66359,1,4,0:0:0:0:
64,192,66359,1,0,0:0:0:0:
448,192,66509,1,0,0:0:0:0:
320,192,66546,1,0,0:0:0:0:
64,192,66584,1,0,0:0:0:0:
192,192,66621,1,0,0:0:0:0:
320,192,66659,1,8,0:0:0:0:
448,192,66659,1,0,0:0:0:0:
448,192,66809,1,0,0:0:0:0:
64,192,66809,1,4,0:0:0:0:
64,192,66959,1,0,0:0:0:0:
192,192,66959,1,8,0:0:0:0:
448,192,67109,1,0,0:0:0:0:
320,192,67109,1,8,0:0:0:0:
64,192,67259,1,0,0:0:0:0:
448,192,67259,1,0,0:0:0:0:
320,192,67309,1,0,0:0:0:0:
192,192,67359,1,0,0:0:0:0:
64,192,67409,1,0,0:0:0:0:
448,192,67459,1,0,0:0:0:0:
320,192,67509,1,0,0:0:0:0:
64,192,67559,1,0,0:0:0:0:
448,192,67609,1,0,0:0:0:0:
320,192,67659,1,0,0:0:0:0:
192,192,67709,128,0,67859:0:0:0:0:
448,192,67859,1,0,0:0:0:0:
320,192,67859,1,8,0:0:0:0:
64,192,67859,1,0,0:0:0:0:
448,192,68009,1,0,0:0:0:0:
64,192,68009,1,0,0:0:0:0:
192,192,68009,128,0,68309:0:0:0:0:
64,192,68459,1,0,0:0:0:0:
448,192,68459,1,0,0:0:0:0:
320,192,68609,128,0,68759:0:0:0:0:
448,192,68759,1,0,0:0:0:0:
192,192,68759,1,4,0:0:0:0:
64,192,68759,1,0,0:0:0:0:
320,192,68909,128,0,69059:0:0:0:0:
64,192,69059,1,0,0:0:0:0:
448,192,69059,1,8,0:0:0:0:
448,192,69359,1,0,0:0:0:0:
64,192,69359,1,8,0:0:0:0:
320,192,69359,128,0,69509:0:0:0:0:
448,192,69659,1,0,0:0:0:0:
192,192,69659,1,0,0:0:0:0:
320,192,69709,1,0,0:0:0:0:
64,192,69759,1,0,0:0:0:0:
448,192,69809,1,0,0:0:0:0:
320,192,69859,1,0,0:0:0:0:
192,192,69909,1,0,0:0:0:0:
64,192,69959,1,0,0:0:0:0:
320,192,70009,1,0,0:0:0:0:
448,192,70059,1,0,0:0:0:0:
192,192,70109,128,0,70259:0:0:0:0:
320,192,70259,1,8,0:0:0:0:
64,192,70259,1,0,0:0:0:0:
448,192,70259,1,0,0:0:0:0:
192,192,70409,1,0,0:0:0:0:
64,192,70409,1,0,0:0:0:0:
448,192,70409,1,0,0:0:0:0:
320,192,70484,1,0,0:0:0:0:
192,192,70559,1,0,0:0:0:0:
64,192,70634,1,0,0:0:0:0:
448,192,70709,128,0,70859:0:0:0:0:
320,192,70784,128,0,70859:0:0:0:0:
192,192,70859,1,0,0:0:0:0:
64,192,70859,1,0,0:0:0:0:
320,192,71009,1,0,0:0:0:0:
192,192,71009,1,8,0:0:0:0:
448,192,71159,1,0,0:0:0:0:
320,192,71159,1,4,0:0:0:0:
64,192,71159,1,0,0:0:0:0:
192,192,71309,1,0,0:0:0:0:
320,192,71384,1,0,0:0:0:0:
448,192,71459,1,0,0:0:0:0:
192,192,71459,1,8,0:0:0:0:
64,192,71459,1,0,0:0:0:0:
320,192,71609,128,0,71759:0:0:0:0:
448,192,71759,1,0,0:0:0:0:
64,192,71759,1,0,0:0:0:0:
320,192,72059,1,0,0:0:0:0:
192,192,72059,1,0,0:0:0:0:
448,192,72109,1,0,0:0:0:0:
64,192,72159,1,0,0:0:0:0:
320,192,72209,1,0,0:0:0:0:
448,192,72259,1,0,0:0:0:0:
192,192,72309,1,0,0:0:0:0:
64,192,72359,1,0,0:0:0:0:
448,192,72409,1,0,0:0:0:0:
320,192,72459,1,0,0:0:0:0:
192,192,72509,128,0,72659:0:0:0:0:
448,192,72659,1,0,0:0:0:0:
320,192,72659,1,8,0:0:0:0:
64,192,72659,1,0,0:0:0:0:
192,192,72809,1,0,0:0:0:0:
64,192,72809,1,0,0:0:0:0:
192,192,72959,128,0,73109:0:0:0:0:
448,192,72959,1,0,0:0:0:0:
64,192,73109,1,0,0:0:0:0:
320,192,73109,128,0,73259:0:0:0:0:
448,192,73409,1,0,0:0:0:0:
320,192,73409,1,0,0:0:0:0:
64,192,73484,1,0,0:0:0:0:
192,192,73484,1,0,0:0:0:0:
448,192,73559,1,0,0:0:0:0:
320,192,73559,1,0,0:0:0:0:
64,192,73709,1,0,0:0:0:0:
192,192,73709,1,0,0:0:0:0:
320,192,73859,1,12,0:0:0:0:
448,192,73859,1,0,0:0:0:0:
64,192,73859,128,0,74009:0:0:0:0:
320,192,74009,128,0,74084:0:0:0:0:
448,192,74084,1,0,0:0:0:0:
192,192,74159,128,0,74234:0:0:0:0:
64,192,74234,1,0,0:0:0:0:
320,192,74309,1,0,0:0:0:0:
448,192,74309,1,0,0:0:0:0:
448,192,74459,1,0,0:0:0:0:
192,192,74459,1,0,0:0:0:0:
320,192,74509,1,0,0:0:0:0:
64,192,74559,1,0,0:0:0:0:
192,192,74609,1,0,0:0:0:0:
448,192,74659,1,0,0:0:0:0:
320,192,74709,1,0,0:0:0:0:
192,192,74759,128,4,74909:0:0:0:0:
448,192,74909,1,0,0:0:0:0:
64,192,74909,1,0,0:0:0:0:
320,192,74909,1,0,0:0:0:0:
192,192,75059,1,8,0:0:0:0:
64,192,75059,1,0,0:0:0:0:
448,192,75059,1,0,0:0:0:0:
320,192,75209,1,0,0:0:0:0:
64,192,75359,1,0,0:0:0:0:
192,192,75359,1,8,0:0:0:0:
320,192,75509,1,8,0:0:0:0:
448,192,75509,1,0,0:0:0:0:
64,192,75659,1,0,0:0:0:0:
448,192,75659,1,0,0:0:0:0:
64,192,75809,1,0,0:0:0:0:
192,192,75809,1,8,0:0:0:0:
192,192,75959,1,0,0:0:0:0:
320,192,75959,1,4,0:0:0:0:
448,192,75959,1,0,0:0:0:0:
64,192,76259,1,0,0:0:0:0:
448,192,76259,1,0,0:0:0:0:
192,192,76259,1,8,0:0:0:0:
320,192,76409,128,0,76559:0:0:0:0:
64,192,76559,1,0,0:0:0:0:
192,192,76559,1,8,0:0:0:0:
320,192,76709,1,8,0:0:0:0:
192,192,76784,1,8,0:0:0:0:
64,192,76859,128,0,77309:0:0:0:0:
320,192,76859,128,8,77309:0:0:0:0:
448,192,76859,128,0,77309:0:0:0:0:
192,192,77309,1,0,0:0:0:0:
448,192,77609,1,0,0:0:0:0:
64,192,77759,1,0,0:0:0:0:
192,192,77909,1,0,0:0:0:0:
448,192,77909,1,0,0:0:0:0:
320,192,78059,1,0,0:0:0:0:
64,192,78059,1,0,0:0:0:0:
320,192,78659,128,0,78959:0:0:0:0:
64,192,79709,1,0,0:0:0:0:
320,192,79709,1,0,0:0:0:0:
448,192,80309,1,0,0:0:0:0:
192,192,80309,1,0,0:0:0:0:
320,192,80459,1,0,0:0:0:0:
64,192,80459,1,0,0:0:0:0:
448,192,80759,128,0,81059:0:0:0:0:
64,192,81059,128,4,81359:0:0:0:0:
320,192,81209,1,0,0:0:0:0:
320,192,81359,128,4,81659:0:0:0:0:
192,192,81509,1,0,0:0:0:0:
192,192,81659,128,4,82109:0:0:0:0:
448,192,81659,128,0,82109:0:0:0:0:
64,192,81659,128,0,82109:0:0:0:0:
320,192,82109,1,0,0:0:0:0:
192,192,82409,128,0,82859:0:0:0:0:
320,192,82559,128,0,82859:0:0:0:0:
448,192,82709,128,0,82859:0:0:0:0:
64,192,82859,1,4,0:0:0:0:
320,192,83309,1,0,0:0:0:0:
64,192,83459,128,4,83759:0:0:0:0:
448,192,83759,128,0,84059:0:0:0:0:
192,192,83909,1,0,0:0:0:0:
320,192,84059,128,4,84359:0:0:0:0:
448,192,84509,1,0,0:0:0:0:
192,192,84659,1,4,0:0:0:0:
448,192,84959,128,0,85259:0:0:0:0:
192,192,85109,128,0,85259:0:0:0:0:
64,192,85259,1,4,0:0:0:0:
320,192,85409,1,0,0:0:0:0:
192,192,85484,1,0,0:0:0:0:
64,192,85559,1,0,0:0:0:0:
448,192,85709,1,0,0:0:0:0:
64,192,85784,1,0,0:0:0:0:
192,192,85859,1,4,0:0:0:0:
320,192,86009,1,0,0:0:0:0:
192,192,86159,1,0,0:0:0:0:
320,192,86309,1,0,0:0:0:0:
192,192,86459,128,4,86909:0:0:0:0:
64,192,86459,128,0,86909:0:0:0:0:
448,192,86459,128,0,86909:0:0:0:0:
320,192,86909,1,0,0:0:0:0:
192,192,87059,1,12,0:0:0:0:
320,192,87209,128,0,87359:0:0:0:0:
192,192,87359,128,0,87509:0:0:0:0:
448,192,87509,128,0,87659:0:0:0:0:
64,192,87659,128,4,87809:0:0:0:0:
320,192,87809,1,0,0:0:0:0:
192,192,87959,1,0,0:0:0:0:
320,192,88109,1,0,0:0:0:0:
192,192,88259,1,12,0:0:0:0:
64,192,88259,1,0,0:0:0:0:
320,192,88559,1,0,0:0:0:0:
192,192,88709,1,0,0:0:0:0:
320,192,88859,1,4,0:0:0:0:
192,192,89309,1,0,0:0:0:0:
320,192,89459,1,12,0:0:0:0:
64,192,89459,1,0,0:0:0:0:
320,192,89759,1,0,0:0:0:0:
64,192,89909,128,0,90059:0:0:0:0:
192,192,90059,1,4,0:0:0:0:
448,192,90059,128,0,90209:0:0:0:0:
320,192,90209,1,0,0:0:0:0:
448,192,90359,128,0,90659:0:0:0:0:
192,192,90509,1,0,0:0:0:0:
320,192,90659,1,12,0:0:0:0:
64,192,90659,128,0,90959:0:0:0:0:
192,192,90809,1,0,0:0:0:0:
448,192,90959,1,0,0:0:0:0:
320,192,90959,128,4,91259:0:0:0:0:
64,192,91109,1,0,0:0:0:0:
192,192,91259,1,4,0:0:0:0:
448,192,91259,1,0,0:0:0:0:
448,192,91709,128,0,91859:0:0:0:0:
320,192,91859,1,0,0:0:0:0:
64,192,91859,1,8,0:0:0:0:
192,192,92009,128,0,92159:0:0:0:0:
320,192,92159,128,0,92309:0:0:0:0:
448,192,92309,128,0,92459:0:0:0:0:
64,192,92309,128,0,92459:0:0:0:0:
320,192,92609,128,0,92759:0:0:0:0:
192,192,92759,128,0,93059:0:0:0:0:
448,192,93059,128,0,93359:0:0:0:0:
64,192,93059,1,8,0:0:0:0:
192,192,93359,128,0,93659:0:0:0:0:
64,192,93659,128,0,94259:0:0:0:0:
320,192,93659,128,0,94259:0:0:0:0:
448,192,93659,128,0,94259:0:0:0:0:
192,192,94259,1,8,0:0:0:0:
64,192,94409,128,0,94709:0:0:0:0:
192,192,94409,128,0,94709:0:0:0:0:
448,192,94409,128,0,94709:0:0:0:0:
320,192,94709,1,0,0:0:0:0:
64,192,94859,1,0,0:0:0:0:
448,192,94859,1,0,0:0:0:0:
64,192,95009,1,0,0:0:0:0:
448,192,95009,1,0,0:0:0:0:
192,192,95084,1,0,0:0:0:0:
320,192,95159,1,0,0:0:0:0:
448,192,95159,1,0,0:0:0:0:
320,192,95309,1,0,0:0:0:0:
192,192,95309,1,0,0:0:0:0:
320,192,95459,1,8,0:0:0:0:
64,192,95459,1,0,0:0:0:0:
448,192,95459,1,0,0:0:0:0:
192,192,95609,1,0,0:0:0:0:
64,192,95609,1,0,0:0:0:0:
320,192,95759,1,0,0:0:0:0:
192,192,95909,1,0,0:0:0:0:
64,192,96059,128,0,96359:0:0:0:0:
320,192,96059,128,0,96359:0:0:0:0:
448,192,96059,128,0,96359:0:0:0:0:
192,192,96359,1,0,0:0:0:0:
320,192,96509,1,0,0:0:0:0:
64,192,96659,1,8,0:0:0:0:
192,192,96659,1,0,0:0:0:0:
448,192,96809,1,0,0:0:0:0:
320,192,96809,1,0,0:0:0:0:
64,192,96959,1,0,0:0:0:0:
448,192,96959,1,0,0:0:0:0:
64,192,97259,5,0,0:0:0:0:
192,192,97259,1,0,0:0:0:0:
448,192,97259,1,0,0:0:0:0:
320,192,97259,1,0,0:0:0:0:
64,192,97409,1,0,0:0:0:0:
320,192,97409,1,0,0:0:0:0:
448,192,97409,1,0,0:0:0:0:
192,192,97409,1,0,0:0:0:0:
448,192,97559,1,0,0:0:0:0:
192,192,97559,1,0,0:0:0:0:
64,192,97559,1,0,0:0:0:0:
320,192,97559,1,0,0:0:0:0:
64,192,97709,1,0,0:0:0:0:
320,192,97709,1,0,0:0:0:0:
448,192,97709,1,0,0:0:0:0:
192,192,97709,1,0,0:0:0:0:
64,192,97859,1,0,0:0:0:0:
448,192,97859,1,8,0:0:0:0:
192,192,98009,128,0,98159:0:0:0:0:
448,192,98159,1,0,0:0:0:0:
64,192,98159,1,0,0:0:0:0:
64,192,98459,1,0,0:0:0:0:
192,192,98459,1,0,0:0:0:0:
320,192,98459,1,0,0:0:0:0:
448,192,98459,1,0,0:0:0:0:
64,192,98609,1,0,0:0:0:0:
192,192,98609,1,0,0:0:0:0:
448,192,98609,1,0,0:0:0:0:
320,192,98609,1,0,0:0:0:0:
448,192,98759,1,0,0:0:0:0:
320,192,98759,1,0,0:0:0:0:
192,192,98759,1,0,0:0:0:0:
64,192,98759,1,0,0:0:0:0:
64,192,98909,1,0,0:0:0:0:
192,192,98909,1,0,0:0:0:0:
320,192,98909,1,0,0:0:0:0:
448,192,98909,1,0,0:0:0:0:
64,192,99059,1,8,0:0:0:0:
448,192,99059,1,0,0:0:0:0:
320,192,99209,128,0,99359:0:0:0:0:
64,192,99359,1,0,0:0:0:0:
448,192,99359,1,0,0:0:0:0:
192,192,99659,1,0,0:0:0:0:
320,192,99659,1,0,0:0:0:0:
64,192,99659,1,0,0:0:0:0:
448,192,99659,1,0,0:0:0:0:
320,192,99809,1,0,0:0:0:0:
192,192,99809,1,0,0:0:0:0:
448,192,99809,1,0,0:0:0:0:
64,192,99809,1,0,0:0:0:0:
192,192,99959,1,0,0:0:0:0:
320,192,99959,1,0,0:0:0:0:
64,192,99959,1,0,0:0:0:0:
448,192,99959,1,0,0:0:0:0:
64,192,100109,1,0,0:0:0:0:
448,192,100109,1,0,0:0:0:0:
192,192,100184,1,0,0:0:0:0:
320,192,100184,1,0,0:0:0:0:
64,192,100259,1,0,0:0:0:0:
448,192,100259,1,8,0:0:0:0:
192,192,100409,128,0,100559:0:0:0:0:
448,192,100559,1,0,0:0:0:0:
192,192,100709,1,0,0:0:0:0:
448,192,100709,1,0,0:0:0:0:
320,192,100859,128,0,101009:0:0:0:0:
64,192,100859,1,0,0:0:0:0:
448,192,100859,1,0,0:0:0:0:
64,192,101009,1,0,0:0:0:0:
192,192,101059,1,0,0:0:0:0:
448,192,101109,1,0,0:0:0:0:
64,192,101159,1,0,0:0:0:0:
320,192,101159,1,0,0:0:0:0:
192,192,101309,1,0,0:0:0:0:
448,192,101459,1,0,0:0:0:0:
320,192,101459,1,8,0:0:0:0:
192,192,101609,1,0,0:0:0:0:
64,192,101609,1,0,0:0:0:0:
64,192,101759,1,0,0:0:0:0:
448,192,101759,1,0,0:0:0:0:
64,192,102059,1,0,0:0:0:0:
192,192,102059,1,0,0:0:0:0:
320,192,102059,1,0,0:0:0:0:
448,192,102059,1,0,0:0:0:0:
448,192,102209,1,0,0:0:0:0:
320,192,102209,1,0,0:0:0:0:
192,192,102209,1,0,0:0:0:0:
64,192,102209,1,0,0:0:0:0:
64,192,102359,1,0,0:0:0:0:
192,192,102359,1,0,0:0:0:0:
320,192,102359,1,0,0:0:0:0:
448,192,102359,1,0,0:0:0:0:
448,192,102509,1,0,0:0:0:0:
320,192,102509,1,0,0:0:0:0:
192,192,102509,1,0,0:0:0:0:
64,192,102509,1,0,0:0:0:0:
448,192,102659,1,0,0:0:0:0:
64,192,102659,1,8,0:0:0:0:
320,192,102809,128,0,102959:0:0:0:0:
448,192,102959,1,0,0:0:0:0:
64,192,102959,1,0,0:0:0:0:
192,192,103259,1,0,0:0:0:0:
320,192,103259,1,0,0:0:0:0:
448,192,103259,1,0,0:0:0:0:
64,192,103259,1,0,0:0:0:0:
192,192,103409,1,0,0:0:0:0:
320,192,103409,1,0,0:0:0:0:
448,192,103409,1,0,0:0:0:0:
64,192,103409,1,0,0:0:0:0:
448,192,103559,1,0,0:0:0:0:
320,192,103559,1,0,0:0:0:0:
192,192,103559,1,0,0:0:0:0:
64,192,103559,1,0,0:0:0:0:
192,192,103709,1,0,0:0:0:0:
320,192,103709,1,0,0:0:0:0:
448,192,103709,1,0,0:0:0:0:
64,192,103709,1,0,0:0:0:0:
64,192,103859,1,0,0:0:0:0:
448,192,103859,1,8,0:0:0:0:
192,192,104009,128,0,104159:0:0:0:0:
64,192,104159,1,0,0:0:0:0:
448,192,104159,1,0,0:0:0:0:
64,192,104459,1,0,0:0:0:0:
192,192,104459,1,0,0:0:0:0:
320,192,104459,1,0,0:0:0:0:
448,192,104459,1,0,0:0:0:0:
64,192,104609,1,0,0:0:0:0:
192,192,104609,1,0,0:0:0:0:
320,192,104609,1,0,0:0:0:0:
448,192,104609,1,0,0:0:0:0:
448,192,104759,1,0,0:0:0:0:
320,192,104796,1,0,0:0:0:0:
64,192,104834,1,0,0:0:0:0:
192,192,104871,1,0,0:0:0:0:
320,192,104909,128,0,104984:0:0:0:0:
192,192,104984,128,0,105059:0:0:0:0:
64,192,105059,1,8,0:0:0:0:
448,192,105059,1,0,0:0:0:0:
320,192,105209,128,0,105359:0:0:0:0:
64,192,105359,1,0,0:0:0:0:
64,192,105509,1,0,0:0:0:0:
320,192,105509,1,0,0:0:0:0:
448,192,105659,1,4,0:0:0:0:
192,192,105659,128,0,105809:0:0:0:0:
320,192,105809,128,0,105959:0:0:0:0:
448,192,105959,1,4,0:0:0:0:
64,192,105959,128,0,106109:0:0:0:0:
320,192,106109,128,0,106259:0:0:0:0:
64,192,106259,1,0,0:0:0:0:
448,192,106259,1,12,0:0:0:0:
192,192,106334,1,0,0:0:0:0:
320,192,106409,1,0,0:0:0:0:
64,192,106484,1,0,0:0:0:0:
192,192,106559,1,0,0:0:0:0:
448,192,106559,1,4,0:0:0:0:
320,192,106659,1,0,0:0:0:0:
192,192,106759,1,0,0:0:0:0:
320,192,106859,1,0,0:0:0:0:
448,192,106859,1,0,0:0:0:0:
64,192,106859,1,0,0:0:0:0:
320,192,107009,128,0,107234:0:0:0:0:
64,192,107009,128,0,107234:0:0:0:0:
448,192,107009,128,0,107234:0:0:0:0:
64,192,107309,1,0,0:0:0:0:
320,192,107309,1,0,0:0:0:0:
448,192,107309,1,0,0:0:0:0:
320,192,107459,128,8,107759:0:0:0:0:
448,192,107459,128,0,107759:0:0:0:0:
64,192,107459,128,0,107759:0:0:0:0:
192,192,107909,1,0,0:0:0:0:
320,192,107984,1,0,0:0:0:0:
448,192,108059,1,0,0:0:0:0:
192,192,108059,1,0,0:0:0:0:
64,192,108059,1,0,0:0:0:0:
64,192,108209,128,0,108434:0:0:0:0:
192,192,108209,128,0,108434:0:0:0:0:
448,192,108209,128,0,108434:0:0:0:0:
64,192,108509,1,0,0:0:0:0:
192,192,108509,1,0,0:0:0:0:
448,192,108509,1,0,0:0:0:0:
64,192,108659,128,0,108734:0:0:0:0:
192,192,108659,128,8,108734:0:0:0:0:
448,192,108659,128,0,108734:0:0:0:0:
448,192,108809,1,0,0:0:0:0:
64,192,108809,1,0,0:0:0:0:
320,192,108809,1,0,0:0:0:0:
64,192,108959,128,0,109184:0:0:0:0:
192,192,108959,128,0,109184:0:0:0:0:
448,192,108959,128,0,109184:0:0:0:0:
64,192,109259,1,0,0:0:0:0:
448,192,109259,1,0,0:0:0:0:
320,192,109259,1,0,0:0:0:0:
192,192,109409,128,0,109559:0:0:0:0:
64,192,109709,1,0,0:0:0:0:
320,192,109709,1,0,0:0:0:0:
448,192,109709,1,0,0:0:0:0:
64,192,109859,1,0,0:0:0:0:
192,192,109859,1,8,0:0:0:0:
448,192,109859,1,0,0:0:0:0:
320,192,109859,1,0,0:0:0:0:
320,192,110121,1,0,0:0:0:0:
64,192,110159,1,0,0:0:0:0:
448,192,110309,1,0,0:0:0:0:
192,192,110346,1,0,0:0:0:0:
320,192,110459,1,0,0:0:0:0:
64,192,110459,1,0,0:0:0:0:
448,192,110459,1,0,0:0:0:0:
448,192,110759,1,0,0:0:0:0:
192,192,110759,1,4,0:0:0:0:
64,192,110909,1,0,0:0:0:0:
320,192,110909,1,4,0:0:0:0:
64,192,111059,1,0,0:0:0:0:
192,192,111059,1,8,0:0:0:0:
448,192,111059,1,0,0:0:0:0:
448,192,111359,1,0,0:0:0:0:
64,192,111359,1,4,0:0:0:0:
64,192,111659,1,0,0:0:0:0:
320,192,111659,1,0,0:0:0:0:
448,192,111659,1,0,0:0:0:0:
64,192,111809,128,0,112034:0:0:0:0:
320,192,111809,128,0,112034:0:0:0:0:
448,192,111809,128,0,112034:0:0:0:0:
192,192,112109,1,0,0:0:0:0:
64,192,112109,1,0,0:0:0:0:
320,192,112259,1,8,0:0:0:0:
448,192,112259,1,0,0:0:0:0:
192,192,112409,1,0,0:0:0:0:
64,192,112559,1,0,0:0:0:0:
448,192,112559,1,0,0:0:0:0:
192,192,112859,1,0,0:0:0:0:
64,192,112859,1,0,0:0:0:0:
448,192,112859,1,0,0:0:0:0:
64,192,113009,128,0,113234:0:0:0:0:
192,192,113009,128,0,113234:0:0:0:0:
448,192,113009,128,0,113234:0:0:0:0:
320,192,113309,1,0,0:0:0:0:
448,192,113309,1,0,0:0:0:0:
192,192,113459,1,8,0:0:0:0:
64,192,113459,1,0,0:0:0:0:
320,192,113609,1,0,0:0:0:0:
64,192,113759,1,0,0:0:0:0:
448,192,113759,1,0,0:0:0:0:
64,192,114059,1,0,0:0:0:0:
320,192,114059,1,0,0:0:0:0:
448,192,114059,1,0,0:0:0:0:
64,192,114209,128,0,114434:0:0:0:0:
320,192,114209,128,0,114434:0:0:0:0:
448,192,114209,128,0,114434:0:0:0:0:
64,192,114509,1,0,0:0:0:0:
192,192,114509,1,0,0:0:0:0:
320,192,114584,1,0,0:0:0:0:
448,192,114584,1,0,0:0:0:0:
64,192,114659,1,0,0:0:0:0:
192,192,114659,1,8,0:0:0:0:
320,192,114809,1,0,0:0:0:0:
448,192,114809,1,0,0:0:0:0:
64,192,114959,1,0,0:0:0:0:
448,192,115109,1,0,0:0:0:0:
448,192,115259,128,0,115559:0:0:0:0:
192,192,115259,128,0,115559:0:0:0:0:
64,192,115259,128,0,115559:0:0:0:0:
320,192,115559,1,0,0:0:0:0:
192,192,115709,1,0,0:0:0:0:
448,192,115859,1,0,0:0:0:0:
320,192,115859,1,8,0:0:0:0:
64,192,116009,1,0,0:0:0:0:
192,192,116009,1,0,0:0:0:0:
448,192,116159,1,0,0:0:0:0:
64,192,116159,1,0,0:0:0:0:
448,192,116459,5,0,0:0:0:0:
64,192,116459,1,0,0:0:0:0:
320,192,116459,1,0,0:0:0:0:
192,192,116459,1,0,0:0:0:0:
448,192,116609,1,0,0:0:0:0:
192,192,116609,1,0,0:0:0:0:
64,192,116609,1,0,0:0:0:0:
320,192,116609,1,0,0:0:0:0:
64,192,116759,1,0,0:0:0:0:
320,192,116759,1,0,0:0:0:0:
448,192,116759,1,0,0:0:0:0:
192,192,116759,1,0,0:0:0:0:
448,192,116909,1,0,0:0:0:0:
192,192,116909,1,0,0:0:0:0:
64,192,116909,1,0,0:0:0:0:
320,192,116909,1,0,0:0:0:0:
448,192,117059,1,0,0:0:0:0:
64,192,117059,1,8,0:0:0:0:
320,192,117209,128,0,117359:0:0:0:0:
64,192,117359,1,0,0:0:0:0:
448,192,117359,1,0,0:0:0:0:
448,192,117659,1,0,0:0:0:0:
320,192,117659,1,0,0:0:0:0:
192,192,117659,1,0,0:0:0:0:
64,192,117659,1,0,0:0:0:0:
448,192,117809,1,0,0:0:0:0:
320,192,117809,1,0,0:0:0:0:
64,192,117809,1,0,0:0:0:0:
192,192,117809,1,0,0:0:0:0:
64,192,117959,1,0,0:0:0:0:
192,192,117959,1,0,0:0:0:0:
320,192,117959,1,0,0:0:0:0:
448,192,117959,1,0,0:0:0:0:
448,192,118109,1,0,0:0:0:0:
320,192,118109,1,0,0:0:0:0:
192,192,118109,1,0,0:0:0:0:
64,192,118109,1,0,0:0:0:0:
448,192,118259,1,8,0:0:0:0:
64,192,118259,1,0,0:0:0:0:
192,192,118409,128,0,118559:0:0:0:0:
448,192,118559,1,0,0:0:0:0:
64,192,118559,1,0,0:0:0:0:
448,192,118859,1,0,0:0:0:0:
320,192,118859,1,0,0:0:0:0:
192,192,118859,1,0,0:0:0:0:
64,192,118859,1,0,0:0:0:0:
64,192,119009,1,0,0:0:0:0:
192,192,119009,1,0,0:0:0:0:
320,192,119009,1,0,0:0:0:0:
448,192,119009,1,0,0:0:0:0:
448,192,119159,1,0,0:0:0:0:
320,192,119159,1,0,0:0:0:0:
192,192,119159,1,0,0:0:0:0:
64,192,119159,1,0,0:0:0:0:
448,192,119309,1,0,0:0:0:0:
64,192,119309,1,0,0:0:0:0:
320,192,119384,1,0,0:0:0:0:
192,192,119384,1,0,0:0:0:0:
448,192,119459,1,0,0:0:0:0:
64,192,119459,1,8,0:0:0:0:
320,192,119609,128,0,119759:0:0:0:0:
64,192,119759,1,0,0:0:0:0:
320,192,119909,1,0,0:0:0:0:
64,192,119909,1,0,0:0:0:0:
192,192,120059,128,0,120209:0:0:0:0:
448,192,120059,1,0,0:0:0:0:
64,192,120059,1,0,0:0:0:0:
448,192,120209,1,0,0:0:0:0:
320,192,120259,1,0,0:0:0:0:
64,192,120309,1,0,0:0:0:0:
448,192,120359,1,0,0:0:0:0:
192,192,120359,1,0,0:0:0:0:
320,192,120509,1,0,0:0:0:0:
64,192,120659,1,0,0:0:0:0:
192,192,120659,1,8,0:0:0:0:
320,192,120809,1,0,0:0:0:0:
448,192,120809,1,0,0:0:0:0:
448,192,120959,1,0,0:0:0:0:
64,192,120959,1,0,0:0:0:0:
448,192,121259,1,0,0:0:0:0:
320,192,121259,1,0,0:0:0:0:
192,192,121259,1,0,0:0:0:0:
64,192,121259,1,0,0:0:0:0:
64,192,121409,1,0,0:0:0:0:
192,192,121409,1,0,0:0:0:0:
320,192,121409,1,0,0:0:0:0:
448,192,121409,1,0,0:0:0:0:
448,192,121559,1,0,0:0:0:0:
320,192,121559,1,0,0:0:0:0:
192,192,121559,1,0,0:0:0:0:
64,192,121559,1,0,0:0:0:0:
64,192,121709,1,0,0:0:0:0:
192,192,121709,1,0,0:0:0:0:
320,192,121709,1,0,0:0:0:0:
448,192,121709,1,0,0:0:0:0:
64,192,121859,1,0,0:0:0:0:
448,192,121859,1,8,0:0:0:0:
192,192,122009,128,0,122159:0:0:0:0:
64,192,122159,1,0,0:0:0:0:
448,192,122159,1,0,0:0:0:0:
320,192,122459,1,0,0:0:0:0:
448,192,122459,1,0,0:0:0:0:
192,192,122459,1,0,0:0:0:0:
64,192,122459,1,0,0:0:0:0:
448,192,122609,1,0,0:0:0:0:
320,192,122609,1,0,0:0:0:0:
192,192,122609,1,0,0:0:0:0:
64,192,122609,1,0,0:0:0:0:
64,192,122759,1,0,0:0:0:0:
192,192,122759,1,0,0:0:0:0:
320,192,122759,1,0,0:0:0:0:
448,192,122759,1,0,0:0:0:0:
448,192,122909,1,0,0:0:0:0:
320,192,122909,1,0,0:0:0:0:
192,192,122909,1,0,0:0:0:0:
64,192,122909,1,0,0:0:0:0:
448,192,123059,1,0,0:0:0:0:
64,192,123059,1,8,0:0:0:0:
320,192,123209,128,0,123359:0:0:0:0:
448,192,123359,1,0,0:0:0:0:
64,192,123359,1,0,0:0:0:0:
448,192,123659,1,0,0:0:0:0:
320,192,123659,1,0,0:0:0:0:
192,192,123659,1,0,0:0:0:0:
64,192,123659,1,0,0:0:0:0:
448,192,123809,1,0,0:0:0:0:
320,192,123809,1,0,0:0:0:0:
192,192,123809,1,0,0:0:0:0:
64,192,123809,1,0,0:0:0:0:
64,192,123959,1,0,0:0:0:0:
192,192,123996,1,0,0:0:0:0:
448,192,124034,1,0,0:0:0:0:
320,192,124071,1,0,0:0:0:0:
192,192,124109,128,0,124184:0:0:0:0:
320,192,124184,128,0,124259:0:0:0:0:
448,192,124259,1,8,0:0:0:0:
64,192,124259,1,0,0:0:0:0:
192,192,124409,128,0,124559:0:0:0:0:
448,192,124559,1,0,0:0:0:0:
448,192,124709,1,0,0:0:0:0:
192,192,124709,1,0,0:0:0:0:
320,192,124859,128,0,125009:0:0:0:0:
64,192,124859,1,4,0:0:0:0:
192,192,125009,128,0,125159:0:0:0:0:
448,192,125159,128,0,125309:0:0:0:0:
64,192,125159,1,4,0:0:0:0:
192,192,125309,128,0,125459:0:0:0:0:
64,192,125459,1,12,0:0:0:0:
448,192,125459,1,0,0:0:0:0:
320,192,125534,1,0,0:0:0:0:
192,192,125609,1,0,0:0:0:0:
448,192,125684,1,0,0:0:0:0:
320,192,125759,1,0,0:0:0:0:
64,192,125759,1,4,0:0:0:0:
192,192,125859,1,0,0:0:0:0:
320,192,125959,1,0,0:0:0:0:
64,192,126059,1,0,0:0:0:0:
448,192,126059,1,0,0:0:0:0:
192,192,126059,1,0,0:0:0:0:
448,192,126209,128,0,126434:0:0:0:0:
192,192,126209,128,0,126434:0:0:0:0:
64,192,126209,128,0,126434:0:0:0:0:
448,192,126509,1,0,0:0:0:0:
192,192,126509,1,0,0:0:0:0:
64,192,126509,1,0,0:0:0:0:
192,192,126659,128,8,126959:0:0:0:0:
64,192,126659,128,0,126959:0:0:0:0:
448,192,126659,128,0,126959:0:0:0:0:
320,192,127109,1,0,0:0:0:0:
192,192,127184,1,0,0:0:0:0:
64,192,127259,1,0,0:0:0:0:
320,192,127259,1,0,0:0:0:0:
448,192,127259,1,0,0:0:0:0:
448,192,127409,128,0,127634:0:0:0:0:
320,192,127409,128,0,127634:0:0:0:0:
64,192,127409,128,0,127634:0:0:0:0:
448,192,127709,1,0,0:0:0:0:
320,192,127709,1,0,0:0:0:0:
64,192,127709,1,0,0:0:0:0:
448,192,127859,128,0,127934:0:0:0:0:
320,192,127859,128,8,127934:0:0:0:0:
64,192,127859,128,0,127934:0:0:0:0:
448,192,128009,1,0,0:0:0:0:
64,192,128009,1,0,0:0:0:0:
192,192,128009,1,0,0:0:0:0:
448,192,128159,128,0,128384:0:0:0:0:
320,192,128159,128,0,128384:0:0:0:0:
64,192,128159,128,0,128384:0:0:0:0:
448,192,128459,1,0,0:0:0:0:
64,192,128459,1,0,0:0:0:0:
192,192,128459,1,0,0:0:0:0:
320,192,128609,128,0,128759:0:0:0:0:
448,192,128909,1,0,0:0:0:0:
192,192,128909,1,0,0:0:0:0:
64,192,128909,1,0,0:0:0:0:
448,192,129059,1,0,0:0:0:0:
64,192,129059,1,0,0:0:0:0:
192,192,129059,1,0,0:0:0:0:
320,192,129059,1,12,0:0:0:0:
192,192,129321,1,0,0:0:0:0:
448,192,129359,1,0,0:0:0:0:
64,192,129509,1,0,0:0:0:0:
320,192,129546,1,0,0:0:0:0:
448,192,129659,1,0,0:0:0:0:
64,192,129659,1,0,0:0:0:0:
192,192,129659,1,0,0:0:0:0:
64,192,129959,1,0,0:0:0:0:
320,192,129959,1,4,0:0:0:0:
448,192,130109,1,0,0:0:0:0:
192,192,130109,1,4,0:0:0:0:
448,192,130259,1,0,0:0:0:0:
320,192,130259,1,8,0:0:0:0:
64,192,130259,1,0,0:0:0:0:
192,192,130409,128,0,130559:0:0:0:0:
64,192,130559,1,0,0:0:0:0:
448,192,130559,1,4,0:0:0:0:
448,192,130859,1,0,0:0:0:0:
192,192,130859,1,0,0:0:0:0:
64,192,130859,1,0,0:0:0:0:
448,192,131009,128,0,131234:0:0:0:0:
192,192,131009,128,0,131234:0:0:0:0:
64,192,131009,128,0,131234:0:0:0:0:
320,192,131309,1,0,0:0:0:0:
448,192,131309,1,0,0:0:0:0:
192,192,131459,1,8,0:0:0:0:
64,192,131459,1,0,0:0:0:0:
320,192,131609,1,0,0:0:0:0:
448,192,131759,1,0,0:0:0:0:
64,192,131759,1,0,0:0:0:0:
320,192,132059,1,0,0:0:0:0:
448,192,132059,1,0,0:0:0:0:
64,192,132059,1,0,0:0:0:0:
448,192,132209,128,0,132434:0:0:0:0:
320,192,132209,128,0,132434:0:0:0:0:
64,192,132209,128,0,132434:0:0:0:0:
192,192,132509,1,0,0:0:0:0:
64,192,132509,1,0,0:0:0:0:
320,192,132659,1,8,0:0:0:0:
448,192,132659,1,0,0:0:0:0:
192,192,132809,1,0,0:0:0:0:
64,192,132959,1,0,0:0:0:0:
448,192,132959,1,0,0:0:0:0:
64,192,133259,1,0,0:0:0:0:
192,192,133259,1,0,0:0:0:0:
448,192,133259,1,0,0:0:0:0:
320,192,133859,1,8,0:0:0:0:
64,192,134459,1,0,0:0:0:0:
448,192,134459,1,0,0:0:0:0:
320,192,134459,1,4,0:0:0:0:
