osu file format v14

[General]
AudioFilename: audio (cut by A r M i N).mp3
AudioLeadIn: 0
PreviewTime: 94409
Countdown: 0
SampleSet: None
StackLeniency: 0.7
Mode: 3
LetterboxInBreaks: 0
SpecialStyle: 0
WidescreenStoryboard: 1

[Editor]
DistanceSpacing: 1.1
BeatDivisor: 2
GridSize: 4
TimelineZoom: 1

[Metadata]
Title:fuego (sakuraburst remix)
TitleUnicode:fuego (sakuraburst remix)
Artist:KOAN Sound & Asa
ArtistUnicode:KOAN Sound & Asa
Creator:Couil
Version:EZ
Source:
Tags:experimental electronic music SV
BeatmapID:1313119
BeatmapSetID:622946

[Difficulty]
HPDrainRate:6.4
CircleSize:4
OverallDifficulty:6
ApproachRate:5
SliderMultiplier:1.4
SliderTickRate:1

[Events]
//Background and Video events
0,0,"Elegant-Art-of-Girl-Crazy-Background.jpg",0,0
//Break Periods
//Storyboard Layer 0 (Background)
//Storyboard Layer 1 (Fail)
//Storyboard Layer 2 (Pass)
//Storyboard Layer 3 (Foreground)
//Storyboard Sound Samples

[TimingPoints]
59,300,4,3,1,80,1,0
97259,-100,4,3,1,80,0,1
110459,-100,4,3,1,80,0,0
116459,-100,4,3,1,80,0,1
129659,-100,4,3,1,80,0,0

[HitObjects]
320,192,19259,128,0,21659:0:0:0:0:
192,192,19859,1,8,0:0:0:0:
192,192,21059,1,8,0:0:0:0:
64,192,21659,128,0,24059:0:0:0:0:
448,192,22259,1,8,0:0:0:0:
448,192,23459,1,8,0:0:0:0:
448,192,24059,128,0,26459:0:0:0:0:
64,192,24659,1,8,0:0:0:0:
64,192,25859,1,8,0:0:0:0:
192,192,26459,128,0,28859:0:0:0:0:
320,192,27059,1,8,0:0:0:0:
320,192,28259,1,8,0:0:0:0:
448,192,28859,1,0,0:0:0:0:
64,192,29159,1,0,0:0:0:0:
320,192,29309,1,0,0:0:0:0:
192,192,29459,1,8,0:0:0:0:
448,192,30059,1,0,0:0:0:0:
192,192,30359,1,0,0:0:0:0:
320,192,30509,1,0,0:0:0:0:
64,192,30659,1,8,0:0:0:0:
320,192,30959,128,0,31259:0:0:0:0:
192,192,31259,1,0,0:0:0:0:
448,192,31559,1,0,0:0:0:0:
64,192,31709,1,0,0:0:0:0:
320,192,31859,1,8,0:0:0:0:
192,192,32459,1,0,0:0:0:0:
320,192,32759,1,0,0:0:0:0:
64,192,32909,1,0,0:0:0:0:
448,192,33059,1,8,0:0:0:0:
192,192,33359,128,0,33659:0:0:0:0:
320,192,33659,1,0,0:0:0:0:
192,192,34109,1,0,0:0:0:0:
320,192,34259,1,8,0:0:0:0:
64,192,34709,1,0,0:0:0:0:
320,192,34859,1,0,0:0:0:0:
192,192,35309,1,0,0:0:0:0:
448,192,35459,1,8,0:0:0:0:
64,192,35909,1,0,0:0:0:0:
448,192,36059,1,0,0:0:0:0:
192,192,36359,1,8,0:0:0:0:
320,192,36659,1,0,0:0:0:0:
64,192,36959,1,8,0:0:0:0:
448,192,37259,128,0,37559:0:0:0:0:
64,192,37709,1,0,0:0:0:0:
448,192,37859,1,8,0:0:0:0:
64,192,38009,1,0,0:0:0:0:
320,192,38159,1,0,0:0:0:0:
192,192,38309,1,8,0:0:0:0:
448,192,38459,128,0,39059:0:0:0:0:
64,192,38459,1,0,0:0:0:0:
192,192,39059,1,8,0:0:0:0:
320,192,39209,128,0,39659:0:0:0:0:
64,192,39659,128,0,39809:0:0:0:0:
448,192,39959,128,4,40109:0:0:0:0:
64,192,40259,1,0,0:0:0:0:
320,192,40259,1,8,0:0:0:0:
192,192,40559,1,8,0:0:0:0:
64,192,40859,128,0,41459:0:0:0:0:
448,192,40859,1,0,0:0:0:0:
320,192,41459,1,8,0:0:0:0:
192,192,41609,128,0,42059:0:0:0:0:
448,192,42059,1,0,0:0:0:0:
320,192,42209,1,8,0:0:0:0:
64,192,42359,128,4,42659:0:0:0:0:
448,192,42659,1,8,0:0:0:0:
192,192,42959,1,0,0:0:0:0:
448,192,43259,128,0,43859:0:0:0:0:
64,192,43259,1,0,0:0:0:0:
192,192,43859,1,8,0:0:0:0:
320,192,44159,128,0,44309:0:0:0:0:
192,192,44309,128,0,44459:0:0:0:0:
320,192,44609,1,0,0:0:0:0:
64,192,44759,1,0,0:0:0:0:
320,192,45059,1,12,0:0:0:0:
448,192,45059,1,0,0:0:0:0:
192,192,45209,1,0,0:0:0:0:
320,192,45359,1,0,0:0:0:0:
64,192,45659,128,0,46259:0:0:0:0:
448,192,45659,1,0,0:0:0:0:
320,192,46259,1,8,0:0:0:0:
192,192,46559,128,0,46709:0:0:0:0:
448,192,46709,128,0,46859:0:0:0:0:
64,192,47009,1,0,0:0:0:0:
320,192,47159,1,4,0:0:0:0:
192,192,47459,1,8,0:0:0:0:
448,192,47609,1,4,0:0:0:0:
320,192,47759,1,8,0:0:0:0:
192,192,47909,1,8,0:0:0:0:
448,192,48059,128,0,48659:0:0:0:0:
64,192,48059,1,0,0:0:0:0:
192,192,48659,1,8,0:0:0:0:
320,192,48809,128,0,49259:0:0:0:0:
192,192,49259,128,0,49409:0:0:0:0:
320,192,49559,128,4,49709:0:0:0:0:
64,192,49859,1,0,0:0:0:0:
448,192,49859,1,8,0:0:0:0:
192,192,50159,1,8,0:0:0:0:
64,192,50459,128,0,51059:0:0:0:0:
448,192,50459,1,0,0:0:0:0:
320,192,51059,1,8,0:0:0:0:
192,192,51209,128,0,51659:0:0:0:0:
448,192,51659,1,0,0:0:0:0:
320,192,51809,1,8,0:0:0:0:
64,192,51959,128,4,52259:0:0:0:0:
448,192,52259,1,8,0:0:0:0:
192,192,52559,1,0,0:0:0:0:
448,192,52859,128,0,53459:0:0:0:0:
64,192,52859,1,0,0:0:0:0:
192,192,53459,1,8,0:0:0:0:
320,192,53759,128,0,53909:0:0:0:0:
192,192,53909,128,0,54059:0:0:0:0:
448,192,54209,1,0,0:0:0:0:
64,192,54359,1,0,0:0:0:0:
320,192,54659,1,12,0:0:0:0:
448,192,54659,1,0,0:0:0:0:
192,192,54809,1,0,0:0:0:0:
320,192,54959,1,0,0:0:0:0:
64,192,55259,128,0,55859:0:0:0:0:
448,192,55259,1,0,0:0:0:0:
320,192,55859,128,8,56009:0:0:0:0:
64,192,56159,1,0,0:0:0:0:
448,192,56309,1,8,0:0:0:0:
192,192,56609,1,4,0:0:0:0:
320,192,56909,1,0,0:0:0:0:
64,192,57059,1,8,0:0:0:0:
448,192,57059,1,0,0:0:0:0:
192,192,57209,1,0,0:0:0:0:
320,192,57359,1,0,0:0:0:0:
448,192,57659,128,0,58259:0:0:0:0:
64,192,57659,1,0,0:0:0:0:
192,192,58259,1,8,0:0:0:0:
320,192,58409,128,0,58859:0:0:0:0:
64,192,58859,128,0,59009:0:0:0:0:
448,192,59159,128,4,59309:0:0:0:0:
64,192,59459,1,8,0:0:0:0:
320,192,59459,1,0,0:0:0:0:
192,192,59759,1,8,0:0:0:0:
64,192,60059,128,0,60659:0:0:0:0:
448,192,60059,1,0,0:0:0:0:
320,192,60659,1,8,0:0:0:0:
192,192,60809,128,0,61259:0:0:0:0:
448,192,61259,1,0,0:0:0:0:
320,192,61409,1,8,0:0:0:0:
64,192,61559,128,4,61859:0:0:0:0:
448,192,61859,1,8,0:0:0:0:
192,192,62159,1,0,0:0:0:0:
448,192,62459,128,0,63059:0:0:0:0:
64,192,62459,1,0,0:0:0:0:
192,192,63059,1,8,0:0:0:0:
320,192,63359,128,0,63509:0:0:0:0:
192,192,63509,128,0,63659:0:0:0:0:
448,192,63809,1,0,0:0:0:0:
192,192,63959,1,0,0:0:0:0:
448,192,64259,1,12,0:0:0:0:
320,192,64259,1,0,0:0:0:0:
64,192,64409,1,0,0:0:0:0:
320,192,64559,1,0,0:0:0:0:
64,192,64859,128,0,65459:0:0:0:0:
448,192,64859,1,0,0:0:0:0:
320,192,65459,1,8,0:0:0:0:
192,192,65759,128,0,65909:0:0:0:0:
448,192,65909,128,0,66059:0:0:0:0:
64,192,66209,1,0,0:0:0:0:
320,192,66359,1,4,0:0:0:0:
192,192,66659,1,8,0:0:0:0:
448,192,66809,1,4,0:0:0:0:
320,192,66959,1,8,0:0:0:0:
192,192,67109,1,8,0:0:0:0:
448,192,67259,128,0,67859:0:0:0:0:
64,192,67259,1,0,0:0:0:0:
192,192,67859,1,8,0:0:0:0:
320,192,68009,128,0,68459:0:0:0:0:
64,192,68459,128,0,68609:0:0:0:0:
448,192,68759,128,4,68909:0:0:0:0:
64,192,69059,1,8,0:0:0:0:
320,192,69059,1,0,0:0:0:0:
192,192,69359,1,8,0:0:0:0:
64,192,69659,128,0,70259:0:0:0:0:
448,192,69659,1,0,0:0:0:0:
320,192,70259,1,8,0:0:0:0:
192,192,70409,128,0,70859:0:0:0:0:
448,192,70859,1,0,0:0:0:0:
320,192,71009,1,8,0:0:0:0:
64,192,71159,128,4,71459:0:0:0:0:
448,192,71459,1,8,0:0:0:0:
192,192,71759,1,0,0:0:0:0:
448,192,72059,128,0,72659:0:0:0:0:
64,192,72059,1,0,0:0:0:0:
192,192,72659,1,8,0:0:0:0:
320,192,72959,128,0,73109:0:0:0:0:
192,192,73109,128,0,73259:0:0:0:0:
320,192,73409,1,0,0:0:0:0:
192,192,73559,1,0,0:0:0:0:
448,192,73859,1,0,0:0:0:0:
320,192,73859,1,12,0:0:0:0:
64,192,74009,1,0,0:0:0:0:
320,192,74159,1,0,0:0:0:0:
64,192,74459,128,0,75059:0:0:0:0:
448,192,74459,1,0,0:0:0:0:
320,192,75059,1,8,0:0:0:0:
448,192,75359,1,8,0:0:0:0:
64,192,75509,1,8,0:0:0:0:
320,192,75809,1,8,0:0:0:0:
448,192,76259,1,8,0:0:0:0:
64,192,76259,1,0,0:0:0:0:
192,192,76409,1,0,0:0:0:0:
320,192,76559,1,8,0:0:0:0:
64,192,76859,128,8,77309:0:0:0:0:
448,192,76859,128,0,77309:0:0:0:0:
320,192,78659,1,0,0:0:0:0:
320,192,81059,1,4,0:0:0:0:
192,192,81359,1,4,0:0:0:0:
448,192,81659,128,0,82109:0:0:0:0:
64,192,81659,128,4,82109:0:0:0:0:
64,192,83459,1,4,0:0:0:0:
448,192,83759,1,0,0:0:0:0:
192,192,84059,1,4,0:0:0:0:
320,192,84659,1,4,0:0:0:0:
64,192,85259,1,4,0:0:0:0:
320,192,85859,1,4,0:0:0:0:
64,192,86459,128,0,86909:0:0:0:0:
448,192,86459,128,4,86909:0:0:0:0:
192,192,87059,1,12,0:0:0:0:
320,192,88259,1,12,0:0:0:0:
192,192,89459,1,12,0:0:0:0:
320,192,90659,1,12,0:0:0:0:
192,192,90959,1,0,0:0:0:0:
448,192,91259,1,4,0:0:0:0:
64,192,91259,1,0,0:0:0:0:
320,192,91709,1,0,0:0:0:0:
192,192,91859,1,8,0:0:0:0:
448,192,92459,1,0,0:0:0:0:
192,192,92609,1,0,0:0:0:0:
64,192,92759,1,0,0:0:0:0:
192,192,93059,1,8,0:0:0:0:
320,192,93359,1,0,0:0:0:0:
64,192,93659,128,0,94259:0:0:0:0:
448,192,93659,128,0,94259:0:0:0:0:
320,192,94259,1,8,0:0:0:0:
192,192,94409,1,0,0:0:0:0:
320,192,94709,1,0,0:0:0:0:
64,192,94859,1,0,0:0:0:0:
448,192,95009,1,0,0:0:0:0:
192,192,95159,1,0,0:0:0:0:
320,192,95309,1,0,0:0:0:0:
64,192,95459,1,0,0:0:0:0:
448,192,95459,1,8,0:0:0:0:
192,192,95609,1,0,0:0:0:0:
320,192,96059,128,0,96359:0:0:0:0:
192,192,96359,1,0,0:0:0:0:
64,192,96659,1,8,0:0:0:0:
448,192,96809,1,0,0:0:0:0:
192,192,96959,1,0,0:0:0:0:
64,192,97259,128,0,97859:0:0:0:0:
448,192,97259,128,0,97859:0:0:0:0:
320,192,97859,1,8,0:0:0:0:
192,192,98159,1,0,0:0:0:0:
448,192,98459,128,0,99059:0:0:0:0:
64,192,98459,128,0,99059:0:0:0:0:
192,192,99059,1,8,0:0:0:0:
320,192,99359,1,0,0:0:0:0:
448,192,99659,128,0,100109:0:0:0:0:
64,192,99659,128,0,100109:0:0:0:0:
192,192,100109,1,0,0:0:0:0:
320,192,100259,1,8,0:0:0:0:
64,192,100559,1,0,0:0:0:0:
448,192,100709,1,0,0:0:0:0:
192,192,100859,128,0,101159:0:0:0:0:
320,192,101159,1,0,0:0:0:0:
64,192,101459,1,8,0:0:0:0:
448,192,101759,1,0,0:0:0:0:
320,192,102059,128,0,102659:0:0:0:0:
192,192,102059,128,0,102659:0:0:0:0:
448,192,102659,1,8,0:0:0:0:
64,192,102959,1,0,0:0:0:0:
320,192,103259,128,0,103859:0:0:0:0:
192,192,103259,128,0,103859:0:0:0:0:
64,192,103859,1,8,0:0:0:0:
448,192,104159,1,0,0:0:0:0:
64,192,104459,1,0,0:0:0:0:
320,192,104459,1,0,0:0:0:0:
192,192,104609,1,0,0:0:0:0:
448,192,104759,128,0,105059:0:0:0:0:
64,192,105059,1,8,0:0:0:0:
320,192,105359,1,0,0:0:0:0:
192,192,105659,128,4,105959:0:0:0:0:
320,192,105959,128,4,106259:0:0:0:0:
64,192,106259,128,12,106559:0:0:0:0:
192,192,106559,128,4,106859:0:0:0:0:
448,192,106859,1,0,0:0:0:0:
320,192,107009,1,0,0:0:0:0:
64,192,107309,1,0,0:0:0:0:
192,192,107459,1,8,0:0:0:0:
192,192,107909,1,0,0:0:0:0:
448,192,108059,1,0,0:0:0:0:
320,192,108209,1,0,0:0:0:0:
64,192,108509,1,0,0:0:0:0:
192,192,108659,1,8,0:0:0:0:
448,192,108959,1,0,0:0:0:0:
320,192,109259,1,0,0:0:0:0:
192,192,109409,128,0,109559:0:0:0:0:
320,192,109709,1,0,0:0:0:0:
64,192,109859,128,8,110159:0:0:0:0:
448,192,110159,128,0,110309:0:0:0:0:
192,192,110309,128,0,110459:0:0:0:0:
320,192,110459,1,0,0:0:0:0:
64,192,110759,1,4,0:0:0:0:
448,192,110909,1,4,0:0:0:0:
192,192,111059,1,8,0:0:0:0:
320,192,111359,1,4,0:0:0:0:
64,192,111659,128,0,112109:0:0:0:0:
448,192,111809,128,0,112109:0:0:0:0:
192,192,112109,1,0,0:0:0:0:
320,192,112259,1,8,0:0:0:0:
192,192,112559,1,0,0:0:0:0:
448,192,112859,128,0,113309:0:0:0:0:
64,192,113009,128,0,113309:0:0:0:0:
320,192,113309,1,0,0:0:0:0:
192,192,113459,1,8,0:0:0:0:
320,192,113759,1,0,0:0:0:0:
64,192,114059,128,0,114509:0:0:0:0:
448,192,114209,128,0,114509:0:0:0:0:
192,192,114509,1,0,0:0:0:0:
320,192,114659,1,8,0:0:0:0:
64,192,114809,1,0,0:0:0:0:
448,192,114959,1,0,0:0:0:0:
192,192,115109,1,0,0:0:0:0:
320,192,115259,128,0,115559:0:0:0:0:
64,192,115559,1,0,0:0:0:0:
448,192,115859,1,8,0:0:0:0:
192,192,116009,1,0,0:0:0:0:
320,192,116159,1,0,0:0:0:0:
448,192,116459,128,0,117059:0:0:0:0:
64,192,116459,128,0,117059:0:0:0:0:
192,192,117059,1,8,0:0:0:0:
320,192,117359,1,0,0:0:0:0:
64,192,117659,128,0,118259:0:0:0:0:
448,192,117659,128,0,118259:0:0:0:0:
320,192,118259,1,8,0:0:0:0:
192,192,118559,1,0,0:0:0:0:
64,192,118859,128,0,119309:0:0:0:0:
448,192,118859,128,0,119309:0:0:0:0:
320,192,119309,1,0,0:0:0:0:
192,192,119459,1,8,0:0:0:0:
448,192,119759,1,0,0:0:0:0:
64,192,119909,1,0,0:0:0:0:
320,192,120059,128,0,120359:0:0:0:0:
192,192,120359,1,0,0:0:0:0:
448,192,120659,1,8,0:0:0:0:
64,192,120959,1,0,0:0:0:0:
192,192,121259,128,0,121859:0:0:0:0:
320,192,121259,128,0,121859:0:0:0:0:
64,192,121859,1,8,0:0:0:0:
448,192,122159,1,0,0:0:0:0:
192,192,122459,128,0,123059:0:0:0:0:
320,192,122459,128,0,123059:0:0:0:0:
448,192,123059,1,8,0:0:0:0:
64,192,123359,1,0,0:0:0:0:
448,192,123659,1,0,0:0:0:0:
192,192,123659,1,0,0:0:0:0:
320,192,123809,1,0,0:0:0:0:
64,192,123959,128,0,124259:0:0:0:0:
448,192,124259,1,8,0:0:0:0:
192,192,124559,1,0,0:0:0:0:
320,192,124859,128,4,125159:0:0:0:0:
192,192,125159,128,4,125459:0:0:0:0:
448,192,125459,128,12,125759:0:0:0:0:
320,192,125759,128,4,126059:0:0:0:0:
64,192,126059,1,0,0:0:0:0:
192,192,126209,1,0,0:0:0:0:
448,192,126509,1,0,0:0:0:0:
320,192,126659,1,8,0:0:0:0:
320,192,127109,1,0,0:0:0:0:
64,192,127259,1,0,0:0:0:0:
192,192,127409,1,0,0:0:0:0:
448,192,127709,1,0,0:0:0:0:
320,192,127859,1,8,0:0:0:0:
64,192,128159,1,0,0:0:0:0:
192,192,128459,1,0,0:0:0:0:
320,192,128609,128,0,128759:0:0:0:0:
192,192,128909,1,0,0:0:0:0:
448,192,129059,128,12,129359:0:0:0:0:
64,192,129359,128,0,129509:0:0:0:0:
320,192,129509,128,0,129659:0:0:0:0:
192,192,129659,1,0,0:0:0:0:
448,192,129959,1,4,0:0:0:0:
64,192,130109,1,4,0:0:0:0:
320,192,130259,1,8,0:0:0:0:
192,192,130559,1,4,0:0:0:0:
448,192,130859,128,0,131309:0:0:0:0:
64,192,131009,128,0,131309:0:0:0:0:
320,192,131309,1,0,0:0:0:0:
192,192,131459,1,8,0:0:0:0:
320,192,131759,1,0,0:0:0:0:
64,192,132059,128,0,132509:0:0:0:0:
448,192,132209,128,0,132509:0:0:0:0:
192,192,132509,1,0,0:0:0:0:
320,192,132659,1,8,0:0:0:0:
192,192,132959,1,0,0:0:0:0:
64,192,133259,1,0,0:0:0:0:
448,192,133259,1,0,0:0:0:0:
320,192,133859,1,0,0:0:0:0:
448,192,134459,1,0,0:0:0:0:
192,192,134459,1,4,0:0:0:0:
