osu file format v14

[General]
AudioFilename: audio (cut by A r M i N).mp3
AudioLeadIn: 0
PreviewTime: 94409
Countdown: 0
SampleSet: None
StackLeniency: 0.7
Mode: 3
LetterboxInBreaks: 0
SpecialStyle: 0
WidescreenStoryboard: 1

[Editor]
DistanceSpacing: 1.1
BeatDivisor: 4
GridSize: 4
TimelineZoom: 2.1

[Metadata]
Title:fuego (sakuraburst remix)
TitleUnicode:fuego (sakuraburst remix)
Artist:KOAN Sound & Asa
ArtistUnicode:KOAN Sound & Asa
Creator:Couil
Version:HD
Source:
Tags:experimental electronic music SV
BeatmapID:1313120
BeatmapSetID:622946

[Difficulty]
HPDrainRate:7.4
CircleSize:4
OverallDifficulty:7.6
ApproachRate:5
SliderMultiplier:1.4
SliderTickRate:1

[Events]
//Background and Video events
0,0,"Elegant-Art-of-Girl-Crazy-Background.jpg",0,0
//Break Periods
//Storyboard Layer 0 (Background)
//Storyboard Layer 1 (Fail)
//Storyboard Layer 2 (Pass)
//Storyboard Layer 3 (Foreground)
//Storyboard Sound Samples

[TimingPoints]
59,300,4,3,1,80,1,0
59,-113.636363636364,4,3,1,80,0,0
28909,-112.359550561798,4,3,1,80,0,0
28959,-111.111111111111,4,3,1,80,0,0
29009,-109.89010989011,4,3,1,80,0,0
29059,-108.695652173913,4,3,1,80,0,0
29109,-107.52688172043,4,3,1,80,0,0
29159,-106.382978723404,4,3,1,80,0,0
29209,-105.263157894737,4,3,1,80,0,0
29259,-104.166666666667,4,3,1,80,0,0
29309,-103.092783505155,4,3,1,80,0,0
29359,-102.040816326531,4,3,1,80,0,0
29409,-101.010101010101,4,3,1,80,0,0
29459,-100,4,3,1,80,0,0
33659,-58.8235294117647,4,3,1,80,0,0
33734,-76.9230769230769,4,3,1,80,0,0
33809,-125,4,3,1,80,0,0
34110,-100,4,3,1,80,0,0
34259,-58.8235294117647,4,3,1,80,0,0
34334,-76.9230769230769,4,3,1,80,0,0
34409,-125,4,3,1,80,0,0
34710,-100,4,3,1,80,0,0
34859,-58.8235294117647,4,3,1,80,0,0
34934,-76.9230769230769,4,3,1,80,0,0
35009,-125,4,3,1,80,0,0
35310,-100,4,3,1,80,0,0
35459,-58.8235294117647,4,3,1,80,0,0
35534,-76.9230769230769,4,3,1,80,0,0
35609,-125,4,3,1,80,0,0
35910,-100,4,3,1,80,0,0
36059,-62.5,4,3,1,80,0,0
36134,-125,4,3,1,80,0,0
36359,-62.5,4,3,1,80,0,0
36434,-125,4,3,1,80,0,0
36659,-62.5,4,3,1,80,0,0
36734,-125,4,3,1,80,0,0
36959,-62.5,4,3,1,80,0,0
37034,-125,4,3,1,80,0,0
37484,-117.647058823529,4,3,1,80,0,0
37559,-111.111111111111,4,3,1,80,0,0
37634,-105.263157894737,4,3,1,80,0,0
37709,-62.5,4,3,1,80,0,0
37746,-125,4,3,1,80,0,0
37859,-16.6666666666667,4,3,1,80,0,0
37865,-71.4285714285714,4,3,1,80,0,0
37866,-125,4,3,1,80,0,0
38009,-100,4,3,1,80,0,0
38309,-16.6666666666667,4,3,1,80,0,0
38315,-71.4285714285714,4,3,1,80,0,0
38316,-125,4,3,1,80,0,0
38515,-62.5,4,3,1,80,0,0
38534,-142.857142857143,4,3,1,80,0,0
38590,-52.6315789473684,4,3,1,80,0,0
38609,-166.666666666667,4,3,1,80,0,0
38665,-45.4545454545455,4,3,1,80,0,0
38684,-166.666666666667,4,3,1,80,0,0
38740,-45.4545454545455,4,3,1,80,0,0
38759,-166.666666666667,4,3,1,80,0,0
38797,-45.4545454545455,4,3,1,80,0,0
38809,-166.666666666667,4,3,1,80,0,0
38847,-45.4545454545455,4,3,1,80,0,0
38859,-166.666666666667,4,3,1,80,0,0
38897,-45.4545454545455,4,3,1,80,0,0
38909,-100,4,3,1,80,0,0
39059,-16.6666666666667,4,3,1,80,0,0
39065,-71.4285714285714,4,3,1,80,0,0
39066,-125,4,3,1,80,0,0
39209,-105.263157894737,4,3,1,80,0,0
39247,-111.111111111111,4,3,1,80,0,0
39284,-117.647058823529,4,3,1,80,0,0
39322,-125,4,3,1,80,0,0
39359,-133.333333333333,4,3,1,80,0,0
39396,-142.857142857143,4,3,1,80,0,0
39434,-153.846153846154,4,3,1,80,0,0
39471,-166.666666666667,4,3,1,80,0,0
39509,-181.818181818182,4,3,1,80,0,0
39546,-200,4,3,1,80,0,0
39584,-222.222222222222,4,3,1,80,0,0
39621,-250,4,3,1,80,0,0
39659,-52.6315789473684,4,3,1,80,0,0
39696,-181.818181818182,4,3,1,80,0,0
39734,-142.857142857143,4,3,1,80,0,0
39771,-117.647058823529,4,3,1,80,0,0
39809,-100,4,3,1,80,0,0
39959,-52.6315789473684,4,3,1,80,0,0
39996,-181.818181818182,4,3,1,80,0,0
40034,-142.857142857143,4,3,1,80,0,0
40071,-117.647058823529,4,3,1,80,0,0
40109,-100,4,3,1,80,0,0
40259,-16.6666666666667,4,3,1,80,0,0
40291,-83.3333333333333,4,3,1,80,0,0
40292,-250,4,3,1,80,0,0
40559,-100,4,3,1,80,0,0
40859,-125,4,3,1,80,0,0
40915,-62.5,4,3,1,80,0,0
40934,-142.857142857143,4,3,1,80,0,0
40990,-52.6315789473684,4,3,1,80,0,0
41009,-166.666666666667,4,3,1,80,0,0
41065,-45.4545454545455,4,3,1,80,0,0
41084,-166.666666666667,4,3,1,80,0,0
41140,-45.4545454545455,4,3,1,80,0,0
41159,-166.666666666667,4,3,1,80,0,0
41197,-45.4545454545455,4,3,1,80,0,0
41209,-166.666666666667,4,3,1,80,0,0
41247,-45.4545454545455,4,3,1,80,0,0
41259,-166.666666666667,4,3,1,80,0,0
41297,-45.4545454545455,4,3,1,80,0,0
41309,-100,4,3,1,80,0,0
41459,-16.6666666666667,4,3,1,80,0,0
41465,-71.4285714285714,4,3,1,80,0,0
41466,-125,4,3,1,80,0,0
41609,-45.4545454545455,4,3,1,80,0,0
41627,-166.666666666667,4,3,1,80,0,0
41684,-45.4545454545455,4,3,1,80,0,0
41702,-166.666666666667,4,3,1,80,0,0
41759,-45.4545454545455,4,3,1,80,0,0
41777,-166.666666666667,4,3,1,80,0,0
41834,-45.4545454545455,4,3,1,80,0,0
41852,-166.666666666667,4,3,1,80,0,0
41909,-16.6666666666667,4,3,1,80,0,0
41915,-71.4285714285714,4,3,1,80,0,0
41916,-125,4,3,1,80,0,0
42059,-10,4,3,1,80,0,0
42061,-41.6666666666667,4,3,1,80,0,0
42062,-125,4,3,1,80,0,0
42209,-117.647058823529,4,3,1,80,0,0
42246,-105.263157894737,4,3,1,80,0,0
42284,-95.2380952380952,4,3,1,80,0,0
42321,-86.9565217391304,4,3,1,80,0,0
42359,-10,4,3,1,80,0,0
42362,-10.2040816326531,4,3,1,80,0,0
42363,-166.666666666667,4,3,1,80,0,0
42396,-142.857142857143,4,3,1,80,0,0
42434,-125,4,3,1,80,0,0
42471,-111.111111111111,4,3,1,80,0,0
42509,-100,4,3,1,80,0,0
42659,-16.6666666666667,4,3,1,80,0,0
42665,-71.4285714285714,4,3,1,80,0,0
42666,-125,4,3,1,80,0,0
42809,-100,4,3,1,80,0,0
42959,-62.5,4,3,1,80,0,0
42996,-111.111111111111,4,3,1,80,0,0
43034,-125,4,3,1,80,0,0
43071,-142.857142857143,4,3,1,80,0,0
43109,-166.666666666667,4,3,1,80,0,0
43247,-16.6666666666667,4,3,1,80,0,0
43258,-83.3333333333333,4,3,1,80,0,0
43259,-125,4,3,1,80,0,0
43315,-62.5,4,3,1,80,0,0
43334,-142.857142857143,4,3,1,80,0,0
43390,-52.6315789473684,4,3,1,80,0,0
43409,-166.666666666667,4,3,1,80,0,0
43465,-45.4545454545455,4,3,1,80,0,0
43484,-166.666666666667,4,3,1,80,0,0
43540,-45.4545454545455,4,3,1,80,0,0
43559,-166.666666666667,4,3,1,80,0,0
43597,-45.4545454545455,4,3,1,80,0,0
43609,-166.666666666667,4,3,1,80,0,0
43647,-45.4545454545455,4,3,1,80,0,0
43659,-166.666666666667,4,3,1,80,0,0
43697,-45.4545454545455,4,3,1,80,0,0
43709,-100,4,3,1,80,0,0
43859,-16.6666666666667,4,3,1,80,0,0
43865,-71.4285714285714,4,3,1,80,0,0
43866,-125,4,3,1,80,0,0
44009,-100,4,3,1,80,0,0
44459,-250,4,3,1,80,0,0
44534,-181.818181818182,4,3,1,80,0,0
44552,-142.857142857143,4,3,1,80,0,0
44571,-117.647058823529,4,3,1,80,0,0
44590,-100,4,3,1,80,0,0
44596,-16.6666666666667,4,3,1,80,0,0
44608,-35.7142857142857,4,3,1,80,0,0
44609,-52.6315789473684,4,3,1,80,0,0
44627,-142.857142857143,4,3,1,80,0,0
44684,-52.6315789473684,4,3,1,80,0,0
44702,-142.857142857143,4,3,1,80,0,0
44759,-52.6315789473684,4,3,1,80,0,0
44796,-142.857142857143,4,3,1,80,0,0
44909,-52.6315789473684,4,3,1,80,0,0
44946,-142.857142857143,4,3,1,80,0,0
45059,-16.6666666666667,4,3,1,80,0,0
45070,-83.3333333333333,4,3,1,80,0,0
45071,-166.666666666667,4,3,1,80,0,0
45209,-100,4,3,1,80,0,0
45246,-95.2380952380952,4,3,1,80,0,0
45284,-90.9090909090909,4,3,1,80,0,0
45321,-117.647058823529,4,3,1,80,0,0
45359,-100,4,3,1,80,0,0
45396,-95.2380952380952,4,3,1,80,0,0
45434,-90.9090909090909,4,3,1,80,0,0
45471,-117.647058823529,4,3,1,80,0,0
45509,-16.6666666666667,4,3,1,80,0,0
45515,-71.4285714285714,4,3,1,80,0,0
45516,-125,4,3,1,80,0,0
45659,-166.666666666667,4,3,1,80,0,0
45715,-45.4545454545455,4,3,1,80,0,0
45734,-166.666666666667,4,3,1,80,0,0
45790,-45.4545454545455,4,3,1,80,0,0
45809,-166.666666666667,4,3,1,80,0,0
45865,-45.4545454545455,4,3,1,80,0,0
45884,-166.666666666667,4,3,1,80,0,0
45940,-45.4545454545455,4,3,1,80,0,0
45959,-100,4,3,1,80,0,0
46109,-16.6666666666667,4,3,1,80,0,0
46115,-71.4285714285714,4,3,1,80,0,0
46116,-125,4,3,1,80,0,0
46259,-16.6666666666667,4,3,1,80,0,0
46270,-83.3333333333333,4,3,1,80,0,0
46271,-166.666666666667,4,3,1,80,0,0
46409,-16.6666666666667,4,3,1,80,0,0
46415,-71.4285714285714,4,3,1,80,0,0
46416,-125,4,3,1,80,0,0
46559,-100,4,3,1,80,0,0
46859,-250,4,3,1,80,0,0
46934,-181.818181818182,4,3,1,80,0,0
46952,-142.857142857143,4,3,1,80,0,0
46971,-117.647058823529,4,3,1,80,0,0
46990,-100,4,3,1,80,0,0
46996,-16.6666666666667,4,3,1,80,0,0
47008,-35.7142857142857,4,3,1,80,0,0
47009,-166.666666666667,4,3,1,80,0,0
47044,-10,4,3,1,80,0,0
47045,-16.6666666666667,4,3,1,80,0,0
47046,-166.666666666667,4,3,1,80,0,0
47081,-10,4,3,1,80,0,0
47082,-16.6666666666667,4,3,1,80,0,0
47084,-166.666666666667,4,3,1,80,0,0
47119,-10,4,3,1,80,0,0
47120,-16.6666666666667,4,3,1,80,0,0
47121,-166.666666666667,4,3,1,80,0,0
47156,-10,4,3,1,80,0,0
47157,-16.6666666666667,4,3,1,80,0,0
47159,-250,4,3,1,80,0,0
47234,-181.818181818182,4,3,1,80,0,0
47252,-142.857142857143,4,3,1,80,0,0
47271,-117.647058823529,4,3,1,80,0,0
47290,-100,4,3,1,80,0,0
47296,-16.6666666666667,4,3,1,80,0,0
47308,-35.7142857142857,4,3,1,80,0,0
47309,-166.666666666667,4,3,1,80,0,0
47344,-10,4,3,1,80,0,0
47345,-16.6666666666667,4,3,1,80,0,0
47346,-166.666666666667,4,3,1,80,0,0
47382,-10,4,3,1,80,0,0
47383,-16.6666666666667,4,3,1,80,0,0
47384,-166.666666666667,4,3,1,80,0,0
47419,-10,4,3,1,80,0,0
47420,-16.6666666666667,4,3,1,80,0,0
47421,-166.666666666667,4,3,1,80,0,0
47456,-10,4,3,1,80,0,0
47457,-16.6666666666667,4,3,1,80,0,0
47465,-71.4285714285714,4,3,1,80,0,0
47466,-125,4,3,1,80,0,0
47609,-10,4,3,1,80,0,0
47616,-71.4285714285714,4,3,1,80,0,0
47617,-125,4,3,1,80,0,0
47759,-166.666666666667,4,3,1,80,0,0
47794,-10,4,3,1,80,0,0
47795,-16.6666666666667,4,3,1,80,0,0
47796,-166.666666666667,4,3,1,80,0,0
47831,-10,4,3,1,80,0,0
47832,-16.6666666666667,4,3,1,80,0,0
47834,-166.666666666667,4,3,1,80,0,0
47869,-10,4,3,1,80,0,0
47870,-16.6666666666667,4,3,1,80,0,0
47871,-166.666666666667,4,3,1,80,0,0
47907,-10,4,3,1,80,0,0
47908,-16.6666666666667,4,3,1,80,0,0
47909,-166.666666666667,4,3,1,80,0,0
47944,-10,4,3,1,80,0,0
47945,-16.6666666666667,4,3,1,80,0,0
47946,-166.666666666667,4,3,1,80,0,0
47982,-10,4,3,1,80,0,0
47983,-16.6666666666667,4,3,1,80,0,0
47984,-166.666666666667,4,3,1,80,0,0
48019,-10,4,3,1,80,0,0
48020,-16.6666666666667,4,3,1,80,0,0
48021,-166.666666666667,4,3,1,80,0,0
48057,-10,4,3,1,80,0,0
48058,-16.6666666666667,4,3,1,80,0,0
48059,-125,4,3,1,80,0,0
48115,-62.5,4,3,1,80,0,0
48134,-142.857142857143,4,3,1,80,0,0
48190,-52.6315789473684,4,3,1,80,0,0
48209,-166.666666666667,4,3,1,80,0,0
48265,-45.4545454545455,4,3,1,80,0,0
48284,-166.666666666667,4,3,1,80,0,0
48340,-45.4545454545455,4,3,1,80,0,0
48359,-166.666666666667,4,3,1,80,0,0
48397,-45.4545454545455,4,3,1,80,0,0
48409,-166.666666666667,4,3,1,80,0,0
48447,-45.4545454545455,4,3,1,80,0,0
48459,-166.666666666667,4,3,1,80,0,0
48497,-45.4545454545455,4,3,1,80,0,0
48509,-100,4,3,1,80,0,0
48659,-16.6666666666667,4,3,1,80,0,0
48665,-71.4285714285714,4,3,1,80,0,0
48666,-125,4,3,1,80,0,0
48809,-105.263157894737,4,3,1,80,0,0
48847,-111.111111111111,4,3,1,80,0,0
48884,-117.647058823529,4,3,1,80,0,0
48922,-125,4,3,1,80,0,0
48959,-133.333333333333,4,3,1,80,0,0
48996,-142.857142857143,4,3,1,80,0,0
49034,-153.846153846154,4,3,1,80,0,0
49071,-166.666666666667,4,3,1,80,0,0
49109,-181.818181818182,4,3,1,80,0,0
49146,-200,4,3,1,80,0,0
49184,-222.222222222222,4,3,1,80,0,0
49221,-250,4,3,1,80,0,0
49259,-52.6315789473684,4,3,1,80,0,0
49296,-181.818181818182,4,3,1,80,0,0
49334,-142.857142857143,4,3,1,80,0,0
49371,-117.647058823529,4,3,1,80,0,0
49409,-100,4,3,1,80,0,0
49559,-52.6315789473684,4,3,1,80,0,0
49596,-181.818181818182,4,3,1,80,0,0
49634,-142.857142857143,4,3,1,80,0,0
49671,-117.647058823529,4,3,1,80,0,0
49709,-100,4,3,1,80,0,0
49859,-16.6666666666667,4,3,1,80,0,0
49891,-83.3333333333333,4,3,1,80,0,0
49892,-250,4,3,1,80,0,0
50159,-100,4,3,1,80,0,0
50459,-125,4,3,1,80,0,0
50515,-62.5,4,3,1,80,0,0
50534,-142.857142857143,4,3,1,80,0,0
50590,-52.6315789473684,4,3,1,80,0,0
50609,-166.666666666667,4,3,1,80,0,0
50665,-45.4545454545455,4,3,1,80,0,0
50684,-166.666666666667,4,3,1,80,0,0
50740,-45.4545454545455,4,3,1,80,0,0
50759,-166.666666666667,4,3,1,80,0,0
50797,-45.4545454545455,4,3,1,80,0,0
50809,-166.666666666667,4,3,1,80,0,0
50847,-45.4545454545455,4,3,1,80,0,0
50859,-166.666666666667,4,3,1,80,0,0
50897,-45.4545454545455,4,3,1,80,0,0
50909,-100,4,3,1,80,0,0
51059,-16.6666666666667,4,3,1,80,0,0
51065,-71.4285714285714,4,3,1,80,0,0
51066,-125,4,3,1,80,0,0
51209,-45.4545454545455,4,3,1,80,0,0
51227,-166.666666666667,4,3,1,80,0,0
51284,-45.4545454545455,4,3,1,80,0,0
51302,-166.666666666667,4,3,1,80,0,0
51359,-45.4545454545455,4,3,1,80,0,0
51377,-166.666666666667,4,3,1,80,0,0
51434,-45.4545454545455,4,3,1,80,0,0
51452,-166.666666666667,4,3,1,80,0,0
51509,-16.6666666666667,4,3,1,80,0,0
51515,-71.4285714285714,4,3,1,80,0,0
51516,-125,4,3,1,80,0,0
51659,-10,4,3,1,80,0,0
51661,-41.6666666666667,4,3,1,80,0,0
51662,-125,4,3,1,80,0,0
51809,-117.647058823529,4,3,1,80,0,0
51846,-105.263157894737,4,3,1,80,0,0
51884,-95.2380952380952,4,3,1,80,0,0
51921,-86.9565217391304,4,3,1,80,0,0
51959,-10,4,3,1,80,0,0
51962,-10.2040816326531,4,3,1,80,0,0
51963,-166.666666666667,4,3,1,80,0,0
51996,-142.857142857143,4,3,1,80,0,0
52034,-125,4,3,1,80,0,0
52071,-111.111111111111,4,3,1,80,0,0
52109,-100,4,3,1,80,0,0
52259,-16.6666666666667,4,3,1,80,0,0
52265,-71.4285714285714,4,3,1,80,0,0
52266,-125,4,3,1,80,0,0
52409,-100,4,3,1,80,0,0
52559,-62.5,4,3,1,80,0,0
52596,-111.111111111111,4,3,1,80,0,0
52634,-125,4,3,1,80,0,0
52671,-142.857142857143,4,3,1,80,0,0
52709,-166.666666666667,4,3,1,80,0,0
52847,-16.6666666666667,4,3,1,80,0,0
52858,-83.3333333333333,4,3,1,80,0,0
52859,-125,4,3,1,80,0,0
52915,-62.5,4,3,1,80,0,0
52934,-142.857142857143,4,3,1,80,0,0
52990,-52.6315789473684,4,3,1,80,0,0
53009,-166.666666666667,4,3,1,80,0,0
53065,-45.4545454545455,4,3,1,80,0,0
53084,-166.666666666667,4,3,1,80,0,0
53140,-45.4545454545455,4,3,1,80,0,0
53159,-166.666666666667,4,3,1,80,0,0
53197,-45.4545454545455,4,3,1,80,0,0
53209,-166.666666666667,4,3,1,80,0,0
53247,-45.4545454545455,4,3,1,80,0,0
53259,-166.666666666667,4,3,1,80,0,0
53297,-45.4545454545455,4,3,1,80,0,0
53309,-100,4,3,1,80,0,0
53459,-16.6666666666667,4,3,1,80,0,0
53465,-71.4285714285714,4,3,1,80,0,0
53466,-125,4,3,1,80,0,0
53609,-100,4,3,1,80,0,0
54059,-250,4,3,1,80,0,0
54134,-181.818181818182,4,3,1,80,0,0
54152,-142.857142857143,4,3,1,80,0,0
54171,-117.647058823529,4,3,1,80,0,0
54190,-100,4,3,1,80,0,0
54196,-16.6666666666667,4,3,1,80,0,0
54208,-35.7142857142857,4,3,1,80,0,0
54209,-52.6315789473684,4,3,1,80,0,0
54227,-142.857142857143,4,3,1,80,0,0
54284,-52.6315789473684,4,3,1,80,0,0
54302,-142.857142857143,4,3,1,80,0,0
54359,-52.6315789473684,4,3,1,80,0,0
54396,-142.857142857143,4,3,1,80,0,0
54509,-52.6315789473684,4,3,1,80,0,0
54546,-142.857142857143,4,3,1,80,0,0
54659,-16.6666666666667,4,3,1,80,0,0
54670,-83.3333333333333,4,3,1,80,0,0
54671,-166.666666666667,4,3,1,80,0,0
54809,-100,4,3,1,80,0,0
54846,-95.2380952380952,4,3,1,80,0,0
54884,-90.9090909090909,4,3,1,80,0,0
54921,-117.647058823529,4,3,1,80,0,0
54959,-100,4,3,1,80,0,0
54996,-95.2380952380952,4,3,1,80,0,0
55034,-90.9090909090909,4,3,1,80,0,0
55071,-117.647058823529,4,3,1,80,0,0
55109,-16.6666666666667,4,3,1,80,0,0
55115,-71.4285714285714,4,3,1,80,0,0
55116,-125,4,3,1,80,0,0
55259,-166.666666666667,4,3,1,80,0,0
55315,-45.4545454545455,4,3,1,80,0,0
55334,-166.666666666667,4,3,1,80,0,0
55390,-45.4545454545455,4,3,1,80,0,0
55409,-166.666666666667,4,3,1,80,0,0
55465,-45.4545454545455,4,3,1,80,0,0
55484,-166.666666666667,4,3,1,80,0,0
55540,-45.4545454545455,4,3,1,80,0,0
55559,-100,4,3,1,80,0,0
55709,-16.6666666666667,4,3,1,80,0,0
55715,-71.4285714285714,4,3,1,80,0,0
55716,-125,4,3,1,80,0,0
55859,-166.666666666667,4,3,1,80,0,0
55894,-10,4,3,1,80,0,0
55895,-16.6666666666667,4,3,1,80,0,0
55896,-166.666666666667,4,3,1,80,0,0
55932,-10,4,3,1,80,0,0
55933,-16.6666666666667,4,3,1,80,0,0
55934,-166.666666666667,4,3,1,80,0,0
55969,-10,4,3,1,80,0,0
55970,-16.6666666666667,4,3,1,80,0,0
55971,-166.666666666667,4,3,1,80,0,0
56007,-10,4,3,1,80,0,0
56008,-16.6666666666667,4,3,1,80,0,0
56009,-16.6666666666667,4,3,1,80,0,0
56015,-71.4285714285714,4,3,1,80,0,0
56016,-125,4,3,1,80,0,0
56159,-100,4,3,1,80,0,0
56309,-62.5,4,3,1,80,0,0
56346,-111.111111111111,4,3,1,80,0,0
56384,-125,4,3,1,80,0,0
56421,-142.857142857143,4,3,1,80,0,0
56459,-166.666666666667,4,3,1,80,0,0
56597,-16.6666666666667,4,3,1,80,0,0
56608,-83.3333333333333,4,3,1,80,0,0
56609,-100,4,3,1,80,0,0
56909,-16.6666666666667,4,3,1,80,0,0
56915,-71.4285714285714,4,3,1,80,0,0
56916,-125,4,3,1,80,0,0
57059,-16.6666666666667,4,3,1,80,0,0
57070,-83.3333333333333,4,3,1,80,0,0
57071,-166.666666666667,4,3,1,80,0,0
57209,-100,4,3,1,80,0,0
57509,-90.9090909090909,4,3,1,80,0,0
57546,-83.3333333333333,4,3,1,80,0,0
57584,-76.9230769230769,4,3,1,80,0,0
57621,-250,4,3,1,80,0,0
57659,-125,4,3,1,80,0,0
57715,-62.5,4,3,1,80,0,0
57734,-142.857142857143,4,3,1,80,0,0
57790,-52.6315789473684,4,3,1,80,0,0
57809,-166.666666666667,4,3,1,80,0,0
57865,-45.4545454545455,4,3,1,80,0,0
57884,-166.666666666667,4,3,1,80,0,0
57940,-45.4545454545455,4,3,1,80,0,0
57959,-166.666666666667,4,3,1,80,0,0
57997,-45.4545454545455,4,3,1,80,0,0
58009,-166.666666666667,4,3,1,80,0,0
58047,-45.4545454545455,4,3,1,80,0,0
58059,-166.666666666667,4,3,1,80,0,0
58097,-45.4545454545455,4,3,1,80,0,0
58109,-100,4,3,1,80,0,0
58259,-16.6666666666667,4,3,1,80,0,0
58265,-71.4285714285714,4,3,1,80,0,0
58266,-125,4,3,1,80,0,0
58409,-105.263157894737,4,3,1,80,0,0
58447,-111.111111111111,4,3,1,80,0,0
58484,-117.647058823529,4,3,1,80,0,0
58522,-125,4,3,1,80,0,0
58559,-133.333333333333,4,3,1,80,0,0
58596,-142.857142857143,4,3,1,80,0,0
58634,-153.846153846154,4,3,1,80,0,0
58671,-166.666666666667,4,3,1,80,0,0
58709,-181.818181818182,4,3,1,80,0,0
58746,-200,4,3,1,80,0,0
58784,-222.222222222222,4,3,1,80,0,0
58821,-250,4,3,1,80,0,0
58859,-52.6315789473684,4,3,1,80,0,0
58896,-181.818181818182,4,3,1,80,0,0
58934,-142.857142857143,4,3,1,80,0,0
58971,-117.647058823529,4,3,1,80,0,0
59009,-100,4,3,1,80,0,0
59159,-52.6315789473684,4,3,1,80,0,0
59196,-181.818181818182,4,3,1,80,0,0
59234,-142.857142857143,4,3,1,80,0,0
59271,-117.647058823529,4,3,1,80,0,0
59309,-100,4,3,1,80,0,0
59459,-16.6666666666667,4,3,1,80,0,0
59491,-83.3333333333333,4,3,1,80,0,0
59492,-250,4,3,1,80,0,0
59759,-100,4,3,1,80,0,0
60059,-125,4,3,1,80,0,0
60115,-62.5,4,3,1,80,0,0
60134,-142.857142857143,4,3,1,80,0,0
60190,-52.6315789473684,4,3,1,80,0,0
60209,-166.666666666667,4,3,1,80,0,0
60265,-45.4545454545455,4,3,1,80,0,0
60284,-166.666666666667,4,3,1,80,0,0
60340,-45.4545454545455,4,3,1,80,0,0
60359,-166.666666666667,4,3,1,80,0,0
60397,-45.4545454545455,4,3,1,80,0,0
60409,-166.666666666667,4,3,1,80,0,0
60447,-45.4545454545455,4,3,1,80,0,0
60459,-166.666666666667,4,3,1,80,0,0
60497,-45.4545454545455,4,3,1,80,0,0
60509,-100,4,3,1,80,0,0
60659,-16.6666666666667,4,3,1,80,0,0
60665,-71.4285714285714,4,3,1,80,0,0
60666,-125,4,3,1,80,0,0
60809,-45.4545454545455,4,3,1,80,0,0
60827,-166.666666666667,4,3,1,80,0,0
60884,-45.4545454545455,4,3,1,80,0,0
60902,-166.666666666667,4,3,1,80,0,0
60959,-45.4545454545455,4,3,1,80,0,0
60977,-166.666666666667,4,3,1,80,0,0
61034,-45.4545454545455,4,3,1,80,0,0
61052,-166.666666666667,4,3,1,80,0,0
61109,-16.6666666666667,4,3,1,80,0,0
61115,-71.4285714285714,4,3,1,80,0,0
61116,-125,4,3,1,80,0,0
61259,-10,4,3,1,80,0,0
61261,-41.6666666666667,4,3,1,80,0,0
61262,-125,4,3,1,80,0,0
61409,-117.647058823529,4,3,1,80,0,0
61446,-105.263157894737,4,3,1,80,0,0
61484,-95.2380952380952,4,3,1,80,0,0
61521,-86.9565217391304,4,3,1,80,0,0
61559,-10,4,3,1,80,0,0
61562,-10.2040816326531,4,3,1,80,0,0
61563,-166.666666666667,4,3,1,80,0,0
61596,-142.857142857143,4,3,1,80,0,0
61634,-125,4,3,1,80,0,0
61671,-111.111111111111,4,3,1,80,0,0
61709,-100,4,3,1,80,0,0
61859,-16.6666666666667,4,3,1,80,0,0
61865,-71.4285714285714,4,3,1,80,0,0
61866,-125,4,3,1,80,0,0
62009,-100,4,3,1,80,0,0
62159,-62.5,4,3,1,80,0,0
62196,-111.111111111111,4,3,1,80,0,0
62234,-125,4,3,1,80,0,0
62271,-142.857142857143,4,3,1,80,0,0
62309,-166.666666666667,4,3,1,80,0,0
62447,-16.6666666666667,4,3,1,80,0,0
62458,-83.3333333333333,4,3,1,80,0,0
62459,-125,4,3,1,80,0,0
62515,-62.5,4,3,1,80,0,0
62534,-142.857142857143,4,3,1,80,0,0
62590,-52.6315789473684,4,3,1,80,0,0
62609,-166.666666666667,4,3,1,80,0,0
62665,-45.4545454545455,4,3,1,80,0,0
62684,-166.666666666667,4,3,1,80,0,0
62740,-45.4545454545455,4,3,1,80,0,0
62759,-166.666666666667,4,3,1,80,0,0
62797,-45.4545454545455,4,3,1,80,0,0
62809,-166.666666666667,4,3,1,80,0,0
62847,-45.4545454545455,4,3,1,80,0,0
62859,-166.666666666667,4,3,1,80,0,0
62897,-45.4545454545455,4,3,1,80,0,0
62909,-100,4,3,1,80,0,0
63059,-16.6666666666667,4,3,1,80,0,0
63065,-71.4285714285714,4,3,1,80,0,0
63066,-125,4,3,1,80,0,0
63209,-100,4,3,1,80,0,0
63659,-250,4,3,1,80,0,0
63734,-181.818181818182,4,3,1,80,0,0
63752,-142.857142857143,4,3,1,80,0,0
63771,-117.647058823529,4,3,1,80,0,0
63790,-100,4,3,1,80,0,0
63796,-16.6666666666667,4,3,1,80,0,0
63808,-35.7142857142857,4,3,1,80,0,0
63809,-52.6315789473684,4,3,1,80,0,0
63827,-142.857142857143,4,3,1,80,0,0
63884,-52.6315789473684,4,3,1,80,0,0
63902,-142.857142857143,4,3,1,80,0,0
63959,-52.6315789473684,4,3,1,80,0,0
63996,-142.857142857143,4,3,1,80,0,0
64109,-52.6315789473684,4,3,1,80,0,0
64146,-142.857142857143,4,3,1,80,0,0
64259,-16.6666666666667,4,3,1,80,0,0
64270,-83.3333333333333,4,3,1,80,0,0
64271,-166.666666666667,4,3,1,80,0,0
64409,-100,4,3,1,80,0,0
64446,-95.2380952380952,4,3,1,80,0,0
64484,-90.9090909090909,4,3,1,80,0,0
64521,-117.647058823529,4,3,1,80,0,0
64559,-100,4,3,1,80,0,0
64596,-95.2380952380952,4,3,1,80,0,0
64634,-90.9090909090909,4,3,1,80,0,0
64671,-117.647058823529,4,3,1,80,0,0
64709,-16.6666666666667,4,3,1,80,0,0
64715,-71.4285714285714,4,3,1,80,0,0
64716,-125,4,3,1,80,0,0
64859,-166.666666666667,4,3,1,80,0,0
64915,-45.4545454545455,4,3,1,80,0,0
64934,-166.666666666667,4,3,1,80,0,0
64990,-45.4545454545455,4,3,1,80,0,0
65009,-166.666666666667,4,3,1,80,0,0
65065,-45.4545454545455,4,3,1,80,0,0
65084,-166.666666666667,4,3,1,80,0,0
65140,-45.4545454545455,4,3,1,80,0,0
65159,-100,4,3,1,80,0,0
65309,-16.6666666666667,4,3,1,80,0,0
65315,-71.4285714285714,4,3,1,80,0,0
65316,-125,4,3,1,80,0,0
65459,-16.6666666666667,4,3,1,80,0,0
65470,-83.3333333333333,4,3,1,80,0,0
65471,-166.666666666667,4,3,1,80,0,0
65609,-16.6666666666667,4,3,1,80,0,0
65615,-71.4285714285714,4,3,1,80,0,0
65616,-125,4,3,1,80,0,0
65759,-100,4,3,1,80,0,0
66059,-250,4,3,1,80,0,0
66134,-181.818181818182,4,3,1,80,0,0
66152,-142.857142857143,4,3,1,80,0,0
66171,-117.647058823529,4,3,1,80,0,0
66190,-100,4,3,1,80,0,0
66196,-16.6666666666667,4,3,1,80,0,0
66208,-35.7142857142857,4,3,1,80,0,0
66209,-166.666666666667,4,3,1,80,0,0
66244,-10,4,3,1,80,0,0
66245,-16.6666666666667,4,3,1,80,0,0
66246,-166.666666666667,4,3,1,80,0,0
66281,-10,4,3,1,80,0,0
66282,-16.6666666666667,4,3,1,80,0,0
66284,-166.666666666667,4,3,1,80,0,0
66319,-10,4,3,1,80,0,0
66320,-16.6666666666667,4,3,1,80,0,0
66321,-166.666666666667,4,3,1,80,0,0
66356,-10,4,3,1,80,0,0
66357,-16.6666666666667,4,3,1,80,0,0
66359,-250,4,3,1,80,0,0
66434,-181.818181818182,4,3,1,80,0,0
66452,-142.857142857143,4,3,1,80,0,0
66471,-117.647058823529,4,3,1,80,0,0
66490,-100,4,3,1,80,0,0
66496,-16.6666666666667,4,3,1,80,0,0
66508,-35.7142857142857,4,3,1,80,0,0
66509,-166.666666666667,4,3,1,80,0,0
66544,-10,4,3,1,80,0,0
66545,-16.6666666666667,4,3,1,80,0,0
66546,-166.666666666667,4,3,1,80,0,0
66582,-10,4,3,1,80,0,0
66583,-16.6666666666667,4,3,1,80,0,0
66584,-166.666666666667,4,3,1,80,0,0
66619,-10,4,3,1,80,0,0
66620,-16.6666666666667,4,3,1,80,0,0
66621,-166.666666666667,4,3,1,80,0,0
66656,-10,4,3,1,80,0,0
66657,-16.6666666666667,4,3,1,80,0,0
66665,-71.4285714285714,4,3,1,80,0,0
66666,-125,4,3,1,80,0,0
66809,-10,4,3,1,80,0,0
66816,-71.4285714285714,4,3,1,80,0,0
66817,-125,4,3,1,80,0,0
66959,-166.666666666667,4,3,1,80,0,0
66994,-10,4,3,1,80,0,0
66995,-16.6666666666667,4,3,1,80,0,0
66996,-166.666666666667,4,3,1,80,0,0
67031,-10,4,3,1,80,0,0
67032,-16.6666666666667,4,3,1,80,0,0
67034,-166.666666666667,4,3,1,80,0,0
67069,-10,4,3,1,80,0,0
67070,-16.6666666666667,4,3,1,80,0,0
67071,-166.666666666667,4,3,1,80,0,0
67107,-10,4,3,1,80,0,0
67108,-16.6666666666667,4,3,1,80,0,0
67109,-166.666666666667,4,3,1,80,0,0
67144,-10,4,3,1,80,0,0
67145,-16.6666666666667,4,3,1,80,0,0
67146,-166.666666666667,4,3,1,80,0,0
67182,-10,4,3,1,80,0,0
67183,-16.6666666666667,4,3,1,80,0,0
67184,-166.666666666667,4,3,1,80,0,0
67219,-10,4,3,1,80,0,0
67220,-16.6666666666667,4,3,1,80,0,0
67221,-166.666666666667,4,3,1,80,0,0
67257,-10,4,3,1,80,0,0
67258,-16.6666666666667,4,3,1,80,0,0
67259,-125,4,3,1,80,0,0
67315,-62.5,4,3,1,80,0,0
67334,-142.857142857143,4,3,1,80,0,0
67390,-52.6315789473684,4,3,1,80,0,0
67409,-166.666666666667,4,3,1,80,0,0
67465,-45.4545454545455,4,3,1,80,0,0
67484,-166.666666666667,4,3,1,80,0,0
67540,-45.4545454545455,4,3,1,80,0,0
67559,-166.666666666667,4,3,1,80,0,0
67597,-45.4545454545455,4,3,1,80,0,0
67609,-166.666666666667,4,3,1,80,0,0
67647,-45.4545454545455,4,3,1,80,0,0
67659,-166.666666666667,4,3,1,80,0,0
67697,-45.4545454545455,4,3,1,80,0,0
67709,-100,4,3,1,80,0,0
67859,-16.6666666666667,4,3,1,80,0,0
67865,-71.4285714285714,4,3,1,80,0,0
67866,-125,4,3,1,80,0,0
68009,-105.263157894737,4,3,1,80,0,0
68047,-111.111111111111,4,3,1,80,0,0
68084,-117.647058823529,4,3,1,80,0,0
68122,-125,4,3,1,80,0,0
68159,-133.333333333333,4,3,1,80,0,0
68196,-142.857142857143,4,3,1,80,0,0
68234,-153.846153846154,4,3,1,80,0,0
68271,-166.666666666667,4,3,1,80,0,0
68309,-181.818181818182,4,3,1,80,0,0
68346,-200,4,3,1,80,0,0
68384,-222.222222222222,4,3,1,80,0,0
68421,-250,4,3,1,80,0,0
68459,-52.6315789473684,4,3,1,80,0,0
68496,-181.818181818182,4,3,1,80,0,0
68534,-142.857142857143,4,3,1,80,0,0
68571,-117.647058823529,4,3,1,80,0,0
68609,-100,4,3,1,80,0,0
68759,-52.6315789473684,4,3,1,80,0,0
68796,-181.818181818182,4,3,1,80,0,0
68834,-142.857142857143,4,3,1,80,0,0
68871,-117.647058823529,4,3,1,80,0,0
68909,-100,4,3,1,80,0,0
69059,-16.6666666666667,4,3,1,80,0,0
69091,-83.3333333333333,4,3,1,80,0,0
69092,-250,4,3,1,80,0,0
69359,-100,4,3,1,80,0,0
69659,-125,4,3,1,80,0,0
69715,-62.5,4,3,1,80,0,0
69734,-142.857142857143,4,3,1,80,0,0
69790,-52.6315789473684,4,3,1,80,0,0
69809,-166.666666666667,4,3,1,80,0,0
69865,-45.4545454545455,4,3,1,80,0,0
69884,-166.666666666667,4,3,1,80,0,0
69940,-45.4545454545455,4,3,1,80,0,0
69959,-166.666666666667,4,3,1,80,0,0
69997,-45.4545454545455,4,3,1,80,0,0
70009,-166.666666666667,4,3,1,80,0,0
70047,-45.4545454545455,4,3,1,80,0,0
70059,-166.666666666667,4,3,1,80,0,0
70097,-45.4545454545455,4,3,1,80,0,0
70109,-100,4,3,1,80,0,0
70259,-16.6666666666667,4,3,1,80,0,0
70265,-71.4285714285714,4,3,1,80,0,0
70266,-125,4,3,1,80,0,0
70409,-45.4545454545455,4,3,1,80,0,0
70427,-166.666666666667,4,3,1,80,0,0
70484,-45.4545454545455,4,3,1,80,0,0
70502,-166.666666666667,4,3,1,80,0,0
70559,-45.4545454545455,4,3,1,80,0,0
70577,-166.666666666667,4,3,1,80,0,0
70634,-45.4545454545455,4,3,1,80,0,0
70652,-166.666666666667,4,3,1,80,0,0
70709,-16.6666666666667,4,3,1,80,0,0
70715,-71.4285714285714,4,3,1,80,0,0
70716,-125,4,3,1,80,0,0
70859,-10,4,3,1,80,0,0
70861,-41.6666666666667,4,3,1,80,0,0
70862,-125,4,3,1,80,0,0
71009,-117.647058823529,4,3,1,80,0,0
71046,-105.263157894737,4,3,1,80,0,0
71084,-95.2380952380952,4,3,1,80,0,0
71121,-86.9565217391304,4,3,1,80,0,0
71159,-10,4,3,1,80,0,0
71162,-10.2040816326531,4,3,1,80,0,0
71163,-166.666666666667,4,3,1,80,0,0
71196,-142.857142857143,4,3,1,80,0,0
71234,-125,4,3,1,80,0,0
71271,-111.111111111111,4,3,1,80,0,0
71309,-100,4,3,1,80,0,0
71459,-16.6666666666667,4,3,1,80,0,0
71465,-71.4285714285714,4,3,1,80,0,0
71466,-125,4,3,1,80,0,0
71609,-100,4,3,1,80,0,0
71759,-62.5,4,3,1,80,0,0
71796,-111.111111111111,4,3,1,80,0,0
71834,-125,4,3,1,80,0,0
71871,-142.857142857143,4,3,1,80,0,0
71909,-166.666666666667,4,3,1,80,0,0
72047,-16.6666666666667,4,3,1,80,0,0
72058,-83.3333333333333,4,3,1,80,0,0
72059,-125,4,3,1,80,0,0
72115,-62.5,4,3,1,80,0,0
72134,-142.857142857143,4,3,1,80,0,0
72190,-52.6315789473684,4,3,1,80,0,0
72209,-166.666666666667,4,3,1,80,0,0
72265,-45.4545454545455,4,3,1,80,0,0
72284,-166.666666666667,4,3,1,80,0,0
72340,-45.4545454545455,4,3,1,80,0,0
72359,-166.666666666667,4,3,1,80,0,0
72397,-45.4545454545455,4,3,1,80,0,0
72409,-166.666666666667,4,3,1,80,0,0
72447,-45.4545454545455,4,3,1,80,0,0
72459,-166.666666666667,4,3,1,80,0,0
72497,-45.4545454545455,4,3,1,80,0,0
72509,-100,4,3,1,80,0,0
72659,-16.6666666666667,4,3,1,80,0,0
72665,-71.4285714285714,4,3,1,80,0,0
72666,-125,4,3,1,80,0,0
72809,-100,4,3,1,80,0,0
73259,-250,4,3,1,80,0,0
73334,-181.818181818182,4,3,1,80,0,0
73352,-142.857142857143,4,3,1,80,0,0
73371,-117.647058823529,4,3,1,80,0,0
73390,-100,4,3,1,80,0,0
73396,-16.6666666666667,4,3,1,80,0,0
73408,-35.7142857142857,4,3,1,80,0,0
73409,-52.6315789473684,4,3,1,80,0,0
73427,-142.857142857143,4,3,1,80,0,0
73484,-52.6315789473684,4,3,1,80,0,0
73502,-142.857142857143,4,3,1,80,0,0
73559,-52.6315789473684,4,3,1,80,0,0
73596,-142.857142857143,4,3,1,80,0,0
73709,-52.6315789473684,4,3,1,80,0,0
73746,-142.857142857143,4,3,1,80,0,0
73859,-16.6666666666667,4,3,1,80,0,0
73870,-83.3333333333333,4,3,1,80,0,0
73871,-166.666666666667,4,3,1,80,0,0
74009,-100,4,3,1,80,0,0
74046,-95.2380952380952,4,3,1,80,0,0
74084,-90.9090909090909,4,3,1,80,0,0
74121,-117.647058823529,4,3,1,80,0,0
74159,-100,4,3,1,80,0,0
74196,-95.2380952380952,4,3,1,80,0,0
74234,-90.9090909090909,4,3,1,80,0,0
74271,-117.647058823529,4,3,1,80,0,0
74309,-16.6666666666667,4,3,1,80,0,0
74315,-71.4285714285714,4,3,1,80,0,0
74316,-125,4,3,1,80,0,0
74459,-166.666666666667,4,3,1,80,0,0
74515,-45.4545454545455,4,3,1,80,0,0
74534,-166.666666666667,4,3,1,80,0,0
74590,-45.4545454545455,4,3,1,80,0,0
74609,-166.666666666667,4,3,1,80,0,0
74665,-45.4545454545455,4,3,1,80,0,0
74684,-166.666666666667,4,3,1,80,0,0
74740,-45.4545454545455,4,3,1,80,0,0
74759,-100,4,3,1,80,0,0
74909,-16.6666666666667,4,3,1,80,0,0
74915,-71.4285714285714,4,3,1,80,0,0
74916,-125,4,3,1,80,0,0
75059,-16.6666666666667,4,3,1,80,0,0
75070,-83.3333333333333,4,3,1,80,0,0
75071,-166.666666666667,4,3,1,80,0,0
75209,-16.6666666666667,4,3,1,80,0,0
75215,-71.4285714285714,4,3,1,80,0,0
75216,-125,4,3,1,80,0,0
75359,-52.6315789473684,4,3,1,80,0,0
75396,-142.857142857143,4,3,1,80,0,0
75509,-52.6315789473684,4,3,1,80,0,0
75546,-142.857142857143,4,3,1,80,0,0
75659,-16.6666666666667,4,3,1,80,0,0
75665,-71.4285714285714,4,3,1,80,0,0
75666,-125,4,3,1,80,0,0
75809,-52.6315789473684,4,3,1,80,0,0
75846,-142.857142857143,4,3,1,80,0,0
75959,-62.5,4,3,1,80,0,0
75996,-111.111111111111,4,3,1,80,0,0
76034,-125,4,3,1,80,0,0
76071,-142.857142857143,4,3,1,80,0,0
76109,-166.666666666667,4,3,1,80,0,0
76247,-16.6666666666667,4,3,1,80,0,0
76258,-83.3333333333333,4,3,1,80,0,0
76259,-16.6666666666667,4,3,1,80,0,0
76270,-83.3333333333333,4,3,1,80,0,0
76271,-166.666666666667,4,3,1,80,0,0
76409,-100,4,3,1,80,0,0
76859,-200,4,3,1,80,0,0
76896,-100,4,3,1,80,0,0
76934,-200,4,3,1,80,0,0
76971,-100,4,3,1,80,0,0
77009,-200,4,3,1,80,0,0
77046,-100,4,3,1,80,0,0
77084,-200,4,3,1,80,0,0
77121,-100,4,3,1,80,0,0
77159,-200,4,3,1,80,0,0
77196,-100,4,3,1,80,0,0
77234,-200,4,3,1,80,0,0
77271,-100,4,3,1,80,0,0
81659,-200,4,3,1,80,0,0
81696,-100,4,3,1,80,0,0
81734,-200,4,3,1,80,0,0
81771,-100,4,3,1,80,0,0
81809,-200,4,3,1,80,0,0
81846,-100,4,3,1,80,0,0
81884,-200,4,3,1,80,0,0
81921,-100,4,3,1,80,0,0
81959,-200,4,3,1,80,0,0
81996,-100,4,3,1,80,0,0
82034,-200,4,3,1,80,0,0
82071,-100,4,3,1,80,0,0
86459,-200,4,3,1,80,0,0
86496,-100,4,3,1,80,0,0
86534,-200,4,3,1,80,0,0
86571,-100,4,3,1,80,0,0
86609,-200,4,3,1,80,0,0
86646,-100,4,3,1,80,0,0
86684,-200,4,3,1,80,0,0
86721,-100,4,3,1,80,0,0
86759,-200,4,3,1,80,0,0
86796,-100,4,3,1,80,0,0
86834,-200,4,3,1,80,0,0
86871,-100,4,3,1,80,0,0
91259,-108.695652173913,4,3,1,80,0,0
93659,-66.6666666666667,4,3,1,80,0,0
93759,-76.9230769230769,4,3,1,80,0,0
93859,-90.9090909090909,4,3,1,80,0,0
93959,-111.111111111111,4,3,1,80,0,0
94059,-142.857142857143,4,3,1,80,0,0
94159,-200,4,3,1,80,0,0
94259,-100,4,3,1,80,0,0
94409,-40,4,3,1,80,0,0
94459,-200,4,3,1,80,0,0
94509,-166.666666666667,4,3,1,80,0,0
94559,-142.857142857143,4,3,1,80,0,0
94609,-125,4,3,1,80,0,0
94659,-111.111111111111,4,3,1,80,0,0
94709,-100,4,3,1,80,0,0
94859,-52.6315789473684,4,3,1,80,0,0
94909,-142.857142857143,4,3,1,80,0,0
94959,-125,4,3,1,80,0,0
95009,-111.111111111111,4,3,1,80,0,0
95059,-100,4,3,1,80,0,0
95159,-16.6666666666667,4,3,1,80,0,0
95165,-71.4285714285714,4,3,1,80,0,0
95166,-125,4,3,1,80,0,0
95309,-100,4,3,1,80,0,0
95459,-16.6666666666667,4,3,1,80,0,0
95470,-83.3333333333333,4,3,1,80,0,0
95471,-166.666666666667,4,3,1,80,0,0
95609,-16.6666666666667,4,3,1,80,0,0
95615,-71.4285714285714,4,3,1,80,0,0
95616,-125,4,3,1,80,0,0
95759,-100,4,3,1,80,0,0
96059,-71.4285714285714,4,3,1,80,0,0
96109,-83.3333333333333,4,3,1,80,0,0
96159,-100,4,3,1,80,0,0
96209,-125,4,3,1,80,0,0
96359,-100,4,3,1,80,0,0
96659,-16.6666666666667,4,3,1,80,0,0
96665,-71.4285714285714,4,3,1,80,0,0
96666,-125,4,3,1,80,0,0
96809,-16.6666666666667,4,3,1,80,0,0
96815,-71.4285714285714,4,3,1,80,0,0
96816,-125,4,3,1,80,0,0
96959,-10,4,3,1,80,0,0
96977,-13.1578947368421,4,3,1,80,0,0
96978,-250.000000000001,4,3,1,80,0,0
97259,-10,4,3,1,80,0,1
97265,-23.8095238095238,4,3,1,80,0,1
97266,-166.666666666667,4,3,1,80,0,1
97409,-10,4,3,1,80,0,1
97415,-23.8095238095238,4,3,1,80,0,1
97416,-166.666666666667,4,3,1,80,0,1
97559,-10,4,3,1,80,0,1
97565,-23.8095238095238,4,3,1,80,0,1
97566,-166.666666666667,4,3,1,80,0,1
97709,-10,4,3,1,80,0,1
97715,-23.8095238095238,4,3,1,80,0,1
97716,-166.666666666667,4,3,1,80,0,1
97859,-16.6666666666667,4,3,1,80,0,1
97865,-71.4285714285714,4,3,1,80,0,1
97866,-125,4,3,1,80,0,1
98009,-16.6666666666667,4,3,1,80,0,1
98015,-71.4285714285714,4,3,1,80,0,1
98016,-125,4,3,1,80,0,1
98159,-10,4,3,1,80,0,1
98183,-20,4,3,1,80,0,1
98184,-10,4,3,1,80,0,1
98185,-41.6666666666667,4,3,1,80,0,1
98186,-833.333333333333,4,3,1,80,0,1
98209,-10,4,3,1,80,0,1
98210,-41.6666666666667,4,3,1,80,0,1
98211,-833.333333333333,4,3,1,80,0,1
98234,-10,4,3,1,80,0,1
98235,-41.6666666666667,4,3,1,80,0,1
98236,-833.333333333333,4,3,1,80,0,1
98259,-10,4,3,1,80,0,1
98260,-41.6666666666667,4,3,1,80,0,1
98261,-833.333333333333,4,3,1,80,0,1
98284,-10,4,3,1,80,0,1
98285,-41.6666666666667,4,3,1,80,0,1
98286,-833.333333333333,4,3,1,80,0,1
98309,-10,4,3,1,80,0,1
98310,-41.6666666666667,4,3,1,80,0,1
98311,-833.333333333333,4,3,1,80,0,1
98334,-10,4,3,1,80,0,1
98335,-41.6666666666667,4,3,1,80,0,1
98336,-833.333333333333,4,3,1,80,0,1
98359,-10,4,3,1,80,0,1
98360,-41.6666666666667,4,3,1,80,0,1
98361,-833.333333333333,4,3,1,80,0,1
98384,-10,4,3,1,80,0,1
98385,-41.6666666666667,4,3,1,80,0,1
98386,-833.333333333333,4,3,1,80,0,1
98409,-10,4,3,1,80,0,1
98410,-41.6666666666667,4,3,1,80,0,1
98411,-833.333333333333,4,3,1,80,0,1
98434,-10,4,3,1,80,0,1
98435,-41.6666666666667,4,3,1,80,0,1
98436,-833.333333333333,4,3,1,80,0,1
98459,-10,4,3,1,80,0,1
98465,-23.8095238095238,4,3,1,80,0,1
98466,-166.666666666667,4,3,1,80,0,1
98609,-10,4,3,1,80,0,1
98615,-23.8095238095238,4,3,1,80,0,1
98616,-166.666666666667,4,3,1,80,0,1
98759,-10,4,3,1,80,0,1
98765,-23.8095238095238,4,3,1,80,0,1
98766,-166.666666666667,4,3,1,80,0,1
98909,-10,4,3,1,80,0,1
98915,-23.8095238095238,4,3,1,80,0,1
98916,-166.666666666667,4,3,1,80,0,1
99059,-16.6666666666667,4,3,1,80,0,1
99065,-71.4285714285714,4,3,1,80,0,1
99066,-125,4,3,1,80,0,1
99209,-16.6666666666667,4,3,1,80,0,1
99215,-71.4285714285714,4,3,1,80,0,1
99216,-125,4,3,1,80,0,1
99359,-10,4,3,1,80,0,1
99383,-20,4,3,1,80,0,1
99384,-10,4,3,1,80,0,1
99385,-41.6666666666667,4,3,1,80,0,1
99386,-833.333333333333,4,3,1,80,0,1
99409,-10,4,3,1,80,0,1
99410,-41.6666666666667,4,3,1,80,0,1
99411,-833.333333333333,4,3,1,80,0,1
99434,-10,4,3,1,80,0,1
99435,-41.6666666666667,4,3,1,80,0,1
99436,-833.333333333333,4,3,1,80,0,1
99459,-10,4,3,1,80,0,1
99460,-41.6666666666667,4,3,1,80,0,1
99461,-833.333333333333,4,3,1,80,0,1
99484,-10,4,3,1,80,0,1
99485,-41.6666666666667,4,3,1,80,0,1
99486,-833.333333333333,4,3,1,80,0,1
99509,-10,4,3,1,80,0,1
99510,-41.6666666666667,4,3,1,80,0,1
99511,-833.333333333333,4,3,1,80,0,1
99534,-10,4,3,1,80,0,1
99535,-41.6666666666667,4,3,1,80,0,1
99536,-833.333333333333,4,3,1,80,0,1
99559,-10,4,3,1,80,0,1
99560,-41.6666666666667,4,3,1,80,0,1
99561,-833.333333333333,4,3,1,80,0,1
99584,-10,4,3,1,80,0,1
99585,-41.6666666666667,4,3,1,80,0,1
99586,-833.333333333333,4,3,1,80,0,1
99609,-10,4,3,1,80,0,1
99610,-41.6666666666667,4,3,1,80,0,1
99611,-833.333333333333,4,3,1,80,0,1
99634,-10,4,3,1,80,0,1
99635,-41.6666666666667,4,3,1,80,0,1
99636,-833.333333333333,4,3,1,80,0,1
99659,-10,4,3,1,80,0,1
99665,-23.8095238095238,4,3,1,80,0,1
99666,-166.666666666667,4,3,1,80,0,1
99809,-10,4,3,1,80,0,1
99815,-23.8095238095238,4,3,1,80,0,1
99816,-166.666666666667,4,3,1,80,0,1
99959,-10,4,3,1,80,0,1
99965,-23.8095238095238,4,3,1,80,0,1
99966,-166.666666666667,4,3,1,80,0,1
100109,-100,4,3,1,80,0,1
100259,-16.6666666666667,4,3,1,80,0,1
100265,-71.4285714285714,4,3,1,80,0,1
100266,-125,4,3,1,80,0,1
100409,-95.2380952380952,4,3,1,80,0,1
100446,-90.9090909090909,4,3,1,80,0,1
100484,-86.9565217391304,4,3,1,80,0,1
100521,-142.857142857143,4,3,1,80,0,1
100671,-52.6315789473684,4,3,1,80,0,1
100709,-142.857142857143,4,3,1,80,0,1
100746,-111.111111111111,4,3,1,80,0,1
100784,-90.9090909090909,4,3,1,80,0,1
100821,-76.9230769230769,4,3,1,80,0,1
100859,-100,4,3,1,80,0,1
101009,-10,4,3,1,80,0,1
101010,-62.5,4,3,1,80,0,1
101011,-125,4,3,1,80,0,1
101059,-10,4,3,1,80,0,1
101061,-55.5555555555556,4,3,1,80,0,1
101062,-166.666666666667,4,3,1,80,0,1
101109,-10,4,3,1,80,0,1
101112,-62.5,4,3,1,80,0,1
101113,-250.000000000001,4,3,1,80,0,1
101159,-100,4,3,1,80,0,1
101209,-100,4,3,1,80,0,1
101459,-16.6666666666667,4,3,1,80,0,1
101465,-71.4285714285714,4,3,1,80,0,1
101466,-125,4,3,1,80,0,1
101609,-16.6666666666667,4,3,1,80,0,1
101615,-71.4285714285714,4,3,1,80,0,1
101616,-125,4,3,1,80,0,1
101759,-10,4,3,1,80,0,1
101769,-10.6382978723404,4,3,1,80,0,1
101770,-250,4,3,1,80,0,1
101809,-200,4,3,1,80,0,1
101859,-166.666666666667,4,3,1,80,0,1
101909,-142.857142857143,4,3,1,80,0,1
101959,-125,4,3,1,80,0,1
102009,-111.111111111111,4,3,1,80,0,1
102059,-10,4,3,1,80,0,1
102065,-23.8095238095238,4,3,1,80,0,1
102066,-166.666666666667,4,3,1,80,0,1
102209,-10,4,3,1,80,0,1
102215,-23.8095238095238,4,3,1,80,0,1
102216,-166.666666666667,4,3,1,80,0,1
102359,-10,4,3,1,80,0,1
102365,-23.8095238095238,4,3,1,80,0,1
102366,-166.666666666667,4,3,1,80,0,1
102509,-10,4,3,1,80,0,1
102515,-23.8095238095238,4,3,1,80,0,1
102516,-166.666666666667,4,3,1,80,0,1
102659,-16.6666666666667,4,3,1,80,0,1
102665,-71.4285714285714,4,3,1,80,0,1
102666,-125,4,3,1,80,0,1
102809,-16.6666666666667,4,3,1,80,0,1
102815,-71.4285714285714,4,3,1,80,0,1
102816,-125,4,3,1,80,0,1
102959,-10,4,3,1,80,0,1
102969,-10.6382978723404,4,3,1,80,0,1
102970,-250,4,3,1,80,0,1
103009,-200,4,3,1,80,0,1
103059,-166.666666666667,4,3,1,80,0,1
103109,-142.857142857143,4,3,1,80,0,1
103159,-125,4,3,1,80,0,1
103209,-111.111111111111,4,3,1,80,0,1
103259,-10,4,3,1,80,0,1
103265,-23.8095238095238,4,3,1,80,0,1
103266,-166.666666666667,4,3,1,80,0,1
103409,-10,4,3,1,80,0,1
103415,-23.8095238095238,4,3,1,80,0,1
103416,-166.666666666667,4,3,1,80,0,1
103559,-10,4,3,1,80,0,1
103565,-23.8095238095238,4,3,1,80,0,1
103566,-166.666666666667,4,3,1,80,0,1
103709,-10,4,3,1,80,0,1
103715,-23.8095238095238,4,3,1,80,0,1
103716,-166.666666666667,4,3,1,80,0,1
103859,-16.6666666666667,4,3,1,80,0,1
103865,-71.4285714285714,4,3,1,80,0,1
103866,-125,4,3,1,80,0,1
104009,-16.6666666666667,4,3,1,80,0,1
104015,-71.4285714285714,4,3,1,80,0,1
104016,-125,4,3,1,80,0,1
104159,-10,4,3,1,80,0,1
104169,-10.6382978723404,4,3,1,80,0,1
104170,-250,4,3,1,80,0,1
104209,-200,4,3,1,80,0,1
104259,-166.666666666667,4,3,1,80,0,1
104309,-142.857142857143,4,3,1,80,0,1
104359,-125,4,3,1,80,0,1
104409,-111.111111111111,4,3,1,80,0,1
104459,-10,4,3,1,80,0,1
104465,-23.8095238095238,4,3,1,80,0,1
104466,-166.666666666667,4,3,1,80,0,1
104609,-10,4,3,1,80,0,1
104615,-23.8095238095238,4,3,1,80,0,1
104616,-166.666666666667,4,3,1,80,0,1
104759,-10,4,3,1,80,0,1
104761,-29.4117647058824,4,3,1,80,0,1
104762,-250,4,3,1,80,0,1
104796,-10,4,3,1,80,0,1
104798,-29.4117647058824,4,3,1,80,0,1
104799,-250,4,3,1,80,0,1
104834,-10,4,3,1,80,0,1
104836,-29.4117647058824,4,3,1,80,0,1
104837,-250,4,3,1,80,0,1
104871,-10,4,3,1,80,0,1
104873,-29.4117647058824,4,3,1,80,0,1
104874,-250,4,3,1,80,0,1
104909,-100,4,3,1,80,0,1
105059,-16.6666666666667,4,3,1,80,0,1
105065,-71.4285714285714,4,3,1,80,0,1
105066,-125,4,3,1,80,0,1
105209,-95.2380952380952,4,3,1,80,0,1
105246,-90.9090909090909,4,3,1,80,0,1
105284,-86.9565217391304,4,3,1,80,0,1
105321,-142.857142857143,4,3,1,80,0,1
105471,-52.6315789473684,4,3,1,80,0,1
105509,-142.857142857143,4,3,1,80,0,1
105546,-111.111111111111,4,3,1,80,0,1
105584,-90.9090909090909,4,3,1,80,0,1
105621,-76.9230769230769,4,3,1,80,0,1
105696,-142.857142857143,4,3,1,80,0,1
105734,-76.9230769230769,4,3,1,80,0,1
105753,-142.857142857143,4,3,1,80,0,1
105771,-76.9230769230769,4,3,1,80,0,1
105790,-142.857142857143,4,3,1,80,0,1
105809,-76.9230769230769,4,3,1,80,0,1
105846,-142.857142857143,4,3,1,80,0,1
105884,-76.9230769230769,4,3,1,80,0,1
105903,-142.857142857143,4,3,1,80,0,1
105921,-76.9230769230769,4,3,1,80,0,1
105940,-142.857142857143,4,3,1,80,0,1
105959,-76.9230769230769,4,3,1,80,0,1
105996,-142.857142857143,4,3,1,80,0,1
106034,-76.9230769230769,4,3,1,80,0,1
106053,-142.857142857143,4,3,1,80,0,1
106071,-76.9230769230769,4,3,1,80,0,1
106090,-142.857142857143,4,3,1,80,0,1
106109,-76.9230769230769,4,3,1,80,0,1
106146,-142.857142857143,4,3,1,80,0,1
106184,-76.9230769230769,4,3,1,80,0,1
106203,-142.857142857143,4,3,1,80,0,1
106221,-76.9230769230769,4,3,1,80,0,1
106240,-142.857142857143,4,3,1,80,0,1
106259,-76.9230769230769,4,3,1,80,0,1
106277,-111.111111111111,4,3,1,80,0,1
106334,-76.9230769230769,4,3,1,80,0,1
106352,-111.111111111111,4,3,1,80,0,1
106409,-62.5,4,3,1,80,0,1
106427,-125,4,3,1,80,0,1
106484,-62.5,4,3,1,80,0,1
106502,-125,4,3,1,80,0,1
106559,-52.6315789473684,4,3,1,80,0,1
106577,-142.857142857143,4,3,1,80,0,1
106659,-52.6315789473684,4,3,1,80,0,1
106677,-142.857142857143,4,3,1,80,0,1
106759,-52.6315789473684,4,3,1,80,0,1
106777,-142.857142857143,4,3,1,80,0,1
106859,-16.6666666666667,4,3,1,80,0,1
106865,-71.4285714285714,4,3,1,80,0,1
106866,-125,4,3,1,80,0,1
107009,-16.6666666666667,4,3,1,80,0,1
107015,-71.4285714285714,4,3,1,80,0,1
107016,-125,4,3,1,80,0,1
107159,-117.647058823529,4,3,1,80,0,1
107196,-105.263157894737,4,3,1,80,0,1
107234,-95.2380952380952,4,3,1,80,0,1
107271,-86.9565217391304,4,3,1,80,0,1
107309,-16.6666666666667,4,3,1,80,0,1
107315,-71.4285714285714,4,3,1,80,0,1
107316,-125,4,3,1,80,0,1
107459,-10,4,3,1,80,0,1
107471,-12.8205128205128,4,3,1,80,0,1
107472,-166.666666666667,4,3,1,80,0,1
107796,-142.857142857143,4,3,1,80,0,1
107834,-125,4,3,1,80,0,1
107871,-111.111111111111,4,3,1,80,0,1
107909,-100,4,3,1,80,0,1
108059,-16.6666666666667,4,3,1,80,0,1
108065,-71.4285714285714,4,3,1,80,0,1
108066,-125,4,3,1,80,0,1
108209,-16.6666666666667,4,3,1,80,0,1
108215,-71.4285714285714,4,3,1,80,0,1
108216,-125,4,3,1,80,0,1
108359,-117.647058823529,4,3,1,80,0,1
108396,-105.263157894737,4,3,1,80,0,1
108434,-95.2380952380952,4,3,1,80,0,1
108471,-86.9565217391304,4,3,1,80,0,1
108509,-16.6666666666667,4,3,1,80,0,1
108515,-71.4285714285714,4,3,1,80,0,1
108516,-125,4,3,1,80,0,1
108659,-10,4,3,1,80,0,1
108665,-23.8095238095238,4,3,1,80,0,1
108666,-166.666666666667,4,3,1,80,0,1
108809,-16.6666666666667,4,3,1,80,0,1
108815,-71.4285714285714,4,3,1,80,0,1
108816,-125,4,3,1,80,0,1
108959,-16.6666666666667,4,3,1,80,0,1
108965,-71.4285714285714,4,3,1,80,0,1
108966,-125,4,3,1,80,0,1
109109,-117.647058823529,4,3,1,80,0,1
109146,-105.263157894737,4,3,1,80,0,1
109184,-95.2380952380952,4,3,1,80,0,1
109221,-86.9565217391304,4,3,1,80,0,1
109259,-16.6666666666667,4,3,1,80,0,1
109265,-71.4285714285714,4,3,1,80,0,1
109266,-125,4,3,1,80,0,1
109409,-111.111111111111,4,3,1,80,0,1
109446,-90.9090909090909,4,3,1,80,0,1
109484,-76.9230769230769,4,3,1,80,0,1
109521,-142.857142857143,4,3,1,80,0,1
109634,-125,4,3,1,80,0,1
109671,-111.111111111111,4,3,1,80,0,1
109709,-16.6666666666667,4,3,1,80,0,1
109715,-71.4285714285714,4,3,1,80,0,1
109716,-125,4,3,1,80,0,1
109859,-10,4,3,1,80,0,1
109871,-12.8205128205128,4,3,1,80,0,1
109872,-166.666666666667,4,3,1,80,0,1
110009,-142.857142857143,4,3,1,80,0,1
110046,-125,4,3,1,80,0,1
110084,-111.111111111111,4,3,1,80,0,1
110121,-100,4,3,1,80,0,1
110459,-16.6666666666667,4,3,1,80,0,0
110465,-71.4285714285714,4,3,1,80,0,0
110466,-125,4,3,1,80,0,0
110496,-111.111111111111,4,3,1,80,0,0
110534,-100,4,3,1,80,0,0
111059,-10,4,3,1,80,0,0
111065,-17.8571428571429,4,3,1,80,0,0
111066,-125,4,3,1,80,0,0
111359,-10,4,3,1,80,0,0
111377,-13.1578947368421,4,3,1,80,0,0
111378,-250.000000000001,4,3,1,80,0,0
111659,-10,4,3,1,80,0,0
111665,-23.8095238095238,4,3,1,80,0,0
111666,-166.666666666667,4,3,1,80,0,0
111809,-10,4,3,1,80,0,0
111815,-23.8095238095238,4,3,1,80,0,0
111816,-166.666666666667,4,3,1,80,0,0
111846,-142.857142857143,4,3,1,80,0,0
111884,-125,4,3,1,80,0,0
111921,-111.111111111111,4,3,1,80,0,0
111959,-100,4,3,1,80,0,0
112259,-16.6666666666667,4,3,1,80,0,0
112270,-83.3333333333333,4,3,1,80,0,0
112271,-166.666666666667,4,3,1,80,0,0
112409,-16.6666666666667,4,3,1,80,0,0
112415,-71.4285714285714,4,3,1,80,0,0
112416,-125,4,3,1,80,0,0
112559,-10,4,3,1,80,0,0
112577,-13.1578947368421,4,3,1,80,0,0
112578,-166.666666666667,4,3,1,80,0,0
112584,-10,4,3,1,80,0,0
112585,-41.6666666666667,4,3,1,80,0,0
112586,-833.333333333333,4,3,1,80,0,0
112609,-10,4,3,1,80,0,0
112610,-41.6666666666667,4,3,1,80,0,0
112611,-833.333333333333,4,3,1,80,0,0
112634,-10,4,3,1,80,0,0
112635,-41.6666666666667,4,3,1,80,0,0
112636,-833.333333333333,4,3,1,80,0,0
112659,-10,4,3,1,80,0,0
112660,-41.6666666666667,4,3,1,80,0,0
112661,-833.333333333333,4,3,1,80,0,0
112684,-10,4,3,1,80,0,0
112685,-41.6666666666667,4,3,1,80,0,0
112686,-833.333333333333,4,3,1,80,0,0
112709,-10,4,3,1,80,0,0
112710,-41.6666666666667,4,3,1,80,0,0
112711,-833.333333333333,4,3,1,80,0,0
112734,-10,4,3,1,80,0,0
112735,-41.6666666666667,4,3,1,80,0,0
112736,-833.333333333333,4,3,1,80,0,0
112759,-10,4,3,1,80,0,0
112760,-41.6666666666667,4,3,1,80,0,0
112761,-833.333333333333,4,3,1,80,0,0
112784,-10,4,3,1,80,0,0
112785,-41.6666666666667,4,3,1,80,0,0
112786,-833.333333333333,4,3,1,80,0,0
112809,-10,4,3,1,80,0,0
112810,-41.6666666666667,4,3,1,80,0,0
112811,-833.333333333333,4,3,1,80,0,0
112834,-10,4,3,1,80,0,0
112835,-41.6666666666667,4,3,1,80,0,0
112836,-833.333333333333,4,3,1,80,0,0
112859,-10,4,3,1,80,0,0
112865,-23.8095238095238,4,3,1,80,0,0
112866,-166.666666666667,4,3,1,80,0,0
113009,-10,4,3,1,80,0,0
113015,-23.8095238095238,4,3,1,80,0,0
113016,-166.666666666667,4,3,1,80,0,0
113046,-142.857142857143,4,3,1,80,0,0
113084,-125,4,3,1,80,0,0
113121,-111.111111111111,4,3,1,80,0,0
113159,-100,4,3,1,80,0,0
113459,-16.6666666666667,4,3,1,80,0,0
113470,-83.3333333333333,4,3,1,80,0,0
113471,-166.666666666667,4,3,1,80,0,0
113609,-16.6666666666667,4,3,1,80,0,0
113615,-71.4285714285714,4,3,1,80,0,0
113616,-125,4,3,1,80,0,0
113759,-10,4,3,1,80,0,0
113777,-13.1578947368421,4,3,1,80,0,0
113778,-166.666666666667,4,3,1,80,0,0
113784,-10,4,3,1,80,0,0
113785,-41.6666666666667,4,3,1,80,0,0
113786,-833.333333333333,4,3,1,80,0,0
113809,-10,4,3,1,80,0,0
113810,-41.6666666666667,4,3,1,80,0,0
113811,-833.333333333333,4,3,1,80,0,0
113834,-10,4,3,1,80,0,0
113835,-41.6666666666667,4,3,1,80,0,0
113836,-833.333333333333,4,3,1,80,0,0
113859,-10,4,3,1,80,0,0
113860,-41.6666666666667,4,3,1,80,0,0
113861,-833.333333333333,4,3,1,80,0,0
113884,-10,4,3,1,80,0,0
113885,-41.6666666666667,4,3,1,80,0,0
113886,-833.333333333333,4,3,1,80,0,0
113909,-10,4,3,1,80,0,0
113910,-41.6666666666667,4,3,1,80,0,0
113911,-833.333333333333,4,3,1,80,0,0
113934,-10,4,3,1,80,0,0
113935,-41.6666666666667,4,3,1,80,0,0
113936,-833.333333333333,4,3,1,80,0,0
113959,-10,4,3,1,80,0,0
113960,-41.6666666666667,4,3,1,80,0,0
113961,-833.333333333333,4,3,1,80,0,0
113984,-10,4,3,1,80,0,0
113985,-41.6666666666667,4,3,1,80,0,0
113986,-833.333333333333,4,3,1,80,0,0
114009,-166.666666666667,4,3,1,80,0,0
114059,-10,4,3,1,80,0,0
114065,-23.8095238095238,4,3,1,80,0,0
114066,-166.666666666667,4,3,1,80,0,0
114209,-10,4,3,1,80,0,0
114215,-23.8095238095238,4,3,1,80,0,0
114216,-166.666666666667,4,3,1,80,0,0
114246,-142.857142857143,4,3,1,80,0,0
114284,-125,4,3,1,80,0,0
114321,-111.111111111111,4,3,1,80,0,0
114359,-100,4,3,1,80,0,0
114509,-16.6666666666667,4,3,1,80,0,0
114511,-18.5185185185185,4,3,1,80,0,0
114512,-125,4,3,1,80,0,0
114584,-16.6666666666667,4,3,1,80,0,0
114586,-18.5185185185185,4,3,1,80,0,0
114587,-125,4,3,1,80,0,0
114659,-10,4,3,1,80,0,0
114662,-31.25,4,3,1,80,0,0
114663,-125,4,3,1,80,0,0
114809,-16.6666666666667,4,3,1,80,0,0
114815,-71.4285714285714,4,3,1,80,0,0
114816,-125,4,3,1,80,0,0
114959,-52.6315789473684,4,3,1,80,0,0
114996,-142.857142857143,4,3,1,80,0,0
115109,-52.6315789473684,4,3,1,80,0,0
115146,-142.857142857143,4,3,1,80,0,0
115259,-71.4285714285714,4,3,1,80,0,0
115309,-83.3333333333333,4,3,1,80,0,0
115359,-100,4,3,1,80,0,0
115409,-125,4,3,1,80,0,0
115559,-100,4,3,1,80,0,0
115859,-16.6666666666667,4,3,1,80,0,0
115865,-71.4285714285714,4,3,1,80,0,0
115866,-125,4,3,1,80,0,0
116009,-16.6666666666667,4,3,1,80,0,0
116015,-71.4285714285714,4,3,1,80,0,0
116016,-125,4,3,1,80,0,0
116159,-10,4,3,1,80,0,0
116177,-13.1578947368421,4,3,1,80,0,0
116178,-250.000000000001,4,3,1,80,0,0
116459,-10,4,3,1,80,0,1
116465,-23.8095238095238,4,3,1,80,0,1
116466,-166.666666666667,4,3,1,80,0,1
116609,-10,4,3,1,80,0,1
116615,-23.8095238095238,4,3,1,80,0,1
116616,-166.666666666667,4,3,1,80,0,1
116759,-10,4,3,1,80,0,1
116765,-23.8095238095238,4,3,1,80,0,1
116766,-166.666666666667,4,3,1,80,0,1
116909,-10,4,3,1,80,0,1
116915,-23.8095238095238,4,3,1,80,0,1
116916,-166.666666666667,4,3,1,80,0,1
117059,-16.6666666666667,4,3,1,80,0,1
117065,-71.4285714285714,4,3,1,80,0,1
117066,-125,4,3,1,80,0,1
117209,-16.6666666666667,4,3,1,80,0,1
117215,-71.4285714285714,4,3,1,80,0,1
117216,-125,4,3,1,80,0,1
117359,-10,4,3,1,80,0,1
117383,-20,4,3,1,80,0,1
117384,-10,4,3,1,80,0,1
117385,-41.6666666666667,4,3,1,80,0,1
117386,-833.333333333333,4,3,1,80,0,1
117409,-10,4,3,1,80,0,1
117410,-41.6666666666667,4,3,1,80,0,1
117411,-833.333333333333,4,3,1,80,0,1
117434,-10,4,3,1,80,0,1
117435,-41.6666666666667,4,3,1,80,0,1
117436,-833.333333333333,4,3,1,80,0,1
117459,-10,4,3,1,80,0,1
117460,-41.6666666666667,4,3,1,80,0,1
117461,-833.333333333333,4,3,1,80,0,1
117484,-10,4,3,1,80,0,1
117485,-41.6666666666667,4,3,1,80,0,1
117486,-833.333333333333,4,3,1,80,0,1
117509,-10,4,3,1,80,0,1
117510,-41.6666666666667,4,3,1,80,0,1
117511,-833.333333333333,4,3,1,80,0,1
117534,-10,4,3,1,80,0,1
117535,-41.6666666666667,4,3,1,80,0,1
117536,-833.333333333333,4,3,1,80,0,1
117559,-10,4,3,1,80,0,1
117560,-41.6666666666667,4,3,1,80,0,1
117561,-833.333333333333,4,3,1,80,0,1
117584,-10,4,3,1,80,0,1
117585,-41.6666666666667,4,3,1,80,0,1
117586,-833.333333333333,4,3,1,80,0,1
117609,-10,4,3,1,80,0,1
117610,-41.6666666666667,4,3,1,80,0,1
117611,-833.333333333333,4,3,1,80,0,1
117634,-10,4,3,1,80,0,1
117635,-41.6666666666667,4,3,1,80,0,1
117636,-833.333333333333,4,3,1,80,0,1
117659,-10,4,3,1,80,0,1
117665,-23.8095238095238,4,3,1,80,0,1
117666,-166.666666666667,4,3,1,80,0,1
117809,-10,4,3,1,80,0,1
117815,-23.8095238095238,4,3,1,80,0,1
117816,-166.666666666667,4,3,1,80,0,1
117959,-10,4,3,1,80,0,1
117965,-23.8095238095238,4,3,1,80,0,1
117966,-166.666666666667,4,3,1,80,0,1
118109,-10,4,3,1,80,0,1
118115,-23.8095238095238,4,3,1,80,0,1
118116,-166.666666666667,4,3,1,80,0,1
118259,-16.6666666666667,4,3,1,80,0,1
118265,-71.4285714285714,4,3,1,80,0,1
118266,-125,4,3,1,80,0,1
118409,-16.6666666666667,4,3,1,80,0,1
118415,-71.4285714285714,4,3,1,80,0,1
118416,-125,4,3,1,80,0,1
118559,-10,4,3,1,80,0,1
118583,-20,4,3,1,80,0,1
118584,-10,4,3,1,80,0,1
118585,-41.6666666666667,4,3,1,80,0,1
118586,-833.333333333333,4,3,1,80,0,1
118609,-10,4,3,1,80,0,1
118610,-41.6666666666667,4,3,1,80,0,1
118611,-833.333333333333,4,3,1,80,0,1
118634,-10,4,3,1,80,0,1
118635,-41.6666666666667,4,3,1,80,0,1
118636,-833.333333333333,4,3,1,80,0,1
118659,-10,4,3,1,80,0,1
118660,-41.6666666666667,4,3,1,80,0,1
118661,-833.333333333333,4,3,1,80,0,1
118684,-10,4,3,1,80,0,1
118685,-41.6666666666667,4,3,1,80,0,1
118686,-833.333333333333,4,3,1,80,0,1
118709,-10,4,3,1,80,0,1
118710,-41.6666666666667,4,3,1,80,0,1
118711,-833.333333333333,4,3,1,80,0,1
118734,-10,4,3,1,80,0,1
118735,-41.6666666666667,4,3,1,80,0,1
118736,-833.333333333333,4,3,1,80,0,1
118759,-10,4,3,1,80,0,1
118760,-41.6666666666667,4,3,1,80,0,1
118761,-833.333333333333,4,3,1,80,0,1
118784,-10,4,3,1,80,0,1
118785,-41.6666666666667,4,3,1,80,0,1
118786,-833.333333333333,4,3,1,80,0,1
118809,-10,4,3,1,80,0,1
118810,-41.6666666666667,4,3,1,80,0,1
118811,-833.333333333333,4,3,1,80,0,1
118834,-10,4,3,1,80,0,1
118835,-41.6666666666667,4,3,1,80,0,1
118836,-833.333333333333,4,3,1,80,0,1
118859,-10,4,3,1,80,0,1
118865,-23.8095238095238,4,3,1,80,0,1
118866,-166.666666666667,4,3,1,80,0,1
119009,-10,4,3,1,80,0,1
119015,-23.8095238095238,4,3,1,80,0,1
119016,-166.666666666667,4,3,1,80,0,1
119159,-10,4,3,1,80,0,1
119165,-23.8095238095238,4,3,1,80,0,1
119166,-166.666666666667,4,3,1,80,0,1
119309,-100,4,3,1,80,0,1
119459,-16.6666666666667,4,3,1,80,0,1
119465,-71.4285714285714,4,3,1,80,0,1
119466,-125,4,3,1,80,0,1
119609,-95.2380952380952,4,3,1,80,0,1
119646,-90.9090909090909,4,3,1,80,0,1
119684,-86.9565217391304,4,3,1,80,0,1
119721,-142.857142857143,4,3,1,80,0,1
119871,-52.6315789473684,4,3,1,80,0,1
119909,-142.857142857143,4,3,1,80,0,1
119946,-111.111111111111,4,3,1,80,0,1
119984,-90.9090909090909,4,3,1,80,0,1
120021,-76.9230769230769,4,3,1,80,0,1
120059,-100,4,3,1,80,0,1
120209,-10,4,3,1,80,0,1
120210,-62.5,4,3,1,80,0,1
120211,-125,4,3,1,80,0,1
120259,-10,4,3,1,80,0,1
120261,-55.5555555555556,4,3,1,80,0,1
120262,-166.666666666667,4,3,1,80,0,1
120309,-10,4,3,1,80,0,1
120312,-62.5,4,3,1,80,0,1
120313,-250.000000000001,4,3,1,80,0,1
120359,-100,4,3,1,80,0,1
120409,-100,4,3,1,80,0,1
120659,-16.6666666666667,4,3,1,80,0,1
120665,-71.4285714285714,4,3,1,80,0,1
120666,-125,4,3,1,80,0,1
120809,-16.6666666666667,4,3,1,80,0,1
120815,-71.4285714285714,4,3,1,80,0,1
120816,-125,4,3,1,80,0,1
120959,-10,4,3,1,80,0,1
120969,-10.6382978723404,4,3,1,80,0,1
120970,-250,4,3,1,80,0,1
121009,-200,4,3,1,80,0,1
121059,-166.666666666667,4,3,1,80,0,1
121109,-142.857142857143,4,3,1,80,0,1
121159,-125,4,3,1,80,0,1
121209,-111.111111111111,4,3,1,80,0,1
121259,-10,4,3,1,80,0,1
121265,-23.8095238095238,4,3,1,80,0,1
121266,-166.666666666667,4,3,1,80,0,1
121409,-10,4,3,1,80,0,1
121415,-23.8095238095238,4,3,1,80,0,1
121416,-166.666666666667,4,3,1,80,0,1
121559,-10,4,3,1,80,0,1
121565,-23.8095238095238,4,3,1,80,0,1
121566,-166.666666666667,4,3,1,80,0,1
121709,-10,4,3,1,80,0,1
121715,-23.8095238095238,4,3,1,80,0,1
121716,-166.666666666667,4,3,1,80,0,1
121859,-16.6666666666667,4,3,1,80,0,1
121865,-71.4285714285714,4,3,1,80,0,1
121866,-125,4,3,1,80,0,1
122009,-16.6666666666667,4,3,1,80,0,1
122015,-71.4285714285714,4,3,1,80,0,1
122016,-125,4,3,1,80,0,1
122159,-10,4,3,1,80,0,1
122169,-10.6382978723404,4,3,1,80,0,1
122170,-250,4,3,1,80,0,1
122209,-200,4,3,1,80,0,1
122259,-166.666666666667,4,3,1,80,0,1
122309,-142.857142857143,4,3,1,80,0,1
122359,-125,4,3,1,80,0,1
122409,-111.111111111111,4,3,1,80,0,1
122459,-10,4,3,1,80,0,1
122465,-23.8095238095238,4,3,1,80,0,1
122466,-166.666666666667,4,3,1,80,0,1
122609,-10,4,3,1,80,0,1
122615,-23.8095238095238,4,3,1,80,0,1
122616,-166.666666666667,4,3,1,80,0,1
122759,-10,4,3,1,80,0,1
122765,-23.8095238095238,4,3,1,80,0,1
122766,-166.666666666667,4,3,1,80,0,1
122909,-10,4,3,1,80,0,1
122915,-23.8095238095238,4,3,1,80,0,1
122916,-166.666666666667,4,3,1,80,0,1
123059,-16.6666666666667,4,3,1,80,0,1
123065,-71.4285714285714,4,3,1,80,0,1
123066,-125,4,3,1,80,0,1
123209,-16.6666666666667,4,3,1,80,0,1
123215,-71.4285714285714,4,3,1,80,0,1
123216,-125,4,3,1,80,0,1
123359,-10,4,3,1,80,0,1
123369,-10.6382978723404,4,3,1,80,0,1
123370,-250,4,3,1,80,0,1
123409,-200,4,3,1,80,0,1
123459,-166.666666666667,4,3,1,80,0,1
123509,-142.857142857143,4,3,1,80,0,1
123559,-125,4,3,1,80,0,1
123609,-111.111111111111,4,3,1,80,0,1
123659,-10,4,3,1,80,0,1
123665,-23.8095238095238,4,3,1,80,0,1
123666,-166.666666666667,4,3,1,80,0,1
123809,-10,4,3,1,80,0,1
123815,-23.8095238095238,4,3,1,80,0,1
123816,-166.666666666667,4,3,1,80,0,1
123959,-10,4,3,1,80,0,1
123961,-29.4117647058824,4,3,1,80,0,1
123962,-250,4,3,1,80,0,1
123996,-10,4,3,1,80,0,1
123998,-29.4117647058824,4,3,1,80,0,1
123999,-250,4,3,1,80,0,1
124034,-10,4,3,1,80,0,1
124036,-29.4117647058824,4,3,1,80,0,1
124037,-250,4,3,1,80,0,1
124071,-10,4,3,1,80,0,1
124073,-29.4117647058824,4,3,1,80,0,1
124074,-250,4,3,1,80,0,1
124109,-100,4,3,1,80,0,1
124259,-16.6666666666667,4,3,1,80,0,1
124265,-71.4285714285714,4,3,1,80,0,1
124266,-125,4,3,1,80,0,1
124409,-95.2380952380952,4,3,1,80,0,1
124446,-90.9090909090909,4,3,1,80,0,1
124484,-86.9565217391304,4,3,1,80,0,1
124521,-142.857142857143,4,3,1,80,0,1
124671,-52.6315789473684,4,3,1,80,0,1
124709,-142.857142857143,4,3,1,80,0,1
124746,-111.111111111111,4,3,1,80,0,1
124784,-90.9090909090909,4,3,1,80,0,1
124821,-76.9230769230769,4,3,1,80,0,1
124896,-142.857142857143,4,3,1,80,0,1
124934,-76.9230769230769,4,3,1,80,0,1
124953,-142.857142857143,4,3,1,80,0,1
124971,-76.9230769230769,4,3,1,80,0,1
124990,-142.857142857143,4,3,1,80,0,1
125009,-76.9230769230769,4,3,1,80,0,1
125046,-142.857142857143,4,3,1,80,0,1
125084,-76.9230769230769,4,3,1,80,0,1
125103,-142.857142857143,4,3,1,80,0,1
125121,-76.9230769230769,4,3,1,80,0,1
125140,-142.857142857143,4,3,1,80,0,1
125159,-76.9230769230769,4,3,1,80,0,1
125196,-142.857142857143,4,3,1,80,0,1
125234,-76.9230769230769,4,3,1,80,0,1
125253,-142.857142857143,4,3,1,80,0,1
125271,-76.9230769230769,4,3,1,80,0,1
125290,-142.857142857143,4,3,1,80,0,1
125309,-76.9230769230769,4,3,1,80,0,1
125346,-142.857142857143,4,3,1,80,0,1
125384,-76.9230769230769,4,3,1,80,0,1
125403,-142.857142857143,4,3,1,80,0,1
125421,-76.9230769230769,4,3,1,80,0,1
125440,-142.857142857143,4,3,1,80,0,1
125459,-76.9230769230769,4,3,1,80,0,1
125477,-111.111111111111,4,3,1,80,0,1
125534,-76.9230769230769,4,3,1,80,0,1
125552,-111.111111111111,4,3,1,80,0,1
125609,-62.5,4,3,1,80,0,1
125627,-125,4,3,1,80,0,1
125684,-62.5,4,3,1,80,0,1
125702,-125,4,3,1,80,0,1
125759,-52.6315789473684,4,3,1,80,0,1
125777,-142.857142857143,4,3,1,80,0,1
125859,-52.6315789473684,4,3,1,80,0,1
125877,-142.857142857143,4,3,1,80,0,1
125959,-52.6315789473684,4,3,1,80,0,1
125977,-142.857142857143,4,3,1,80,0,1
126059,-16.6666666666667,4,3,1,80,0,1
126065,-71.4285714285714,4,3,1,80,0,1
126066,-125,4,3,1,80,0,1
126209,-16.6666666666667,4,3,1,80,0,1
126215,-71.4285714285714,4,3,1,80,0,1
126216,-125,4,3,1,80,0,1
126359,-117.647058823529,4,3,1,80,0,1
126396,-105.263157894737,4,3,1,80,0,1
126434,-95.2380952380952,4,3,1,80,0,1
126471,-86.9565217391304,4,3,1,80,0,1
126509,-16.6666666666667,4,3,1,80,0,1
126515,-71.4285714285714,4,3,1,80,0,1
126516,-125,4,3,1,80,0,1
126659,-10,4,3,1,80,0,1
126671,-12.8205128205128,4,3,1,80,0,1
126672,-166.666666666667,4,3,1,80,0,1
126996,-142.857142857143,4,3,1,80,0,1
127034,-125,4,3,1,80,0,1
127071,-111.111111111111,4,3,1,80,0,1
127109,-100,4,3,1,80,0,1
127259,-16.6666666666667,4,3,1,80,0,1
127265,-71.4285714285714,4,3,1,80,0,1
127266,-125,4,3,1,80,0,1
127409,-16.6666666666667,4,3,1,80,0,1
127415,-71.4285714285714,4,3,1,80,0,1
127416,-125,4,3,1,80,0,1
127559,-117.647058823529,4,3,1,80,0,1
127596,-105.263157894737,4,3,1,80,0,1
127634,-95.2380952380952,4,3,1,80,0,1
127671,-86.9565217391304,4,3,1,80,0,1
127709,-16.6666666666667,4,3,1,80,0,1
127715,-71.4285714285714,4,3,1,80,0,1
127716,-125,4,3,1,80,0,1
127859,-10,4,3,1,80,0,1
127865,-23.8095238095238,4,3,1,80,0,1
127866,-166.666666666667,4,3,1,80,0,1
128009,-16.6666666666667,4,3,1,80,0,1
128015,-71.4285714285714,4,3,1,80,0,1
128016,-125,4,3,1,80,0,1
128159,-16.6666666666667,4,3,1,80,0,1
128165,-71.4285714285714,4,3,1,80,0,1
128166,-125,4,3,1,80,0,1
128309,-117.647058823529,4,3,1,80,0,1
128346,-105.263157894737,4,3,1,80,0,1
128384,-95.2380952380952,4,3,1,80,0,1
128421,-86.9565217391304,4,3,1,80,0,1
128459,-16.6666666666667,4,3,1,80,0,1
128465,-71.4285714285714,4,3,1,80,0,1
128466,-125,4,3,1,80,0,1
128609,-111.111111111111,4,3,1,80,0,1
128646,-90.9090909090909,4,3,1,80,0,1
128684,-76.9230769230769,4,3,1,80,0,1
128721,-142.857142857143,4,3,1,80,0,1
128834,-125,4,3,1,80,0,1
128871,-111.111111111111,4,3,1,80,0,1
128909,-16.6666666666667,4,3,1,80,0,1
128915,-71.4285714285714,4,3,1,80,0,1
128916,-125,4,3,1,80,0,1
129059,-10,4,3,1,80,0,1
129071,-12.8205128205128,4,3,1,80,0,1
129072,-166.666666666667,4,3,1,80,0,1
129209,-142.857142857143,4,3,1,80,0,1
129246,-125,4,3,1,80,0,1
129284,-111.111111111111,4,3,1,80,0,1
129321,-100,4,3,1,80,0,1
129659,-16.6666666666667,4,3,1,80,0,0
129665,-71.4285714285714,4,3,1,80,0,0
129666,-125,4,3,1,80,0,0
129696,-111.111111111111,4,3,1,80,0,0
129734,-100,4,3,1,80,0,0
130259,-16.6666666666667,4,3,1,80,0,0
130270,-83.3333333333333,4,3,1,80,0,0
130271,-166.666666666667,4,3,1,80,0,0
130409,-16.6666666666667,4,3,1,80,0,0
130415,-71.4285714285714,4,3,1,80,0,0
130416,-125,4,3,1,80,0,0
130559,-10,4,3,1,80,0,0
130577,-13.1578947368421,4,3,1,80,0,0
130578,-250.000000000001,4,3,1,80,0,0
130859,-10,4,3,1,80,0,0
130865,-23.8095238095238,4,3,1,80,0,0
130866,-166.666666666667,4,3,1,80,0,0
131009,-10,4,3,1,80,0,0
131015,-23.8095238095238,4,3,1,80,0,0
131016,-166.666666666667,4,3,1,80,0,0
131046,-142.857142857143,4,3,1,80,0,0
131084,-125,4,3,1,80,0,0
131121,-111.111111111111,4,3,1,80,0,0
131159,-100,4,3,1,80,0,0
131459,-16.6666666666667,4,3,1,80,0,0
131470,-83.3333333333333,4,3,1,80,0,0
131471,-166.666666666667,4,3,1,80,0,0
131609,-16.6666666666667,4,3,1,80,0,0
131615,-71.4285714285714,4,3,1,80,0,0
131616,-125,4,3,1,80,0,0
131759,-10,4,3,1,80,0,0
131769,-10.6382978723404,4,3,1,80,0,0
131770,-250,4,3,1,80,0,0
131809,-200,4,3,1,80,0,0
131859,-166.666666666667,4,3,1,80,0,0
131909,-142.857142857143,4,3,1,80,0,0
131959,-125,4,3,1,80,0,0
132009,-111.111111111111,4,3,1,80,0,0
132059,-10,4,3,1,80,0,0
132065,-23.8095238095238,4,3,1,80,0,0
132066,-166.666666666667,4,3,1,80,0,0
132209,-10,4,3,1,80,0,0
132215,-23.8095238095238,4,3,1,80,0,0
132216,-166.666666666667,4,3,1,80,0,0
132246,-142.857142857143,4,3,1,80,0,0
132284,-125,4,3,1,80,0,0
132321,-111.111111111111,4,3,1,80,0,0
132359,-100,4,3,1,80,0,0
132659,-16.6666666666667,4,3,1,80,0,0
132670,-83.3333333333333,4,3,1,80,0,0
132671,-166.666666666667,4,3,1,80,0,0
132809,-16.6666666666667,4,3,1,80,0,0
132815,-71.4285714285714,4,3,1,80,0,0
132816,-125,4,3,1,80,0,0
132959,-10,4,3,1,80,0,0
132969,-10.6382978723404,4,3,1,80,0,0
132970,-250,4,3,1,80,0,0
133009,-200,4,3,1,80,0,0
133059,-166.666666666667,4,3,1,80,0,0
133109,-142.857142857143,4,3,1,80,0,0
133159,-125,4,3,1,80,0,0
133209,-111.111111111111,4,3,1,80,0,0
133259,-62.5,4,3,1,80,0,0
133296,-100,4,3,1,80,0,0
133409,-111.111111111111,4,3,1,80,0,0
133446,-117.647058823529,4,3,1,80,0,0
133484,-125,4,3,1,80,0,0
133521,-111.111111111111,4,3,1,80,0,0
133559,-100,4,3,1,80,0,0
133596,-95.2380952380952,4,3,1,80,0,0
133634,-90.9090909090909,4,3,1,80,0,0
133671,-86.9565217391304,4,3,1,80,0,0
133934,-90.9090909090909,4,3,1,80,0,0
134009,-95.2380952380952,4,3,1,80,0,0
134084,-100,4,3,1,80,0,0
134159,-111.111111111111,4,3,1,80,0,0
134234,-125,4,3,1,80,0,0
134309,-142.857142857143,4,3,1,80,0,0
134384,-166.666666666667,4,3,1,80,0,0

[HitObjects]
320,192,19259,5,0,0:0:0:0:
64,192,19259,128,0,21659:0:0:0:0:
448,192,19709,1,0,0:0:0:0:
192,192,19859,1,8,0:0:0:0:
320,192,20459,1,0,0:0:0:0:
192,192,20909,1,0,0:0:0:0:
448,192,21059,1,8,0:0:0:0:
192,192,21659,1,0,0:0:0:0:
320,192,21659,128,0,24059:0:0:0:0:
64,192,22109,1,0,0:0:0:0:
448,192,22259,1,8,0:0:0:0:
192,192,22859,1,0,0:0:0:0:
448,192,23309,1,0,0:0:0:0:
64,192,23459,1,8,0:0:0:0:
192,192,23759,1,0,0:0:0:0:
192,192,24059,128,0,26459:0:0:0:0:
448,192,24059,1,0,0:0:0:0:
64,192,24509,1,0,0:0:0:0:
448,192,24659,1,8,0:0:0:0:
320,192,25146,1,0,0:0:0:0:
64,192,25259,1,0,0:0:0:0:
448,192,25559,1,0,0:0:0:0:
64,192,25709,1,0,0:0:0:0:
448,192,25859,1,8,0:0:0:0:
448,192,26459,128,0,28859:0:0:0:0:
320,192,26459,1,0,0:0:0:0:
64,192,26909,1,0,0:0:0:0:
320,192,27059,1,8,0:0:0:0:
64,192,27359,128,0,27959:0:0:0:0:
320,192,27659,1,0,0:0:0:0:
192,192,27959,128,0,28109:0:0:0:0:
320,192,28109,1,0,0:0:0:0:
192,192,28259,128,8,28559:0:0:0:0:
320,192,28559,128,8,28859:0:0:0:0:
64,192,28859,1,0,0:0:0:0:
192,192,29159,1,0,0:0:0:0:
320,192,29309,1,0,0:0:0:0:
448,192,29459,1,8,0:0:0:0:
192,192,29609,1,0,0:0:0:0:
64,192,29759,1,0,0:0:0:0:
320,192,29909,1,0,0:0:0:0:
64,192,30059,1,0,0:0:0:0:
448,192,30359,1,0,0:0:0:0:
192,192,30509,1,0,0:0:0:0:
320,192,30659,1,8,0:0:0:0:
192,192,30959,128,0,31259:0:0:0:0:
64,192,31259,1,0,0:0:0:0:
448,192,31259,1,0,0:0:0:0:
192,192,31559,1,0,0:0:0:0:
320,192,31709,1,0,0:0:0:0:
64,192,31859,1,8,0:0:0:0:
192,192,32009,1,0,0:0:0:0:
448,192,32159,1,0,0:0:0:0:
64,192,32309,1,0,0:0:0:0:
320,192,32459,1,0,0:0:0:0:
448,192,32759,1,0,0:0:0:0:
64,192,32909,1,0,0:0:0:0:
192,192,33059,1,8,0:0:0:0:
320,192,33359,128,0,33659:0:0:0:0:
64,192,33659,1,0,0:0:0:0:
448,192,33659,1,0,0:0:0:0:
320,192,34109,1,0,0:0:0:0:
64,192,34259,1,0,0:0:0:0:
448,192,34259,1,8,0:0:0:0:
192,192,34709,1,0,0:0:0:0:
64,192,34859,1,0,0:0:0:0:
320,192,34859,1,0,0:0:0:0:
448,192,35309,1,0,0:0:0:0:
320,192,35459,1,0,0:0:0:0:
192,192,35459,1,8,0:0:0:0:
64,192,35909,1,0,0:0:0:0:
320,192,36059,1,0,0:0:0:0:
448,192,36059,1,0,0:0:0:0:
192,192,36359,1,8,0:0:0:0:
64,192,36359,1,0,0:0:0:0:
320,192,36659,1,0,0:0:0:0:
448,192,36659,1,0,0:0:0:0:
192,192,36959,1,8,0:0:0:0:
64,192,36959,1,0,0:0:0:0:
64,192,37259,1,0,0:0:0:0:
448,192,37259,1,0,0:0:0:0:
320,192,37259,1,0,0:0:0:0:
320,192,37709,1,0,0:0:0:0:
448,192,37859,1,0,0:0:0:0:
192,192,37859,1,8,0:0:0:0:
64,192,37859,1,0,0:0:0:0:
320,192,38009,1,0,0:0:0:0:
448,192,38009,1,0,0:0:0:0:
192,192,38159,1,0,0:0:0:0:
64,192,38159,1,0,0:0:0:0:
64,192,38309,1,8,0:0:0:0:
320,192,38309,1,0,0:0:0:0:
448,192,38309,1,0,0:0:0:0:
448,192,38459,1,0,0:0:0:0:
192,192,38459,1,0,0:0:0:0:
64,192,38534,1,0,0:0:0:0:
320,192,38609,1,0,0:0:0:0:
448,192,38684,1,0,0:0:0:0:
64,192,38759,1,0,0:0:0:0:
192,192,38809,1,0,0:0:0:0:
448,192,38859,1,0,0:0:0:0:
320,192,38909,128,0,39059:0:0:0:0:
64,192,39059,1,8,0:0:0:0:
448,192,39059,1,0,0:0:0:0:
320,192,39209,1,0,0:0:0:0:
192,192,39209,128,0,39659:0:0:0:0:
448,192,39659,1,0,0:0:0:0:
64,192,39659,1,0,0:0:0:0:
320,192,39809,1,0,0:0:0:0:
192,192,39959,1,4,0:0:0:0:
448,192,39959,1,0,0:0:0:0:
64,192,39959,1,0,0:0:0:0:
320,192,40109,1,0,0:0:0:0:
192,192,40259,1,8,0:0:0:0:
64,192,40259,1,0,0:0:0:0:
320,192,40559,1,8,0:0:0:0:
448,192,40559,1,0,0:0:0:0:
64,192,40859,1,0,0:0:0:0:
448,192,40859,1,0,0:0:0:0:
320,192,40934,1,0,0:0:0:0:
192,192,41009,1,0,0:0:0:0:
448,192,41084,1,0,0:0:0:0:
64,192,41159,1,0,0:0:0:0:
192,192,41209,1,0,0:0:0:0:
448,192,41259,1,0,0:0:0:0:
320,192,41309,128,0,41459:0:0:0:0:
192,192,41459,1,8,0:0:0:0:
64,192,41459,1,0,0:0:0:0:
320,192,41609,5,0,0:0:0:0:
448,192,41609,1,0,0:0:0:0:
192,192,41684,1,0,0:0:0:0:
64,192,41759,1,0,0:0:0:0:
448,192,41834,1,0,0:0:0:0:
320,192,41909,1,0,0:0:0:0:
192,192,41909,1,0,0:0:0:0:
64,192,42059,1,0,0:0:0:0:
448,192,42059,1,0,0:0:0:0:
192,192,42209,128,8,42359:0:0:0:0:
448,192,42359,1,0,0:0:0:0:
64,192,42359,1,4,0:0:0:0:
320,192,42509,1,0,0:0:0:0:
192,192,42584,1,0,0:0:0:0:
64,192,42659,1,0,0:0:0:0:
448,192,42659,1,8,0:0:0:0:
320,192,42809,128,0,42959:0:0:0:0:
64,192,42959,1,0,0:0:0:0:
64,192,43259,1,0,0:0:0:0:
448,192,43259,1,0,0:0:0:0:
192,192,43334,1,0,0:0:0:0:
320,192,43409,1,0,0:0:0:0:
64,192,43484,1,0,0:0:0:0:
192,192,43559,1,0,0:0:0:0:
448,192,43609,1,0,0:0:0:0:
320,192,43659,1,0,0:0:0:0:
64,192,43709,128,0,43859:0:0:0:0:
192,192,43859,1,0,0:0:0:0:
448,192,43859,1,8,0:0:0:0:
320,192,44009,1,0,0:0:0:0:
64,192,44009,1,0,0:0:0:0:
448,192,44159,128,0,44459:0:0:0:0:
64,192,44309,128,0,44459:0:0:0:0:
192,192,44609,1,0,0:0:0:0:
64,192,44609,1,0,0:0:0:0:
320,192,44684,1,0,0:0:0:0:
448,192,44684,1,0,0:0:0:0:
192,192,44759,1,0,0:0:0:0:
64,192,44759,1,0,0:0:0:0:
320,192,44909,1,0,0:0:0:0:
448,192,44909,1,0,0:0:0:0:
192,192,45059,1,12,0:0:0:0:
64,192,45059,1,0,0:0:0:0:
448,192,45059,1,0,0:0:0:0:
320,192,45209,128,0,45359:0:0:0:0:
192,192,45359,128,0,45509:0:0:0:0:
320,192,45509,1,0,0:0:0:0:
64,192,45659,1,0,0:0:0:0:
448,192,45659,1,0,0:0:0:0:
192,192,45734,1,0,0:0:0:0:
320,192,45809,1,0,0:0:0:0:
448,192,45884,1,0,0:0:0:0:
64,192,45959,128,4,46109:0:0:0:0:
320,192,46109,5,0,0:0:0:0:
448,192,46109,1,0,0:0:0:0:
192,192,46259,1,8,0:0:0:0:
64,192,46259,1,0,0:0:0:0:
448,192,46409,1,0,0:0:0:0:
320,192,46559,128,0,46859:0:0:0:0:
64,192,46709,128,0,46859:0:0:0:0:
192,192,47009,128,0,47159:0:0:0:0:
448,192,47159,1,4,0:0:0:0:
64,192,47159,1,0,0:0:0:0:
320,192,47309,128,0,47459:0:0:0:0:
64,192,47459,1,8,0:0:0:0:
448,192,47459,1,0,0:0:0:0:
192,192,47609,1,4,0:0:0:0:
320,192,47609,1,0,0:0:0:0:
448,192,47759,128,8,47909:0:0:0:0:
64,192,47909,128,8,48059:0:0:0:0:
192,192,48059,1,0,0:0:0:0:
448,192,48059,1,0,0:0:0:0:
320,192,48134,1,0,0:0:0:0:
64,192,48209,1,0,0:0:0:0:
192,192,48284,1,0,0:0:0:0:
448,192,48359,1,0,0:0:0:0:
320,192,48409,1,0,0:0:0:0:
64,192,48459,1,0,0:0:0:0:
192,192,48509,128,0,48659:0:0:0:0:
448,192,48659,1,0,0:0:0:0:
64,192,48659,1,8,0:0:0:0:
320,192,48809,128,0,49259:0:0:0:0:
192,192,48809,1,0,0:0:0:0:
64,192,49259,1,0,0:0:0:0:
448,192,49259,1,0,0:0:0:0:
192,192,49409,1,0,0:0:0:0:
320,192,49559,1,4,0:0:0:0:
64,192,49559,1,0,0:0:0:0:
448,192,49559,1,0,0:0:0:0:
192,192,49709,1,0,0:0:0:0:
448,192,49859,1,8,0:0:0:0:
320,192,49859,1,0,0:0:0:0:
64,192,50159,1,0,0:0:0:0:
192,192,50159,1,8,0:0:0:0:
448,192,50459,1,0,0:0:0:0:
64,192,50459,1,0,0:0:0:0:
192,192,50534,1,0,0:0:0:0:
320,192,50609,1,0,0:0:0:0:
64,192,50684,1,0,0:0:0:0:
448,192,50759,1,0,0:0:0:0:
320,192,50809,1,0,0:0:0:0:
192,192,50859,1,0,0:0:0:0:
64,192,50909,128,0,51059:0:0:0:0:
320,192,51059,1,8,0:0:0:0:
448,192,51059,1,0,0:0:0:0:
192,192,51209,1,0,0:0:0:0:
64,192,51209,1,0,0:0:0:0:
320,192,51284,1,0,0:0:0:0:
448,192,51359,1,0,0:0:0:0:
64,192,51434,1,0,0:0:0:0:
192,192,51509,1,0,0:0:0:0:
320,192,51509,1,0,0:0:0:0:
448,192,51659,1,0,0:0:0:0:
64,192,51659,1,0,0:0:0:0:
320,192,51809,128,8,51959:0:0:0:0:
448,192,51959,1,0,0:0:0:0:
192,192,51959,1,4,0:0:0:0:
64,192,51959,1,0,0:0:0:0:
192,192,52109,1,0,0:0:0:0:
320,192,52184,1,0,0:0:0:0:
64,192,52259,1,0,0:0:0:0:
448,192,52259,1,8,0:0:0:0:
192,192,52409,128,0,52559:0:0:0:0:
448,192,52559,1,0,0:0:0:0:
320,192,52559,1,0,0:0:0:0:
448,192,52859,1,0,0:0:0:0:
64,192,52859,1,0,0:0:0:0:
320,192,52934,1,0,0:0:0:0:
192,192,53009,1,0,0:0:0:0:
448,192,53084,1,0,0:0:0:0:
320,192,53159,1,0,0:0:0:0:
64,192,53209,1,0,0:0:0:0:
192,192,53259,1,0,0:0:0:0:
448,192,53309,128,0,53459:0:0:0:0:
64,192,53459,1,0,0:0:0:0:
320,192,53459,1,8,0:0:0:0:
192,192,53609,1,0,0:0:0:0:
448,192,53609,1,0,0:0:0:0:
64,192,53759,128,0,54059:0:0:0:0:
448,192,53909,128,0,54059:0:0:0:0:
320,192,54209,1,0,0:0:0:0:
448,192,54209,1,0,0:0:0:0:
192,192,54284,1,0,0:0:0:0:
64,192,54284,1,0,0:0:0:0:
320,192,54359,1,0,0:0:0:0:
448,192,54359,1,0,0:0:0:0:
192,192,54509,1,0,0:0:0:0:
64,192,54509,1,0,0:0:0:0:
320,192,54659,1,12,0:0:0:0:
448,192,54659,1,0,0:0:0:0:
64,192,54659,1,0,0:0:0:0:
192,192,54809,128,0,54959:0:0:0:0:
320,192,54959,128,0,55109:0:0:0:0:
192,192,55109,1,0,0:0:0:0:
64,192,55259,1,0,0:0:0:0:
448,192,55259,1,0,0:0:0:0:
320,192,55334,1,0,0:0:0:0:
192,192,55409,1,0,0:0:0:0:
64,192,55484,1,0,0:0:0:0:
448,192,55559,128,4,55709:0:0:0:0:
64,192,55709,1,0,0:0:0:0:
192,192,55709,1,0,0:0:0:0:
64,192,55859,1,8,0:0:0:0:
320,192,55859,1,0,0:0:0:0:
448,192,55859,1,0,0:0:0:0:
192,192,56009,1,0,0:0:0:0:
320,192,56159,1,0,0:0:0:0:
448,192,56309,1,8,0:0:0:0:
192,192,56309,1,0,0:0:0:0:
64,192,56309,1,0,0:0:0:0:
64,192,56609,128,0,56909:0:0:0:0:
448,192,56609,128,4,56909:0:0:0:0:
320,192,56909,1,0,0:0:0:0:
64,192,57059,1,0,0:0:0:0:
192,192,57059,1,8,0:0:0:0:
448,192,57059,1,0,0:0:0:0:
320,192,57209,1,0,0:0:0:0:
448,192,57209,1,0,0:0:0:0:
192,192,57359,1,0,0:0:0:0:
64,192,57359,1,0,0:0:0:0:
320,192,57509,128,8,57659:0:0:0:0:
448,192,57659,1,0,0:0:0:0:
64,192,57659,1,0,0:0:0:0:
192,192,57734,1,0,0:0:0:0:
320,192,57809,1,0,0:0:0:0:
64,192,57884,1,0,0:0:0:0:
192,192,57959,1,0,0:0:0:0:
448,192,58009,1,0,0:0:0:0:
320,192,58059,1,0,0:0:0:0:
192,192,58109,128,0,58259:0:0:0:0:
448,192,58259,1,0,0:0:0:0:
64,192,58259,1,8,0:0:0:0:
192,192,58409,128,0,58859:0:0:0:0:
320,192,58409,1,0,0:0:0:0:
448,192,58859,1,0,0:0:0:0:
64,192,58859,1,0,0:0:0:0:
320,192,59009,1,0,0:0:0:0:
192,192,59159,1,4,0:0:0:0:
448,192,59159,1,0,0:0:0:0:
64,192,59159,1,0,0:0:0:0:
320,192,59309,1,0,0:0:0:0:
192,192,59459,1,0,0:0:0:0:
64,192,59459,1,8,0:0:0:0:
448,192,59759,1,0,0:0:0:0:
320,192,59759,1,8,0:0:0:0:
64,192,60059,1,0,0:0:0:0:
448,192,60059,1,0,0:0:0:0:
320,192,60134,1,0,0:0:0:0:
192,192,60209,1,0,0:0:0:0:
448,192,60284,1,0,0:0:0:0:
64,192,60359,1,0,0:0:0:0:
192,192,60409,1,0,0:0:0:0:
320,192,60459,1,0,0:0:0:0:
448,192,60509,128,0,60659:0:0:0:0:
192,192,60659,1,8,0:0:0:0:
64,192,60659,1,0,0:0:0:0:
320,192,60809,1,0,0:0:0:0:
448,192,60809,1,0,0:0:0:0:
192,192,60884,1,0,0:0:0:0:
64,192,60959,1,0,0:0:0:0:
448,192,61034,1,0,0:0:0:0:
320,192,61109,1,0,0:0:0:0:
192,192,61109,1,0,0:0:0:0:
64,192,61259,1,0,0:0:0:0:
448,192,61259,1,0,0:0:0:0:
192,192,61409,128,8,61559:0:0:0:0:
64,192,61559,1,0,0:0:0:0:
320,192,61559,1,4,0:0:0:0:
448,192,61559,1,0,0:0:0:0:
320,192,61709,1,0,0:0:0:0:
192,192,61784,1,0,0:0:0:0:
64,192,61859,1,8,0:0:0:0:
448,192,61859,1,0,0:0:0:0:
320,192,62009,128,0,62159:0:0:0:0:
64,192,62159,1,0,0:0:0:0:
64,192,62459,1,0,0:0:0:0:
448,192,62459,1,0,0:0:0:0:
192,192,62534,1,0,0:0:0:0:
320,192,62609,1,0,0:0:0:0:
64,192,62684,1,0,0:0:0:0:
448,192,62759,1,0,0:0:0:0:
320,192,62809,1,0,0:0:0:0:
192,192,62859,1,0,0:0:0:0:
64,192,62909,128,0,63059:0:0:0:0:
192,192,63059,1,0,0:0:0:0:
448,192,63059,1,8,0:0:0:0:
64,192,63209,1,0,0:0:0:0:
320,192,63209,1,0,0:0:0:0:
448,192,63359,128,0,63659:0:0:0:0:
64,192,63509,128,0,63659:0:0:0:0:
192,192,63809,1,0,0:0:0:0:
64,192,63809,1,0,0:0:0:0:
320,192,63884,1,0,0:0:0:0:
448,192,63884,1,0,0:0:0:0:
192,192,63959,1,0,0:0:0:0:
64,192,63959,1,0,0:0:0:0:
320,192,64109,1,0,0:0:0:0:
448,192,64109,1,0,0:0:0:0:
192,192,64259,1,12,0:0:0:0:
64,192,64259,1,0,0:0:0:0:
448,192,64259,1,0,0:0:0:0:
320,192,64409,128,0,64559:0:0:0:0:
192,192,64559,128,0,64709:0:0:0:0:
320,192,64709,1,0,0:0:0:0:
64,192,64859,1,0,0:0:0:0:
448,192,64859,1,0,0:0:0:0:
192,192,64934,1,0,0:0:0:0:
320,192,65009,1,0,0:0:0:0:
448,192,65084,1,0,0:0:0:0:
64,192,65159,128,4,65309:0:0:0:0:
320,192,65309,1,0,0:0:0:0:
448,192,65309,1,0,0:0:0:0:
192,192,65459,1,8,0:0:0:0:
64,192,65459,1,0,0:0:0:0:
448,192,65609,1,0,0:0:0:0:
320,192,65759,128,0,66059:0:0:0:0:
64,192,65909,128,0,66059:0:0:0:0:
192,192,66209,128,0,66359:0:0:0:0:
64,192,66359,1,4,0:0:0:0:
448,192,66359,1,0,0:0:0:0:
320,192,66509,128,0,66659:0:0:0:0:
448,192,66659,1,8,0:0:0:0:
64,192,66659,1,0,0:0:0:0:
192,192,66809,1,0,0:0:0:0:
320,192,66809,1,4,0:0:0:0:
448,192,66959,128,8,67109:0:0:0:0:
64,192,67109,128,8,67259:0:0:0:0:
448,192,67259,1,0,0:0:0:0:
192,192,67259,1,0,0:0:0:0:
320,192,67334,1,0,0:0:0:0:
192,192,67409,1,0,0:0:0:0:
448,192,67484,1,0,0:0:0:0:
320,192,67559,1,0,0:0:0:0:
64,192,67609,1,0,0:0:0:0:
192,192,67659,1,0,0:0:0:0:
320,192,67709,128,0,67859:0:0:0:0:
64,192,67859,1,0,0:0:0:0:
448,192,67859,1,8,0:0:0:0:
320,192,68009,128,0,68459:0:0:0:0:
192,192,68009,1,0,0:0:0:0:
64,192,68459,1,0,0:0:0:0:
448,192,68459,1,0,0:0:0:0:
192,192,68609,1,0,0:0:0:0:
448,192,68759,1,0,0:0:0:0:
64,192,68759,1,4,0:0:0:0:
320,192,68759,1,0,0:0:0:0:
192,192,68909,1,0,0:0:0:0:
320,192,69059,1,0,0:0:0:0:
448,192,69059,1,8,0:0:0:0:
192,192,69359,1,0,0:0:0:0:
64,192,69359,1,8,0:0:0:0:
448,192,69659,1,0,0:0:0:0:
64,192,69659,1,0,0:0:0:0:
192,192,69734,1,0,0:0:0:0:
320,192,69809,1,0,0:0:0:0:
448,192,69884,1,0,0:0:0:0:
64,192,69959,1,0,0:0:0:0:
320,192,70009,1,0,0:0:0:0:
192,192,70059,1,0,0:0:0:0:
64,192,70109,128,0,70259:0:0:0:0:
320,192,70259,1,8,0:0:0:0:
448,192,70259,1,0,0:0:0:0:
192,192,70409,1,0,0:0:0:0:
64,192,70409,1,0,0:0:0:0:
320,192,70484,1,0,0:0:0:0:
448,192,70559,1,0,0:0:0:0:
64,192,70634,1,0,0:0:0:0:
192,192,70709,1,0,0:0:0:0:
320,192,70709,1,0,0:0:0:0:
448,192,70859,1,0,0:0:0:0:
64,192,70859,1,0,0:0:0:0:
320,192,71009,128,8,71159:0:0:0:0:
448,192,71159,1,0,0:0:0:0:
192,192,71159,1,4,0:0:0:0:
64,192,71159,1,0,0:0:0:0:
192,192,71309,1,0,0:0:0:0:
320,192,71384,1,0,0:0:0:0:
448,192,71459,1,8,0:0:0:0:
64,192,71459,1,0,0:0:0:0:
192,192,71609,128,0,71759:0:0:0:0:
448,192,71759,1,0,0:0:0:0:
320,192,71759,1,0,0:0:0:0:
320,192,72059,1,0,0:0:0:0:
64,192,72059,1,0,0:0:0:0:
192,192,72134,1,0,0:0:0:0:
448,192,72209,1,0,0:0:0:0:
320,192,72284,1,0,0:0:0:0:
64,192,72359,1,0,0:0:0:0:
448,192,72409,1,0,0:0:0:0:
320,192,72459,1,0,0:0:0:0:
192,192,72509,128,0,72659:0:0:0:0:
448,192,72659,1,8,0:0:0:0:
64,192,72659,1,0,0:0:0:0:
192,192,72809,1,0,0:0:0:0:
320,192,72809,1,0,0:0:0:0:
64,192,72959,128,0,73259:0:0:0:0:
448,192,73109,128,0,73259:0:0:0:0:
320,192,73409,1,0,0:0:0:0:
448,192,73409,1,0,0:0:0:0:
192,192,73484,1,0,0:0:0:0:
64,192,73484,1,0,0:0:0:0:
320,192,73559,1,0,0:0:0:0:
448,192,73559,1,0,0:0:0:0:
192,192,73709,1,0,0:0:0:0:
64,192,73709,1,0,0:0:0:0:
320,192,73859,1,12,0:0:0:0:
448,192,73859,1,0,0:0:0:0:
64,192,73859,1,0,0:0:0:0:
192,192,74009,128,0,74159:0:0:0:0:
320,192,74159,128,0,74309:0:0:0:0:
192,192,74309,1,0,0:0:0:0:
64,192,74459,1,0,0:0:0:0:
448,192,74459,1,0,0:0:0:0:
320,192,74534,1,0,0:0:0:0:
192,192,74609,1,0,0:0:0:0:
448,192,74684,1,0,0:0:0:0:
64,192,74759,128,4,74909:0:0:0:0:
448,192,74909,1,0,0:0:0:0:
320,192,74909,1,0,0:0:0:0:
192,192,75059,1,8,0:0:0:0:
64,192,75059,1,0,0:0:0:0:
320,192,75209,1,0,0:0:0:0:
192,192,75359,1,8,0:0:0:0:
64,192,75359,1,0,0:0:0:0:
320,192,75509,1,8,0:0:0:0:
448,192,75509,1,0,0:0:0:0:
64,192,75659,1,0,0:0:0:0:
192,192,75809,1,8,0:0:0:0:
320,192,75809,1,0,0:0:0:0:
64,192,75959,1,0,0:0:0:0:
448,192,75959,1,4,0:0:0:0:
192,192,76259,1,8,0:0:0:0:
64,192,76259,1,0,0:0:0:0:
448,192,76259,1,0,0:0:0:0:
320,192,76409,1,0,0:0:0:0:
192,192,76559,1,8,0:0:0:0:
64,192,76559,1,0,0:0:0:0:
320,192,76709,1,8,0:0:0:0:
448,192,76709,1,0,0:0:0:0:
64,192,76859,128,0,77309:0:0:0:0:
448,192,76859,128,0,77309:0:0:0:0:
192,192,76859,128,8,77309:0:0:0:0:
320,192,77309,1,0,0:0:0:0:
192,192,77609,1,0,0:0:0:0:
448,192,77909,128,0,78059:0:0:0:0:
64,192,78059,128,0,78209:0:0:0:0:
320,192,78659,1,0,0:0:0:0:
192,192,79709,1,0,0:0:0:0:
448,192,80309,128,0,80459:0:0:0:0:
64,192,80459,128,0,80609:0:0:0:0:
320,192,80759,128,0,81059:0:0:0:0:
64,192,81059,1,4,0:0:0:0:
192,192,81209,1,0,0:0:0:0:
448,192,81359,1,4,0:0:0:0:
320,192,81509,1,0,0:0:0:0:
448,192,81659,128,0,82109:0:0:0:0:
192,192,81659,128,4,82109:0:0:0:0:
64,192,81659,128,0,82109:0:0:0:0:
320,192,82109,1,0,0:0:0:0:
64,192,82409,128,0,82559:0:0:0:0:
192,192,82559,128,0,82709:0:0:0:0:
448,192,82709,128,0,82859:0:0:0:0:
320,192,82859,1,4,0:0:0:0:
448,192,83309,1,0,0:0:0:0:
192,192,83459,128,4,83759:0:0:0:0:
448,192,83759,128,0,84059:0:0:0:0:
320,192,84059,1,4,0:0:0:0:
64,192,84059,1,0,0:0:0:0:
320,192,84659,1,4,0:0:0:0:
64,192,84959,128,0,85109:0:0:0:0:
320,192,85109,128,0,85259:0:0:0:0:
448,192,85259,1,4,0:0:0:0:
64,192,85409,1,0,0:0:0:0:
192,192,85484,1,0,0:0:0:0:
320,192,85559,1,0,0:0:0:0:
64,192,85709,1,0,0:0:0:0:
192,192,85784,1,0,0:0:0:0:
448,192,85859,1,4,0:0:0:0:
64,192,86009,1,0,0:0:0:0:
448,192,86159,1,0,0:0:0:0:
192,192,86309,1,0,0:0:0:0:
64,192,86459,128,0,86909:0:0:0:0:
320,192,86459,128,4,86909:0:0:0:0:
448,192,86459,128,0,86909:0:0:0:0:
192,192,86909,1,0,0:0:0:0:
192,192,87209,128,0,87509:0:0:0:0:
448,192,87509,128,0,87659:0:0:0:0:
64,192,87659,128,4,87809:0:0:0:0:
192,192,88259,1,12,0:0:0:0:
320,192,88859,1,4,0:0:0:0:
64,192,89309,128,0,89459:0:0:0:0:
192,192,89459,1,12,0:0:0:0:
448,192,89459,128,0,89609:0:0:0:0:
448,192,89909,128,0,90059:0:0:0:0:
64,192,90059,128,4,90209:0:0:0:0:
320,192,90359,128,0,90659:0:0:0:0:
64,192,90659,1,12,0:0:0:0:
192,192,90959,1,0,0:0:0:0:
320,192,91259,1,4,0:0:0:0:
448,192,91259,1,0,0:0:0:0:
320,192,91709,128,0,91859:0:0:0:0:
192,192,91859,1,8,0:0:0:0:
64,192,92009,128,0,92159:0:0:0:0:
320,192,92159,128,0,92309:0:0:0:0:
448,192,92309,128,0,92459:0:0:0:0:
64,192,92609,1,0,0:0:0:0:
192,192,92759,1,0,0:0:0:0:
320,192,93059,1,0,0:0:0:0:
64,192,93059,1,8,0:0:0:0:
448,192,93359,1,0,0:0:0:0:
64,192,93659,128,0,94259:0:0:0:0:
448,192,93659,128,0,94259:0:0:0:0:
320,192,94259,1,8,0:0:0:0:
64,192,94409,128,0,94709:0:0:0:0:
448,192,94409,128,0,94709:0:0:0:0:
192,192,94709,1,0,0:0:0:0:
448,192,94859,128,0,95009:0:0:0:0:
64,192,95009,128,0,95159:0:0:0:0:
448,192,95159,1,0,0:0:0:0:
320,192,95159,1,0,0:0:0:0:
192,192,95309,1,0,0:0:0:0:
320,192,95459,1,8,0:0:0:0:
64,192,95459,1,0,0:0:0:0:
448,192,95459,1,0,0:0:0:0:
192,192,95609,1,0,0:0:0:0:
64,192,95609,1,0,0:0:0:0:
320,192,95759,1,0,0:0:0:0:
192,192,95909,1,0,0:0:0:0:
64,192,96059,128,0,96359:0:0:0:0:
448,192,96059,128,0,96359:0:0:0:0:
192,192,96359,1,0,0:0:0:0:
320,192,96509,1,0,0:0:0:0:
64,192,96659,1,8,0:0:0:0:
192,192,96659,1,0,0:0:0:0:
320,192,96809,1,0,0:0:0:0:
64,192,96959,1,0,0:0:0:0:
448,192,96959,1,0,0:0:0:0:
64,192,97259,5,0,0:0:0:0:
320,192,97259,1,0,0:0:0:0:
448,192,97259,1,0,0:0:0:0:
320,192,97409,1,0,0:0:0:0:
64,192,97409,1,0,0:0:0:0:
448,192,97409,1,0,0:0:0:0:
320,192,97559,1,0,0:0:0:0:
448,192,97559,1,0,0:0:0:0:
64,192,97559,1,0,0:0:0:0:
320,192,97709,1,0,0:0:0:0:
64,192,97709,1,0,0:0:0:0:
448,192,97709,1,0,0:0:0:0:
192,192,97859,1,8,0:0:0:0:
64,192,97859,1,0,0:0:0:0:
320,192,98009,128,0,98159:0:0:0:0:
448,192,98159,1,0,0:0:0:0:
64,192,98159,1,0,0:0:0:0:
64,192,98459,1,0,0:0:0:0:
192,192,98459,1,0,0:0:0:0:
448,192,98459,1,0,0:0:0:0:
64,192,98609,1,0,0:0:0:0:
192,192,98609,1,0,0:0:0:0:
448,192,98609,1,0,0:0:0:0:
448,192,98759,1,0,0:0:0:0:
192,192,98759,1,0,0:0:0:0:
64,192,98759,1,0,0:0:0:0:
64,192,98909,1,0,0:0:0:0:
192,192,98909,1,0,0:0:0:0:
448,192,98909,1,0,0:0:0:0:
320,192,99059,1,8,0:0:0:0:
448,192,99059,1,0,0:0:0:0:
192,192,99209,128,0,99359:0:0:0:0:
64,192,99359,1,0,0:0:0:0:
448,192,99359,1,0,0:0:0:0:
320,192,99659,1,0,0:0:0:0:
64,192,99659,1,0,0:0:0:0:
448,192,99659,1,0,0:0:0:0:
320,192,99809,1,0,0:0:0:0:
448,192,99809,1,0,0:0:0:0:
64,192,99809,1,0,0:0:0:0:
320,192,99959,1,0,0:0:0:0:
64,192,99959,1,0,0:0:0:0:
448,192,99959,1,0,0:0:0:0:
192,192,100109,1,0,0:0:0:0:
320,192,100184,1,0,0:0:0:0:
448,192,100259,1,8,0:0:0:0:
64,192,100259,1,0,0:0:0:0:
192,192,100409,128,0,100559:0:0:0:0:
320,192,100559,1,0,0:0:0:0:
320,192,100709,1,0,0:0:0:0:
64,192,100859,128,0,101009:0:0:0:0:
448,192,100859,1,0,0:0:0:0:
320,192,101009,1,0,0:0:0:0:
192,192,101084,1,0,0:0:0:0:
64,192,101159,1,0,0:0:0:0:
320,192,101309,1,0,0:0:0:0:
192,192,101459,1,8,0:0:0:0:
64,192,101459,1,0,0:0:0:0:
320,192,101609,1,0,0:0:0:0:
64,192,101759,1,0,0:0:0:0:
448,192,101759,1,0,0:0:0:0:
320,192,102059,1,0,0:0:0:0:
64,192,102059,1,0,0:0:0:0:
448,192,102059,1,0,0:0:0:0:
320,192,102209,1,0,0:0:0:0:
448,192,102209,1,0,0:0:0:0:
64,192,102209,1,0,0:0:0:0:
320,192,102359,1,0,0:0:0:0:
64,192,102359,1,0,0:0:0:0:
448,192,102359,1,0,0:0:0:0:
320,192,102509,1,0,0:0:0:0:
448,192,102509,1,0,0:0:0:0:
64,192,102509,1,0,0:0:0:0:
64,192,102659,1,8,0:0:0:0:
192,192,102659,1,0,0:0:0:0:
320,192,102809,128,0,102959:0:0:0:0:
448,192,102959,1,0,0:0:0:0:
64,192,102959,1,0,0:0:0:0:
192,192,103259,1,0,0:0:0:0:
64,192,103259,1,0,0:0:0:0:
448,192,103259,1,0,0:0:0:0:
64,192,103409,1,0,0:0:0:0:
192,192,103409,1,0,0:0:0:0:
448,192,103409,1,0,0:0:0:0:
448,192,103559,1,0,0:0:0:0:
192,192,103559,1,0,0:0:0:0:
64,192,103559,1,0,0:0:0:0:
64,192,103709,1,0,0:0:0:0:
192,192,103709,1,0,0:0:0:0:
448,192,103709,1,0,0:0:0:0:
448,192,103859,1,8,0:0:0:0:
320,192,103859,1,0,0:0:0:0:
192,192,104009,128,0,104159:0:0:0:0:
64,192,104159,1,0,0:0:0:0:
448,192,104159,1,0,0:0:0:0:
64,192,104459,1,0,0:0:0:0:
320,192,104459,1,0,0:0:0:0:
448,192,104459,1,0,0:0:0:0:
64,192,104609,1,0,0:0:0:0:
192,192,104609,1,0,0:0:0:0:
448,192,104609,1,0,0:0:0:0:
64,192,104759,128,0,104909:0:0:0:0:
448,192,104759,128,0,104909:0:0:0:0:
320,192,104909,1,0,0:0:0:0:
192,192,104984,1,0,0:0:0:0:
448,192,105059,1,0,0:0:0:0:
64,192,105059,1,8,0:0:0:0:
320,192,105209,128,0,105359:0:0:0:0:
192,192,105359,1,0,0:0:0:0:
192,192,105509,1,0,0:0:0:0:
64,192,105659,1,0,0:0:0:0:
448,192,105659,1,4,0:0:0:0:
192,192,105809,1,0,0:0:0:0:
64,192,105959,1,0,0:0:0:0:
448,192,105959,1,4,0:0:0:0:
320,192,106109,1,0,0:0:0:0:
448,192,106259,1,12,0:0:0:0:
64,192,106259,1,0,0:0:0:0:
192,192,106334,1,0,0:0:0:0:
320,192,106409,1,0,0:0:0:0:
448,192,106484,1,0,0:0:0:0:
64,192,106559,1,4,0:0:0:0:
192,192,106659,1,0,0:0:0:0:
320,192,106759,1,0,0:0:0:0:
64,192,106859,1,0,0:0:0:0:
448,192,106859,1,0,0:0:0:0:
192,192,107009,128,0,107309:0:0:0:0:
64,192,107309,1,0,0:0:0:0:
448,192,107309,1,0,0:0:0:0:
320,192,107459,128,8,107759:0:0:0:0:
192,192,107459,1,0,0:0:0:0:
192,192,107909,1,0,0:0:0:0:
320,192,107984,1,0,0:0:0:0:
448,192,108059,1,0,0:0:0:0:
64,192,108059,1,0,0:0:0:0:
192,192,108209,128,0,108509:0:0:0:0:
64,192,108509,1,0,0:0:0:0:
448,192,108509,1,0,0:0:0:0:
320,192,108659,128,8,108809:0:0:0:0:
192,192,108659,1,0,0:0:0:0:
448,192,108809,1,0,0:0:0:0:
64,192,108809,1,0,0:0:0:0:
192,192,108959,128,0,109259:0:0:0:0:
64,192,109259,1,0,0:0:0:0:
448,192,109259,1,0,0:0:0:0:
320,192,109409,128,0,109559:0:0:0:0:
64,192,109709,1,0,0:0:0:0:
448,192,109709,1,0,0:0:0:0:
64,192,109859,1,0,0:0:0:0:
320,192,109859,1,8,0:0:0:0:
448,192,109859,1,0,0:0:0:0:
192,192,110121,128,0,110196:0:0:0:0:
320,192,110309,128,0,110384:0:0:0:0:
64,192,110459,1,0,0:0:0:0:
448,192,110459,1,0,0:0:0:0:
320,192,110759,128,4,110834:0:0:0:0:
192,192,110909,128,4,110984:0:0:0:0:
64,192,111059,1,0,0:0:0:0:
320,192,111059,1,8,0:0:0:0:
448,192,111059,1,0,0:0:0:0:
192,192,111359,1,4,0:0:0:0:
320,192,111359,1,0,0:0:0:0:
64,192,111659,1,0,0:0:0:0:
448,192,111659,1,0,0:0:0:0:
64,192,111809,128,0,112034:0:0:0:0:
448,192,111809,128,0,112034:0:0:0:0:
192,192,112109,1,0,0:0:0:0:
448,192,112259,1,0,0:0:0:0:
64,192,112259,1,0,0:0:0:0:
320,192,112259,1,8,0:0:0:0:
192,192,112409,1,0,0:0:0:0:
64,192,112559,1,0,0:0:0:0:
448,192,112559,1,0,0:0:0:0:
64,192,112859,1,0,0:0:0:0:
448,192,112859,1,0,0:0:0:0:
64,192,113009,128,0,113234:0:0:0:0:
448,192,113009,128,0,113234:0:0:0:0:
320,192,113309,1,0,0:0:0:0:
192,192,113459,1,8,0:0:0:0:
64,192,113459,1,0,0:0:0:0:
448,192,113459,1,0,0:0:0:0:
320,192,113609,1,0,0:0:0:0:
64,192,113759,1,0,0:0:0:0:
448,192,113759,1,0,0:0:0:0:
64,192,114059,1,0,0:0:0:0:
448,192,114059,1,0,0:0:0:0:
64,192,114209,128,0,114434:0:0:0:0:
448,192,114209,128,0,114434:0:0:0:0:
192,192,114509,1,0,0:0:0:0:
320,192,114584,1,0,0:0:0:0:
448,192,114659,1,0,0:0:0:0:
64,192,114659,1,8,0:0:0:0:
320,192,114809,1,0,0:0:0:0:
64,192,114959,1,0,0:0:0:0:
192,192,114959,1,0,0:0:0:0:
320,192,115109,1,0,0:0:0:0:
448,192,115109,1,0,0:0:0:0:
64,192,115259,128,0,115559:0:0:0:0:
448,192,115259,128,0,115559:0:0:0:0:
192,192,115559,1,0,0:0:0:0:
320,192,115709,1,0,0:0:0:0:
192,192,115859,1,8,0:0:0:0:
64,192,115859,1,0,0:0:0:0:
320,192,116009,1,0,0:0:0:0:
64,192,116159,1,0,0:0:0:0:
448,192,116159,1,0,0:0:0:0:
64,192,116459,5,0,0:0:0:0:
320,192,116459,5,0,0:0:0:0:
448,192,116459,1,0,0:0:0:0:
320,192,116609,5,0,0:0:0:0:
64,192,116609,1,0,0:0:0:0:
448,192,116609,1,0,0:0:0:0:
320,192,116759,5,0,0:0:0:0:
448,192,116759,1,0,0:0:0:0:
64,192,116759,1,0,0:0:0:0:
320,192,116909,5,0,0:0:0:0:
64,192,116909,1,0,0:0:0:0:
448,192,116909,1,0,0:0:0:0:
64,192,117059,1,8,0:0:0:0:
192,192,117059,1,0,0:0:0:0:
320,192,117209,128,0,117359:0:0:0:0:
448,192,117359,1,0,0:0:0:0:
64,192,117359,1,0,0:0:0:0:
64,192,117659,1,0,0:0:0:0:
192,192,117659,1,0,0:0:0:0:
448,192,117659,1,0,0:0:0:0:
64,192,117809,1,0,0:0:0:0:
192,192,117809,1,0,0:0:0:0:
448,192,117809,1,0,0:0:0:0:
448,192,117959,1,0,0:0:0:0:
192,192,117959,1,0,0:0:0:0:
64,192,117959,1,0,0:0:0:0:
64,192,118109,1,0,0:0:0:0:
192,192,118109,1,0,0:0:0:0:
448,192,118109,1,0,0:0:0:0:
448,192,118259,1,8,0:0:0:0:
320,192,118259,1,0,0:0:0:0:
192,192,118409,128,0,118559:0:0:0:0:
64,192,118559,1,0,0:0:0:0:
448,192,118559,1,0,0:0:0:0:
64,192,118859,1,0,0:0:0:0:
320,192,118859,1,0,0:0:0:0:
448,192,118859,1,0,0:0:0:0:
448,192,119009,1,0,0:0:0:0:
320,192,119009,1,0,0:0:0:0:
64,192,119009,1,0,0:0:0:0:
64,192,119159,1,0,0:0:0:0:
320,192,119159,1,0,0:0:0:0:
448,192,119159,1,0,0:0:0:0:
192,192,119309,1,0,0:0:0:0:
320,192,119384,1,0,0:0:0:0:
64,192,119459,1,8,0:0:0:0:
448,192,119459,1,0,0:0:0:0:
192,192,119609,128,0,119759:0:0:0:0:
320,192,119759,1,0,0:0:0:0:
192,192,119909,1,0,0:0:0:0:
64,192,120059,128,0,120209:0:0:0:0:
448,192,120059,1,0,0:0:0:0:
320,192,120209,1,0,0:0:0:0:
192,192,120284,1,0,0:0:0:0:
64,192,120359,1,0,0:0:0:0:
192,192,120509,1,0,0:0:0:0:
320,192,120659,1,8,0:0:0:0:
448,192,120659,1,0,0:0:0:0:
192,192,120809,1,0,0:0:0:0:
64,192,120959,1,0,0:0:0:0:
448,192,120959,1,0,0:0:0:0:
64,192,121259,1,0,0:0:0:0:
320,192,121259,1,0,0:0:0:0:
448,192,121259,1,0,0:0:0:0:
448,192,121409,1,0,0:0:0:0:
320,192,121409,1,0,0:0:0:0:
64,192,121409,1,0,0:0:0:0:
64,192,121559,1,0,0:0:0:0:
320,192,121559,1,0,0:0:0:0:
448,192,121559,1,0,0:0:0:0:
448,192,121709,1,0,0:0:0:0:
320,192,121709,1,0,0:0:0:0:
64,192,121709,1,0,0:0:0:0:
192,192,121859,1,8,0:0:0:0:
64,192,121859,1,0,0:0:0:0:
320,192,122009,128,0,122159:0:0:0:0:
448,192,122159,1,0,0:0:0:0:
64,192,122159,1,0,0:0:0:0:
192,192,122459,1,0,0:0:0:0:
64,192,122459,1,0,0:0:0:0:
448,192,122459,1,0,0:0:0:0:
64,192,122609,1,0,0:0:0:0:
192,192,122609,1,0,0:0:0:0:
448,192,122609,1,0,0:0:0:0:
448,192,122759,1,0,0:0:0:0:
192,192,122759,1,0,0:0:0:0:
64,192,122759,1,0,0:0:0:0:
64,192,122909,1,0,0:0:0:0:
192,192,122909,1,0,0:0:0:0:
448,192,122909,1,0,0:0:0:0:
320,192,123059,1,8,0:0:0:0:
448,192,123059,1,0,0:0:0:0:
192,192,123209,128,0,123359:0:0:0:0:
64,192,123359,1,0,0:0:0:0:
448,192,123359,1,0,0:0:0:0:
64,192,123659,1,0,0:0:0:0:
320,192,123659,1,0,0:0:0:0:
448,192,123659,1,0,0:0:0:0:
64,192,123809,1,0,0:0:0:0:
192,192,123809,1,0,0:0:0:0:
448,192,123809,1,0,0:0:0:0:
64,192,123959,128,0,124109:0:0:0:0:
448,192,123959,128,0,124109:0:0:0:0:
320,192,124109,1,0,0:0:0:0:
192,192,124184,1,0,0:0:0:0:
64,192,124259,1,0,0:0:0:0:
448,192,124259,1,8,0:0:0:0:
320,192,124409,128,0,124559:0:0:0:0:
192,192,124559,1,0,0:0:0:0:
320,192,124709,1,0,0:0:0:0:
448,192,124859,1,0,0:0:0:0:
64,192,124859,1,4,0:0:0:0:
192,192,125009,1,0,0:0:0:0:
448,192,125159,1,0,0:0:0:0:
64,192,125159,1,4,0:0:0:0:
320,192,125309,1,0,0:0:0:0:
64,192,125459,1,12,0:0:0:0:
448,192,125459,1,0,0:0:0:0:
192,192,125534,1,0,0:0:0:0:
320,192,125609,1,0,0:0:0:0:
448,192,125684,1,0,0:0:0:0:
64,192,125759,1,4,0:0:0:0:
192,192,125859,1,0,0:0:0:0:
320,192,125959,1,0,0:0:0:0:
64,192,126059,1,0,0:0:0:0:
448,192,126059,1,0,0:0:0:0:
192,192,126209,128,0,126509:0:0:0:0:
64,192,126509,1,0,0:0:0:0:
448,192,126509,1,0,0:0:0:0:
320,192,126659,128,8,126959:0:0:0:0:
192,192,126659,1,0,0:0:0:0:
192,192,127109,1,0,0:0:0:0:
320,192,127184,1,0,0:0:0:0:
448,192,127259,1,0,0:0:0:0:
64,192,127259,1,0,0:0:0:0:
192,192,127409,128,0,127709:0:0:0:0:
64,192,127709,1,0,0:0:0:0:
448,192,127709,1,0,0:0:0:0:
320,192,127859,128,8,128009:0:0:0:0:
192,192,127859,1,0,0:0:0:0:
448,192,128009,1,0,0:0:0:0:
64,192,128009,1,0,0:0:0:0:
192,192,128159,128,0,128459:0:0:0:0:
64,192,128459,1,0,0:0:0:0:
448,192,128459,1,0,0:0:0:0:
320,192,128609,128,0,128759:0:0:0:0:
64,192,128909,1,0,0:0:0:0:
448,192,128909,1,0,0:0:0:0:
192,192,129059,1,12,0:0:0:0:
448,192,129059,1,0,0:0:0:0:
64,192,129059,1,0,0:0:0:0:
320,192,129321,128,0,129396:0:0:0:0:
192,192,129509,128,0,129584:0:0:0:0:
64,192,129659,1,0,0:0:0:0:
448,192,129659,1,0,0:0:0:0:
192,192,129959,128,4,130034:0:0:0:0:
320,192,130109,128,4,130184:0:0:0:0:
64,192,130259,1,0,0:0:0:0:
192,192,130259,1,8,0:0:0:0:
448,192,130259,1,0,0:0:0:0:
320,192,130409,1,0,0:0:0:0:
64,192,130559,1,0,0:0:0:0:
448,192,130559,1,4,0:0:0:0:
64,192,130859,1,0,0:0:0:0:
448,192,130859,1,0,0:0:0:0:
64,192,131009,128,0,131234:0:0:0:0:
448,192,131009,128,0,131234:0:0:0:0:
192,192,131309,1,0,0:0:0:0:
448,192,131459,1,0,0:0:0:0:
64,192,131459,1,0,0:0:0:0:
320,192,131459,1,8,0:0:0:0:
192,192,131609,1,0,0:0:0:0:
64,192,131759,1,0,0:0:0:0:
448,192,131759,1,0,0:0:0:0:
64,192,132059,1,0,0:0:0:0:
448,192,132059,1,0,0:0:0:0:
64,192,132209,128,0,132434:0:0:0:0:
448,192,132209,128,0,132434:0:0:0:0:
320,192,132509,1,0,0:0:0:0:
192,192,132659,1,8,0:0:0:0:
64,192,132659,1,0,0:0:0:0:
448,192,132659,1,0,0:0:0:0:
320,192,132809,1,0,0:0:0:0:
64,192,132959,1,0,0:0:0:0:
448,192,132959,1,0,0:0:0:0:
64,192,133259,1,0,0:0:0:0:
448,192,133259,1,0,0:0:0:0:
192,192,133859,1,8,0:0:0:0:
64,192,134459,1,0,0:0:0:0:
320,192,134459,1,4,0:0:0:0:
448,192,134459,1,0,0:0:0:0:
