osu file format v14

[General]
AudioFilename: audio.mp3
AudioLeadIn: 0
PreviewTime: 261551
Countdown: 0
SampleSet: Normal
StackLeniency: 0.7
Mode: 3
LetterboxInBreaks: 0
SpecialStyle: 0
WidescreenStoryboard: 0

[Editor]
Bookmarks: 14694,28408,42122,55837,69551,83265,110694,138122,165551,192980,220408,247837,302694
DistanceSpacing: 0.1
BeatDivisor: 4
GridSize: 8
TimelineZoom: 2.3

[Metadata]
Title:Tetsuo's Redemption
TitleUnicode:Tetsuo's Redemption
Artist:KOAN Sound & Asa
ArtistUnicode:KOAN Sound & Asa
Creator:error_exe777
Version:Searching
Source:
Tags:sanctuary ep drum and bass dnb
BeatmapID:1654691
BeatmapSetID:788366

[Difficulty]
HPDrainRate:8.5
CircleSize:4
OverallDifficulty:8
ApproachRate:5
SliderMultiplier:1.4
SliderTickRate:1

[Events]
//Background and Video events
0,0,"sanctuary_desktop_02.jpg",0,0
//Break Periods
//Storyboard Layer 0 (Background)
//Storyboard Layer 1 (Fail)
//Storyboard Layer 2 (Pass)
//Storyboard Layer 3 (Foreground)
//Storyboard Sound Samples

[TimingPoints]
980,428.571428571429,4,1,1,40,1,0
980,-133.333333333333,4,1,1,40,0,0
14480,-125,4,1,1,40,0,0
14587,-117.647058823529,4,1,1,40,0,0
14694,-111.111111111111,4,1,1,40,0,0
26694,-117.647058823529,4,1,1,40,0,0
26801,-125,4,1,1,40,0,0
26908,-133.333333333333,4,1,1,40,0,0
27551,-142.857142857143,4,1,1,40,0,0
27658,-153.846153846154,4,1,1,40,0,0
27765,-166.666666666667,4,1,1,40,0,0
28194,-142.857142857143,4,1,1,40,0,0
28265,-125,4,1,1,40,0,0
28337,-111.111111111111,4,1,1,40,0,0
28408,-100,4,1,1,40,0,0
82837,-200,4,1,1,40,0,0
83158,-40,4,1,1,40,0,0
83265,-133.333333333333,4,1,1,40,0,0
83480,-66.6666666666667,4,1,1,40,0,0
83587,-29.4117647058824,4,1,1,40,0,0
83613,-500,4,1,1,40,0,0
83694,-29.4117647058824,4,1,1,40,0,0
83747,-500,4,1,1,40,0,0
83908,-100,4,1,1,40,0,0
84015,-133.333333333333,4,1,1,40,0,0
84176,-57.1428571428571,4,1,1,40,0,0
84230,-29.4117647058824,4,1,1,40,0,0
84256,-500,4,1,1,40,0,0
84337,-40,4,1,1,40,0,0
84390,-200,4,1,1,40,0,0
84551,-29.4117647058824,4,1,1,40,0,0
84605,-500,4,1,1,40,0,0
84765,-100,4,1,1,40,0,0
84792,-98.0392156862745,4,1,1,40,0,0
84819,-96.1538461538461,4,1,1,40,0,0
84846,-94.3396226415094,4,1,1,40,0,0
84872,-92.5925925925926,4,1,1,40,0,0
84899,-90.9090909090909,4,1,1,40,0,0
84926,-89.2857142857143,4,1,1,40,0,0
84953,-87.719298245614,4,1,1,40,0,0
84980,-100,4,1,1,40,0,0
85087,-1000,4,1,1,40,0,0
85167,-27.027027027027,4,1,1,40,0,0
85194,-100,4,1,1,40,0,0
85408,-1000,4,1,1,40,0,0
85488,-27.027027027027,4,1,1,40,0,0
85515,-100,4,1,1,40,0,0
85622,-40,4,1,1,40,0,0
85649,-200,4,1,1,40,0,0
85730,-1000,4,1,1,40,0,0
85810,-27.027027027027,4,1,1,40,0,0
85837,-100,4,1,1,40,0,0
86051,-40,4,1,1,40,0,0
86105,-200,4,1,1,40,0,0
86265,-125,4,1,1,40,0,0
86587,-62.5,4,1,1,40,0,0
86694,-133.333333333333,4,1,1,40,0,0
86908,-66.6666666666667,4,1,1,40,0,0
87015,-29.4117647058824,4,1,1,40,0,0
87042,-500,4,1,1,40,0,0
87122,-29.4117647058824,4,1,1,40,0,0
87176,-500,4,1,1,40,0,0
87337,-100,4,1,1,40,0,0
87444,-133.333333333333,4,1,1,40,0,0
87605,-57.1428571428571,4,1,1,40,0,0
87658,-29.4117647058824,4,1,1,40,0,0
87685,-500,4,1,1,40,0,0
87765,-17.2413793103448,4,1,1,40,0,0
87770,-200,4,1,1,40,0,0
87819,-17.2413793103448,4,1,1,40,0,0
87824,-200,4,1,1,40,0,0
87872,-17.2413793103448,4,1,1,40,0,0
87877,-200,4,1,1,40,0,0
87926,-17.2413793103448,4,1,1,40,0,0
87931,-200,4,1,1,40,0,0
87980,-100,4,1,1,40,0,0
88033,-95.2380952380952,4,1,1,40,0,0
88087,-90.9090909090909,4,1,1,40,0,0
88140,-86.9565217391304,4,1,1,40,0,0
88194,-83.3333333333333,4,1,1,40,0,0
88247,-80,4,1,1,40,0,0
88301,-76.9230769230769,4,1,1,40,0,0
88355,-74.0740740740741,4,1,1,40,0,0
88408,-100,4,1,1,40,0,0
88515,-1000,4,1,1,40,0,0
88596,-27.027027027027,4,1,1,40,0,0
88622,-100,4,1,1,40,0,0
88837,-1000,4,1,1,40,0,0
88917,-27.027027027027,4,1,1,40,0,0
88944,-100,4,1,1,40,0,0
89051,-40,4,1,1,40,0,0
89078,-200,4,1,1,40,0,0
89158,-1000,4,1,1,40,0,0
89238,-27.027027027027,4,1,1,40,0,0
89265,-100,4,1,1,40,0,0
89480,-40,4,1,1,40,0,0
89533,-200,4,1,1,40,0,0
89694,-125,4,1,1,40,0,0
90015,-62.5,4,1,1,40,0,0
90122,-133.333333333333,4,1,1,40,0,0
90337,-66.6666666666667,4,1,1,40,0,0
90444,-29.4117647058824,4,1,1,40,0,0
90471,-500,4,1,1,40,0,0
90551,-29.4117647058824,4,1,1,40,0,0
90605,-500,4,1,1,40,0,0
90765,-100,4,1,1,40,0,0
90872,-133.333333333333,4,1,1,40,0,0
91033,-57.1428571428571,4,1,1,40,0,0
91087,-29.4117647058824,4,1,1,40,0,0
91113,-500,4,1,1,40,0,0
91194,-40,4,1,1,40,0,0
91221,-200,4,1,1,40,0,0
91301,-133.333333333333,4,1,1,40,0,0
91381,-44.4444444444445,4,1,1,40,0,0
91408,-29.4117647058824,4,1,1,40,0,0
91435,-500,4,1,1,40,0,0
91515,-100,4,1,1,40,0,0
91622,-40,4,1,1,40,0,0
91632,-200,4,1,1,40,0,0
91658,-100,4,1,1,40,0,0
91694,-40,4,1,1,40,0,0
91704,-200,4,1,1,40,0,0
91730,-100,4,1,1,40,0,0
91765,-40,4,1,1,40,0,0
91775,-200,4,1,1,40,0,0
91801,-100,4,1,1,40,0,0
91944,-1000,4,1,1,40,0,0
92024,-27.027027027027,4,1,1,40,0,0
92051,-100,4,1,1,40,0,0
92265,-1000,4,1,1,40,0,0
92346,-27.027027027027,4,1,1,40,0,0
92372,-100,4,1,1,40,0,0
92480,-40,4,1,1,40,0,0
92506,-200,4,1,1,40,0,0
92587,-1000,4,1,1,40,0,0
92667,-27.027027027027,4,1,1,40,0,0
92694,-100,4,1,1,40,0,0
92908,-40,4,1,1,40,0,0
92962,-200,4,1,1,40,0,0
93122,-125,4,1,1,40,0,0
93444,-62.5,4,1,1,40,0,0
93551,-133.333333333333,4,1,1,40,0,0
93765,-66.6666666666667,4,1,1,40,0,0
93872,-29.4117647058824,4,1,1,40,0,0
93899,-500,4,1,1,40,0,0
93980,-29.4117647058824,4,1,1,40,0,0
94033,-500,4,1,1,40,0,0
94194,-100,4,1,1,40,0,0
94301,-133.333333333333,4,1,1,40,0,0
94462,-57.1428571428571,4,1,1,40,0,0
94515,-29.4117647058824,4,1,1,40,0,0
94542,-500,4,1,1,40,0,0
94622,-100,4,1,1,40,0,0
95158,-1000,4,1,1,40,0,0
95238,-27.027027027027,4,1,1,40,0,0
95265,-100,4,1,1,40,0,0
95801,-1000,4,1,1,40,0,0
95881,-27.027027027027,4,1,1,40,0,0
95908,-100,4,1,1,40,0,0
96444,-1000,4,1,1,40,0,0
96524,-27.027027027027,4,1,1,40,0,0
96551,-100,4,1,1,40,0,0
96980,-125,4,1,1,40,0,0
97301,-62.5,4,1,1,40,0,0
97409,-29.4117647058824,4,1,1,40,0,0
97462,-500,4,1,1,40,0,0
97623,-100,4,1,1,40,0,0
97730,-133.333333333333,4,1,1,40,0,0
97891,-57.1428571428571,4,1,1,40,0,0
97945,-29.4117647058824,4,1,1,40,0,0
97971,-500,4,1,1,40,0,0
98052,-40,4,1,1,40,0,0
98105,-200,4,1,1,40,0,0
98266,-29.4117647058824,4,1,1,40,0,0
98320,-500,4,1,1,40,0,0
98480,-100,4,1,1,40,0,0
98507,-98.0392156862745,4,1,1,40,0,0
98534,-96.1538461538461,4,1,1,40,0,0
98561,-94.3396226415094,4,1,1,40,0,0
98587,-92.5925925925926,4,1,1,40,0,0
98614,-90.9090909090909,4,1,1,40,0,0
98641,-89.2857142857143,4,1,1,40,0,0
98668,-87.719298245614,4,1,1,40,0,0
98695,-100,4,1,1,40,0,0
98802,-1000,4,1,1,40,0,0
98882,-27.027027027027,4,1,1,40,0,0
98909,-100,4,1,1,40,0,0
99123,-1000,4,1,1,40,0,0
99203,-27.027027027027,4,1,1,40,0,0
99230,-100,4,1,1,40,0,0
99337,-40,4,1,1,40,0,0
99364,-200,4,1,1,40,0,0
99445,-1000,4,1,1,40,0,0
99525,-27.027027027027,4,1,1,40,0,0
99552,-100,4,1,1,40,0,0
99766,-40,4,1,1,40,0,0
99820,-200,4,1,1,40,0,0
99980,-125,4,1,1,40,0,0
100302,-62.5,4,1,1,40,0,0
100409,-133.333333333333,4,1,1,40,0,0
100623,-66.6666666666667,4,1,1,40,0,0
100730,-29.4117647058824,4,1,1,40,0,0
100757,-500,4,1,1,40,0,0
100837,-29.4117647058824,4,1,1,40,0,0
100891,-500,4,1,1,40,0,0
101052,-100,4,1,1,40,0,0
101159,-133.333333333333,4,1,1,40,0,0
101320,-57.1428571428571,4,1,1,40,0,0
101373,-29.4117647058824,4,1,1,40,0,0
101400,-500,4,1,1,40,0,0
101480,-17.2413793103448,4,1,1,40,0,0
101485,-200,4,1,1,40,0,0
101534,-17.2413793103448,4,1,1,40,0,0
101539,-200,4,1,1,40,0,0
101587,-17.2413793103448,4,1,1,40,0,0
101592,-200,4,1,1,40,0,0
101641,-17.2413793103448,4,1,1,40,0,0
101646,-200,4,1,1,40,0,0
101695,-100,4,1,1,40,0,0
101748,-95.2380952380952,4,1,1,40,0,0
101802,-90.9090909090909,4,1,1,40,0,0
101855,-86.9565217391304,4,1,1,40,0,0
101909,-83.3333333333333,4,1,1,40,0,0
101962,-80,4,1,1,40,0,0
102016,-76.9230769230769,4,1,1,40,0,0
102070,-74.0740740740741,4,1,1,40,0,0
102123,-100,4,1,1,40,0,0
102230,-1000,4,1,1,40,0,0
102311,-27.027027027027,4,1,1,40,0,0
102337,-100,4,1,1,40,0,0
102552,-1000,4,1,1,40,0,0
102632,-27.027027027027,4,1,1,40,0,0
102659,-100,4,1,1,40,0,0
102766,-40,4,1,1,40,0,0
102793,-200,4,1,1,40,0,0
102873,-1000,4,1,1,40,0,0
102953,-27.027027027027,4,1,1,40,0,0
102980,-100,4,1,1,40,0,0
103195,-40,4,1,1,40,0,0
103248,-200,4,1,1,40,0,0
103409,-125,4,1,1,40,0,0
103730,-62.5,4,1,1,40,0,0
103837,-133.333333333333,4,1,1,40,0,0
104052,-66.6666666666667,4,1,1,40,0,0
104159,-29.4117647058824,4,1,1,40,0,0
104186,-500,4,1,1,40,0,0
104266,-29.4117647058824,4,1,1,40,0,0
104320,-500,4,1,1,40,0,0
104480,-100,4,1,1,40,0,0
104587,-133.333333333333,4,1,1,40,0,0
104748,-57.1428571428571,4,1,1,40,0,0
104802,-29.4117647058824,4,1,1,40,0,0
104828,-500,4,1,1,40,0,0
104909,-40,4,1,1,40,0,0
104936,-200,4,1,1,40,0,0
105016,-133.333333333333,4,1,1,40,0,0
105096,-44.4444444444445,4,1,1,40,0,0
105123,-29.4117647058824,4,1,1,40,0,0
105150,-500,4,1,1,40,0,0
105230,-100,4,1,1,40,0,0
105337,-40,4,1,1,40,0,0
105347,-200,4,1,1,40,0,0
105372,-100,4,1,1,40,0,0
105408,-40,4,1,1,40,0,0
105418,-200,4,1,1,40,0,0
105444,-100,4,1,1,40,0,0
105480,-40,4,1,1,40,0,0
105490,-200,4,1,1,40,0,0
105515,-100,4,1,1,40,0,0
105552,-100,4,1,1,40,0,0
105659,-1000,4,1,1,40,0,0
105739,-27.027027027027,4,1,1,40,0,0
105766,-100,4,1,1,40,0,0
105980,-1000,4,1,1,40,0,0
106061,-27.027027027027,4,1,1,40,0,0
106087,-100,4,1,1,40,0,0
106195,-40,4,1,1,40,0,0
106221,-200,4,1,1,40,0,0
106302,-1000,4,1,1,40,0,0
106382,-27.027027027027,4,1,1,40,0,0
106409,-100,4,1,1,40,0,0
106623,-40,4,1,1,40,0,0
106677,-200,4,1,1,40,0,0
106837,-125,4,1,1,40,0,0
107159,-62.5,4,1,1,40,0,0
107266,-133.333333333333,4,1,1,40,0,0
107480,-66.6666666666667,4,1,1,40,0,0
107587,-29.4117647058824,4,1,1,40,0,0
107614,-500,4,1,1,40,0,0
107695,-29.4117647058824,4,1,1,40,0,0
107748,-500,4,1,1,40,0,0
107909,-100,4,1,1,40,0,0
108015,-200,4,1,1,40,0,0
108230,-50,4,1,1,40,0,0
108337,-100,4,1,1,40,0,0
108658,-95.2380952380952,4,1,1,40,0,0
108765,-90.9090909090909,4,1,1,40,0,0
110694,-105.263157894737,4,1,1,40,0,0
110747,-111.111111111111,4,1,1,40,0,0
110801,-117.647058823529,4,1,1,40,0,0
110855,-125,4,1,1,40,0,0
110908,-133.333333333333,4,1,1,40,0,0
111765,-47.6190476190476,4,1,1,40,0,0
111819,-200,4,1,1,40,0,0
111980,-29.4117647058824,4,1,1,40,0,0
112033,-500,4,1,1,40,0,0
112194,-100,4,1,1,40,0,0
112408,-20,4,1,1,40,0,0
112414,-100,4,1,1,40,0,0
112837,-10,4,1,1,40,0,0
112842,-100,4,1,1,40,0,0
113158,-10,4,1,1,40,0,0
113164,-100,4,1,1,40,0,0
113480,-20,4,1,1,40,0,0
113485,-100,4,1,1,40,0,0
113694,-10,4,1,1,40,0,0
113700,-100,4,1,1,40,0,0
113765,-29.4117647058824,4,1,1,40,0,0
113801,-500,4,1,1,40,0,0
113908,-29.4117647058824,4,1,1,40,0,0
113935,-500,4,1,1,40,0,0
114015,-100,4,1,1,40,0,0
114122,-105.263157894737,4,1,1,40,0,0
114176,-111.111111111111,4,1,1,40,0,0
114230,-117.647058823529,4,1,1,40,0,0
114283,-125,4,1,1,40,0,0
114337,-100,4,1,1,40,0,0
114551,-10,4,1,1,40,0,0
114556,-100,4,1,1,40,0,0
114872,-10,4,1,1,40,0,0
114877,-100,4,1,1,40,0,0
115194,-20,4,1,1,40,0,0
115199,-100,4,1,1,40,0,0
115408,-10,4,1,1,40,0,0
115413,-100,4,1,1,40,0,0
115480,-40,4,1,1,40,0,0
115515,-200,4,1,1,40,0,0
115622,-100,4,1,1,40,0,0
115837,-21.7391304347826,4,1,1,40,0,0
115842,-200,4,1,1,40,0,0
115890,-21.7391304347826,4,1,1,40,0,0
115895,-200,4,1,1,40,0,0
115944,-21.7391304347826,4,1,1,40,0,0
115949,-200,4,1,1,40,0,0
115997,-21.7391304347826,4,1,1,40,0,0
116002,-200,4,1,1,40,0,0
116051,-21.7391304347826,4,1,1,40,0,0
116056,-200,4,1,1,40,0,0
116105,-21.7391304347826,4,1,1,40,0,0
116110,-200,4,1,1,40,0,0
116158,-100,4,1,1,40,0,0
116265,-10,4,1,1,40,0,0
116270,-100,4,1,1,40,0,0
116587,-10,4,1,1,40,0,0
116592,-100,4,1,1,40,0,0
116908,-20,4,1,1,40,0,0
116913,-100,4,1,1,40,0,0
117122,-10,4,1,1,40,0,0
117127,-100,4,1,1,40,0,0
117194,-29.4117647058824,4,1,1,40,0,0
117230,-500,4,1,1,40,0,0
117337,-29.4117647058824,4,1,1,40,0,0
117363,-500,4,1,1,40,0,0
117444,-21.7391304347826,4,1,1,40,0,0
117449,-200,4,1,1,40,0,0
117551,-21.7391304347826,4,1,1,40,0,0
117556,-200,4,1,1,40,0,0
117605,-21.7391304347826,4,1,1,40,0,0
117610,-200,4,1,1,40,0,0
117658,-21.7391304347826,4,1,1,40,0,0
117663,-200,4,1,1,40,0,0
117712,-21.7391304347826,4,1,1,40,0,0
117717,-200,4,1,1,40,0,0
117765,-21.7391304347826,4,1,1,40,0,0
117770,-200,4,1,1,40,0,0
117819,-21.7391304347826,4,1,1,40,0,0
117824,-200,4,1,1,40,0,0
117872,-100,4,1,1,40,0,0
117980,-10,4,1,1,40,0,0
117985,-100,4,1,1,40,0,0
118301,-10,4,1,1,40,0,0
118306,-100,4,1,1,40,0,0
118622,-20,4,1,1,40,0,0
118627,-100,4,1,1,40,0,0
118837,-10,4,1,1,40,0,0
118842,-100,4,1,1,40,0,0
118908,-40,4,1,1,40,0,0
118944,-200,4,1,1,40,0,0
119051,-40,4,1,1,40,0,0
119078,-200,4,1,1,40,0,0
119158,-29.4117647058824,4,1,1,40,0,0
119185,-500,4,1,1,40,0,0
119265,-111.111111111111,4,1,1,40,0,0
119319,-125,4,1,1,40,0,0
119372,-142.857142857143,4,1,1,40,0,0
119426,-166.666666666667,4,1,1,40,0,0
119480,-100,4,1,1,40,0,0
119694,-10,4,1,1,40,0,0
119699,-100,4,1,1,40,0,0
120015,-10,4,1,1,40,0,0
120020,-100,4,1,1,40,0,0
120337,-20,4,1,1,40,0,0
120342,-100,4,1,1,40,0,0
120551,-10,4,1,1,40,0,0
120556,-100,4,1,1,40,0,0
120622,-29.4117647058824,4,1,1,40,0,0
120658,-500,4,1,1,40,0,0
120765,-29.4117647058824,4,1,1,40,0,0
120792,-500,4,1,1,40,0,0
120872,-100,4,1,1,40,0,0
120980,-21.7391304347826,4,1,1,40,0,0
120985,-200,4,1,1,40,0,0
121033,-21.7391304347826,4,1,1,40,0,0
121038,-200,4,1,1,40,0,0
121087,-21.7391304347826,4,1,1,40,0,0
121092,-200,4,1,1,40,0,0
121140,-21.7391304347826,4,1,1,40,0,0
121145,-200,4,1,1,40,0,0
121194,-21.7391304347826,4,1,1,40,0,0
121199,-200,4,1,1,40,0,0
121247,-21.7391304347826,4,1,1,40,0,0
121252,-200,4,1,1,40,0,0
121301,-100,4,1,1,40,0,0
121408,-10,4,1,1,40,0,0
121413,-100,4,1,1,40,0,0
121730,-10,4,1,1,40,0,0
121735,-100,4,1,1,40,0,0
122051,-20,4,1,1,40,0,0
122056,-100,4,1,1,40,0,0
122265,-10,4,1,1,40,0,0
122270,-100,4,1,1,40,0,0
122337,-40,4,1,1,40,0,0
122372,-200,4,1,1,40,0,0
122480,-100,4,1,1,40,0,0
122694,-200,4,1,1,40,0,0
123015,-40,4,1,1,40,0,0
123122,-200,4,1,1,40,0,0
123337,-50,4,1,1,40,0,0
123444,-200,4,1,1,40,0,0
123658,-50,4,1,1,40,0,0
123765,-200,4,1,1,40,0,0
123926,-40,4,1,1,40,0,0
123980,-500,4,1,1,40,0,0
124140,-29.4117647058824,4,1,1,40,0,0
124194,-200,4,1,1,40,0,0
124355,-40,4,1,1,40,0,0
124408,-105.263157894737,4,1,1,40,0,0
124515,-111.111111111111,4,1,1,40,0,0
124622,-117.647058823529,4,1,1,40,0,0
124730,-125,4,1,1,40,0,0
124837,-133.333333333333,4,1,1,40,0,0
125480,-47.6190476190476,4,1,1,40,0,0
125534,-200,4,1,1,40,0,0
125695,-55.5555555555556,4,1,1,40,0,0
125730,-500,4,1,1,40,0,0
125765,-40,4,1,1,40,0,0
125801,-200,4,1,1,40,0,0
125909,-100,4,1,1,40,0,0
126122,-31.25,4,1,1,40,0,0
126132,-200,4,1,1,40,0,0
126176,-31.25,4,1,1,40,0,0
126186,-200,4,1,1,40,0,0
126230,-31.25,4,1,1,40,0,0
126240,-200,4,1,1,40,0,0
126283,-31.25,4,1,1,40,0,0
126293,-200,4,1,1,40,0,0
126337,-100,4,1,1,40,0,0
126444,-1000,4,1,1,40,0,0
126524,-27.027027027027,4,1,1,40,0,0
126552,-10,4,1,1,40,0,0
126557,-100,4,1,1,40,0,0
126873,-10,4,1,1,40,0,0
126879,-100,4,1,1,40,0,0
127195,-20,4,1,1,40,0,0
127200,-100,4,1,1,40,0,0
127409,-10,4,1,1,40,0,0
127415,-100,4,1,1,40,0,0
127480,-29.4117647058824,4,1,1,40,0,0
127515,-500,4,1,1,40,0,0
127623,-29.4117647058824,4,1,1,40,0,0
127650,-500,4,1,1,40,0,0
127730,-100,4,1,1,40,0,0
127837,-21.7391304347826,4,1,1,40,0,0
127842,-200,4,1,1,40,0,0
127890,-21.7391304347826,4,1,1,40,0,0
127895,-200,4,1,1,40,0,0
127944,-21.7391304347826,4,1,1,40,0,0
127949,-200,4,1,1,40,0,0
127997,-21.7391304347826,4,1,1,40,0,0
128002,-200,4,1,1,40,0,0
128051,-21.7391304347826,4,1,1,40,0,0
128056,-200,4,1,1,40,0,0
128105,-21.7391304347826,4,1,1,40,0,0
128110,-200,4,1,1,40,0,0
128158,-100,4,1,1,40,0,0
128266,-10,4,1,1,40,0,0
128271,-100,4,1,1,40,0,0
128587,-10,4,1,1,40,0,0
128592,-100,4,1,1,40,0,0
128909,-20,4,1,1,40,0,0
128914,-100,4,1,1,40,0,0
129123,-10,4,1,1,40,0,0
129128,-100,4,1,1,40,0,0
129194,-40,4,1,1,40,0,0
129230,-200,4,1,1,40,0,0
129337,-100,4,1,1,40,0,0
129552,-21.7391304347826,4,1,1,40,0,0
129557,-200,4,1,1,40,0,0
129605,-21.7391304347826,4,1,1,40,0,0
129610,-200,4,1,1,40,0,0
129659,-21.7391304347826,4,1,1,40,0,0
129664,-200,4,1,1,40,0,0
129712,-21.7391304347826,4,1,1,40,0,0
129717,-200,4,1,1,40,0,0
129766,-21.7391304347826,4,1,1,40,0,0
129771,-200,4,1,1,40,0,0
129820,-21.7391304347826,4,1,1,40,0,0
129825,-200,4,1,1,40,0,0
129873,-100,4,1,1,40,0,0
129980,-10,4,1,1,40,0,0
129985,-100,4,1,1,40,0,0
130302,-10,4,1,1,40,0,0
130307,-100,4,1,1,40,0,0
130623,-20,4,1,1,40,0,0
130628,-100,4,1,1,40,0,0
130837,-10,4,1,1,40,0,0
130842,-100,4,1,1,40,0,0
130945,-29.4117647058824,4,1,1,40,0,0
130971,-500,4,1,1,40,0,0
131052,-29.4117647058824,4,1,1,40,0,0
131078,-500,4,1,1,40,0,0
131159,-21.7391304347826,4,1,1,40,0,0
131164,-200,4,1,1,40,0,0
131266,-21.7391304347826,4,1,1,40,0,0
131271,-200,4,1,1,40,0,0
131320,-21.7391304347826,4,1,1,40,0,0
131325,-200,4,1,1,40,0,0
131373,-21.7391304347826,4,1,1,40,0,0
131378,-200,4,1,1,40,0,0
131427,-21.7391304347826,4,1,1,40,0,0
131432,-200,4,1,1,40,0,0
131480,-21.7391304347826,4,1,1,40,0,0
131485,-200,4,1,1,40,0,0
131534,-21.7391304347826,4,1,1,40,0,0
131539,-200,4,1,1,40,0,0
131587,-100,4,1,1,40,0,0
131695,-10,4,1,1,40,0,0
131700,-100,4,1,1,40,0,0
132016,-10,4,1,1,40,0,0
132021,-100,4,1,1,40,0,0
132337,-20,4,1,1,40,0,0
132342,-100,4,1,1,40,0,0
132552,-10,4,1,1,40,0,0
132557,-100,4,1,1,40,0,0
132622,-40,4,1,1,40,0,0
132658,-200,4,1,1,40,0,0
132766,-40,4,1,1,40,0,0
132793,-200,4,1,1,40,0,0
132873,-29.4117647058824,4,1,1,40,0,0
132900,-500,4,1,1,40,0,0
132980,-105.263157894737,4,1,1,40,0,0
133034,-111.111111111111,4,1,1,40,0,0
133087,-117.647058823529,4,1,1,40,0,0
133141,-125,4,1,1,40,0,0
133195,-100,4,1,1,40,0,0
133409,-10,4,1,1,40,0,0
133414,-100,4,1,1,40,0,0
133730,-10,4,1,1,40,0,0
133735,-100,4,1,1,40,0,0
134052,-20,4,1,1,40,0,0
134057,-100,4,1,1,40,0,0
134266,-10,4,1,1,40,0,0
134271,-100,4,1,1,40,0,0
134373,-29.4117647058824,4,1,1,40,0,0
134400,-500,4,1,1,40,0,0
134480,-29.4117647058824,4,1,1,40,0,0
134507,-500,4,1,1,40,0,0
134587,-100,4,1,1,40,0,0
134695,-21.7391304347826,4,1,1,40,0,0
134700,-200,4,1,1,40,0,0
134748,-21.7391304347826,4,1,1,40,0,0
134753,-200,4,1,1,40,0,0
134802,-21.7391304347826,4,1,1,40,0,0
134807,-200,4,1,1,40,0,0
134855,-21.7391304347826,4,1,1,40,0,0
134860,-200,4,1,1,40,0,0
134909,-21.7391304347826,4,1,1,40,0,0
134914,-200,4,1,1,40,0,0
134962,-21.7391304347826,4,1,1,40,0,0
134967,-200,4,1,1,40,0,0
135016,-100,4,1,1,40,0,0
135123,-10,4,1,1,40,0,0
135128,-100,4,1,1,40,0,0
135445,-10,4,1,1,40,0,0
135450,-100,4,1,1,40,0,0
135766,-20,4,1,1,40,0,0
135771,-100,4,1,1,40,0,0
135980,-10,4,1,1,40,0,0
135985,-100,4,1,1,40,0,0
136087,-111.111111111111,4,1,1,40,0,0
136194,-117.647058823529,4,1,1,40,0,0
136301,-125,4,1,1,40,0,0
136408,-100,4,1,1,40,0,0
138765,-27.027027027027,4,1,1,40,0,0
138792,-1000,4,1,1,40,0,0
138872,-27.027027027027,4,1,1,40,0,0
138899,-1000,4,1,1,40,0,0
138980,-40,4,1,1,40,0,0
139033,-200,4,1,1,40,0,0
139247,-40,4,1,1,40,0,0
139301,-200,4,1,1,40,0,0
139569,-28.5714285714286,4,1,1,40,0,0
139622,-100,4,1,1,40,0,0
142194,-27.027027027027,4,1,1,40,0,0
142221,-1000,4,1,1,40,0,0
142301,-27.027027027027,4,1,1,40,0,0
142328,-1000,4,1,1,40,0,0
142408,-40,4,1,1,40,0,0
142462,-200,4,1,1,40,0,0
142676,-40,4,1,1,40,0,0
142730,-200,4,1,1,40,0,0
142997,-40,4,1,1,40,0,0
143051,-100,4,1,1,40,0,0
145622,-27.027027027027,4,1,1,40,0,0
145649,-1000,4,1,1,40,0,0
145730,-27.027027027027,4,1,1,40,0,0
145756,-1000,4,1,1,40,0,0
145837,-22.5225225225225,4,1,1,40,0,0
145847,-500,4,1,1,40,0,0
145890,-22.5225225225225,4,1,1,40,0,0
145900,-500,4,1,1,40,0,0
145944,-22.5225225225225,4,1,1,40,0,0
145954,-500,4,1,1,40,0,0
145997,-22.5225225225225,4,1,1,40,0,0
146007,-500,4,1,1,40,0,0
146051,-22.5225225225225,4,1,1,40,0,0
146061,-500,4,1,1,40,0,0
146105,-22.5225225225225,4,1,1,40,0,0
146115,-500,4,1,1,40,0,0
146158,-100,4,1,1,40,0,0
146694,-90.9090909090909,4,1,1,40,0,0
146747,-83.3333333333333,4,1,1,40,0,0
146801,-76.9230769230769,4,1,1,40,0,0
146855,-71.4285714285714,4,1,1,40,0,0
146908,-166.666666666667,4,1,1,40,0,0
146962,-142.857142857143,4,1,1,40,0,0
147015,-125,4,1,1,40,0,0
147069,-111.111111111111,4,1,1,40,0,0
147122,-100,4,1,1,40,0,0
149051,-27.027027027027,4,1,1,40,0,0
149078,-1000,4,1,1,40,0,0
149158,-27.027027027027,4,1,1,40,0,0
149185,-1000,4,1,1,40,0,0
149265,-40,4,1,1,40,0,0
149319,-200,4,1,1,40,0,0
149533,-40,4,1,1,40,0,0
149587,-200,4,1,1,40,0,0
149855,-40,4,1,1,40,0,0
149908,-100,4,1,1,40,0,0
165230,-105.263157894737,4,1,1,40,0,0
165337,-111.111111111111,4,1,1,40,0,0
165444,-117.647058823529,4,1,1,40,0,0
165551,-125,4,1,1,40,0,0
179051,-120.481927710843,4,1,1,40,0,0
179158,-116.279069767442,4,1,1,40,0,0
179265,-111.111111111111,4,1,1,40,0,0
192765,-107.52688172043,4,1,1,40,0,0
192872,-104.166666666667,4,1,1,40,0,0
192980,-100,4,1,1,40,0,0
194265,-133.333333333333,4,1,1,40,0,0
194426,-44.4444444444445,4,1,1,40,0,0
194480,-133.333333333333,4,1,1,40,0,0
194640,-44.4444444444445,4,1,1,40,0,0
194694,-100,4,1,1,40,0,0
195980,-200,4,1,1,40,0,0
196140,-40,4,1,1,40,0,0
196194,-200,4,1,1,40,0,0
196274,-40,4,1,1,40,0,0
196301,-100,4,1,1,40,0,0
199408,-44.4444444444445,4,1,1,40,0,0
199515,-200,4,1,1,40,0,0
199730,-100,4,1,1,40,0,0
199783,-50,4,1,1,40,0,0
199837,-100,4,1,1,40,0,0
201122,-133.333333333333,4,1,1,40,0,0
201283,-44.4444444444445,4,1,1,40,0,0
201337,-133.333333333333,4,1,1,40,0,0
201497,-44.4444444444445,4,1,1,40,0,0
201551,-100,4,1,1,40,0,0
201658,-1000,4,1,1,40,0,0
201738,-27.027027027027,4,1,1,40,0,0
201765,-100,4,1,1,40,0,0
202837,-44.4444444444445,4,1,1,40,0,0
202944,-200,4,1,1,40,0,0
203158,-100,4,1,1,40,0,0
203212,-50,4,1,1,40,0,0
203265,-100,4,1,1,40,0,0
204551,-133.333333333333,4,1,1,40,0,0
204712,-44.4444444444445,4,1,1,40,0,0
204765,-133.333333333333,4,1,1,40,0,0
204926,-44.4444444444445,4,1,1,40,0,0
204980,-100,4,1,1,40,0,0
206265,-44.4444444444445,4,1,1,40,0,0
206372,-200,4,1,1,40,0,0
206587,-100,4,1,1,40,0,0
206640,-50,4,1,1,40,0,0
206694,-100,4,1,1,40,0,0
208051,-133.333333333333,4,1,1,40,0,0
208158,-50,4,1,1,40,0,0
208194,-133.333333333333,4,1,1,40,0,0
208355,-44.4444444444445,4,1,1,40,0,0
208408,-100,4,1,1,40,0,0
209694,-200,4,1,1,40,0,0
209855,-40,4,1,1,40,0,0
209908,-200,4,1,1,40,0,0
209988,-40,4,1,1,40,0,0
210015,-100,4,1,1,40,0,0
213122,-44.4444444444445,4,1,1,40,0,0
213230,-200,4,1,1,40,0,0
213444,-100,4,1,1,40,0,0
213497,-50,4,1,1,40,0,0
213551,-100,4,1,1,40,0,0
214837,-133.333333333333,4,1,1,40,0,0
214917,-44.4444444444445,4,1,1,40,0,0
214944,-100,4,1,1,40,0,0
215051,-133.333333333333,4,1,1,40,0,0
215131,-44.4444444444445,4,1,1,40,0,0
215158,-100,4,1,1,40,0,0
215372,-1000,4,1,1,40,0,0
215453,-27.027027027027,4,1,1,40,0,0
215480,-100,4,1,1,40,0,0
216551,-44.4444444444445,4,1,1,40,0,0
216658,-200,4,1,1,40,0,0
216872,-100,4,1,1,40,0,0
216926,-50,4,1,1,40,0,0
216980,-100,4,1,1,40,0,0
218265,-133.333333333333,4,1,1,40,0,0
218426,-44.4444444444445,4,1,1,40,0,0
218480,-133.333333333333,4,1,1,40,0,0
218640,-44.4444444444445,4,1,1,40,0,0
218694,-100,4,1,1,40,0,0
219980,-44.4444444444445,4,1,1,40,0,0
220087,-200,4,1,1,40,0,0
220301,-100,4,1,1,40,0,0
220355,-50,4,1,1,40,0,0
220408,-100,4,1,1,40,0,0
221694,-133.333333333333,4,1,1,40,0,0
221855,-44.4444444444445,4,1,1,40,0,0
221908,-133.333333333333,4,1,1,40,0,0
222069,-44.4444444444445,4,1,1,40,0,0
222122,-100,4,1,1,40,0,0
223408,-200,4,1,1,40,0,0
223569,-40,4,1,1,40,0,0
223622,-200,4,1,1,40,0,0
223703,-40,4,1,1,40,0,0
223730,-100,4,1,1,40,0,0
226837,-44.4444444444445,4,1,1,40,0,0
226944,-200,4,1,1,40,0,0
227158,-100,4,1,1,40,0,0
227212,-50,4,1,1,40,0,0
227265,-100,4,1,1,40,0,0
228551,-133.333333333333,4,1,1,40,0,0
228712,-44.4444444444445,4,1,1,40,0,0
228765,-133.333333333333,4,1,1,40,0,0
228926,-44.4444444444445,4,1,1,40,0,0
228980,-100,4,1,1,40,0,0
229087,-1000,4,1,1,40,0,0
229167,-27.027027027027,4,1,1,40,0,0
229194,-100,4,1,1,40,0,0
230265,-44.4444444444445,4,1,1,40,0,0
230372,-200,4,1,1,40,0,0
230587,-100,4,1,1,40,0,0
230640,-50,4,1,1,40,0,0
230694,-100,4,1,1,40,0,0
231980,-133.333333333333,4,1,1,40,0,0
232140,-44.4444444444445,4,1,1,40,0,0
232194,-133.333333333333,4,1,1,40,0,0
232355,-44.4444444444445,4,1,1,40,0,0
232408,-100,4,1,1,40,0,0
233694,-44.4444444444445,4,1,1,40,0,0
233801,-200,4,1,1,40,0,0
234015,-100,4,1,1,40,0,0
234069,-50,4,1,1,40,0,0
234122,-100,4,1,1,40,0,0
235480,-133.333333333333,4,1,1,40,0,0
235587,-50,4,1,1,40,0,0
235622,-133.333333333333,4,1,1,40,0,0
235783,-44.4444444444445,4,1,1,40,0,0
235837,-100,4,1,1,40,0,0
237122,-200,4,1,1,40,0,0
237283,-40,4,1,1,40,0,0
237337,-200,4,1,1,40,0,0
237417,-40,4,1,1,40,0,0
237444,-100,4,1,1,40,0,0
240551,-44.4444444444445,4,1,1,40,0,0
240658,-200,4,1,1,40,0,0
240872,-100,4,1,1,40,0,0
240926,-50,4,1,1,40,0,0
240980,-100,4,1,1,40,0,0
242265,-133.333333333333,4,1,1,40,0,0
242346,-44.4444444444445,4,1,1,40,0,0
242372,-100,4,1,1,40,0,0
242480,-133.333333333333,4,1,1,40,0,0
242560,-44.4444444444445,4,1,1,40,0,0
242587,-100,4,1,1,40,0,0
242801,-1000,4,1,1,40,0,0
242881,-27.027027027027,4,1,1,40,0,0
242908,-100,4,1,1,40,0,0
243980,-44.4444444444445,4,1,1,40,0,0
244087,-200,4,1,1,40,0,0
244301,-100,4,1,1,40,0,0
244355,-50,4,1,1,40,0,0
244408,-105.263157894737,4,1,1,40,0,0
245051,-111.111111111111,4,1,1,40,0,0
245694,-117.647058823529,4,1,1,40,0,0
246122,-125,4,1,1,40,0,0
246765,-133.333333333333,4,1,1,40,0,0
247408,-125,4,1,1,40,0,0
247515,-117.647058823529,4,1,1,40,0,0
247622,-111.111111111111,4,1,1,40,0,0
247730,-105.263157894737,4,1,1,40,0,0
247837,-100,4,1,1,40,0,0
249122,-133.333333333333,4,1,1,40,0,0
249283,-44.4444444444445,4,1,1,40,0,0
249337,-133.333333333333,4,1,1,40,0,0
249497,-44.4444444444445,4,1,1,40,0,0
249551,-100,4,1,1,40,0,0
250837,-200,4,1,1,40,0,0
250997,-40,4,1,1,40,0,0
251051,-200,4,1,1,40,0,0
251131,-40,4,1,1,40,0,0
251158,-100,4,1,1,40,0,0
255980,-133.333333333333,4,1,1,40,0,0
256140,-44.4444444444445,4,1,1,40,0,0
256194,-133.333333333333,4,1,1,40,0,0
256355,-44.4444444444445,4,1,1,40,0,0
256408,-100,4,1,1,40,0,0
256515,-1000,4,1,1,40,0,0
256596,-27.027027027027,4,1,1,40,0,0
256622,-100,4,1,1,40,0,0
259408,-133.333333333333,4,1,1,40,0,0
259569,-44.4444444444445,4,1,1,40,0,0
259622,-133.333333333333,4,1,1,40,0,0
259783,-44.4444444444445,4,1,1,40,0,0
259837,-100,4,1,1,40,0,0
262837,-133.333333333333,4,1,1,40,0,0
262997,-44.4444444444445,4,1,1,40,0,0
263051,-133.333333333333,4,1,1,40,0,0
263212,-44.4444444444445,4,1,1,40,0,0
263265,-100,4,1,1,40,0,0
264551,-200,4,1,1,40,0,0
264712,-40,4,1,1,40,0,0
264765,-200,4,1,1,40,0,0
264846,-40,4,1,1,40,0,0
264872,-100,4,1,1,40,0,0
269694,-133.333333333333,4,1,1,40,0,0
269855,-44.4444444444445,4,1,1,40,0,0
269908,-133.333333333333,4,1,1,40,0,0
270069,-44.4444444444445,4,1,1,40,0,0
270122,-100,4,1,1,40,0,0
270230,-1000,4,1,1,40,0,0
270310,-27.027027027027,4,1,1,40,0,0
270337,-100,4,1,1,40,0,0
276551,-133.333333333333,4,1,1,40,0,0
276712,-44.4444444444445,4,1,1,40,0,0
276765,-133.333333333333,4,1,1,40,0,0
276926,-44.4444444444445,4,1,1,40,0,0
276980,-100,4,1,1,40,0,0
278265,-200,4,1,1,40,0,0
278426,-40,4,1,1,40,0,0
278480,-200,4,1,1,40,0,0
278560,-40,4,1,1,40,0,0
278587,-100,4,1,1,40,0,0
283408,-133.333333333333,4,1,1,40,0,0
283569,-44.4444444444445,4,1,1,40,0,0
283622,-133.333333333333,4,1,1,40,0,0
283783,-44.4444444444445,4,1,1,40,0,0
283837,-100,4,1,1,40,0,0
283944,-1000,4,1,1,40,0,0
284024,-27.027027027027,4,1,1,40,0,0
284051,-100,4,1,1,40,0,0
286837,-133.333333333333,4,1,1,40,0,0
286997,-44.4444444444445,4,1,1,40,0,0
287051,-133.333333333333,4,1,1,40,0,0
287212,-44.4444444444445,4,1,1,40,0,0
287265,-100,4,1,1,40,0,0
290265,-133.333333333333,4,1,1,40,0,0
290426,-44.4444444444445,4,1,1,40,0,0
290480,-133.333333333333,4,1,1,40,0,0
290640,-44.4444444444445,4,1,1,40,0,0
290694,-100,4,1,1,40,0,0
291980,-200,4,1,1,40,0,0
292140,-40,4,1,1,40,0,0
292194,-200,4,1,1,40,0,0
292274,-40,4,1,1,40,0,0
292301,-100,4,1,1,40,0,0
297122,-133.333333333333,4,1,1,40,0,0
297283,-44.4444444444445,4,1,1,40,0,0
297337,-133.333333333333,4,1,1,40,0,0
297497,-44.4444444444445,4,1,1,40,0,0
297551,-100,4,1,1,40,0,0
297658,-1000,4,1,1,40,0,0
297738,-27.027027027027,4,1,1,40,0,0
297765,-100,4,1,1,40,0,0
302694,-105.263157894737,4,1,1,40,0,0
302801,-111.111111111111,4,1,1,40,0,0
302908,-117.647058823529,4,1,1,40,0,0
303015,-125,4,1,1,40,0,0
303122,-133.333333333333,4,1,1,40,0,0

[HitObjects]
64,192,980,5,0,0:0:0:0:
448,192,980,1,0,0:0:0:0:
320,192,1408,1,0,0:0:0:0:
64,192,1622,1,0,0:0:0:0:
192,192,1730,1,0,0:0:0:0:
448,192,1837,1,0,0:0:0:0:
448,192,2158,1,0,0:0:0:0:
448,192,2480,1,0,0:0:0:0:
320,192,2694,1,0,0:0:0:0:
320,192,3122,1,0,0:0:0:0:
64,192,3337,1,0,0:0:0:0:
448,192,3444,1,0,0:0:0:0:
192,192,3551,1,0,0:0:0:0:
192,192,3872,1,0,0:0:0:0:
192,192,4194,1,0,0:0:0:0:
320,192,4408,1,0,0:0:0:0:
320,192,4837,1,0,0:0:0:0:
448,192,5051,1,0,0:0:0:0:
64,192,5158,1,0,0:0:0:0:
192,192,5265,1,0,0:0:0:0:
192,192,5587,1,0,0:0:0:0:
192,192,5908,1,0,0:0:0:0:
448,192,6122,1,0,0:0:0:0:
448,192,6551,1,0,0:0:0:0:
64,192,6765,1,0,0:0:0:0:
192,192,6872,1,0,0:0:0:0:
320,192,6980,1,0,0:0:0:0:
320,192,7301,1,0,0:0:0:0:
320,192,7622,1,0,0:0:0:0:
64,192,7837,1,0,0:0:0:0:
64,192,8265,1,0,0:0:0:0:
192,192,8480,1,0,0:0:0:0:
448,192,8587,1,0,0:0:0:0:
320,192,8694,1,0,0:0:0:0:
320,192,9015,1,0,0:0:0:0:
320,192,9337,1,0,0:0:0:0:
192,192,9551,1,0,0:0:0:0:
192,192,9980,1,0,0:0:0:0:
448,192,10194,1,0,0:0:0:0:
64,192,10301,1,0,0:0:0:0:
320,192,10408,1,0,0:0:0:0:
320,192,10730,1,0,0:0:0:0:
320,192,11051,1,0,0:0:0:0:
192,192,11265,1,0,0:0:0:0:
192,192,11694,1,0,0:0:0:0:
448,192,11908,1,0,0:0:0:0:
320,192,12015,1,0,0:0:0:0:
64,192,12122,1,0,0:0:0:0:
64,192,12444,1,0,0:0:0:0:
64,192,12765,1,0,0:0:0:0:
448,192,12980,1,0,0:0:0:0:
448,192,13408,1,0,0:0:0:0:
192,192,13622,1,0,0:0:0:0:
64,192,13730,1,0,0:0:0:0:
320,192,13837,1,0,0:0:0:0:
320,192,14158,1,0,0:0:0:0:
320,192,14480,1,0,0:0:0:0:
64,192,14694,1,0,0:0:0:40:kick1.wav
448,192,14694,1,0,0:0:0:0:
64,192,15122,1,0,0:0:0:40:kick1.wav
320,192,15122,1,0,0:0:0:0:
192,192,15337,1,0,0:0:0:0:
448,192,15444,1,0,0:0:0:0:
64,192,15497,128,0,15551:0:0:0:0:
320,192,15551,1,0,0:0:0:70:hihat.wav
64,192,15872,128,0,15926:0:0:0:70:hihat.wav
448,192,15872,128,0,15926:0:0:0:0:
192,192,16194,1,0,0:0:0:40:kick1.wav
320,192,16194,1,0,0:0:0:0:
192,192,16408,1,0,0:0:0:40:kick1.wav
320,192,16408,1,0,0:0:0:0:
64,192,16837,1,0,0:0:0:40:kick1.wav
320,192,16837,1,0,0:0:0:0:
192,192,17051,1,0,0:0:0:0:
448,192,17158,1,0,0:0:0:0:
320,192,17212,128,0,17265:0:0:0:0:
64,192,17265,1,0,0:0:0:70:hihat.wav
64,192,17587,128,0,17640:0:0:0:70:hihat.wav
448,192,17587,128,0,17640:0:0:0:0:
192,192,17908,1,0,0:0:0:0:
64,192,18122,1,0,0:0:0:40:kick1.wav
320,192,18122,1,0,0:0:0:0:
192,192,18551,1,0,0:0:0:40:kick1.wav
320,192,18551,1,0,0:0:0:0:
448,192,18765,1,0,0:0:0:0:
320,192,18872,1,0,0:0:0:0:
64,192,18926,128,0,18980:0:0:0:0:
192,192,18980,1,0,0:0:0:70:hihat.wav
64,192,19301,128,0,19355:0:0:0:70:hihat.wav
448,192,19301,128,0,19355:0:0:0:0:
192,192,19622,1,0,0:0:0:40:kick1.wav
448,192,19622,1,0,0:0:0:0:
192,192,19837,1,0,0:0:0:40:kick1.wav
448,192,19837,1,0,0:0:0:0:
192,192,20265,1,0,0:0:0:40:kick1.wav
320,192,20265,1,0,0:0:0:0:
64,192,20480,1,0,0:0:0:0:
320,192,20587,1,0,0:0:0:0:
448,192,20640,128,0,20694:0:0:0:0:
192,192,20694,1,0,0:0:0:70:hihat.wav
64,192,21015,128,0,21069:0:0:0:70:hihat.wav
448,192,21015,128,0,21069:0:0:0:0:
320,192,21337,1,0,0:0:0:0:
64,192,21551,1,0,0:0:0:40:kick1.wav
192,192,21551,1,0,0:0:0:0:
64,192,21980,1,0,0:0:0:40:kick1.wav
320,192,21980,1,0,0:0:0:0:
192,192,22194,1,0,0:0:0:0:
320,192,22301,1,0,0:0:0:0:
64,192,22355,128,0,22408:0:0:0:0:
448,192,22408,1,0,0:0:0:70:hihat.wav
64,192,22730,128,0,22783:0:0:0:70:hihat.wav
448,192,22730,128,0,22783:0:0:0:0:
64,192,23051,1,0,0:0:0:40:kick1.wav
192,192,23051,1,0,0:0:0:0:
64,192,23265,1,0,0:0:0:40:kick1.wav
192,192,23265,1,0,0:0:0:0:
64,192,23694,1,0,0:0:0:40:kick1.wav
448,192,23694,1,0,0:0:0:0:
320,192,23908,1,0,0:0:0:0:
448,192,24015,1,0,0:0:0:0:
192,192,24069,128,0,24122:0:0:0:0:
64,192,24122,1,0,0:0:0:70:hihat.wav
64,192,24444,128,0,24497:0:0:0:70:hihat.wav
448,192,24444,128,0,24497:0:0:0:0:
192,192,24765,1,0,0:0:0:0:
64,192,24980,1,0,0:0:0:40:kick1.wav
320,192,24980,1,0,0:0:0:0:
192,192,25408,1,0,0:0:0:40:kick1.wav
320,192,25408,1,0,0:0:0:0:
448,192,25622,1,0,0:0:0:0:
64,192,25730,1,0,0:0:0:0:
192,192,25837,128,0,25890:0:0:0:70:hihat.wav
192,192,26158,128,0,26212:0:0:0:70:hihat.wav
320,192,26480,1,0,0:0:0:40:kick1.wav
448,192,26480,1,0,0:0:0:0:
320,192,26694,1,0,0:0:0:40:kick1.wav
448,192,26694,128,0,28408:0:0:0:0:
64,192,27122,1,0,0:0:0:70:hihat.wav
320,192,27551,1,0,0:0:0:0:
320,192,27872,1,0,0:0:0:0:
64,192,28408,1,0,0:0:0:50:crash.wav
192,192,28408,1,0,0:0:0:40:kick1.wav
320,192,28408,1,0,0:0:0:0:
192,192,28837,1,0,0:0:0:0:
320,192,28944,1,0,0:0:0:0:
64,192,29051,1,0,0:0:0:0:
448,192,29158,1,0,0:0:0:0:
192,192,29212,128,0,29265:0:0:0:0:
320,192,29265,1,0,0:0:0:70:hihat.wav
64,192,29372,1,0,0:0:0:0:
448,192,29480,1,0,0:0:0:0:
192,192,29587,1,0,0:0:0:70:hihat.wav
320,192,29587,1,0,0:0:0:0:
64,192,29908,1,0,0:0:0:40:kick1.wav
448,192,29908,1,0,0:0:0:0:
320,192,30015,1,0,0:0:0:0:
64,192,30122,1,0,0:0:0:40:kick1.wav
448,192,30122,1,0,0:0:0:0:
192,192,30337,1,0,0:0:0:0:
320,192,30444,1,0,0:0:0:0:
64,192,30551,1,0,0:0:0:0:
192,192,30658,1,0,0:0:0:0:
448,192,30765,1,0,0:0:0:0:
64,192,30872,1,0,0:0:0:0:
192,192,30926,128,0,30980:0:0:0:0:
320,192,30980,1,0,0:0:0:70:hihat.wav
448,192,31087,1,0,0:0:0:0:
64,192,31194,1,0,0:0:0:0:
192,192,31301,1,0,0:0:0:50:crash2.wav
320,192,31301,1,0,0:0:0:0:
448,192,31301,1,0,0:0:0:0:
64,192,31622,1,0,0:0:0:40:kick1.wav
192,192,31622,1,0,0:0:0:0:
320,192,31730,1,0,0:0:0:0:
64,192,31837,1,0,0:0:0:40:kick1.wav
192,192,31837,1,0,0:0:0:0:
448,192,32265,1,0,0:0:0:0:
192,192,32372,1,0,0:0:0:0:
320,192,32480,1,0,0:0:0:0:
64,192,32587,1,0,0:0:0:0:
448,192,32640,128,0,32694:0:0:0:0:
192,192,32694,1,0,0:0:0:70:hihat.wav
320,192,32801,1,0,0:0:0:0:
64,192,32908,1,0,0:0:0:0:
192,192,33015,1,0,0:0:0:70:hihat.wav
320,192,33015,1,0,0:0:0:0:
448,192,33337,1,0,0:0:0:0:
64,192,33444,1,0,0:0:0:0:
192,192,33551,1,0,0:0:0:40:kick1.wav
320,192,33551,1,0,0:0:0:0:
448,192,33658,1,0,0:0:0:0:
64,192,33765,1,0,0:0:0:0:
320,192,33872,1,0,0:0:0:0:
192,192,33980,1,0,0:0:0:0:
448,192,34087,1,0,0:0:0:0:
64,192,34194,1,0,0:0:0:0:
192,192,34301,1,0,0:0:0:0:
320,192,34355,128,0,34408:0:0:0:0:
448,192,34408,1,0,0:0:0:70:hihat.wav
64,192,34515,1,0,0:0:0:0:
320,192,34622,1,0,0:0:0:40:kick1.wav
448,192,34622,1,0,0:0:0:0:
192,192,34730,1,0,0:0:0:0:
64,192,34837,1,0,0:0:0:0:
448,192,34837,1,0,0:0:0:0:
192,192,34944,1,0,0:0:0:0:
320,192,34944,1,0,0:0:0:0:
64,192,35051,1,0,0:0:0:0:
320,192,35158,1,0,0:0:0:0:
448,192,35158,1,0,0:0:0:0:
64,192,35265,128,0,35480:0:0:0:40:kick1.wav
192,192,35265,1,0,0:0:0:0:
192,192,35694,1,0,0:0:0:0:
448,192,35801,1,0,0:0:0:0:
64,192,35908,1,0,0:0:0:0:
192,192,36015,1,0,0:0:0:0:
448,192,36069,128,0,36122:0:0:0:0:
320,192,36122,1,0,0:0:0:70:hihat.wav
64,192,36230,1,0,0:0:0:0:
320,192,36337,1,0,0:0:0:0:
192,192,36444,1,0,0:0:0:70:hihat.wav
448,192,36444,1,0,0:0:0:0:
64,192,36765,1,0,0:0:0:40:kick1.wav
320,192,36765,1,0,0:0:0:0:
192,192,36872,1,0,0:0:0:0:
64,192,36980,1,0,0:0:0:40:kick1.wav
320,192,36980,1,0,0:0:0:0:
448,192,37194,1,0,0:0:0:0:
192,192,37301,1,0,0:0:0:0:
320,192,37408,1,0,0:0:0:0:
64,192,37515,1,0,0:0:0:0:
192,192,37622,1,0,0:0:0:0:
448,192,37730,1,0,0:0:0:0:
64,192,37783,128,0,37837:0:0:0:0:
320,192,37837,1,0,0:0:0:70:hihat.wav
192,192,37944,1,0,0:0:0:0:
192,192,38051,1,0,0:0:0:0:
448,192,38158,1,0,0:0:0:0:
64,192,38265,1,0,0:0:0:50:crash2.wav
192,192,38265,1,0,0:0:0:0:
320,192,38265,1,0,0:0:0:0:
192,192,38480,1,0,0:0:0:40:kick1.wav
320,192,38480,1,0,0:0:0:0:
64,192,38587,1,0,0:0:0:0:
192,192,38694,1,0,0:0:0:40:kick1.wav
320,192,38694,1,0,0:0:0:0:
448,192,39122,1,0,0:0:0:0:
192,192,39230,1,0,0:0:0:0:
320,192,39337,1,0,0:0:0:0:
448,192,39444,1,0,0:0:0:0:
192,192,39497,128,0,39551:0:0:0:0:
64,192,39551,1,0,0:0:0:70:hihat.wav
320,192,39658,1,0,0:0:0:0:
448,192,39765,1,0,0:0:0:0:
64,192,39872,1,0,0:0:0:70:hihat.wav
192,192,39872,1,0,0:0:0:0:
448,192,40194,1,0,0:0:0:0:
64,192,40301,1,0,0:0:0:0:
192,192,40408,1,0,0:0:0:40:kick1.wav
320,192,40408,1,0,0:0:0:0:
448,192,40515,1,0,0:0:0:0:
64,192,40622,1,0,0:0:0:0:
320,192,40730,1,0,0:0:0:0:
192,192,40837,1,0,0:0:0:0:
448,192,40944,1,0,0:0:0:0:
320,192,41051,1,0,0:0:0:0:
192,192,41158,1,0,0:0:0:0:
448,192,41212,128,0,41265:0:0:0:0:
64,192,41265,1,0,0:0:0:70:hihat.wav
320,192,41372,1,0,0:0:0:0:
64,192,41480,1,0,0:0:0:40:kick1.wav
448,192,41480,1,0,0:0:0:0:
192,192,41587,1,0,0:0:0:0:
320,192,41694,1,0,0:0:0:0:
448,192,41694,1,0,0:0:0:0:
64,192,41801,1,0,0:0:0:0:
192,192,41801,1,0,0:0:0:0:
320,192,41908,1,0,0:0:0:0:
64,192,42015,1,0,0:0:0:0:
448,192,42015,1,0,0:0:0:0:
192,192,42122,1,0,0:0:0:40:kick1.wav
320,192,42122,1,0,0:0:0:0:
64,192,42551,1,0,0:0:0:0:
192,192,42551,1,0,0:0:0:0:
448,192,42551,1,0,0:0:0:0:
192,192,42765,1,0,0:0:0:0:
320,192,42872,1,0,0:0:0:0:
64,192,42926,128,0,42980:0:0:0:0:
448,192,42980,1,0,0:0:0:70:hihat.wav
192,192,43194,1,0,0:0:0:0:
64,192,43301,1,0,0:0:0:70:hihat.wav
320,192,43301,1,0,0:0:0:0:
448,192,43301,1,0,0:0:0:0:
320,192,43622,1,0,0:0:0:40:kick1.wav
448,192,43622,1,0,0:0:0:0:
192,192,43730,1,0,0:0:0:0:
320,192,43837,1,0,0:0:0:40:kick1.wav
448,192,43837,1,0,0:0:0:0:
64,192,44051,1,0,0:0:0:0:
320,192,44158,1,0,0:0:0:0:
64,192,44265,1,0,0:0:0:0:
192,192,44265,1,0,0:0:0:0:
448,192,44265,1,0,0:0:0:0:
64,192,44480,1,0,0:0:0:0:
448,192,44480,128,0,44694:0:0:0:0:
320,192,44640,128,0,44694:0:0:0:0:
64,192,44694,1,0,0:0:0:70:hihat.wav
192,192,44694,1,0,0:0:0:0:
320,192,44908,1,0,0:0:0:0:
64,192,45015,1,0,0:0:0:0:
192,192,45122,1,0,0:0:0:50:crash2.wav
320,192,45122,1,0,0:0:0:0:
448,192,45122,1,0,0:0:0:0:
448,192,45337,1,0,0:0:0:0:
192,192,45444,1,0,0:0:0:0:
320,192,45551,1,0,0:0:0:40:kick1.wav
448,192,45551,1,0,0:0:0:0:
64,192,45980,1,0,0:0:0:0:
192,192,45980,1,0,0:0:0:0:
448,192,45980,1,0,0:0:0:0:
320,192,46194,1,0,0:0:0:0:
192,192,46301,1,0,0:0:0:0:
448,192,46355,128,0,46408:0:0:0:0:
64,192,46408,1,0,0:0:0:70:hihat.wav
320,192,46622,1,0,0:0:0:0:
64,192,46730,1,0,0:0:0:70:hihat.wav
192,192,46730,1,0,0:0:0:0:
448,192,46730,1,0,0:0:0:0:
320,192,47051,1,0,0:0:0:0:
64,192,47158,1,0,0:0:0:0:
320,192,47265,1,0,0:0:0:40:kick1.wav
448,192,47265,1,0,0:0:0:0:
192,192,47372,1,0,0:0:0:0:
448,192,47480,1,0,0:0:0:0:
64,192,47587,1,0,0:0:0:0:
192,192,47694,1,0,0:0:0:0:
320,192,47694,1,0,0:0:0:0:
448,192,47694,1,0,0:0:0:0:
320,192,47908,1,0,0:0:0:0:
64,192,48069,128,0,48122:0:0:0:0:
192,192,48122,1,0,0:0:0:70:hihat.wav
320,192,48337,1,0,0:0:0:40:kick1.wav
448,192,48337,1,0,0:0:0:0:
192,192,48444,1,0,0:0:0:0:
64,192,48551,1,0,0:0:0:0:
320,192,48551,1,0,0:0:0:0:
192,192,48658,1,0,0:0:0:0:
448,192,48658,1,0,0:0:0:0:
320,192,48765,1,0,0:0:0:0:
64,192,48872,1,0,0:0:0:0:
448,192,48872,1,0,0:0:0:0:
192,192,48980,1,0,0:0:0:40:kick1.wav
320,192,48980,1,0,0:0:0:0:
64,192,49408,1,0,0:0:0:0:
320,192,49408,1,0,0:0:0:0:
448,192,49408,1,0,0:0:0:0:
192,192,49622,1,0,0:0:0:0:
448,192,49730,1,0,0:0:0:0:
64,192,49783,128,0,49837:0:0:0:0:
320,192,49837,1,0,0:0:0:70:hihat.wav
192,192,50051,1,0,0:0:0:0:
64,192,50158,1,0,0:0:0:70:hihat.wav
320,192,50158,1,0,0:0:0:0:
448,192,50158,1,0,0:0:0:0:
192,192,50480,1,0,0:0:0:0:
320,192,50533,1,0,0:0:0:0:
192,192,50587,1,0,0:0:0:0:
448,192,50640,1,0,0:0:0:0:
64,192,50694,1,0,0:0:0:40:kick1.wav
320,192,50694,1,0,0:0:0:0:
192,192,50801,1,0,0:0:0:0:
448,192,50908,1,0,0:0:0:0:
64,192,51015,1,0,0:0:0:0:
192,192,51122,1,0,0:0:0:0:
320,192,51122,1,0,0:0:0:0:
448,192,51122,1,0,0:0:0:0:
64,192,51337,1,0,0:0:0:40:kick1.wav
192,192,51337,1,0,0:0:0:0:
320,192,51444,1,0,0:0:0:0:
192,192,51551,1,0,0:0:0:0:
448,192,51658,1,0,0:0:0:0:
64,192,51765,1,0,0:0:0:0:
192,192,51872,1,0,0:0:0:0:
64,192,51980,1,0,0:0:0:50:crash2.wav
320,192,51980,1,0,0:0:0:0:
448,192,51980,1,0,0:0:0:0:
320,192,52194,1,0,0:0:0:0:
192,192,52301,1,0,0:0:0:0:
320,192,52408,1,0,0:0:0:40:kick1.wav
448,192,52408,1,0,0:0:0:0:
64,192,52837,1,0,0:0:0:0:
192,192,52837,1,0,0:0:0:0:
448,192,52837,1,0,0:0:0:0:
320,192,53051,1,0,0:0:0:0:
192,192,53158,1,0,0:0:0:0:
448,192,53212,128,0,53265:0:0:0:0:
64,192,53265,1,0,0:0:0:70:hihat.wav
320,192,53480,1,0,0:0:0:0:
192,192,53587,1,0,0:0:0:70:hihat.wav
448,192,53694,1,0,0:0:0:0:
64,192,53801,1,0,0:0:0:0:
320,192,53908,1,0,0:0:0:0:
192,192,54015,1,0,0:0:0:0:
64,192,54122,128,0,55837:0:0:0:0:
448,192,54337,1,0,0:0:0:0:
192,192,54444,1,0,0:0:0:0:
320,192,54551,1,0,0:0:0:0:
320,192,54765,1,0,0:0:0:0:
192,192,54980,128,0,55837:0:0:0:0:
320,192,55837,1,0,0:0:0:50:crash.wav
448,192,55837,1,0,0:0:0:40:kick1.wav
64,192,57926,128,0,57980:0:0:0:0:
448,192,57926,128,0,57980:0:0:0:0:
320,192,57980,128,0,58033:0:0:0:0:
64,192,58140,128,0,58408:0:0:0:0:
192,192,58140,128,0,58247:0:0:0:0:
448,192,58247,128,0,58408:0:0:0:0:
320,192,58408,1,0,0:0:0:0:
64,192,58515,128,0,58622:0:0:0:0:
192,192,58515,128,0,58622:0:0:0:0:
320,192,58837,128,0,58944:0:0:0:0:
448,192,58837,128,0,59265:0:0:0:0:
64,192,59051,128,0,59265:0:0:0:0:
192,192,59265,1,0,0:0:0:40:kick1.wav
320,192,59372,128,0,59426:0:0:0:0:
192,192,59480,1,0,0:0:0:0:
448,192,59533,1,0,0:0:0:0:
64,192,59587,1,0,0:0:0:0:
320,192,59640,1,0,0:0:0:0:
64,192,59908,128,0,60980:0:0:0:0:
448,192,60337,128,0,60908:0:0:0:0:
320,192,60658,128,0,60819:0:0:0:0:
192,192,60819,128,0,60980:0:0:0:0:
320,192,60908,128,0,60980:0:0:0:0:
448,192,60980,1,0,0:0:0:0:
448,192,61122,1,0,0:0:0:0:
320,192,61194,128,0,61408:0:0:0:0:
64,192,61408,128,0,61730:0:0:0:0:
192,192,61515,128,0,61730:0:0:0:0:
320,192,61569,128,0,61783:0:0:0:0:
448,192,61622,128,0,61837:0:0:0:0:
64,192,61837,1,0,0:0:0:0:
192,192,61944,128,0,62051:0:0:0:0:
320,192,61944,128,0,62051:0:0:0:0:
64,192,62158,128,0,62265:0:0:0:0:
448,192,62158,128,0,62480:0:0:0:0:
192,192,62265,128,0,62480:0:0:0:0:
320,192,62480,128,0,62587:0:0:0:0:
64,192,62533,128,0,62587:0:0:0:0:
192,192,62587,128,0,62694:0:0:0:0:
448,192,62640,128,0,62694:0:0:0:0:
64,192,62694,1,0,0:0:0:40:kick1.wav
320,192,62694,1,0,0:0:0:0:
320,192,62837,1,0,0:0:0:0:
64,192,63372,128,0,63444:0:0:0:0:
448,192,63444,128,0,63497:0:0:0:0:
320,192,63497,128,0,63551:0:0:0:0:
64,192,63551,128,0,63605:0:0:0:0:
192,192,63551,128,0,63605:0:0:0:0:
320,192,63872,128,0,63980:0:0:0:0:
448,192,63872,128,0,63980:0:0:0:0:
64,192,63980,128,0,64087:0:0:0:0:
192,192,64087,128,0,64194:0:0:0:0:
320,192,64140,128,0,64194:0:0:0:0:
448,192,64194,128,0,64301:0:0:0:0:
64,192,64247,128,0,64301:0:0:0:0:
320,192,64301,128,0,64408:0:0:0:0:
192,192,64355,128,0,64408:0:0:0:0:
64,192,64408,128,0,64515:0:0:0:0:
448,192,64462,128,0,64515:0:0:0:0:
320,192,64515,1,0,0:0:0:0:
192,192,64569,1,0,0:0:0:0:
320,192,64622,1,0,0:0:0:0:
64,192,64676,1,0,0:0:0:0:
448,192,64730,1,0,0:0:0:0:
192,192,64783,1,0,0:0:0:0:
64,192,64837,1,0,0:0:0:0:
320,192,64944,128,0,65158:0:0:0:0:
448,192,65051,128,0,65158:0:0:0:0:
64,192,65105,128,0,65265:0:0:0:0:
192,192,65158,128,0,65265:0:0:0:0:
448,192,65265,128,0,65480:0:0:0:0:
64,192,65372,128,0,65480:0:0:0:0:
192,192,65372,128,0,65480:0:0:0:0:
64,192,65694,128,0,65801:0:0:0:0:
448,192,65694,128,0,65801:0:0:0:0:
64,192,66122,1,0,0:0:0:40:kick1.wav
320,192,66122,128,0,66337:0:0:0:0:
448,192,66122,128,0,66230:0:0:0:0:
320,192,66444,128,0,66658:0:0:0:0:
448,192,66444,128,0,66551:0:0:0:0:
320,192,66765,128,0,66980:0:0:0:0:
448,192,66765,128,0,66872:0:0:0:0:
320,192,67087,128,0,67301:0:0:0:0:
448,192,67087,128,0,67194:0:0:0:0:
320,192,67408,128,0,67730:0:0:0:0:
448,192,67408,128,0,67515:0:0:0:0:
64,192,67569,128,0,67730:0:0:0:0:
192,192,67730,1,0,0:0:0:0:
448,192,67837,1,0,0:0:0:0:
448,192,68051,1,0,0:0:0:0:
448,192,68265,128,0,68587:0:0:0:0:
64,192,68372,128,0,68694:0:0:0:0:
192,192,68426,128,0,68694:0:0:0:0:
320,192,68480,128,0,68587:0:0:0:0:
320,192,68694,128,0,68801:0:0:0:0:
448,192,68694,128,0,68801:0:0:0:0:
64,192,69015,128,0,69551:0:0:0:0:
192,192,69015,128,0,69122:0:0:0:0:
192,192,69551,1,0,0:0:0:50:crash.wav
320,192,69551,1,0,0:0:0:40:kick1.wav
448,192,69551,1,0,0:0:0:0:
64,192,69658,1,0,0:0:0:0:
320,192,69765,1,0,0:0:0:0:
192,192,69872,1,0,0:0:0:0:
320,192,69980,1,0,0:0:0:100:hihat.wav
448,192,69980,1,0,0:0:0:0:
64,192,70087,1,0,0:0:0:0:
192,192,70194,1,0,0:0:0:0:
320,192,70301,1,0,0:0:0:100:hihat.wav
448,192,70301,1,0,0:0:0:0:
64,192,70408,1,0,0:0:0:0:
320,192,70515,1,0,0:0:0:0:
192,192,70622,1,0,0:0:0:0:
448,192,70730,1,0,0:0:0:0:
64,192,70837,1,0,0:0:0:100:hihat.wav
192,192,70837,1,0,0:0:0:0:
320,192,70944,1,0,0:0:0:0:
192,192,71051,1,0,0:0:0:0:
448,192,71158,1,0,0:0:0:0:
64,192,71265,1,0,0:0:0:0:
320,192,71372,1,0,0:0:0:0:
192,192,71480,1,0,0:0:0:0:
448,192,71587,1,0,0:0:0:0:
64,192,71694,1,0,0:0:0:100:hihat.wav
192,192,71694,1,0,0:0:0:0:
320,192,71801,1,0,0:0:0:0:
448,192,71908,1,0,0:0:0:0:
64,192,72015,1,0,0:0:0:100:hihat.wav
192,192,72015,1,0,0:0:0:0:
320,192,72122,1,0,0:0:0:0:
64,192,72230,1,0,0:0:0:0:
448,192,72337,1,0,0:0:0:0:
192,192,72444,1,0,0:0:0:0:
320,192,72551,1,0,0:0:0:100:hihat.wav
448,192,72551,1,0,0:0:0:0:
64,192,72658,1,0,0:0:0:0:
320,192,72765,1,0,0:0:0:0:
192,192,72872,1,0,0:0:0:0:
64,192,72980,1,0,0:0:0:0:
448,192,72980,128,0,73408:0:0:0:0:
320,192,73087,1,0,0:0:0:0:
192,192,73194,1,0,0:0:0:0:
64,192,73301,1,0,0:0:0:0:
192,192,73408,1,0,0:0:0:100:hihat.wav
320,192,73408,1,0,0:0:0:0:
64,192,73515,1,0,0:0:0:0:
448,192,73622,1,0,0:0:0:0:
192,192,73730,1,0,0:0:0:100:hihat.wav
320,192,73730,1,0,0:0:0:0:
64,192,73837,1,0,0:0:0:0:
448,192,73944,1,0,0:0:0:0:
192,192,74051,1,0,0:0:0:0:
320,192,74158,1,0,0:0:0:0:
64,192,74265,1,0,0:0:0:100:hihat.wav
448,192,74265,1,0,0:0:0:0:
192,192,74372,1,0,0:0:0:0:
320,192,74480,1,0,0:0:0:0:
64,192,74587,1,0,0:0:0:0:
320,192,74694,1,0,0:0:0:40:kick1.wav
448,192,74694,1,0,0:0:0:0:
192,192,74801,1,0,0:0:0:0:
64,192,74908,1,0,0:0:0:0:
448,192,75015,1,0,0:0:0:0:
64,192,75122,1,0,0:0:0:100:hihat.wav
320,192,75122,1,0,0:0:0:0:
192,192,75230,1,0,0:0:0:0:
448,192,75337,1,0,0:0:0:0:
64,192,75444,1,0,0:0:0:100:hihat.wav
320,192,75444,1,0,0:0:0:0:
192,192,75551,1,0,0:0:0:0:
448,192,75658,1,0,0:0:0:0:
64,192,75765,1,0,0:0:0:0:
320,192,75872,1,0,0:0:0:0:
192,192,75980,1,0,0:0:0:100:hihat.wav
448,192,75980,1,0,0:0:0:0:
64,192,76087,1,0,0:0:0:0:
320,192,76194,1,0,0:0:0:0:
192,192,76301,1,0,0:0:0:0:
64,192,76408,128,0,76837:0:0:0:0:
448,192,76408,1,0,0:0:0:0:
320,192,76515,1,0,0:0:0:0:
192,192,76622,1,0,0:0:0:0:
448,192,76730,1,0,0:0:0:0:
192,192,76837,1,0,0:0:0:100:hihat.wav
320,192,76837,1,0,0:0:0:0:
64,192,76944,1,0,0:0:0:0:
448,192,77051,1,0,0:0:0:0:
192,192,77158,1,0,0:0:0:100:hihat.wav
320,192,77158,1,0,0:0:0:0:
64,192,77265,1,0,0:0:0:0:
448,192,77372,1,0,0:0:0:0:
192,192,77480,1,0,0:0:0:0:
320,192,77587,1,0,0:0:0:0:
64,192,77694,1,0,0:0:0:100:hihat.wav
448,192,77694,1,0,0:0:0:0:
192,192,77801,1,0,0:0:0:0:
64,192,77908,1,0,0:0:0:0:
320,192,78015,1,0,0:0:0:0:
64,192,78122,1,0,0:0:0:0:
192,192,78122,1,0,0:0:0:0:
448,192,78230,1,0,0:0:0:0:
192,192,78337,1,0,0:0:0:0:
320,192,78444,1,0,0:0:0:0:
64,192,78551,1,0,0:0:0:100:hihat.wav
448,192,78551,1,0,0:0:0:0:
320,192,78658,1,0,0:0:0:0:
192,192,78765,1,0,0:0:0:0:
64,192,78872,1,0,0:0:0:100:hihat.wav
448,192,78872,1,0,0:0:0:0:
320,192,78980,1,0,0:0:0:0:
192,192,79087,1,0,0:0:0:0:
64,192,79194,1,0,0:0:0:0:
320,192,79194,1,0,0:0:0:0:
448,192,79301,1,0,0:0:0:0:
192,192,79408,1,0,0:0:0:100:hihat.wav
320,192,79408,1,0,0:0:0:0:
64,192,79515,1,0,0:0:0:0:
448,192,79622,1,0,0:0:0:0:
192,192,79730,1,0,0:0:0:0:
320,192,79837,1,0,0:0:0:0:
448,192,79837,128,0,80265:0:0:0:0:
64,192,79944,1,0,0:0:0:0:
192,192,80051,1,0,0:0:0:0:
64,192,80158,1,0,0:0:0:0:
192,192,80265,1,0,0:0:0:25:snare.wav
320,192,80265,1,0,0:0:0:0:
64,192,80372,1,0,0:0:0:0:
448,192,80480,1,0,0:0:0:0:
192,192,80587,1,0,0:0:0:25:snare.wav
320,192,80587,1,0,0:0:0:0:
64,192,80694,1,0,0:0:0:0:
448,192,80801,1,0,0:0:0:0:
64,192,80908,1,0,0:0:0:40:kick1.wav
320,192,80908,1,0,0:0:0:0:
192,192,81015,1,0,0:0:0:0:
64,192,81122,1,0,0:0:0:25:snare.wav
320,192,81122,1,0,0:0:0:0:
448,192,81122,1,0,0:0:0:0:
192,192,81230,1,0,0:0:0:0:
320,192,81337,1,0,0:0:0:0:
64,192,81444,1,0,0:0:0:25:snare.wav
192,192,81444,1,0,0:0:0:0:
448,192,81444,1,0,0:0:0:0:
320,192,81551,1,0,0:0:0:0:
64,192,81658,1,0,0:0:0:0:
192,192,81765,1,0,0:0:0:40:kick1.wav
320,192,81765,1,0,0:0:0:0:
448,192,81872,1,0,0:0:0:0:
64,192,81980,1,0,0:0:0:25:snare.wav
192,192,81980,1,0,0:0:0:0:
320,192,81980,1,0,0:0:0:0:
448,192,82087,1,0,0:0:0:0:
192,192,82194,1,0,0:0:0:0:
64,192,82301,1,0,0:0:0:25:snare.wav
320,192,82301,1,0,0:0:0:0:
448,192,82301,1,0,0:0:0:0:
192,192,82408,1,0,0:0:0:0:
448,192,82515,1,0,0:0:0:0:
64,192,82622,1,0,0:0:0:40:kick1.wav
192,192,82622,1,0,0:0:0:0:
320,192,82730,1,0,0:0:0:0:
64,192,82837,1,0,0:0:0:25:snare.wav
192,192,82837,1,0,0:0:0:0:
448,192,82837,1,0,0:0:0:0:
64,192,83265,1,0,0:0:0:40:kick1.wav
320,192,83265,128,0,83587:0:0:0:0:
448,192,83265,128,0,83587:0:0:0:0:
64,192,83694,1,0,0:0:0:30:snare.wav
320,192,83694,1,0,0:0:0:0:
448,192,83694,1,0,0:0:0:0:
320,192,83908,1,0,0:0:0:0:
64,192,84015,128,0,84230:0:0:0:30:snare.wav
192,192,84015,1,0,0:0:0:0:
448,192,84015,128,0,84230:0:0:0:0:
64,192,84337,1,0,0:0:0:40:kick1.wav
448,192,84337,1,0,0:0:0:0:
64,192,84551,1,0,0:0:0:30:snare.wav
192,192,84551,1,0,0:0:0:0:
320,192,84551,1,0,0:0:0:0:
64,192,84765,1,0,0:0:0:0:
448,192,84765,128,0,84980:0:0:0:0:
320,192,84872,128,0,84980:0:0:0:0:
64,192,84980,1,0,0:0:0:40:kick1.wav
192,192,84980,1,0,0:0:0:0:
320,192,85087,128,0,85194:0:0:0:0:
64,192,85194,1,0,0:0:0:0:
64,192,85408,1,0,0:0:0:30:snare.wav
320,192,85408,128,0,85515:0:0:0:0:
448,192,85408,128,0,85515:0:0:0:0:
192,192,85622,1,0,0:0:0:0:
64,192,85730,128,0,85837:0:0:0:30:snare.wav
320,192,85730,128,0,85837:0:0:0:0:
448,192,85730,1,0,0:0:0:0:
64,192,86051,1,0,0:0:0:40:kick1.wav
448,192,86051,1,0,0:0:0:0:
64,192,86265,1,0,0:0:0:30:snare.wav
320,192,86265,1,0,0:0:0:0:
448,192,86265,128,0,86694:0:0:0:0:
64,192,86694,128,0,87015:0:0:0:40:kick1.wav
192,192,86694,128,0,87015:0:0:0:0:
320,192,86694,1,0,0:0:0:0:
64,192,87122,1,0,0:0:0:30:snare.wav
192,192,87122,1,0,0:0:0:0:
448,192,87122,1,0,0:0:0:0:
320,192,87337,1,0,0:0:0:0:
64,192,87444,128,0,87658:0:0:0:30:snare.wav
192,192,87444,128,0,87658:0:0:0:0:
448,192,87444,1,0,0:0:0:0:
64,192,87765,1,0,0:0:0:40:kick1.wav
448,192,87765,1,0,0:0:0:0:
320,192,87819,1,0,0:0:0:0:
192,192,87872,1,0,0:0:0:0:
448,192,87926,1,0,0:0:0:0:
64,192,87980,128,0,88408:0:0:0:30:snare.wav
320,192,87980,1,0,0:0:0:0:
192,192,88194,128,0,88408:0:0:0:0:
448,192,88194,1,0,0:0:0:0:
320,192,88408,1,0,0:0:0:40:kick1.wav
448,192,88515,128,0,88622:0:0:0:0:
64,192,88622,1,0,0:0:0:0:
192,192,88837,128,0,88944:0:0:0:30:snare.wav
320,192,88837,128,0,88944:0:0:0:0:
448,192,88837,1,0,0:0:0:0:
64,192,89051,1,0,0:0:0:0:
192,192,89158,128,0,89265:0:0:0:30:snare.wav
320,192,89158,1,0,0:0:0:0:
448,192,89158,128,0,89265:0:0:0:0:
64,192,89480,1,0,0:0:0:40:kick1.wav
448,192,89480,1,0,0:0:0:0:
64,192,89694,1,0,0:0:0:30:snare.wav
192,192,89694,1,0,0:0:0:0:
320,192,89694,128,0,90122:0:0:0:0:
64,192,90122,128,0,90444:0:0:0:40:kick1.wav
192,192,90122,1,0,0:0:0:0:
448,192,90122,128,0,90444:0:0:0:0:
64,192,90551,1,0,0:0:0:30:snare.wav
192,192,90551,1,0,0:0:0:0:
448,192,90551,1,0,0:0:0:0:
192,192,90765,1,0,0:0:0:0:
64,192,90872,128,0,91087:0:0:0:30:snare.wav
320,192,90872,128,0,91087:0:0:0:0:
448,192,90872,1,0,0:0:0:0:
64,192,91194,1,0,0:0:0:40:kick1.wav
320,192,91194,1,0,0:0:0:0:
448,192,91301,128,0,91408:0:0:0:0:
64,192,91408,1,0,0:0:0:30:snare.wav
192,192,91408,1,0,0:0:0:0:
320,192,91408,1,0,0:0:0:0:
448,192,91515,128,0,91551:0:0:0:0:
192,192,91622,128,0,91658:0:0:0:0:
320,192,91694,128,0,91730:0:0:0:0:
192,192,91765,128,0,91801:0:0:0:0:
320,192,91837,1,0,0:0:0:40:kick1.wav
448,192,91837,1,0,0:0:0:0:
64,192,91944,128,0,92051:0:0:0:0:
192,192,92051,1,0,0:0:0:0:
64,192,92265,1,0,0:0:0:30:snare.wav
320,192,92265,128,0,92372:0:0:0:0:
448,192,92265,128,0,92372:0:0:0:0:
192,192,92480,1,0,0:0:0:0:
64,192,92587,128,0,92694:0:0:0:30:snare.wav
320,192,92587,1,0,0:0:0:0:
448,192,92587,128,0,92694:0:0:0:0:
64,192,92908,1,0,0:0:0:40:kick1.wav
448,192,92908,1,0,0:0:0:0:
64,192,93122,1,0,0:0:0:30:snare.wav
192,192,93122,128,0,93551:0:0:0:0:
320,192,93122,1,0,0:0:0:0:
64,192,93551,1,0,0:0:0:40:kick1.wav
320,192,93551,128,0,93872:0:0:0:0:
448,192,93551,128,0,93872:0:0:0:0:
64,192,93980,1,0,0:0:0:30:snare.wav
320,192,93980,1,0,0:0:0:0:
448,192,93980,1,0,0:0:0:0:
192,192,94194,1,0,0:0:0:0:
64,192,94301,128,0,94515:0:0:0:30:snare.wav
320,192,94301,1,0,0:0:0:0:
448,192,94301,128,0,94515:0:0:0:0:
64,192,94622,1,0,0:0:0:40:kick1.wav
448,192,94622,1,0,0:0:0:0:
192,192,94730,1,0,0:0:0:0:
320,192,94837,1,0,0:0:0:30:snare.wav
448,192,94837,1,0,0:0:0:0:
64,192,94944,1,0,0:0:0:0:
192,192,95051,128,0,95158:0:0:0:0:
320,192,95158,128,0,95265:0:0:0:0:
448,192,95265,1,0,0:0:0:40:kick1.wav
64,192,95372,1,0,0:0:0:0:
448,192,95480,1,0,0:0:0:0:
192,192,95587,1,0,0:0:0:0:
320,192,95694,1,0,0:0:0:40:kick1.wav
448,192,95694,1,0,0:0:0:0:
64,192,95801,128,0,95908:0:0:0:0:
192,192,95908,1,0,0:0:0:40:kick1.wav
448,192,96015,1,0,0:0:0:0:
192,192,96122,1,0,0:0:0:0:
64,192,96230,1,0,0:0:0:0:
192,192,96337,1,0,0:0:0:40:kick1.wav
320,192,96337,1,0,0:0:0:0:
448,192,96444,128,0,96551:0:0:0:0:
64,192,96551,1,0,0:0:0:40:kick1.wav
320,192,96658,1,0,0:0:0:0:
64,192,96765,1,0,0:0:0:0:
448,192,96872,1,0,0:0:0:0:
64,192,96980,128,0,97408:0:0:0:40:kick1.wav
320,192,96980,1,0,0:0:0:0:
192,192,97408,1,0,0:0:0:30:snare.wav
320,192,97408,1,0,0:0:0:0:
448,192,97408,1,0,0:0:0:0:
192,192,97622,1,0,0:0:0:0:
64,192,97730,128,0,97944:0:0:0:30:snare.wav
320,192,97730,128,0,97944:0:0:0:0:
448,192,97730,1,0,0:0:0:0:
64,192,98051,1,0,0:0:0:40:kick1.wav
320,192,98051,1,0,0:0:0:0:
64,192,98265,1,0,0:0:0:30:snare.wav
192,192,98265,1,0,0:0:0:0:
448,192,98265,1,0,0:0:0:0:
64,192,98480,128,0,98694:0:0:0:0:
448,192,98480,1,0,0:0:0:0:
192,192,98587,128,0,98694:0:0:0:0:
320,192,98694,1,0,0:0:0:40:kick1.wav
448,192,98801,128,0,98908:0:0:0:0:
64,192,98908,1,0,0:0:0:0:
192,192,99122,128,0,99230:0:0:0:30:snare.wav
320,192,99122,128,0,99230:0:0:0:0:
448,192,99122,1,0,0:0:0:0:
64,192,99337,1,0,0:0:0:0:
192,192,99444,128,0,99551:0:0:0:30:snare.wav
320,192,99444,1,0,0:0:0:0:
448,192,99444,128,0,99551:0:0:0:0:
64,192,99765,1,0,0:0:0:40:kick1.wav
448,192,99765,1,0,0:0:0:0:
64,192,99980,1,0,0:0:0:30:snare.wav
192,192,99980,1,0,0:0:0:0:
320,192,99980,128,0,100408:0:0:0:0:
64,192,100408,128,0,100730:0:0:0:40:kick1.wav
192,192,100408,1,0,0:0:0:0:
448,192,100408,128,0,100730:0:0:0:0:
64,192,100837,1,0,0:0:0:30:snare.wav
320,192,100837,1,0,0:0:0:0:
448,192,100837,1,0,0:0:0:0:
320,192,101051,1,0,0:0:0:0:
64,192,101158,128,0,101372:0:0:0:30:snare.wav
192,192,101158,128,0,101372:0:0:0:0:
448,192,101158,1,0,0:0:0:0:
64,192,101480,1,0,0:0:0:40:kick1.wav
448,192,101480,1,0,0:0:0:0:
192,192,101533,1,0,0:0:0:0:
320,192,101587,1,0,0:0:0:0:
64,192,101640,1,0,0:0:0:0:
192,192,101694,1,0,0:0:0:30:snare.wav
448,192,101694,128,0,102122:0:0:0:0:
64,192,101908,1,0,0:0:0:0:
320,192,101908,128,0,102122:0:0:0:0:
192,192,102122,1,0,0:0:0:40:kick1.wav
64,192,102230,128,0,102337:0:0:0:0:
448,192,102337,1,0,0:0:0:0:
64,192,102551,1,0,0:0:0:30:snare.wav
192,192,102551,128,0,102658:0:0:0:0:
320,192,102551,128,0,102658:0:0:0:0:
448,192,102765,1,0,0:0:0:0:
64,192,102872,128,0,102980:0:0:0:30:snare.wav
192,192,102872,1,0,0:0:0:0:
320,192,102872,128,0,102980:0:0:0:0:
64,192,103194,1,0,0:0:0:40:kick1.wav
448,192,103194,1,0,0:0:0:0:
64,192,103408,1,0,0:0:0:30:snare.wav
192,192,103408,128,0,103837:0:0:0:0:
320,192,103408,1,0,0:0:0:0:
64,192,103837,1,0,0:0:0:40:kick1.wav
320,192,103837,128,0,104158:0:0:0:0:
448,192,103837,128,0,104158:0:0:0:0:
64,192,104265,1,0,0:0:0:30:snare.wav
320,192,104265,1,0,0:0:0:0:
448,192,104265,1,0,0:0:0:0:
320,192,104480,1,0,0:0:0:0:
64,192,104587,128,0,104801:0:0:0:30:snare.wav
192,192,104587,128,0,104801:0:0:0:0:
448,192,104587,1,0,0:0:0:0:
64,192,104908,1,0,0:0:0:40:kick1.wav
192,192,104908,1,0,0:0:0:0:
320,192,105015,128,0,105122:0:0:0:0:
64,192,105122,1,0,0:0:0:30:snare.wav
448,192,105122,1,0,0:0:0:0:
192,192,105230,128,0,105265:0:0:0:0:
448,192,105337,128,0,105372:0:0:0:0:
64,192,105408,128,0,105444:0:0:0:0:
448,192,105480,128,0,105515:0:0:0:0:
64,192,105551,1,0,0:0:0:40:kick1.wav
192,192,105551,1,0,0:0:0:0:
320,192,105658,128,0,105765:0:0:0:0:
64,192,105765,1,0,0:0:0:0:
64,192,105980,1,0,0:0:0:30:snare.wav
192,192,105980,128,0,106087:0:0:0:0:
448,192,105980,128,0,106087:0:0:0:0:
320,192,106194,1,0,0:0:0:0:
64,192,106301,128,0,106408:0:0:0:30:snare.wav
192,192,106301,128,0,106408:0:0:0:0:
448,192,106301,1,0,0:0:0:0:
64,192,106622,1,0,0:0:0:40:kick1.wav
448,192,106622,1,0,0:0:0:0:
64,192,106837,128,0,107265:0:0:0:30:snare.wav
192,192,106837,1,0,0:0:0:0:
320,192,106837,1,0,0:0:0:0:
192,192,107265,1,0,0:0:0:40:kick1.wav
320,192,107265,128,0,107587:0:0:0:0:
448,192,107265,128,0,107587:0:0:0:0:
64,192,107694,1,0,0:0:0:30:snare.wav
320,192,107694,1,0,0:0:0:0:
448,192,107694,1,0,0:0:0:0:
320,192,107908,1,0,0:0:0:0:
64,192,108015,128,0,108337:0:0:0:30:snare.wav
192,192,108015,128,0,108337:0:0:0:0:
448,192,108015,128,0,108337:0:0:0:0:
320,192,108658,128,0,108872:0:0:0:0:
192,192,108765,128,0,108872:0:0:0:0:
448,192,109015,128,0,109194:0:0:0:0:
64,192,109122,128,0,109194:0:0:0:0:
320,192,109122,128,0,109194:0:0:0:0:
192,192,109301,128,0,109480:0:0:0:0:
320,192,109408,128,0,109480:0:0:0:0:
448,192,109408,128,0,109480:0:0:0:0:
64,192,109587,128,0,109765:0:0:0:0:
192,192,109694,128,0,109765:0:0:0:0:
448,192,109694,128,0,109765:0:0:0:0:
320,192,109872,128,0,110051:0:0:0:0:
64,192,109980,128,0,110051:0:0:0:0:
192,192,109980,128,0,110051:0:0:0:0:
448,192,110158,128,0,110337:0:0:0:0:
192,192,110265,128,0,110337:0:0:0:0:
320,192,110265,128,0,110337:0:0:0:0:
64,192,110444,128,0,110622:0:0:0:0:
192,192,110551,128,0,110622:0:0:0:0:
448,192,110551,128,0,110622:0:0:0:0:
64,192,110694,1,0,0:0:0:40:kick1.wav
448,192,110694,128,0,110908:0:0:0:0:
320,192,111122,1,0,0:0:0:0:
192,192,111444,1,0,0:0:0:0:
64,192,111765,1,0,0:0:0:30:kick1.wav
448,192,111765,1,0,0:0:0:0:
64,192,111980,1,0,0:0:0:30:snare.wav
192,192,111980,1,0,0:0:0:0:
320,192,111980,1,0,0:0:0:0:
320,192,112194,1,0,0:0:0:0:
64,192,112408,1,0,0:0:0:40:kick1.wav
448,192,112408,1,0,0:0:0:0:
64,192,112837,1,0,0:0:0:30:snare.wav
192,192,112837,1,0,0:0:0:0:
320,192,112837,1,0,0:0:0:0:
320,192,113051,1,0,0:0:0:0:
64,192,113158,1,0,0:0:0:30:snare.wav
192,192,113158,1,0,0:0:0:0:
448,192,113158,1,0,0:0:0:0:
64,192,113480,1,0,0:0:0:40:kick1.wav
192,192,113480,1,0,0:0:0:0:
64,192,113694,1,0,0:0:0:30:snare.wav
320,192,113694,1,0,0:0:0:0:
448,192,113694,1,0,0:0:0:0:
192,192,113765,128,0,114122:0:0:0:0:
320,192,113908,128,0,114122:0:0:0:0:
64,192,114122,128,0,114337:0:0:0:40:kick1.wav
448,192,114122,1,0,0:0:0:0:
192,192,114551,1,0,0:0:0:30:snare.wav
320,192,114551,128,0,114605:0:0:0:0:
448,192,114551,1,0,0:0:0:0:
192,192,114765,1,0,0:0:0:0:
64,192,114872,128,0,114926:0:0:0:30:snare.wav
320,192,114872,1,0,0:0:0:0:
448,192,114872,1,0,0:0:0:0:
64,192,115194,1,0,0:0:0:40:kick1.wav
320,192,115194,128,0,115247:0:0:0:0:
192,192,115408,1,0,0:0:0:30:snare.wav
320,192,115408,1,0,0:0:0:0:
448,192,115408,128,0,115622:0:0:0:0:
64,192,115480,128,0,115622:0:0:0:0:
192,192,115622,1,0,0:0:0:0:
320,192,115730,1,0,0:0:0:0:
64,192,115837,128,0,116158:0:0:0:40:kick1.wav
192,192,115837,128,0,116158:0:0:0:0:
64,192,116265,1,0,0:0:0:30:snare.wav
192,192,116265,1,0,0:0:0:0:
448,192,116265,1,0,0:0:0:0:
448,192,116480,1,0,0:0:0:0:
64,192,116587,1,0,0:0:0:30:snare.wav
192,192,116587,1,0,0:0:0:0:
320,192,116587,1,0,0:0:0:0:
64,192,116908,1,0,0:0:0:40:kick1.wav
448,192,116908,1,0,0:0:0:0:
192,192,117122,1,0,0:0:0:30:snare.wav
320,192,117122,1,0,0:0:0:0:
448,192,117122,1,0,0:0:0:0:
64,192,117194,128,0,117551:0:0:0:0:
192,192,117337,128,0,117551:0:0:0:0:
320,192,117551,128,0,117872:0:0:0:40:kick1.wav
448,192,117551,128,0,117872:0:0:0:0:
64,192,117980,1,0,0:0:0:30:snare.wav
320,192,117980,1,0,0:0:0:0:
448,192,117980,128,0,118033:0:0:0:0:
64,192,118194,1,0,0:0:0:0:
192,192,118301,1,0,0:0:0:30:snare.wav
320,192,118301,128,0,118355:0:0:0:0:
448,192,118301,1,0,0:0:0:0:
64,192,118622,128,0,118676:0:0:0:40:kick1.wav
320,192,118622,1,0,0:0:0:0:
64,192,118837,1,0,0:0:0:30:snare.wav
192,192,118837,1,0,0:0:0:0:
448,192,118837,1,0,0:0:0:0:
320,192,118908,128,0,119158:0:0:0:0:
192,192,119051,128,0,119158:0:0:0:0:
64,192,119265,128,0,119480:0:0:0:40:kick1.wav
448,192,119265,1,0,0:0:0:0:
192,192,119694,1,0,0:0:0:30:snare.wav
320,192,119694,1,0,0:0:0:0:
448,192,119694,1,0,0:0:0:0:
192,192,119908,1,0,0:0:0:0:
64,192,120015,1,0,0:0:0:30:snare.wav
320,192,120015,1,0,0:0:0:0:
448,192,120015,1,0,0:0:0:0:
64,192,120337,1,0,0:0:0:40:kick1.wav
192,192,120337,1,0,0:0:0:0:
64,192,120551,1,0,0:0:0:30:snare.wav
320,192,120551,1,0,0:0:0:0:
448,192,120551,1,0,0:0:0:0:
192,192,120622,128,0,120980:0:0:0:0:
448,192,120765,128,0,120980:0:0:0:0:
64,192,120980,128,0,121301:0:0:0:40:kick1.wav
320,192,120980,128,0,121301:0:0:0:0:
64,192,121408,1,0,0:0:0:30:snare.wav
320,192,121408,128,0,121462:0:0:0:0:
448,192,121408,1,0,0:0:0:0:
320,192,121622,1,0,0:0:0:0:
64,192,121730,1,0,0:0:0:30:snare.wav
192,192,121730,128,0,121783:0:0:0:0:
448,192,121730,1,0,0:0:0:0:
192,192,122051,1,0,0:0:0:40:kick1.wav
320,192,122051,128,0,122105:0:0:0:0:
64,192,122265,128,0,122480:0:0:0:30:snare.wav
192,192,122265,1,0,0:0:0:0:
448,192,122265,1,0,0:0:0:0:
320,192,122337,128,0,122480:0:0:0:0:
192,192,122480,1,0,0:0:0:0:
448,192,122587,1,0,0:0:0:0:
64,192,122694,1,0,0:0:0:40:kick1.wav
192,192,122694,1,0,0:0:0:0:
320,192,122694,1,0,0:0:0:0:
64,192,123122,1,0,0:0:0:40:kick1.wav
192,192,123122,1,0,0:0:0:0:
320,192,123122,1,0,0:0:0:0:
192,192,123444,1,0,0:0:0:40:kick1.wav
320,192,123444,1,0,0:0:0:0:
448,192,123444,1,0,0:0:0:0:
64,192,123765,1,0,0:0:0:40:kick1.wav
320,192,123765,1,0,0:0:0:0:
448,192,123765,1,0,0:0:0:0:
64,192,123980,1,0,0:0:0:30:snare.wav
192,192,123980,1,0,0:0:0:0:
448,192,123980,128,0,124408:0:0:0:0:
64,192,124194,1,0,0:0:0:0:
320,192,124194,128,0,124408:0:0:0:0:
64,192,124408,128,0,124837:0:0:0:0:
192,192,124408,1,0,0:0:0:0:
320,192,124837,1,0,0:0:0:0:
448,192,125158,1,0,0:0:0:0:
64,192,125480,1,0,0:0:0:30:kick1.wav
192,192,125480,1,0,0:0:0:0:
64,192,125694,1,0,0:0:0:30:snare.wav
320,192,125694,1,0,0:0:0:0:
448,192,125694,128,0,125908:0:0:0:0:
192,192,125765,128,0,125908:0:0:0:0:
64,192,125908,1,0,0:0:0:0:
64,192,126122,1,0,0:0:0:40:kick1.wav
448,192,126122,128,0,126337:0:0:0:0:
320,192,126444,128,0,126551:0:0:0:0:
64,192,126551,1,0,0:0:0:30:snare.wav
192,192,126551,1,0,0:0:0:0:
448,192,126551,1,0,0:0:0:0:
192,192,126765,1,0,0:0:0:0:
64,192,126872,1,0,0:0:0:30:snare.wav
320,192,126872,1,0,0:0:0:0:
448,192,126872,1,0,0:0:0:0:
64,192,127194,1,0,0:0:0:40:kick1.wav
192,192,127194,1,0,0:0:0:0:
64,192,127408,1,0,0:0:0:30:snare.wav
192,192,127408,1,0,0:0:0:0:
320,192,127408,1,0,0:0:0:0:
448,192,127480,128,0,127837:0:0:0:0:
64,192,127622,128,0,127837:0:0:0:0:
192,192,127837,128,0,128158:0:0:0:40:kick1.wav
320,192,127837,128,0,128158:0:0:0:0:
64,192,128265,128,0,128319:0:0:0:30:snare.wav
192,192,128265,1,0,0:0:0:0:
320,192,128265,1,0,0:0:0:0:
320,192,128480,1,0,0:0:0:0:
64,192,128587,1,0,0:0:0:30:snare.wav
192,192,128587,128,0,128640:0:0:0:0:
448,192,128587,1,0,0:0:0:0:
64,192,128908,128,0,128962:0:0:0:40:kick1.wav
192,192,128908,1,0,0:0:0:0:
192,192,129122,1,0,0:0:0:30:snare.wav
320,192,129122,1,0,0:0:0:0:
448,192,129122,128,0,129337:0:0:0:0:
64,192,129194,128,0,129337:0:0:0:0:
320,192,129337,1,0,0:0:0:0:
64,192,129551,128,0,129872:0:0:0:40:kick1.wav
448,192,129551,128,0,129872:0:0:0:0:
64,192,129980,1,0,0:0:0:30:snare.wav
320,192,129980,1,0,0:0:0:0:
448,192,129980,1,0,0:0:0:0:
320,192,130194,1,0,0:0:0:0:
64,192,130301,1,0,0:0:0:30:snare.wav
192,192,130301,1,0,0:0:0:0:
448,192,130301,1,0,0:0:0:0:
192,192,130622,1,0,0:0:0:40:kick1.wav
320,192,130622,1,0,0:0:0:0:
64,192,130837,128,0,131051:0:0:0:30:snare.wav
192,192,130837,128,0,131051:0:0:0:0:
448,192,130837,1,0,0:0:0:0:
320,192,131051,1,0,0:0:0:0:
64,192,131265,1,0,0:0:0:40:kick1.wav
320,192,131265,128,0,131587:0:0:0:0:
448,192,131265,128,0,131587:0:0:0:0:
64,192,131694,1,0,0:0:0:30:snare.wav
320,192,131694,1,0,0:0:0:0:
448,192,131694,128,0,131747:0:0:0:0:
320,192,131908,1,0,0:0:0:0:
64,192,132015,128,0,132069:0:0:0:30:snare.wav
192,192,132015,1,0,0:0:0:0:
448,192,132015,1,0,0:0:0:0:
192,192,132337,128,0,132390:0:0:0:40:kick1.wav
320,192,132337,1,0,0:0:0:0:
64,192,132551,1,0,0:0:0:30:snare.wav
192,192,132551,1,0,0:0:0:0:
448,192,132551,1,0,0:0:0:0:
320,192,132622,128,0,132872:0:0:0:0:
192,192,132765,128,0,132872:0:0:0:0:
64,192,132980,1,0,0:0:0:40:kick1.wav
448,192,132980,128,0,133194:0:0:0:0:
64,192,133408,1,0,0:0:0:30:snare.wav
192,192,133408,1,0,0:0:0:0:
320,192,133408,1,0,0:0:0:0:
320,192,133622,1,0,0:0:0:0:
64,192,133730,1,0,0:0:0:30:snare.wav
192,192,133730,1,0,0:0:0:0:
448,192,133730,1,0,0:0:0:0:
192,192,134051,1,0,0:0:0:40:kick1.wav
320,192,134051,1,0,0:0:0:0:
64,192,134265,1,0,0:0:0:30:snare.wav
192,192,134265,1,0,0:0:0:0:
320,192,134265,1,0,0:0:0:0:
64,192,134480,128,0,134587:0:0:0:0:
448,192,134480,128,0,134587:0:0:0:0:
64,192,134694,1,0,0:0:0:40:kick1.wav
192,192,134694,128,0,135015:0:0:0:0:
320,192,134694,128,0,135015:0:0:0:0:
64,192,135122,1,0,0:0:0:30:snare.wav
320,192,135122,1,0,0:0:0:0:
192,192,135122,128,0,135176:0:0:0:0:
192,192,135337,1,0,0:0:0:0:
64,192,135444,1,0,0:0:0:30:snare.wav
448,192,135444,1,0,0:0:0:0:
320,192,135444,128,0,135497:0:0:0:0:
448,192,135765,1,0,0:0:0:0:
192,192,135765,128,0,135819:0:0:0:0:
64,192,135980,128,0,136408:0:0:0:30:snare.wav
192,192,135980,1,0,0:0:0:0:
320,192,135980,1,0,0:0:0:0:
320,192,136837,128,0,137051:0:0:0:0:
448,192,136837,128,0,137051:0:0:0:0:
192,192,137158,128,0,137372:0:0:0:0:
320,192,137158,128,0,137372:0:0:0:0:
64,192,137480,128,0,137694:0:0:0:0:
192,192,137480,128,0,137694:0:0:0:0:
320,192,137801,128,0,137908:0:0:0:0:
448,192,137801,128,0,138015:0:0:0:0:
192,192,137908,128,0,138015:0:0:0:0:
64,192,138122,1,0,0:0:0:40:kick1.wav
320,192,138122,1,0,0:0:0:0:
448,192,138122,128,0,138765:0:0:0:0:
64,192,138765,1,0,0:0:0:40:kick1.wav
192,192,138765,1,0,0:0:0:0:
64,192,138872,1,0,0:0:0:40:kick1.wav
192,192,138872,1,0,0:0:0:0:
64,192,138980,1,0,0:0:0:30:snare.wav
192,192,138980,1,0,0:0:0:0:
448,192,138980,1,0,0:0:0:0:
192,192,139301,1,0,0:0:0:40:kick1.wav
320,192,139301,1,0,0:0:0:0:
64,192,139622,1,0,0:0:0:30:snare.wav
320,192,139622,1,0,0:0:0:0:
448,192,139622,1,0,0:0:0:0:
192,192,139837,1,0,0:0:0:0:
64,192,140265,1,0,0:0:0:40:kick1.wav
192,192,140265,1,0,0:0:0:0:
320,192,140372,128,0,140587:0:0:0:0:
448,192,140372,128,0,140587:0:0:0:0:
64,192,140694,1,0,0:0:0:30:snare.wav
320,192,140694,1,0,0:0:0:0:
448,192,140694,1,0,0:0:0:0:
320,192,140962,128,0,141122:0:0:0:0:
64,192,141069,128,0,141122:0:0:0:0:
448,192,141069,128,0,141122:0:0:0:0:
192,192,141122,128,0,141444:0:0:0:0:
320,192,141337,128,0,141444:0:0:0:0:
448,192,141337,128,0,141551:0:0:0:0:
64,192,141551,128,0,142194:0:0:0:40:kick1.wav
320,192,141551,1,0,0:0:0:0:
320,192,142194,1,0,0:0:0:40:kick1.wav
448,192,142194,1,0,0:0:0:0:
320,192,142301,1,0,0:0:0:40:kick1.wav
448,192,142301,1,0,0:0:0:0:
64,192,142408,1,0,0:0:0:30:snare.wav
320,192,142408,1,0,0:0:0:0:
448,192,142408,1,0,0:0:0:0:
192,192,142730,1,0,0:0:0:40:kick1.wav
320,192,142730,1,0,0:0:0:0:
64,192,143051,1,0,0:0:0:30:snare.wav
192,192,143051,1,0,0:0:0:0:
448,192,143051,1,0,0:0:0:0:
192,192,143265,1,0,0:0:0:40:kick1.wav
320,192,143265,1,0,0:0:0:0:
64,192,143372,128,0,143480:0:0:0:0:
192,192,143694,1,0,0:0:0:40:kick1.wav
320,192,143694,1,0,0:0:0:0:
448,192,143801,128,0,144122:0:0:0:0:
64,192,144122,1,0,0:0:0:30:snare.wav
192,192,144122,1,0,0:0:0:0:
320,192,144122,1,0,0:0:0:0:
192,192,144337,1,0,0:0:0:0:
320,192,144444,1,0,0:0:0:40:kick1.wav
448,192,144444,1,0,0:0:0:0:
64,192,144765,1,0,0:0:0:30:snare.wav
192,192,144765,1,0,0:0:0:0:
448,192,144765,1,0,0:0:0:0:
64,192,144980,1,0,0:0:0:40:kick1.wav
448,192,144980,128,0,145622:0:0:0:0:
64,192,145622,1,0,0:0:0:40:kick1.wav
192,192,145622,1,0,0:0:0:0:
64,192,145730,1,0,0:0:0:40:kick1.wav
192,192,145730,1,0,0:0:0:0:
448,192,145837,1,0,0:0:0:0:
320,192,145890,1,0,0:0:0:0:
192,192,145944,1,0,0:0:0:0:
64,192,145997,1,0,0:0:0:0:
448,192,146051,1,0,0:0:0:0:
320,192,146105,1,0,0:0:0:0:
64,192,146158,1,0,0:0:0:0:
192,192,146158,1,0,0:0:0:0:
448,192,146265,1,0,0:0:0:0:
192,192,146399,1,0,0:0:0:0:
64,192,146453,1,0,0:0:0:0:
448,192,146480,1,0,0:0:0:0:
320,192,146480,1,0,0:0:0:0:
64,192,146694,1,0,0:0:0:0:
448,192,146694,128,0,147122:0:0:0:0:
64,192,147122,128,0,147372:0:0:0:40:kick1.wav
192,192,147122,128,0,147372:0:0:0:0:
320,192,147372,1,0,0:0:0:0:
448,192,147444,1,0,0:0:0:0:
64,192,147551,128,0,147980:0:0:0:30:snare.wav
192,192,147551,128,0,147765:0:0:0:0:
320,192,147551,1,0,0:0:0:0:
320,192,148087,128,0,148194:0:0:0:0:
448,192,148087,128,0,148301:0:0:0:0:
192,192,148194,128,0,148301:0:0:0:0:
64,192,148408,1,0,0:0:0:40:kick1.wav
448,192,148408,1,0,0:0:0:0:
192,192,148515,128,0,148622:0:0:0:0:
320,192,148515,128,0,148622:0:0:0:0:
64,192,148622,1,0,0:0:0:0:
320,192,148730,128,0,148837:0:0:0:0:
448,192,148730,128,0,148837:0:0:0:0:
64,192,149051,1,0,0:0:0:40:kick1.wav
192,192,149051,1,0,0:0:0:0:
64,192,149158,1,0,0:0:0:40:kick1.wav
192,192,149158,1,0,0:0:0:0:
64,192,149265,1,0,0:0:0:30:snare.wav
192,192,149265,1,0,0:0:0:0:
448,192,149265,1,0,0:0:0:0:
192,192,149587,1,0,0:0:0:40:kick1.wav
320,192,149587,1,0,0:0:0:0:
64,192,149908,1,0,0:0:0:30:snare.wav
320,192,149908,1,0,0:0:0:0:
448,192,149908,1,0,0:0:0:0:
64,192,150122,1,0,0:0:0:40:kick1.wav
448,192,150122,1,0,0:0:0:0:
320,192,150337,1,0,0:0:0:0:
64,192,150444,1,0,0:0:0:40:kick1.wav
192,192,150444,1,0,0:0:0:0:
448,192,150551,1,0,0:0:0:0:
192,192,150658,1,0,0:0:0:0:
64,192,150765,1,0,0:0:0:40:kick1.wav
448,192,150765,1,0,0:0:0:0:
320,192,150872,1,0,0:0:0:0:
64,192,150980,1,0,0:0:0:0:
320,192,151087,1,0,0:0:0:40:kick1.wav
448,192,151087,1,0,0:0:0:0:
192,192,151194,1,0,0:0:0:0:
320,192,151301,1,0,0:0:0:0:
64,192,151408,1,0,0:0:0:30:snare.wav
448,192,151408,1,0,0:0:0:0:
192,192,151515,1,0,0:0:0:0:
320,192,151515,1,0,0:0:0:0:
64,192,151622,1,0,0:0:0:0:
320,192,151730,1,0,0:0:0:0:
448,192,151730,1,0,0:0:0:0:
64,192,151837,1,0,0:0:0:50:crash.wav
192,192,151837,1,0,0:0:0:40:kick1.wav
448,192,152051,1,0,0:0:0:0:
192,192,152158,1,0,0:0:0:0:
320,192,152212,1,0,0:0:0:0:
64,192,152265,1,0,0:0:0:0:
448,192,152372,1,0,0:0:0:0:
192,192,152480,1,0,0:0:0:0:
320,192,152587,1,0,0:0:0:0:
64,192,152694,1,0,0:0:0:30:snare.wav
192,192,152694,1,0,0:0:0:0:
448,192,152694,1,0,0:0:0:0:
192,192,152908,1,0,0:0:0:0:
64,192,153015,1,0,0:0:0:30:snare.wav
320,192,153015,1,0,0:0:0:0:
448,192,153015,1,0,0:0:0:0:
192,192,153122,1,0,0:0:0:0:
448,192,153230,1,0,0:0:0:0:
64,192,153337,1,0,0:0:0:40:kick1.wav
192,192,153337,1,0,0:0:0:0:
320,192,153444,1,0,0:0:0:0:
192,192,153551,1,0,0:0:0:0:
448,192,153658,1,0,0:0:0:0:
192,192,153765,1,0,0:0:0:40:kick1.wav
320,192,153765,1,0,0:0:0:0:
64,192,153872,1,0,0:0:0:0:
320,192,153980,1,0,0:0:0:40:kick1.wav
448,192,153980,1,0,0:0:0:0:
192,192,154087,1,0,0:0:0:0:
64,192,154194,1,0,0:0:0:40:kick1.wav
448,192,154194,1,0,0:0:0:0:
320,192,154301,1,0,0:0:0:0:
64,192,154408,1,0,0:0:0:30:snare.wav
192,192,154408,1,0,0:0:0:0:
448,192,154408,1,0,0:0:0:0:
192,192,154622,1,0,0:0:0:0:
64,192,154730,1,0,0:0:0:30:snare.wav
320,192,154730,1,0,0:0:0:0:
448,192,154730,1,0,0:0:0:0:
320,192,154944,1,0,0:0:0:0:
64,192,155051,1,0,0:0:0:40:kick1.wav
192,192,155051,1,0,0:0:0:0:
448,192,155158,1,0,0:0:0:0:
64,192,155265,128,0,155694:0:0:0:40:kick1.wav
192,192,155265,128,0,155480:0:0:0:0:
448,192,155480,1,0,0:0:0:0:
320,192,155587,1,0,0:0:0:0:
192,192,155640,1,0,0:0:0:0:
448,192,155694,1,0,0:0:0:0:
320,192,155801,1,0,0:0:0:0:
64,192,155908,1,0,0:0:0:0:
448,192,156015,1,0,0:0:0:0:
64,192,156122,1,0,0:0:0:30:snare.wav
192,192,156122,1,0,0:0:0:0:
320,192,156122,1,0,0:0:0:0:
320,192,156337,1,0,0:0:0:0:
64,192,156444,1,0,0:0:0:30:snare.wav
192,192,156444,1,0,0:0:0:0:
448,192,156444,1,0,0:0:0:0:
320,192,156551,1,0,0:0:0:0:
64,192,156658,1,0,0:0:0:0:
448,192,156765,1,0,0:0:0:0:
192,192,156872,1,0,0:0:0:0:
320,192,156980,1,0,0:0:0:0:
448,192,157087,1,0,0:0:0:0:
64,192,157194,1,0,0:0:0:0:
320,192,157301,1,0,0:0:0:0:
192,192,157408,1,0,0:0:0:0:
448,192,157515,1,0,0:0:0:0:
64,192,157622,1,0,0:0:0:0:
320,192,157730,1,0,0:0:0:0:
64,192,157837,1,0,0:0:0:30:snare.wav
192,192,157837,1,0,0:0:0:0:
448,192,157837,1,0,0:0:0:0:
448,192,158051,1,0,0:0:0:0:
64,192,158158,1,0,0:0:0:30:snare.wav
192,192,158158,1,0,0:0:0:0:
320,192,158158,1,0,0:0:0:0:
448,192,158372,128,0,158694:0:0:0:0:
64,192,158480,1,0,0:0:0:40:kick1.wav
192,192,158480,1,0,0:0:0:0:
64,192,158694,1,0,0:0:0:40:kick1.wav
320,192,158694,1,0,0:0:0:0:
192,192,158908,1,0,0:0:0:0:
448,192,159015,1,0,0:0:0:0:
64,192,159069,1,0,0:0:0:0:
320,192,159122,1,0,0:0:0:0:
192,192,159230,1,0,0:0:0:0:
448,192,159337,1,0,0:0:0:0:
64,192,159444,1,0,0:0:0:0:
192,192,159551,1,0,0:0:0:30:snare.wav
320,192,159551,1,0,0:0:0:0:
448,192,159551,1,0,0:0:0:0:
320,192,159765,1,0,0:0:0:0:
64,192,159872,1,0,0:0:0:30:snare.wav
192,192,159872,1,0,0:0:0:0:
448,192,159872,1,0,0:0:0:0:
320,192,159980,1,0,0:0:0:0:
192,192,160087,1,0,0:0:0:0:
64,192,160194,1,0,0:0:0:40:kick1.wav
448,192,160194,1,0,0:0:0:0:
320,192,160301,1,0,0:0:0:0:
192,192,160408,1,0,0:0:0:0:
448,192,160515,1,0,0:0:0:0:
64,192,160622,1,0,0:0:0:40:kick1.wav
192,192,160622,1,0,0:0:0:0:
320,192,160730,1,0,0:0:0:0:
64,192,160837,1,0,0:0:0:40:kick1.wav
448,192,160837,1,0,0:0:0:0:
192,192,160944,1,0,0:0:0:0:
64,192,161051,1,0,0:0:0:40:kick1.wav
320,192,161051,1,0,0:0:0:0:
448,192,161158,1,0,0:0:0:0:
64,192,161265,1,0,0:0:0:30:snare.wav
192,192,161265,1,0,0:0:0:0:
320,192,161265,1,0,0:0:0:0:
64,192,161480,1,0,0:0:0:0:
192,192,161587,1,0,0:0:0:30:snare.wav
320,192,161587,1,0,0:0:0:0:
448,192,161587,1,0,0:0:0:0:
192,192,161801,1,0,0:0:0:0:
320,192,161908,1,0,0:0:0:40:kick1.wav
448,192,161908,1,0,0:0:0:0:
64,192,162015,1,0,0:0:0:0:
320,192,162122,1,0,0:0:0:40:kick1.wav
448,192,162122,128,0,162551:0:0:0:0:
192,192,162230,1,0,0:0:0:0:
64,192,162337,1,0,0:0:0:0:
320,192,162444,1,0,0:0:0:0:
192,192,162551,1,0,0:0:0:0:
64,192,162658,1,0,0:0:0:0:
448,192,162765,1,0,0:0:0:0:
320,192,162872,1,0,0:0:0:0:
64,192,162980,1,0,0:0:0:30:snare.wav
192,192,162980,1,0,0:0:0:0:
448,192,162980,1,0,0:0:0:0:
192,192,163194,1,0,0:0:0:0:
64,192,163301,1,0,0:0:0:30:snare.wav
320,192,163301,1,0,0:0:0:0:
448,192,163301,1,0,0:0:0:0:
192,192,163408,1,0,0:0:0:0:
448,192,163515,1,0,0:0:0:0:
64,192,163622,1,0,0:0:0:0:
192,192,163730,1,0,0:0:0:0:
448,192,163837,1,0,0:0:0:0:
64,192,163944,1,0,0:0:0:0:
320,192,164051,1,0,0:0:0:0:
192,192,164158,1,0,0:0:0:0:
448,192,164265,1,0,0:0:0:0:
320,192,164372,1,0,0:0:0:0:
64,192,164480,1,0,0:0:0:0:
448,192,164587,1,0,0:0:0:0:
64,192,164694,1,0,0:0:0:30:snare.wav
192,192,164694,1,0,0:0:0:0:
320,192,164694,1,0,0:0:0:0:
320,192,164908,1,0,0:0:0:0:
64,192,165015,1,0,0:0:0:30:snare.wav
192,192,165015,1,0,0:0:0:0:
448,192,165015,1,0,0:0:0:0:
448,192,165230,128,0,165551:0:0:0:0:
192,192,165337,1,0,0:0:0:40:kick1.wav
320,192,165337,1,0,0:0:0:0:
64,192,165551,1,0,0:0:0:50:crash.wav
320,192,165551,1,0,0:0:0:40:kick1.wav
192,192,165980,1,0,0:0:0:0:
320,192,166087,1,0,0:0:0:0:
64,192,166408,1,0,0:0:0:0:
448,192,166551,1,0,0:0:0:0:
192,192,166676,1,0,0:0:0:0:
320,192,166765,1,0,0:0:0:0:
64,192,166944,1,0,0:0:0:0:
192,192,167694,1,0,0:0:0:0:
448,192,167801,1,0,0:0:0:0:
320,192,168122,1,0,0:0:0:0:
64,192,168444,1,0,0:0:0:0:
448,192,168658,1,0,0:0:0:0:
320,192,169408,1,0,0:0:0:0:
192,192,169515,1,0,0:0:0:0:
448,192,169622,1,0,0:0:0:0:
64,192,169837,1,0,0:0:0:0:
448,192,170372,1,0,0:0:0:0:
192,192,170480,1,0,0:0:0:0:
64,192,171122,1,0,0:0:0:0:
320,192,171230,1,0,0:0:0:0:
192,192,171337,1,0,0:0:0:0:
448,192,171551,1,0,0:0:0:0:
64,192,171658,1,0,0:0:0:0:
320,192,171765,1,0,0:0:0:0:
192,192,171872,1,0,0:0:0:0:
64,192,171980,1,0,0:0:0:0:
320,192,172087,1,0,0:0:0:0:
448,192,172194,1,0,0:0:0:0:
192,192,172622,1,0,0:0:0:0:
320,192,172837,1,0,0:0:0:0:
64,192,172944,1,0,0:0:0:0:
448,192,173051,1,0,0:0:0:0:
192,192,173265,1,0,0:0:0:0:
320,192,173372,1,0,0:0:0:0:
64,192,173480,1,0,0:0:0:0:
448,192,173587,1,0,0:0:0:0:
320,192,173694,1,0,0:0:0:0:
64,192,173801,1,0,0:0:0:0:
448,192,173908,1,0,0:0:0:0:
192,192,174337,1,0,0:0:0:0:
448,192,174551,1,0,0:0:0:0:
64,192,174658,1,0,0:0:0:0:
320,192,174765,1,0,0:0:0:0:
192,192,174980,1,0,0:0:0:0:
320,192,175087,1,0,0:0:0:0:
448,192,175194,1,0,0:0:0:0:
64,192,175301,1,0,0:0:0:0:
192,192,175408,1,0,0:0:0:0:
320,192,175515,1,0,0:0:0:0:
64,192,175622,1,0,0:0:0:0:
448,192,175730,1,0,0:0:0:0:
192,192,175837,1,0,0:0:0:0:
320,192,176051,1,0,0:0:0:0:
64,192,176158,1,0,0:0:0:0:
448,192,176265,1,0,0:0:0:0:
192,192,176372,1,0,0:0:0:0:
320,192,176480,1,0,0:0:0:0:
64,192,176694,1,0,0:0:0:0:
192,192,176801,1,0,0:0:0:0:
448,192,176908,1,0,0:0:0:0:
64,192,177015,1,0,0:0:0:0:
320,192,177122,1,0,0:0:0:0:
448,192,177230,1,0,0:0:0:0:
192,192,177337,1,0,0:0:0:0:
448,192,177765,1,0,0:0:0:0:
64,192,177872,1,0,0:0:0:0:
320,192,177980,1,0,0:0:0:0:
192,192,178087,1,0,0:0:0:0:
64,192,178194,1,0,0:0:0:0:
448,192,178408,1,0,0:0:0:0:
192,192,178515,1,0,0:0:0:0:
320,192,178622,1,0,0:0:0:0:
64,192,178730,1,0,0:0:0:0:
192,192,178783,1,0,0:0:0:0:
320,192,178837,1,0,0:0:0:0:
448,192,178890,1,0,0:0:0:0:
64,192,178944,1,0,0:0:0:0:
192,192,178997,1,0,0:0:0:0:
320,192,179051,1,0,0:0:0:0:
64,192,179265,1,0,0:0:0:0:
448,192,179265,1,0,0:0:0:0:
192,192,179480,1,0,0:0:0:0:
320,192,179587,1,0,0:0:0:0:
64,192,179694,1,0,0:0:0:0:
448,192,179801,1,0,0:0:0:0:
320,192,179908,1,0,0:0:0:0:
64,192,180122,1,0,0:0:0:0:
192,192,180122,1,0,0:0:0:0:
448,192,180230,1,0,0:0:0:0:
192,192,180337,1,0,0:0:0:0:
64,192,180444,1,0,0:0:0:0:
320,192,180551,1,0,0:0:0:0:
448,192,180658,1,0,0:0:0:0:
192,192,180765,1,0,0:0:0:0:
320,192,181194,1,0,0:0:0:0:
64,192,181301,1,0,0:0:0:0:
448,192,181408,1,0,0:0:0:0:
320,192,181515,1,0,0:0:0:0:
64,192,181622,1,0,0:0:0:0:
192,192,181837,1,0,0:0:0:0:
320,192,181944,1,0,0:0:0:0:
64,192,182051,1,0,0:0:0:0:
448,192,182158,1,0,0:0:0:0:
320,192,182265,1,0,0:0:0:0:
192,192,182372,1,0,0:0:0:0:
448,192,182480,1,0,0:0:0:0:
64,192,182908,1,0,0:0:0:0:
320,192,183015,1,0,0:0:0:0:
192,192,183122,1,0,0:0:0:0:
64,192,183230,1,0,0:0:0:0:
448,192,183337,1,0,0:0:0:0:
192,192,183551,1,0,0:0:0:0:
320,192,183551,1,0,0:0:0:0:
64,192,183658,1,0,0:0:0:0:
448,192,183765,1,0,0:0:0:0:
192,192,183872,1,0,0:0:0:0:
320,192,183980,1,0,0:0:0:0:
448,192,184087,1,0,0:0:0:0:
64,192,184194,1,0,0:0:0:0:
320,192,184515,1,0,0:0:0:0:
192,192,184622,1,0,0:0:0:0:
448,192,184730,1,0,0:0:0:0:
64,192,184837,1,0,0:0:0:0:
192,192,184944,1,0,0:0:0:0:
448,192,185051,1,0,0:0:0:0:
64,192,185212,1,0,0:0:0:0:
192,192,185265,1,0,0:0:0:0:
320,192,185372,1,0,0:0:0:0:
64,192,185480,1,0,0:0:0:0:
448,192,185587,1,0,0:0:0:0:
192,192,185694,1,0,0:0:0:0:
64,192,185801,1,0,0:0:0:0:
320,192,185908,1,0,0:0:0:0:
448,192,186122,1,0,0:0:0:0:
64,192,186337,1,0,0:0:0:0:
320,192,186444,1,0,0:0:0:0:
192,192,186551,1,0,0:0:0:0:
448,192,186658,1,0,0:0:0:0:
320,192,186765,1,0,0:0:0:0:
64,192,186980,1,0,0:0:0:0:
192,192,186980,1,0,0:0:0:0:
448,192,187087,1,0,0:0:0:0:
64,192,187194,1,0,0:0:0:0:
320,192,187301,1,0,0:0:0:0:
192,192,187408,1,0,0:0:0:0:
448,192,187515,1,0,0:0:0:0:
320,192,187622,1,0,0:0:0:0:
320,192,187837,1,0,0:0:0:0:
64,192,188051,1,0,0:0:0:0:
448,192,188158,1,0,0:0:0:0:
192,192,188265,1,0,0:0:0:0:
320,192,188372,1,0,0:0:0:0:
448,192,188480,1,0,0:0:0:0:
192,192,188694,1,0,0:0:0:0:
64,192,188801,1,0,0:0:0:0:
320,192,188908,1,0,0:0:0:0:
448,192,189015,1,0,0:0:0:0:
64,192,189122,1,0,0:0:0:0:
320,192,189230,1,0,0:0:0:0:
192,192,189337,1,0,0:0:0:0:
448,192,189765,1,0,0:0:0:0:
64,192,189872,1,0,0:0:0:0:
320,192,189980,1,0,0:0:0:0:
192,192,190087,1,0,0:0:0:0:
64,192,190194,1,0,0:0:0:0:
320,192,190408,1,0,0:0:0:0:
448,192,190408,1,0,0:0:0:0:
192,192,190515,1,0,0:0:0:0:
320,192,190622,1,0,0:0:0:0:
448,192,190730,1,0,0:0:0:0:
64,192,190837,1,0,0:0:0:0:
192,192,190944,1,0,0:0:0:0:
320,192,191051,1,0,0:0:0:0:
448,192,191480,1,0,0:0:0:0:
64,192,191587,1,0,0:0:0:0:
320,192,191694,1,0,0:0:0:0:
192,192,191801,1,0,0:0:0:0:
64,192,191908,1,0,0:0:0:0:
320,192,192122,1,0,0:0:0:0:
448,192,192122,1,0,0:0:0:0:
192,192,192230,1,0,0:0:0:0:
64,192,192337,1,0,0:0:0:0:
448,192,192444,1,0,0:0:0:0:
320,192,192497,1,0,0:0:0:0:
192,192,192551,1,0,0:0:0:0:
64,192,192605,1,0,0:0:0:0:
448,192,192658,1,0,0:0:0:0:
320,192,192712,1,0,0:0:0:0:
192,192,192765,1,0,0:0:0:0:
64,192,192980,1,0,0:0:0:50:crash.wav
448,192,192980,1,0,0:0:0:40:kick1.wav
320,192,193194,1,0,0:0:0:0:
192,192,193301,1,0,0:0:0:0:
64,192,193622,1,0,0:0:0:30:clap1.wav
320,192,193622,1,0,0:0:0:0:
448,192,193622,1,0,0:0:0:0:
64,192,194051,1,0,0:0:0:40:kick1.wav
192,192,194051,1,0,0:0:0:0:
64,192,194265,128,0,194694:0:0:0:30:clap1.wav
320,192,194265,1,0,0:0:0:0:
448,192,194265,1,0,0:0:0:0:
192,192,194480,128,0,194694:0:0:0:0:
320,192,194694,1,0,0:0:0:40:kick1.wav
448,192,194694,1,0,0:0:0:0:
64,192,194908,1,0,0:0:0:0:
320,192,195015,1,0,0:0:0:40:kick1.wav
448,192,195015,1,0,0:0:0:0:
64,192,195337,1,0,0:0:0:30:clap1.wav
192,192,195337,1,0,0:0:0:0:
448,192,195337,1,0,0:0:0:0:
192,192,195765,1,0,0:0:0:40:kick1.wav
320,192,195765,1,0,0:0:0:0:
64,192,195980,1,0,0:0:0:30:clap1.wav
320,192,195980,1,0,0:0:0:0:
448,192,195980,128,0,196301:0:0:0:0:
192,192,196194,128,0,196301:0:0:0:0:
320,192,196194,128,0,196301:0:0:0:0:
64,192,196408,1,0,0:0:0:40:kick1.wav
448,192,196408,1,0,0:0:0:0:
320,192,196622,1,0,0:0:0:0:
192,192,196730,1,0,0:0:0:0:
64,192,197051,1,0,0:0:0:30:clap1.wav
320,192,197051,1,0,0:0:0:0:
448,192,197051,1,0,0:0:0:0:
320,192,197480,1,0,0:0:0:40:kick1.wav
448,192,197480,1,0,0:0:0:0:
64,192,197694,1,0,0:0:0:30:clap1.wav
192,192,197694,1,0,0:0:0:0:
448,192,197694,1,0,0:0:0:0:
64,192,198122,1,0,0:0:0:40:kick1.wav
192,192,198122,1,0,0:0:0:0:
448,192,198337,1,0,0:0:0:0:
64,192,198444,1,0,0:0:0:40:kick1.wav
192,192,198444,1,0,0:0:0:0:
64,192,198765,1,0,0:0:0:30:clap1.wav
320,192,198765,1,0,0:0:0:0:
448,192,198765,1,0,0:0:0:0:
192,192,199194,1,0,0:0:0:40:kick1.wav
320,192,199194,1,0,0:0:0:0:
64,192,199408,128,0,199837:0:0:0:30:clap1.wav
192,192,199408,128,0,199837:0:0:0:0:
448,192,199408,1,0,0:0:0:0:
320,192,199837,1,0,0:0:0:40:kick1.wav
448,192,199837,1,0,0:0:0:0:
192,192,200051,1,0,0:0:0:0:
320,192,200158,1,0,0:0:0:0:
64,192,200480,1,0,0:0:0:30:clap1.wav
192,192,200480,1,0,0:0:0:0:
448,192,200480,1,0,0:0:0:0:
64,192,200908,1,0,0:0:0:40:kick1.wav
320,192,200908,1,0,0:0:0:0:
192,192,201122,1,0,0:0:0:30:clap1.wav
320,192,201122,1,0,0:0:0:0:
448,192,201122,128,0,201551:0:0:0:0:
320,192,201337,128,0,201551:0:0:0:0:
64,192,201551,1,0,0:0:0:40:kick1.wav
192,192,201551,1,0,0:0:0:0:
448,192,201658,128,0,201765:0:0:0:0:
320,192,201765,1,0,0:0:0:0:
64,192,201872,1,0,0:0:0:40:kick1.wav
192,192,201872,1,0,0:0:0:0:
64,192,202194,1,0,0:0:0:30:clap1.wav
320,192,202194,1,0,0:0:0:0:
448,192,202194,1,0,0:0:0:0:
64,192,202622,1,0,0:0:0:40:kick1.wav
320,192,202622,1,0,0:0:0:0:
64,192,202837,128,0,203265:0:0:0:30:clap1.wav
192,192,202837,1,0,0:0:0:0:
448,192,202837,128,0,203265:0:0:0:0:
192,192,203265,1,0,0:0:0:40:kick1.wav
320,192,203265,1,0,0:0:0:0:
192,192,203480,1,0,0:0:0:0:
320,192,203587,1,0,0:0:0:0:
64,192,203908,1,0,0:0:0:30:clap1.wav
192,192,203908,1,0,0:0:0:0:
448,192,203908,1,0,0:0:0:0:
192,192,204337,1,0,0:0:0:40:kick1.wav
320,192,204337,1,0,0:0:0:0:
64,192,204551,128,0,204980:0:0:0:30:clap1.wav
320,192,204551,1,0,0:0:0:0:
448,192,204551,1,0,0:0:0:0:
192,192,204765,128,0,204980:0:0:0:0:
320,192,204980,1,0,0:0:0:40:kick1.wav
448,192,204980,1,0,0:0:0:0:
64,192,205194,1,0,0:0:0:30:clap1.wav
192,192,205194,1,0,0:0:0:0:
448,192,205194,1,0,0:0:0:0:
320,192,205301,1,0,0:0:0:40:kick1.wav
448,192,205301,1,0,0:0:0:0:
64,192,205622,1,0,0:0:0:30:clap1.wav
192,192,205622,1,0,0:0:0:0:
320,192,205622,1,0,0:0:0:0:
192,192,206051,1,0,0:0:0:40:kick1.wav
320,192,206051,1,0,0:0:0:0:
64,192,206265,128,0,206694:0:0:0:30:clap1.wav
192,192,206265,128,0,206694:0:0:0:0:
448,192,206265,1,0,0:0:0:0:
320,192,206694,1,0,0:0:0:50:crash.wav
448,192,206694,1,0,0:0:0:40:kick1.wav
320,192,206908,1,0,0:0:0:0:
192,192,207015,1,0,0:0:0:0:
64,192,207337,1,0,0:0:0:30:clap1.wav
320,192,207337,1,0,0:0:0:0:
448,192,207337,1,0,0:0:0:0:
192,192,207765,1,0,0:0:0:40:kick1.wav
448,192,207765,1,0,0:0:0:0:
64,192,207980,128,0,208408:0:0:0:30:clap1.wav
320,192,207980,1,0,0:0:0:0:
448,192,207980,1,0,0:0:0:0:
192,192,208051,128,0,208194:0:0:0:0:
448,192,208194,128,0,208408:0:0:0:0:
192,192,208408,1,0,0:0:0:40:kick1.wav
320,192,208408,1,0,0:0:0:0:
64,192,208622,1,0,0:0:0:0:
192,192,208730,1,0,0:0:0:40:kick1.wav
320,192,208730,1,0,0:0:0:0:
64,192,209051,1,0,0:0:0:30:clap1.wav
320,192,209051,1,0,0:0:0:0:
448,192,209051,1,0,0:0:0:0:
64,192,209480,1,0,0:0:0:40:kick1.wav
448,192,209480,1,0,0:0:0:0:
192,192,209694,1,0,0:0:0:30:clap1.wav
320,192,209694,1,0,0:0:0:0:
448,192,209694,128,0,210015:0:0:0:0:
64,192,209908,128,0,210015:0:0:0:0:
320,192,209908,128,0,210015:0:0:0:0:
64,192,210122,1,0,0:0:0:40:kick1.wav
192,192,210122,1,0,0:0:0:0:
320,192,210337,1,0,0:0:0:0:
192,192,210444,1,0,0:0:0:0:
192,192,210765,1,0,0:0:0:30:clap1.wav
320,192,210765,1,0,0:0:0:0:
448,192,210765,1,0,0:0:0:0:
64,192,211194,1,0,0:0:0:40:kick1.wav
192,192,211194,1,0,0:0:0:0:
64,192,211408,1,0,0:0:0:30:clap1.wav
320,192,211408,1,0,0:0:0:0:
448,192,211408,1,0,0:0:0:0:
192,192,211837,1,0,0:0:0:40:kick1.wav
320,192,211837,1,0,0:0:0:0:
448,192,212051,1,0,0:0:0:0:
192,192,212158,1,0,0:0:0:40:kick1.wav
320,192,212158,1,0,0:0:0:0:
64,192,212372,128,0,212426:0:0:0:0:
192,192,212480,1,0,0:0:0:30:clap1.wav
320,192,212480,1,0,0:0:0:0:
448,192,212480,1,0,0:0:0:0:
64,192,212908,1,0,0:0:0:40:kick1.wav
448,192,212908,1,0,0:0:0:0:
64,192,213122,128,0,213551:0:0:0:30:clap1.wav
192,192,213122,128,0,213551:0:0:0:0:
320,192,213122,1,0,0:0:0:0:
320,192,213551,1,0,0:0:0:40:kick1.wav
448,192,213551,128,0,213658:0:0:0:0:
192,192,213765,1,0,0:0:0:0:
320,192,213872,1,0,0:0:0:0:
64,192,213980,128,0,214087:0:0:0:0:
192,192,214194,1,0,0:0:0:30:clap1.wav
320,192,214194,1,0,0:0:0:0:
448,192,214194,128,0,214301:0:0:0:0:
64,192,214622,1,0,0:0:0:40:kick1.wav
448,192,214622,1,0,0:0:0:0:
64,192,214837,128,0,215265:0:0:0:30:clap1.wav
192,192,214837,128,0,214944:0:0:0:0:
320,192,214837,1,0,0:0:0:0:
320,192,215051,128,0,215158:0:0:0:0:
448,192,215051,128,0,215265:0:0:0:0:
192,192,215265,1,0,0:0:0:40:kick1.wav
320,192,215265,1,0,0:0:0:0:
64,192,215372,128,0,215480:0:0:0:0:
448,192,215480,1,0,0:0:0:0:
192,192,215587,1,0,0:0:0:40:kick1.wav
320,192,215587,1,0,0:0:0:0:
64,192,215694,128,0,215801:0:0:0:0:
192,192,215908,1,0,0:0:0:30:clap1.wav
320,192,215908,1,0,0:0:0:0:
448,192,215908,128,0,216015:0:0:0:0:
64,192,216337,1,0,0:0:0:40:kick1.wav
192,192,216337,1,0,0:0:0:0:
64,192,216551,128,0,216980:0:0:0:30:clap1.wav
320,192,216551,1,0,0:0:0:0:
448,192,216551,128,0,216980:0:0:0:0:
192,192,216980,1,0,0:0:0:40:kick1.wav
320,192,216980,1,0,0:0:0:0:
192,192,217194,1,0,0:0:0:0:
448,192,217247,128,0,217301:0:0:0:0:
320,192,217301,1,0,0:0:0:0:
64,192,217515,128,0,217569:0:0:0:0:
192,192,217622,1,0,0:0:0:30:clap1.wav
320,192,217622,1,0,0:0:0:0:
448,192,217622,1,0,0:0:0:0:
64,192,218051,1,0,0:0:0:40:kick1.wav
320,192,218051,1,0,0:0:0:0:
64,192,218265,1,0,0:0:0:30:clap1.wav
192,192,218265,1,0,0:0:0:0:
448,192,218265,128,0,218694:0:0:0:0:
320,192,218480,128,0,218694:0:0:0:0:
64,192,218694,1,0,0:0:0:40:kick1.wav
192,192,218694,1,0,0:0:0:0:
64,192,218908,1,0,0:0:0:30:clap1.wav
320,192,218908,1,0,0:0:0:0:
448,192,218908,1,0,0:0:0:0:
64,192,219015,1,0,0:0:0:30:clap1.wav
320,192,219015,1,0,0:0:0:0:
448,192,219015,1,0,0:0:0:0:
192,192,219122,1,0,0:0:0:40:kick1.wav
320,192,219122,1,0,0:0:0:0:
64,192,219337,1,0,0:0:0:30:clap1.wav
192,192,219337,1,0,0:0:0:0:
448,192,219337,1,0,0:0:0:0:
64,192,219765,1,0,0:0:0:40:kick1.wav
320,192,219765,1,0,0:0:0:0:
64,192,219980,128,0,220408:0:0:0:30:clap1.wav
192,192,219980,128,0,220408:0:0:0:0:
448,192,219980,1,0,0:0:0:0:
320,192,220408,1,0,0:0:0:50:crash.wav
448,192,220408,1,0,0:0:0:40:kick1.wav
320,192,220622,1,0,0:0:0:0:
192,192,220730,1,0,0:0:0:0:
64,192,221051,1,0,0:0:0:30:clap1.wav
320,192,221051,1,0,0:0:0:0:
448,192,221051,1,0,0:0:0:0:
64,192,221480,1,0,0:0:0:40:kick1.wav
192,192,221480,1,0,0:0:0:0:
64,192,221694,1,0,0:0:0:30:clap1.wav
320,192,221694,1,0,0:0:0:0:
448,192,221694,128,0,222122:0:0:0:0:
192,192,221908,128,0,222122:0:0:0:0:
64,192,222122,1,0,0:0:0:40:kick1.wav
320,192,222122,1,0,0:0:0:0:
448,192,222337,1,0,0:0:0:0:
64,192,222444,1,0,0:0:0:40:kick1.wav
320,192,222444,1,0,0:0:0:0:
64,192,222765,1,0,0:0:0:30:clap1.wav
320,192,222765,1,0,0:0:0:0:
448,192,222765,1,0,0:0:0:0:
192,192,223194,1,0,0:0:0:40:kick1.wav
320,192,223194,1,0,0:0:0:0:
64,192,223408,1,0,0:0:0:30:clap1.wav
192,192,223408,1,0,0:0:0:0:
448,192,223408,128,0,223730:0:0:0:0:
64,192,223622,128,0,223730:0:0:0:0:
320,192,223622,128,0,223730:0:0:0:0:
64,192,223837,1,0,0:0:0:40:kick1.wav
448,192,223837,1,0,0:0:0:0:
320,192,224051,1,0,0:0:0:0:
192,192,224158,1,0,0:0:0:0:
64,192,224480,1,0,0:0:0:30:clap1.wav
320,192,224480,1,0,0:0:0:0:
448,192,224480,1,0,0:0:0:0:
320,192,224908,1,0,0:0:0:40:kick1.wav
448,192,224908,1,0,0:0:0:0:
64,192,225122,1,0,0:0:0:30:clap1.wav
192,192,225122,1,0,0:0:0:0:
448,192,225122,1,0,0:0:0:0:
192,192,225551,1,0,0:0:0:40:kick1.wav
448,192,225551,1,0,0:0:0:0:
64,192,225765,1,0,0:0:0:0:
192,192,225872,1,0,0:0:0:40:kick1.wav
448,192,225872,1,0,0:0:0:0:
320,192,226087,128,0,226140:0:0:0:0:
64,192,226194,1,0,0:0:0:30:clap1.wav
192,192,226194,1,0,0:0:0:0:
448,192,226194,1,0,0:0:0:0:
192,192,226622,1,0,0:0:0:40:kick1.wav
320,192,226622,1,0,0:0:0:0:
64,192,226837,128,0,227265:0:0:0:30:clap1.wav
192,192,226837,1,0,0:0:0:0:
448,192,226837,128,0,227265:0:0:0:0:
192,192,227265,1,0,0:0:0:40:kick1.wav
320,192,227265,1,0,0:0:0:0:
192,192,227480,1,0,0:0:0:0:
320,192,227587,1,0,0:0:0:0:
64,192,227908,1,0,0:0:0:30:clap1.wav
192,192,227908,1,0,0:0:0:0:
448,192,227908,1,0,0:0:0:0:
192,192,228337,1,0,0:0:0:40:kick1.wav
448,192,228337,1,0,0:0:0:0:
64,192,228551,128,0,228980:0:0:0:30:clap1.wav
320,192,228551,1,0,0:0:0:0:
448,192,228551,1,0,0:0:0:0:
320,192,228765,128,0,228980:0:0:0:0:
192,192,228980,1,0,0:0:0:40:kick1.wav
448,192,228980,1,0,0:0:0:0:
64,192,229087,128,0,229194:0:0:0:0:
320,192,229194,1,0,0:0:0:0:
192,192,229301,1,0,0:0:0:40:kick1.wav
448,192,229301,1,0,0:0:0:0:
64,192,229622,1,0,0:0:0:30:clap1.wav
192,192,229622,1,0,0:0:0:0:
448,192,229622,1,0,0:0:0:0:
192,192,230051,1,0,0:0:0:40:kick1.wav
320,192,230051,1,0,0:0:0:0:
64,192,230265,1,0,0:0:0:30:clap1.wav
320,192,230265,128,0,230694:0:0:0:0:
448,192,230265,128,0,230694:0:0:0:0:
64,192,230694,1,0,0:0:0:40:kick1.wav
192,192,230694,1,0,0:0:0:0:
192,192,230908,1,0,0:0:0:0:
320,192,231015,1,0,0:0:0:0:
64,192,231337,1,0,0:0:0:30:clap1.wav
192,192,231337,1,0,0:0:0:0:
448,192,231337,1,0,0:0:0:0:
192,192,231765,1,0,0:0:0:40:kick1.wav
320,192,231765,1,0,0:0:0:0:
64,192,231980,1,0,0:0:0:30:clap1.wav
320,192,231980,1,0,0:0:0:0:
448,192,231980,128,0,232408:0:0:0:0:
192,192,232194,128,0,232408:0:0:0:0:
64,192,232408,1,0,0:0:0:40:kick1.wav
320,192,232408,1,0,0:0:0:0:
448,192,232622,1,0,0:0:0:0:
64,192,232730,1,0,0:0:0:40:kick1.wav
320,192,232730,1,0,0:0:0:0:
192,192,233051,1,0,0:0:0:30:clap1.wav
320,192,233051,1,0,0:0:0:0:
448,192,233051,1,0,0:0:0:0:
64,192,233480,1,0,0:0:0:40:kick1.wav
192,192,233480,1,0,0:0:0:0:
64,192,233694,128,0,234122:0:0:0:30:clap1.wav
320,192,233694,1,0,0:0:0:0:
448,192,233694,128,0,234122:0:0:0:0:
192,192,234122,1,0,0:0:0:50:crash.wav
320,192,234122,1,0,0:0:0:40:kick1.wav
320,192,234337,1,0,0:0:0:0:
192,192,234444,1,0,0:0:0:0:
64,192,234765,1,0,0:0:0:30:clap1.wav
320,192,234765,1,0,0:0:0:0:
448,192,234765,1,0,0:0:0:0:
64,192,235194,1,0,0:0:0:40:kick1.wav
448,192,235194,1,0,0:0:0:0:
192,192,235408,1,0,0:0:0:30:clap1.wav
320,192,235408,128,0,235837:0:0:0:0:
448,192,235408,1,0,0:0:0:0:
64,192,235480,128,0,235622:0:0:0:0:
192,192,235622,128,0,235837:0:0:0:0:
64,192,235837,1,0,0:0:0:40:kick1.wav
448,192,235837,1,0,0:0:0:0:
320,192,236051,1,0,0:0:0:0:
64,192,236158,1,0,0:0:0:40:kick1.wav
448,192,236158,1,0,0:0:0:0:
64,192,236480,1,0,0:0:0:30:clap1.wav
192,192,236480,1,0,0:0:0:0:
320,192,236480,1,0,0:0:0:0:
320,192,236908,1,0,0:0:0:40:kick1.wav
448,192,236908,1,0,0:0:0:0:
64,192,237122,128,0,237444:0:0:0:30:clap1.wav
192,192,237122,1,0,0:0:0:0:
448,192,237122,1,0,0:0:0:0:
192,192,237337,128,0,237444:0:0:0:0:
320,192,237337,128,0,237444:0:0:0:0:
64,192,237551,1,0,0:0:0:40:kick1.wav
448,192,237551,1,0,0:0:0:0:
320,192,237765,1,0,0:0:0:0:
192,192,237872,1,0,0:0:0:0:
64,192,238194,1,0,0:0:0:30:clap1.wav
320,192,238194,1,0,0:0:0:0:
448,192,238194,1,0,0:0:0:0:
64,192,238622,1,0,0:0:0:40:kick1.wav
320,192,238622,1,0,0:0:0:0:
64,192,238837,1,0,0:0:0:30:clap1.wav
192,192,238837,1,0,0:0:0:0:
448,192,238837,1,0,0:0:0:0:
64,192,239265,1,0,0:0:0:40:kick1.wav
448,192,239265,1,0,0:0:0:0:
192,192,239480,1,0,0:0:0:0:
64,192,239587,1,0,0:0:0:40:kick1.wav
448,192,239587,1,0,0:0:0:0:
64,192,239801,128,0,239855:0:0:0:0:
192,192,239908,1,0,0:0:0:30:clap1.wav
320,192,239908,1,0,0:0:0:0:
448,192,239908,1,0,0:0:0:0:
64,192,240337,1,0,0:0:0:40:kick1.wav
320,192,240337,1,0,0:0:0:0:
64,192,240551,128,0,240980:0:0:0:30:clap1.wav
192,192,240551,128,0,240980:0:0:0:0:
448,192,240551,1,0,0:0:0:0:
320,192,240980,1,0,0:0:0:40:kick1.wav
448,192,240980,128,0,241087:0:0:0:0:
192,192,241194,1,0,0:0:0:0:
320,192,241301,1,0,0:0:0:0:
64,192,241408,128,0,241515:0:0:0:0:
192,192,241622,1,0,0:0:0:30:clap1.wav
320,192,241622,1,0,0:0:0:0:
448,192,241622,128,0,241730:0:0:0:0:
64,192,242051,1,0,0:0:0:40:kick1.wav
448,192,242051,1,0,0:0:0:0:
64,192,242265,128,0,242372:0:0:0:30:clap1.wav
192,192,242265,128,0,242694:0:0:0:0:
320,192,242265,1,0,0:0:0:0:
320,192,242480,128,0,242694:0:0:0:0:
448,192,242480,128,0,242587:0:0:0:0:
64,192,242694,1,0,0:0:0:40:kick1.wav
448,192,242694,1,0,0:0:0:0:
320,192,242801,128,0,242908:0:0:0:0:
192,192,242908,1,0,0:0:0:0:
64,192,243015,1,0,0:0:0:40:kick1.wav
448,192,243015,1,0,0:0:0:0:
192,192,243122,128,0,243230:0:0:0:0:
64,192,243337,1,0,0:0:0:30:clap1.wav
320,192,243337,128,0,243444:0:0:0:0:
448,192,243337,1,0,0:0:0:0:
64,192,243765,1,0,0:0:0:40:kick1.wav
192,192,243765,1,0,0:0:0:0:
64,192,243980,128,0,244408:0:0:0:30:clap1.wav
320,192,243980,1,0,0:0:0:0:
448,192,243980,128,0,244408:0:0:0:0:
192,192,244408,1,0,0:0:0:40:kick1.wav
320,192,244408,1,0,0:0:0:0:
192,192,244622,1,0,0:0:0:0:
320,192,244730,1,0,0:0:0:0:
64,192,245051,1,0,0:0:0:30:clap1.wav
192,192,245051,1,0,0:0:0:0:
448,192,245051,1,0,0:0:0:0:
320,192,245372,1,0,0:0:0:0:
192,192,245480,1,0,0:0:0:40:kick1.wav
64,192,245694,1,0,0:0:0:30:clap1.wav
320,192,245694,1,0,0:0:0:0:
192,192,246122,1,0,0:0:0:30:clap1.wav
448,192,246122,128,0,246765:0:0:0:0:
320,192,246658,128,0,246765:0:0:0:0:
64,192,246765,128,0,247837:0:0:0:30:clap1.wav
192,192,246765,1,0,0:0:0:0:
192,192,247408,128,0,247837:0:0:0:30:clap1.wav
448,192,247408,1,0,0:0:0:0:
320,192,247837,1,0,0:0:0:50:crash.wav
448,192,247837,1,0,0:0:0:40:kick1.wav
64,192,247944,1,0,0:0:0:0:
320,192,248051,1,0,0:0:0:0:
64,192,248158,1,0,0:0:0:40:kick1.wav
192,192,248158,1,0,0:0:0:0:
448,192,248265,1,0,0:0:0:0:
320,192,248372,1,0,0:0:0:0:
64,192,248480,1,0,0:0:0:30:snare.wav
192,192,248480,1,0,0:0:0:0:
448,192,248480,1,0,0:0:0:0:
320,192,248587,1,0,0:0:0:0:
64,192,248694,1,0,0:0:0:0:
192,192,248747,1,0,0:0:0:0:
448,192,248801,1,0,0:0:0:0:
320,192,248855,1,0,0:0:0:0:
64,192,248908,1,0,0:0:0:40:kick1.wav
192,192,248908,1,0,0:0:0:0:
448,192,249015,1,0,0:0:0:0:
64,192,249122,128,0,249551:0:0:0:30:snare.wav
192,192,249122,1,0,0:0:0:0:
320,192,249122,1,0,0:0:0:0:
192,192,249337,128,0,249551:0:0:0:0:
320,192,249551,1,0,0:0:0:40:kick1.wav
448,192,249551,1,0,0:0:0:0:
64,192,249658,1,0,0:0:0:0:
320,192,249765,1,0,0:0:0:0:
64,192,249872,1,0,0:0:0:40:kick1.wav
192,192,249872,1,0,0:0:0:0:
448,192,249980,1,0,0:0:0:0:
192,192,250087,1,0,0:0:0:0:
64,192,250194,1,0,0:0:0:30:snare.wav
320,192,250194,1,0,0:0:0:0:
448,192,250194,1,0,0:0:0:0:
192,192,250301,1,0,0:0:0:0:
448,192,250408,1,0,0:0:0:0:
64,192,250515,1,0,0:0:0:0:
192,192,250622,1,0,0:0:0:40:kick1.wav
320,192,250622,1,0,0:0:0:0:
448,192,250730,1,0,0:0:0:0:
64,192,250837,128,0,251158:0:0:0:30:snare.wav
192,192,250837,1,0,0:0:0:0:
320,192,250837,1,0,0:0:0:0:
320,192,251051,128,0,251158:0:0:0:0:
448,192,251051,128,0,251158:0:0:0:0:
64,192,251265,1,0,0:0:0:40:kick1.wav
448,192,251265,1,0,0:0:0:0:
192,192,251372,1,0,0:0:0:0:
320,192,251480,1,0,0:0:0:0:
64,192,251587,1,0,0:0:0:40:kick1.wav
192,192,251587,1,0,0:0:0:0:
448,192,251694,1,0,0:0:0:0:
64,192,251801,1,0,0:0:0:0:
192,192,251908,1,0,0:0:0:30:snare.wav
320,192,251908,1,0,0:0:0:0:
448,192,251908,1,0,0:0:0:0:
64,192,252015,1,0,0:0:0:0:
320,192,252122,1,0,0:0:0:0:
192,192,252230,1,0,0:0:0:0:
64,192,252337,1,0,0:0:0:40:kick1.wav
448,192,252337,1,0,0:0:0:0:
320,192,252444,1,0,0:0:0:0:
64,192,252551,1,0,0:0:0:30:snare.wav
192,192,252551,1,0,0:0:0:0:
448,192,252551,1,0,0:0:0:0:
320,192,252658,1,0,0:0:0:0:
64,192,252765,1,0,0:0:0:0:
192,192,252872,1,0,0:0:0:0:
320,192,252980,1,0,0:0:0:40:kick1.wav
448,192,252980,1,0,0:0:0:0:
64,192,253087,1,0,0:0:0:0:
320,192,253194,1,0,0:0:0:0:
64,192,253301,1,0,0:0:0:40:kick1.wav
192,192,253301,1,0,0:0:0:0:
448,192,253408,1,0,0:0:0:0:
192,192,253515,1,0,0:0:0:0:
64,192,253622,1,0,0:0:0:30:snare.wav
320,192,253622,1,0,0:0:0:0:
448,192,253622,1,0,0:0:0:0:
192,192,253730,1,0,0:0:0:0:
448,192,253837,1,0,0:0:0:0:
320,192,253944,1,0,0:0:0:0:
64,192,254051,1,0,0:0:0:40:kick1.wav
192,192,254051,1,0,0:0:0:0:
448,192,254158,1,0,0:0:0:0:
64,192,254265,1,0,0:0:0:30:snare.wav
192,192,254265,1,0,0:0:0:0:
320,192,254265,1,0,0:0:0:0:
448,192,254372,1,0,0:0:0:0:
192,192,254480,1,0,0:0:0:0:
320,192,254587,1,0,0:0:0:0:
64,192,254694,1,0,0:0:0:40:kick1.wav
192,192,254694,1,0,0:0:0:0:
448,192,254801,1,0,0:0:0:0:
64,192,254908,1,0,0:0:0:0:
192,192,255015,1,0,0:0:0:40:kick1.wav
448,192,255015,1,0,0:0:0:0:
320,192,255122,1,0,0:0:0:0:
64,192,255230,1,0,0:0:0:0:
192,192,255337,1,0,0:0:0:30:snare.wav
320,192,255337,1,0,0:0:0:0:
448,192,255337,1,0,0:0:0:0:
64,192,255444,1,0,0:0:0:0:
448,192,255551,1,0,0:0:0:0:
320,192,255605,1,0,0:0:0:0:
192,192,255658,1,0,0:0:0:0:
64,192,255712,1,0,0:0:0:0:
320,192,255765,1,0,0:0:0:40:kick1.wav
448,192,255765,1,0,0:0:0:0:
192,192,255872,1,0,0:0:0:0:
64,192,255980,1,0,0:0:0:30:snare.wav
320,192,255980,1,0,0:0:0:0:
448,192,255980,128,0,256408:0:0:0:0:
320,192,256194,128,0,256408:0:0:0:0:
64,192,256408,1,0,0:0:0:40:kick1.wav
192,192,256408,1,0,0:0:0:0:
320,192,256515,128,0,256622:0:0:0:0:
64,192,256622,1,0,0:0:0:0:
320,192,256730,1,0,0:0:0:40:kick1.wav
448,192,256730,1,0,0:0:0:0:
192,192,256837,1,0,0:0:0:0:
448,192,256944,1,0,0:0:0:0:
64,192,257051,1,0,0:0:0:30:snare.wav
192,192,257051,1,0,0:0:0:0:
320,192,257051,1,0,0:0:0:0:
448,192,257158,1,0,0:0:0:0:
64,192,257265,1,0,0:0:0:0:
320,192,257372,1,0,0:0:0:0:
64,192,257480,1,0,0:0:0:40:kick1.wav
192,192,257480,1,0,0:0:0:0:
320,192,257587,1,0,0:0:0:0:
64,192,257694,1,0,0:0:0:30:snare.wav
192,192,257694,1,0,0:0:0:0:
448,192,257694,1,0,0:0:0:0:
320,192,257801,1,0,0:0:0:0:
64,192,257908,1,0,0:0:0:0:
192,192,258015,1,0,0:0:0:0:
320,192,258122,1,0,0:0:0:40:kick1.wav
448,192,258122,1,0,0:0:0:0:
64,192,258230,1,0,0:0:0:0:
320,192,258337,1,0,0:0:0:0:
64,192,258444,1,0,0:0:0:40:kick1.wav
192,192,258444,1,0,0:0:0:0:
448,192,258551,1,0,0:0:0:0:
192,192,258658,1,0,0:0:0:0:
64,192,258765,1,0,0:0:0:30:snare.wav
320,192,258765,1,0,0:0:0:0:
448,192,258765,1,0,0:0:0:0:
192,192,258872,1,0,0:0:0:0:
448,192,258980,1,0,0:0:0:0:
64,192,259087,1,0,0:0:0:0:
192,192,259194,1,0,0:0:0:40:kick1.wav
320,192,259194,1,0,0:0:0:0:
448,192,259301,1,0,0:0:0:0:
64,192,259408,128,0,259837:0:0:0:30:snare.wav
192,192,259408,1,0,0:0:0:0:
320,192,259408,1,0,0:0:0:0:
192,192,259622,128,0,259837:0:0:0:0:
320,192,259837,1,0,0:0:0:40:kick1.wav
448,192,259837,1,0,0:0:0:0:
192,192,259944,1,0,0:0:0:0:
320,192,260051,1,0,0:0:0:0:
64,192,260158,1,0,0:0:0:40:kick1.wav
192,192,260158,1,0,0:0:0:0:
448,192,260265,1,0,0:0:0:0:
64,192,260372,1,0,0:0:0:0:
192,192,260480,1,0,0:0:0:40:kick1.wav
320,192,260480,1,0,0:0:0:0:
448,192,260587,1,0,0:0:0:0:
64,192,260694,1,0,0:0:0:0:
192,192,260801,1,0,0:0:0:40:kick1.wav
448,192,260801,1,0,0:0:0:0:
320,192,260908,1,0,0:0:0:0:
64,192,261015,1,0,0:0:0:0:
192,192,261122,1,0,0:0:0:30:snare.wav
320,192,261122,1,0,0:0:0:0:
448,192,261122,1,0,0:0:0:0:
64,192,261230,1,0,0:0:0:0:
448,192,261337,1,0,0:0:0:0:
192,192,261444,1,0,0:0:0:0:
320,192,261551,1,0,0:0:0:50:crash.wav
448,192,261551,1,0,0:0:0:40:kick1.wav
64,192,261658,1,0,0:0:0:0:
320,192,261765,1,0,0:0:0:0:
192,192,261872,1,0,0:0:0:40:kick1.wav
448,192,261872,1,0,0:0:0:0:
64,192,261980,1,0,0:0:0:0:
320,192,262087,1,0,0:0:0:0:
64,192,262194,1,0,0:0:0:30:snare.wav
192,192,262194,1,0,0:0:0:0:
448,192,262194,1,0,0:0:0:0:
320,192,262301,1,0,0:0:0:0:
192,192,262408,1,0,0:0:0:0:
64,192,262462,1,0,0:0:0:0:
320,192,262515,1,0,0:0:0:0:
448,192,262569,1,0,0:0:0:0:
64,192,262622,1,0,0:0:0:40:kick1.wav
192,192,262622,1,0,0:0:0:0:
320,192,262730,1,0,0:0:0:0:
64,192,262837,128,0,263265:0:0:0:30:snare.wav
192,192,262837,1,0,0:0:0:0:
448,192,262837,1,0,0:0:0:0:
192,192,263051,128,0,263265:0:0:0:0:
320,192,263265,1,0,0:0:0:40:kick1.wav
448,192,263265,1,0,0:0:0:0:
64,192,263372,1,0,0:0:0:0:
320,192,263480,1,0,0:0:0:0:
64,192,263587,1,0,0:0:0:40:kick1.wav
192,192,263587,1,0,0:0:0:0:
448,192,263694,1,0,0:0:0:0:
192,192,263801,1,0,0:0:0:0:
64,192,263908,1,0,0:0:0:30:snare.wav
320,192,263908,1,0,0:0:0:0:
448,192,263908,1,0,0:0:0:0:
192,192,264015,1,0,0:0:0:0:
320,192,264122,1,0,0:0:0:0:
64,192,264230,1,0,0:0:0:0:
192,192,264337,1,0,0:0:0:40:kick1.wav
448,192,264337,1,0,0:0:0:0:
320,192,264444,1,0,0:0:0:0:
64,192,264551,1,0,0:0:0:30:snare.wav
192,192,264551,1,0,0:0:0:0:
448,192,264551,128,0,264872:0:0:0:0:
64,192,264765,128,0,264872:0:0:0:0:
320,192,264765,128,0,264872:0:0:0:0:
64,192,264980,1,0,0:0:0:40:kick1.wav
448,192,264980,1,0,0:0:0:0:
192,192,265087,1,0,0:0:0:0:
320,192,265194,1,0,0:0:0:0:
64,192,265301,1,0,0:0:0:40:kick1.wav
192,192,265301,1,0,0:0:0:0:
448,192,265408,1,0,0:0:0:0:
192,192,265515,1,0,0:0:0:0:
64,192,265622,1,0,0:0:0:30:snare.wav
320,192,265622,1,0,0:0:0:0:
448,192,265622,1,0,0:0:0:0:
192,192,265730,1,0,0:0:0:0:
320,192,265837,1,0,0:0:0:0:
64,192,265944,1,0,0:0:0:0:
192,192,266051,1,0,0:0:0:40:kick1.wav
448,192,266051,1,0,0:0:0:0:
320,192,266158,1,0,0:0:0:0:
64,192,266265,1,0,0:0:0:30:snare.wav
192,192,266265,1,0,0:0:0:0:
448,192,266265,1,0,0:0:0:0:
320,192,266372,1,0,0:0:0:0:
64,192,266480,1,0,0:0:0:0:
192,192,266587,1,0,0:0:0:0:
320,192,266694,1,0,0:0:0:40:kick1.wav
448,192,266694,1,0,0:0:0:0:
64,192,266801,1,0,0:0:0:0:
320,192,266908,1,0,0:0:0:0:
64,192,267015,1,0,0:0:0:40:kick1.wav
192,192,267015,1,0,0:0:0:0:
448,192,267122,1,0,0:0:0:0:
320,192,267230,1,0,0:0:0:0:
64,192,267337,1,0,0:0:0:30:snare.wav
192,192,267337,1,0,0:0:0:0:
448,192,267337,1,0,0:0:0:0:
320,192,267444,1,0,0:0:0:0:
64,192,267551,1,0,0:0:0:0:
192,192,267658,1,0,0:0:0:0:
320,192,267765,1,0,0:0:0:40:kick1.wav
448,192,267765,1,0,0:0:0:0:
64,192,267872,1,0,0:0:0:0:
192,192,267980,1,0,0:0:0:30:snare.wav
320,192,267980,1,0,0:0:0:0:
448,192,267980,1,0,0:0:0:0:
64,192,268087,1,0,0:0:0:0:
320,192,268194,1,0,0:0:0:0:
192,192,268301,1,0,0:0:0:0:
320,192,268408,1,0,0:0:0:40:kick1.wav
448,192,268408,1,0,0:0:0:0:
64,192,268515,1,0,0:0:0:0:
320,192,268622,1,0,0:0:0:0:
64,192,268730,1,0,0:0:0:40:kick1.wav
448,192,268730,1,0,0:0:0:0:
192,192,268837,1,0,0:0:0:0:
320,192,268944,1,0,0:0:0:0:
64,192,269051,1,0,0:0:0:30:snare.wav
192,192,269051,1,0,0:0:0:0:
448,192,269051,1,0,0:0:0:0:
320,192,269158,1,0,0:0:0:0:
64,192,269265,1,0,0:0:0:0:
192,192,269319,1,0,0:0:0:0:
320,192,269372,1,0,0:0:0:0:
448,192,269426,1,0,0:0:0:0:
64,192,269480,1,0,0:0:0:40:kick1.wav
192,192,269480,1,0,0:0:0:0:
320,192,269587,1,0,0:0:0:0:
64,192,269694,1,0,0:0:0:30:snare.wav
192,192,269694,1,0,0:0:0:0:
448,192,269694,128,0,270122:0:0:0:0:
64,192,269908,128,0,270122:0:0:0:0:
192,192,270122,1,0,0:0:0:40:kick1.wav
320,192,270122,1,0,0:0:0:0:
448,192,270230,128,0,270337:0:0:0:0:
64,192,270337,1,0,0:0:0:0:
192,192,270444,1,0,0:0:0:40:kick1.wav
320,192,270444,1,0,0:0:0:0:
448,192,270551,1,0,0:0:0:0:
64,192,270658,1,0,0:0:0:0:
192,192,270765,1,0,0:0:0:30:snare.wav
320,192,270765,1,0,0:0:0:0:
448,192,270765,1,0,0:0:0:0:
64,192,270872,1,0,0:0:0:0:
320,192,270980,1,0,0:0:0:0:
192,192,271087,1,0,0:0:0:0:
320,192,271194,1,0,0:0:0:40:kick1.wav
448,192,271194,1,0,0:0:0:0:
64,192,271301,1,0,0:0:0:0:
192,192,271408,1,0,0:0:0:30:snare.wav
320,192,271408,1,0,0:0:0:0:
448,192,271408,1,0,0:0:0:0:
64,192,271515,1,0,0:0:0:0:
448,192,271622,1,0,0:0:0:0:
320,192,271730,1,0,0:0:0:0:
64,192,271837,1,0,0:0:0:40:kick1.wav
192,192,271837,1,0,0:0:0:0:
320,192,271944,1,0,0:0:0:0:
64,192,272051,1,0,0:0:0:30:snare.wav
448,192,272051,1,0,0:0:0:0:
64,192,272158,1,0,0:0:0:30:snare.wav
448,192,272158,1,0,0:0:0:0:
192,192,272265,1,0,0:0:0:40:kick1.wav
320,192,272265,1,0,0:0:0:0:
64,192,272372,1,0,0:0:0:0:
320,192,272480,1,0,0:0:0:40:kick1.wav
448,192,272480,1,0,0:0:0:0:
192,192,272587,1,0,0:0:0:0:
64,192,272694,1,0,0:0:0:30:snare.wav
448,192,272694,1,0,0:0:0:0:
64,192,272801,1,0,0:0:0:30:snare.wav
448,192,272801,1,0,0:0:0:0:
192,192,272908,1,0,0:0:0:40:kick1.wav
320,192,272908,1,0,0:0:0:0:
64,192,273015,1,0,0:0:0:0:
320,192,273122,1,0,0:0:0:40:kick1.wav
448,192,273122,1,0,0:0:0:0:
192,192,273230,1,0,0:0:0:0:
64,192,273337,1,0,0:0:0:30:snare.wav
448,192,273337,1,0,0:0:0:0:
64,192,273444,1,0,0:0:0:30:snare.wav
448,192,273444,1,0,0:0:0:0:
192,192,273551,1,0,0:0:0:40:kick1.wav
320,192,273551,1,0,0:0:0:0:
64,192,273658,1,0,0:0:0:0:
448,192,273765,1,0,0:0:0:0:
64,192,273872,1,0,0:0:0:40:kick1.wav
320,192,273872,1,0,0:0:0:0:
192,192,273980,1,0,0:0:0:0:
320,192,274087,1,0,0:0:0:0:
64,192,274194,1,0,0:0:0:40:kick1.wav
448,192,274194,1,0,0:0:0:0:
192,192,274301,1,0,0:0:0:0:
320,192,274408,1,0,0:0:0:0:
64,192,274515,1,0,0:0:0:40:kick1.wav
192,192,274515,1,0,0:0:0:0:
448,192,274622,1,0,0:0:0:0:
320,192,274730,1,0,0:0:0:0:
64,192,274837,1,0,0:0:0:30:snare.wav
192,192,274837,1,0,0:0:0:0:
448,192,274837,1,0,0:0:0:0:
320,192,274944,1,0,0:0:0:0:
64,192,275051,1,0,0:0:0:0:
192,192,275158,1,0,0:0:0:0:
320,192,275265,1,0,0:0:0:50:crash.wav
448,192,275265,1,0,0:0:0:40:kick1.wav
64,192,275372,1,0,0:0:0:0:
320,192,275480,1,0,0:0:0:0:
64,192,275587,1,0,0:0:0:40:kick1.wav
192,192,275587,1,0,0:0:0:0:
448,192,275694,1,0,0:0:0:0:
320,192,275801,1,0,0:0:0:0:
64,192,275908,1,0,0:0:0:30:snare.wav
192,192,275908,1,0,0:0:0:0:
448,192,275908,1,0,0:0:0:0:
320,192,276015,1,0,0:0:0:0:
64,192,276122,1,0,0:0:0:0:
192,192,276176,1,0,0:0:0:0:
448,192,276230,1,0,0:0:0:0:
320,192,276283,1,0,0:0:0:0:
64,192,276337,1,0,0:0:0:40:kick1.wav
192,192,276337,1,0,0:0:0:0:
448,192,276444,1,0,0:0:0:0:
64,192,276551,128,0,276980:0:0:0:30:snare.wav
192,192,276551,1,0,0:0:0:0:
320,192,276551,1,0,0:0:0:0:
192,192,276765,128,0,276980:0:0:0:0:
320,192,276980,1,0,0:0:0:40:kick1.wav
448,192,276980,1,0,0:0:0:0:
192,192,277087,1,0,0:0:0:0:
320,192,277194,1,0,0:0:0:0:
64,192,277301,1,0,0:0:0:40:kick1.wav
448,192,277301,1,0,0:0:0:0:
192,192,277408,1,0,0:0:0:0:
320,192,277515,1,0,0:0:0:0:
64,192,277622,1,0,0:0:0:30:snare.wav
192,192,277622,1,0,0:0:0:0:
448,192,277622,1,0,0:0:0:0:
320,192,277730,1,0,0:0:0:0:
64,192,277837,1,0,0:0:0:0:
192,192,277944,1,0,0:0:0:0:
64,192,278051,1,0,0:0:0:40:kick1.wav
448,192,278051,1,0,0:0:0:0:
320,192,278158,1,0,0:0:0:0:
64,192,278265,1,0,0:0:0:30:snare.wav
192,192,278265,1,0,0:0:0:0:
448,192,278265,128,0,278587:0:0:0:0:
64,192,278480,128,0,278587:0:0:0:0:
192,192,278480,128,0,278587:0:0:0:0:
64,192,278694,1,0,0:0:0:40:kick1.wav
448,192,278694,1,0,0:0:0:0:
320,192,278801,1,0,0:0:0:0:
192,192,278908,1,0,0:0:0:0:
320,192,279015,1,0,0:0:0:40:kick1.wav
448,192,279015,1,0,0:0:0:0:
64,192,279122,1,0,0:0:0:0:
192,192,279230,1,0,0:0:0:0:
64,192,279337,1,0,0:0:0:30:snare.wav
320,192,279337,1,0,0:0:0:0:
448,192,279337,1,0,0:0:0:0:
192,192,279444,1,0,0:0:0:0:
448,192,279551,1,0,0:0:0:0:
320,192,279658,1,0,0:0:0:0:
64,192,279765,1,0,0:0:0:40:kick1.wav
192,192,279765,1,0,0:0:0:0:
448,192,279872,1,0,0:0:0:0:
64,192,279980,1,0,0:0:0:30:snare.wav
192,192,279980,1,0,0:0:0:0:
320,192,279980,1,0,0:0:0:0:
448,192,280087,1,0,0:0:0:0:
192,192,280194,1,0,0:0:0:0:
320,192,280301,1,0,0:0:0:0:
64,192,280408,1,0,0:0:0:40:kick1.wav
192,192,280408,1,0,0:0:0:0:
448,192,280515,1,0,0:0:0:0:
192,192,280622,1,0,0:0:0:0:
320,192,280730,1,0,0:0:0:40:kick1.wav
448,192,280730,1,0,0:0:0:0:
64,192,280837,1,0,0:0:0:0:
320,192,280944,1,0,0:0:0:0:
64,192,281051,1,0,0:0:0:30:snare.wav
192,192,281051,1,0,0:0:0:0:
448,192,281051,1,0,0:0:0:0:
320,192,281158,1,0,0:0:0:0:
64,192,281265,1,0,0:0:0:0:
192,192,281372,1,0,0:0:0:0:
320,192,281480,1,0,0:0:0:40:kick1.wav
448,192,281480,1,0,0:0:0:0:
64,192,281587,1,0,0:0:0:0:
192,192,281694,1,0,0:0:0:30:snare.wav
320,192,281694,1,0,0:0:0:0:
448,192,281694,1,0,0:0:0:0:
64,192,281801,1,0,0:0:0:0:
320,192,281908,1,0,0:0:0:0:
192,192,282015,1,0,0:0:0:0:
64,192,282122,1,0,0:0:0:40:kick1.wav
448,192,282122,1,0,0:0:0:0:
320,192,282230,1,0,0:0:0:0:
192,192,282337,1,0,0:0:0:0:
320,192,282444,1,0,0:0:0:40:kick1.wav
448,192,282444,1,0,0:0:0:0:
64,192,282551,1,0,0:0:0:0:
320,192,282658,1,0,0:0:0:0:
64,192,282765,1,0,0:0:0:30:snare.wav
192,192,282765,1,0,0:0:0:0:
448,192,282765,1,0,0:0:0:0:
320,192,282872,1,0,0:0:0:0:
448,192,282980,1,0,0:0:0:0:
320,192,283033,1,0,0:0:0:0:
192,192,283087,1,0,0:0:0:0:
64,192,283140,1,0,0:0:0:0:
320,192,283194,1,0,0:0:0:40:kick1.wav
448,192,283194,1,0,0:0:0:0:
192,192,283301,1,0,0:0:0:0:
64,192,283408,128,0,283837:0:0:0:30:snare.wav
320,192,283408,1,0,0:0:0:0:
448,192,283408,1,0,0:0:0:0:
192,192,283622,128,0,283837:0:0:0:0:
320,192,283837,1,0,0:0:0:40:kick1.wav
448,192,283837,1,0,0:0:0:0:
64,192,283944,128,0,284051:0:0:0:0:
320,192,284051,1,0,0:0:0:0:
192,192,284158,1,0,0:0:0:40:kick1.wav
448,192,284158,1,0,0:0:0:0:
64,192,284265,1,0,0:0:0:0:
320,192,284372,1,0,0:0:0:0:
64,192,284480,1,0,0:0:0:30:snare.wav
192,192,284480,1,0,0:0:0:0:
448,192,284480,1,0,0:0:0:0:
320,192,284587,1,0,0:0:0:0:
64,192,284694,1,0,0:0:0:0:
192,192,284801,1,0,0:0:0:0:
320,192,284908,1,0,0:0:0:40:kick1.wav
448,192,284908,1,0,0:0:0:0:
64,192,285015,1,0,0:0:0:0:
192,192,285122,1,0,0:0:0:30:snare.wav
320,192,285122,1,0,0:0:0:0:
448,192,285122,1,0,0:0:0:0:
64,192,285230,1,0,0:0:0:0:
320,192,285337,1,0,0:0:0:0:
192,192,285444,1,0,0:0:0:0:
64,192,285551,1,0,0:0:0:40:kick1.wav
448,192,285551,1,0,0:0:0:0:
320,192,285658,1,0,0:0:0:0:
64,192,285765,1,0,0:0:0:0:
192,192,285872,1,0,0:0:0:40:kick1.wav
320,192,285872,1,0,0:0:0:0:
448,192,285980,1,0,0:0:0:0:
64,192,286087,1,0,0:0:0:0:
192,192,286194,1,0,0:0:0:30:snare.wav
320,192,286194,1,0,0:0:0:0:
448,192,286194,1,0,0:0:0:0:
64,192,286301,1,0,0:0:0:0:
320,192,286408,1,0,0:0:0:0:
192,192,286515,1,0,0:0:0:0:
320,192,286622,1,0,0:0:0:40:kick1.wav
448,192,286622,1,0,0:0:0:0:
64,192,286730,1,0,0:0:0:0:
192,192,286837,1,0,0:0:0:30:snare.wav
320,192,286837,1,0,0:0:0:0:
448,192,286837,128,0,287265:0:0:0:0:
320,192,287051,128,0,287265:0:0:0:0:
64,192,287265,1,0,0:0:0:40:kick1.wav
192,192,287265,1,0,0:0:0:0:
320,192,287372,1,0,0:0:0:0:
192,192,287480,1,0,0:0:0:0:
64,192,287587,1,0,0:0:0:40:kick1.wav
448,192,287587,1,0,0:0:0:0:
320,192,287694,1,0,0:0:0:0:
192,192,287801,1,0,0:0:0:0:
320,192,287908,1,0,0:0:0:40:kick1.wav
448,192,287908,1,0,0:0:0:0:
64,192,288015,1,0,0:0:0:0:
320,192,288122,1,0,0:0:0:0:
192,192,288230,1,0,0:0:0:40:kick1.wav
448,192,288230,1,0,0:0:0:0:
64,192,288337,1,0,0:0:0:0:
320,192,288444,1,0,0:0:0:0:
64,192,288551,1,0,0:0:0:30:snare.wav
192,192,288551,1,0,0:0:0:0:
448,192,288551,1,0,0:0:0:0:
320,192,288658,1,0,0:0:0:0:
64,192,288765,1,0,0:0:0:0:
192,192,288872,1,0,0:0:0:0:
320,192,288980,1,0,0:0:0:50:crash.wav
448,192,288980,1,0,0:0:0:40:kick1.wav
64,192,289087,1,0,0:0:0:0:
320,192,289194,1,0,0:0:0:0:
64,192,289301,1,0,0:0:0:40:kick1.wav
192,192,289301,1,0,0:0:0:0:
448,192,289408,1,0,0:0:0:0:
192,192,289515,1,0,0:0:0:0:
64,192,289622,1,0,0:0:0:30:snare.wav
320,192,289622,1,0,0:0:0:0:
448,192,289622,1,0,0:0:0:0:
192,192,289730,1,0,0:0:0:0:
320,192,289837,1,0,0:0:0:0:
448,192,289890,1,0,0:0:0:0:
192,192,289944,1,0,0:0:0:0:
64,192,289997,1,0,0:0:0:0:
320,192,290051,1,0,0:0:0:40:kick1.wav
448,192,290051,1,0,0:0:0:0:
192,192,290158,1,0,0:0:0:0:
64,192,290265,1,0,0:0:0:30:snare.wav
320,192,290265,1,0,0:0:0:0:
448,192,290265,128,0,290694:0:0:0:0:
320,192,290480,128,0,290694:0:0:0:0:
64,192,290694,1,0,0:0:0:40:kick1.wav
192,192,290694,1,0,0:0:0:0:
320,192,290801,1,0,0:0:0:0:
192,192,290908,1,0,0:0:0:0:
320,192,291015,1,0,0:0:0:40:kick1.wav
448,192,291015,1,0,0:0:0:0:
64,192,291122,1,0,0:0:0:0:
192,192,291230,1,0,0:0:0:0:
64,192,291337,1,0,0:0:0:30:snare.wav
320,192,291337,1,0,0:0:0:0:
448,192,291337,1,0,0:0:0:0:
192,192,291444,1,0,0:0:0:0:
448,192,291551,1,0,0:0:0:0:
320,192,291658,1,0,0:0:0:0:
64,192,291765,1,0,0:0:0:40:kick1.wav
192,192,291765,1,0,0:0:0:0:
448,192,291872,1,0,0:0:0:0:
64,192,291980,128,0,292301:0:0:0:30:snare.wav
192,192,291980,1,0,0:0:0:0:
320,192,291980,1,0,0:0:0:0:
192,192,292194,128,0,292301:0:0:0:0:
448,192,292194,128,0,292301:0:0:0:0:
64,192,292408,1,0,0:0:0:40:kick1.wav
448,192,292408,1,0,0:0:0:0:
320,192,292515,1,0,0:0:0:0:
192,192,292622,1,0,0:0:0:0:
320,192,292730,1,0,0:0:0:40:kick1.wav
448,192,292730,1,0,0:0:0:0:
64,192,292837,1,0,0:0:0:0:
320,192,292944,1,0,0:0:0:0:
64,192,293051,1,0,0:0:0:30:snare.wav
192,192,293051,1,0,0:0:0:0:
448,192,293051,1,0,0:0:0:0:
320,192,293158,1,0,0:0:0:0:
64,192,293265,1,0,0:0:0:0:
192,192,293372,1,0,0:0:0:0:
320,192,293480,1,0,0:0:0:40:kick1.wav
448,192,293480,1,0,0:0:0:0:
64,192,293587,1,0,0:0:0:0:
192,192,293694,1,0,0:0:0:30:snare.wav
320,192,293694,1,0,0:0:0:0:
448,192,293694,1,0,0:0:0:0:
64,192,293801,1,0,0:0:0:0:
320,192,293908,1,0,0:0:0:0:
192,192,294015,1,0,0:0:0:0:
64,192,294122,1,0,0:0:0:40:kick1.wav
448,192,294122,1,0,0:0:0:0:
320,192,294230,1,0,0:0:0:0:
192,192,294337,1,0,0:0:0:0:
320,192,294444,1,0,0:0:0:40:kick1.wav
448,192,294444,1,0,0:0:0:0:
64,192,294551,1,0,0:0:0:0:
320,192,294658,1,0,0:0:0:0:
64,192,294765,1,0,0:0:0:30:snare.wav
192,192,294765,1,0,0:0:0:0:
448,192,294765,1,0,0:0:0:0:
320,192,294872,1,0,0:0:0:0:
64,192,294980,1,0,0:0:0:0:
448,192,295087,1,0,0:0:0:0:
192,192,295194,1,0,0:0:0:40:kick1.wav
320,192,295194,1,0,0:0:0:0:
64,192,295301,1,0,0:0:0:0:
192,192,295408,1,0,0:0:0:30:snare.wav
320,192,295408,1,0,0:0:0:0:
448,192,295408,1,0,0:0:0:0:
64,192,295515,1,0,0:0:0:0:
320,192,295622,1,0,0:0:0:0:
192,192,295730,1,0,0:0:0:0:
64,192,295837,1,0,0:0:0:40:kick1.wav
448,192,295837,1,0,0:0:0:0:
320,192,295944,1,0,0:0:0:0:
192,192,296051,1,0,0:0:0:0:
320,192,296158,1,0,0:0:0:40:kick1.wav
448,192,296158,1,0,0:0:0:0:
64,192,296265,1,0,0:0:0:0:
320,192,296372,1,0,0:0:0:0:
64,192,296480,1,0,0:0:0:30:snare.wav
192,192,296480,1,0,0:0:0:0:
448,192,296480,1,0,0:0:0:0:
320,192,296587,1,0,0:0:0:0:
64,192,296694,1,0,0:0:0:0:
192,192,296747,1,0,0:0:0:0:
320,192,296801,1,0,0:0:0:0:
448,192,296855,1,0,0:0:0:0:
64,192,296908,1,0,0:0:0:40:kick1.wav
192,192,296908,1,0,0:0:0:0:
320,192,297015,1,0,0:0:0:0:
64,192,297122,128,0,297551:0:0:0:30:snare.wav
192,192,297122,1,0,0:0:0:0:
448,192,297122,1,0,0:0:0:0:
192,192,297337,128,0,297551:0:0:0:0:
320,192,297551,1,0,0:0:0:40:kick1.wav
448,192,297551,1,0,0:0:0:0:
192,192,297658,128,0,297765:0:0:0:0:
320,192,297765,1,0,0:0:0:0:
64,192,297872,1,0,0:0:0:40:kick1.wav
448,192,297872,1,0,0:0:0:0:
192,192,297980,1,0,0:0:0:0:
320,192,298087,1,0,0:0:0:0:
64,192,298194,1,0,0:0:0:30:snare.wav
192,192,298194,1,0,0:0:0:0:
448,192,298194,1,0,0:0:0:0:
320,192,298301,1,0,0:0:0:0:
192,192,298408,1,0,0:0:0:0:
448,192,298515,1,0,0:0:0:0:
64,192,298622,1,0,0:0:0:40:kick1.wav
320,192,298622,1,0,0:0:0:0:
192,192,298730,1,0,0:0:0:0:
64,192,298837,1,0,0:0:0:30:snare.wav
320,192,298837,1,0,0:0:0:0:
448,192,298837,1,0,0:0:0:0:
192,192,298944,1,0,0:0:0:0:
448,192,299051,1,0,0:0:0:0:
320,192,299158,1,0,0:0:0:0:
192,192,299265,1,0,0:0:0:40:kick1.wav
448,192,299265,1,0,0:0:0:0:
64,192,299372,1,0,0:0:0:0:
192,192,299480,1,0,0:0:0:30:snare.wav
320,192,299480,1,0,0:0:0:0:
192,192,299587,1,0,0:0:0:30:snare.wav
320,192,299587,1,0,0:0:0:0:
64,192,299694,1,0,0:0:0:40:kick1.wav
448,192,299694,1,0,0:0:0:0:
320,192,299801,1,0,0:0:0:0:
64,192,299908,1,0,0:0:0:40:kick1.wav
192,192,299908,1,0,0:0:0:0:
448,192,300015,1,0,0:0:0:0:
192,192,300122,1,0,0:0:0:30:snare.wav
320,192,300122,1,0,0:0:0:0:
192,192,300230,1,0,0:0:0:30:snare.wav
320,192,300230,1,0,0:0:0:0:
64,192,300337,1,0,0:0:0:40:kick1.wav
448,192,300337,1,0,0:0:0:0:
320,192,300444,1,0,0:0:0:0:
64,192,300551,1,0,0:0:0:40:kick1.wav
192,192,300551,1,0,0:0:0:0:
448,192,300658,1,0,0:0:0:0:
192,192,300765,1,0,0:0:0:30:snare.wav
320,192,300765,1,0,0:0:0:0:
192,192,300872,1,0,0:0:0:30:snare.wav
320,192,300872,1,0,0:0:0:0:
64,192,300980,1,0,0:0:0:40:kick1.wav
448,192,300980,1,0,0:0:0:0:
320,192,301087,1,0,0:0:0:0:
192,192,301194,1,0,0:0:0:0:
320,192,301301,1,0,0:0:0:40:kick1.wav
448,192,301301,1,0,0:0:0:0:
64,192,301408,1,0,0:0:0:0:
320,192,301515,1,0,0:0:0:0:
64,192,301622,1,0,0:0:0:40:kick1.wav
192,192,301622,1,0,0:0:0:0:
448,192,301730,1,0,0:0:0:0:
320,192,301837,1,0,0:0:0:0:
64,192,301944,1,0,0:0:0:40:kick1.wav
448,192,301944,1,0,0:0:0:0:
192,192,302051,1,0,0:0:0:0:
320,192,302158,1,0,0:0:0:0:
64,192,302265,1,0,0:0:0:30:snare.wav
192,192,302265,1,0,0:0:0:0:
448,192,302265,1,0,0:0:0:0:
320,192,302372,1,0,0:0:0:0:
64,192,302480,1,0,0:0:0:0:
192,192,302587,1,0,0:0:0:0:
320,192,302694,1,0,0:0:0:50:crash.wav
448,192,302694,128,0,305480:0:0:0:40:kick1.wav
64,192,305480,128,0,306122:0:0:0:0:
320,192,306122,128,0,307837:0:0:0:0:
192,192,307837,128,0,309551:0:0:0:0:
64,192,309551,1,0,0:0:0:0:
448,192,309551,128,0,312122:0:0:0:0:
64,192,312122,128,0,312980:0:0:0:0:
320,192,312980,128,0,314694:0:0:0:0:
64,192,314694,128,0,316408:0:0:0:0:
192,192,316408,1,0,0:0:0:0:
448,192,316408,128,0,318980:0:0:0:0:
192,192,318980,128,0,320265:0:0:0:0:
320,192,319837,128,0,320265:0:0:0:0:
64,192,320265,128,0,322622:0:0:0:0:
448,192,322622,128,0,323265:0:0:0:0:
64,192,323265,128,0,323372:0:0:0:0:
320,192,323265,128,0,325837:0:0:0:0:
448,192,323694,128,0,323801:0:0:0:0:
64,192,323908,128,0,324015:0:0:0:0:
448,192,324551,128,0,324658:0:0:0:0:
64,192,324765,128,0,324872:0:0:0:0:
448,192,325408,128,0,325515:0:0:0:0:
64,192,325622,128,0,325730:0:0:0:0:
192,192,325837,128,0,326694:0:0:0:0:
448,192,326694,128,0,330122:0:0:0:0:
320,192,329265,128,0,330122:0:0:0:0:
64,192,330122,128,0,335265:0:0:0:0:
192,192,330122,1,0,0:0:0:0:
