osu file format v14

[General]
AudioFilename: audio.mp3
AudioLeadIn: 0
PreviewTime: 111015
Countdown: 0
SampleSet: Soft
StackLeniency: 0.1
Mode: 0
LetterboxInBreaks: 0
WidescreenStoryboard: 0

[Editor]
Bookmarks: 309551,312980,316408,323265,326694,330122,335265
DistanceSpacing: 0.4
BeatDivisor: 8
GridSize: 8
TimelineZoom: 2.4

[Metadata]
Title:Tetsuo's Redemption
TitleUnicode:Tetsuo's Redemption
Artist:KOAN Sound & Asa
ArtistUnicode:KOAN Sound & Asa
Creator:PaRaDogi
Version:The End
Source:
Tags:electronic instrumental nv envy fa featured artist mpg mapping mappers' guild sanctuary ep drum and bass dnb tetsuos
BeatmapID:4404909
BeatmapSetID:2099816

[Difficulty]
HPDrainRate:6
CircleSize:4
OverallDifficulty:8.5
ApproachRate:9.2
SliderMultiplier:2.79999990463257
SliderTickRate:1

[Events]
//Background and Video events
0,0,"85454395_p0_master1200.jpg",0,0
//Break Periods
//Storyboard Layer 0 (Background)
//Storyboard Layer 1 (Fail)
//Storyboard Layer 2 (Pass)
//Storyboard Layer 3 (Foreground)
//Storyboard Layer 4 (Overlay)
//Storyboard Sound Samples

[TimingPoints]
980,428.571428571429,4,2,1,55,1,0
28408,-133.333333333333,4,2,2,60,0,0
54980,-125,4,2,2,60,0,0
57980,-133.333333333333,4,2,2,60,0,0
58087,-133.333333333333,4,2,2,5,0,0
58194,-133.333333333333,4,2,2,60,0,0
58408,-133.333333333333,4,2,2,5,0,0
58515,-133.333333333333,4,2,2,60,0,0
58837,-133.333333333333,4,2,2,5,0,0
58944,-133.333333333333,4,2,2,60,0,0
59158,-133.333333333333,4,2,2,5,0,0
59265,-133.333333333333,4,2,2,60,0,0
60444,-133.333333333333,4,2,2,5,0,0
60551,-133.333333333333,4,2,2,60,0,0
60765,-133.333333333333,4,2,2,5,0,0
60872,-133.333333333333,4,2,2,60,0,0
61087,-133.333333333333,4,2,2,5,0,0
61194,-133.333333333333,4,2,2,60,0,0
61408,-133.333333333333,4,2,2,5,0,0
61515,-133.333333333333,4,2,2,60,0,0
61730,-133.333333333333,4,2,2,5,0,0
61837,-133.333333333333,4,2,2,60,0,0
62158,-133.333333333333,4,2,2,5,0,0
62265,-133.333333333333,4,2,2,60,0,0
62587,-133.333333333333,4,2,2,5,0,0
62694,-133.333333333333,4,2,2,60,0,0
62721,-133.333333333333,4,2,2,5,0,0
63551,-133.333333333333,4,2,2,60,0,0
63765,-133.333333333333,4,2,2,5,0,0
63872,-133.333333333333,4,2,2,60,0,0
64301,-133.333333333333,4,2,2,5,0,0
64408,-133.333333333333,4,2,2,60,0,0
64462,-133.333333333333,4,2,2,5,0,0
64837,-133.333333333333,4,2,2,60,0,0
64944,-133.333333333333,4,2,2,5,0,0
65051,-133.333333333333,4,2,2,60,0,0
65265,-133.333333333333,4,2,2,5,0,0
65372,-133.333333333333,4,2,2,60,0,0
65694,-133.333333333333,4,2,2,5,0,0
65801,-133.333333333333,4,2,2,60,0,0
66015,-133.333333333333,4,2,2,5,0,0
66122,-133.333333333333,4,2,2,60,0,0
66337,-133.333333333333,4,2,2,5,0,0
66444,-133.333333333333,4,2,2,60,0,0
67730,-133.333333333333,4,2,2,5,0,0
67837,-133.333333333333,4,2,2,60,0,0
68158,-133.333333333333,4,2,2,5,0,0
68265,-133.333333333333,4,2,2,60,0,0
68587,-133.333333333333,4,2,2,5,0,0
68694,-133.333333333333,4,2,2,60,0,0
69015,-133.333333333333,4,2,2,5,0,0
69122,-133.333333333333,4,2,2,60,0,0
69444,-133.333333333333,4,2,2,5,0,0
69551,-133.333333333333,4,2,3,60,0,0
83265,-66.6666666666667,4,2,1,80,0,1
83694,-83.3333333333333,4,2,1,80,0,1
85408,-71.4285714285714,4,2,1,80,0,1
86265,-285.714285714284,4,2,1,80,0,1
86694,-66.6666666666667,4,2,1,80,0,1
87122,-83.3333333333333,4,2,1,80,0,1
89694,-285.714285714284,4,2,1,80,0,1
90122,-66.6666666666667,4,2,1,80,0,1
90551,-83.3333333333333,4,2,1,80,0,1
91837,-285.714285714284,4,2,1,80,0,1
92265,-83.3333333333333,4,2,1,80,0,1
93122,-285.714285714284,4,2,1,80,0,1
93551,-66.6666666666667,4,2,1,80,0,1
93980,-83.3333333333333,4,2,1,80,0,1
94408,-83.3333333333333,4,2,2,80,0,1
94837,-133.333333333333,4,2,2,80,0,1
96980,-133.333333333333,4,2,1,80,0,1
97408,-83.3333333333333,4,2,1,80,0,1
98694,-66.6666666666667,4,2,1,80,0,1
99122,-83.3333333333333,4,2,1,80,0,1
99980,-285.714285714284,4,2,1,80,0,1
100408,-66.6666666666667,4,2,1,80,0,1
100837,-83.3333333333333,4,2,1,80,0,1
103408,-285.714285714284,4,2,1,80,0,1
103837,-66.6666666666667,4,2,1,80,0,1
104265,-83.3333333333333,4,2,1,80,0,1
105551,-66.6666666666667,4,2,1,80,0,1
105980,-83.3333333333333,4,2,1,80,0,1
106837,-285.714285714284,4,2,1,80,0,1
107265,-66.6666666666667,4,2,1,80,0,1
107694,-83.3333333333333,4,2,1,80,0,1
108015,-285.714285714284,4,2,1,80,0,1
108980,-133.333333333333,4,2,1,80,0,1
109301,-100,4,2,1,80,0,1
109622,-90.9090909090909,4,2,1,80,0,1
109944,-83.3333333333333,4,2,1,80,0,1
110158,-76.9230769230769,4,2,1,80,0,1
110480,-66.6666666666667,4,2,1,80,0,1
111122,-666.666666666658,4,2,1,80,0,1
111980,-100,4,2,1,80,0,1
112408,-50,4,2,1,80,0,1
112837,-66.6666666666667,4,2,1,80,0,1
114551,-666.666666666658,4,2,1,80,0,1
115408,-50,4,2,1,80,0,1
117122,-666.666666666658,4,2,1,80,0,1
117551,-45.4545454545455,4,2,1,80,0,1
117980,-666.666666666658,4,2,1,80,0,1
118837,-50,4,2,1,80,0,1
120551,-666.666666666658,4,2,1,80,0,1
120980,-45.4545454545455,4,2,1,80,0,1
121408,-666.666666666658,4,2,1,80,0,1
122265,-50,4,2,1,80,0,1
122694,-666.666666666658,4,2,1,80,0,1
124408,-50,4,2,1,80,0,1
124837,-666.666666666658,4,2,1,80,0,1
125694,-50,4,2,1,80,0,1
127408,-666.666666666658,4,2,1,80,0,1
127837,-45.4545454545455,4,2,1,80,0,1
128265,-666.666666666658,4,2,1,80,0,1
129122,-50,4,2,1,80,0,1
131694,-666.666666666658,4,2,1,80,0,1
132551,-50,4,2,1,80,0,1
134480,-666.666666666658,4,2,1,80,0,1
134694,-50,4,2,1,80,0,1
135122,-666.666666666658,4,2,1,80,0,1
135980,-666.666666666658,4,2,1,80,0,0
136837,-50,4,2,1,80,0,0
137158,-66.6666666666667,4,2,1,80,0,0
137480,-100,4,2,1,80,0,0
138122,-40,4,2,1,80,0,1
138980,-66.6666666666667,4,2,1,80,0,1
139837,-399.999999999997,4,2,1,80,0,1
140265,-66.6666666666667,4,2,1,80,0,1
141551,-40,4,2,1,80,0,1
142408,-66.6666666666667,4,2,1,80,0,1
144980,-40,4,2,1,80,0,1
146158,-133.333333333333,4,2,1,80,0,1
147122,-40,4,2,1,80,0,1
147551,-66.6666666666667,4,2,1,80,0,1
147765,-666.666666666658,4,2,1,80,0,1
148087,-66.6666666666667,4,2,1,80,0,1
148408,-50,4,2,1,80,0,1
149265,-666.666666666658,4,2,1,80,0,1
150444,-66.6666666666667,4,2,1,80,0,1
151837,-66.6666666666667,4,2,1,80,0,0
165551,-66.6666666666667,4,2,1,60,0,0
165658,-66.6666666666667,4,2,1,5,0,0
172408,-399.999999999997,4,2,1,60,0,0
175837,-357.142857142857,4,2,1,60,0,0
179265,-416.666666666667,4,2,1,60,0,0
184408,-357.142857142857,4,2,1,60,0,0
186122,-285.714285714286,4,2,1,60,0,0
192980,-285.714285714284,4,2,1,70,0,0
220408,-181.818181818181,4,2,1,75,0,0
247837,-100,4,2,1,75,0,0
302694,-454.545454545455,4,2,1,75,0,0
309551,-333.333333333333,4,2,1,75,0,0
330176,-333.333333333333,4,2,1,5,0,0

[Colours]
Combo1 : 255,162,162
Combo2 : 208,0,0
Combo3 : 255,216,176
Combo4 : 255,176,98
Combo5 : 174,0,87

[HitObjects]
256,192,24980,12,0,28194,0:0:0:0:
15,57,28408,6,0,P|54:17|108:22,1,105.000000429154,2|0,3:2|0:0,0:0:0:0:
213,53,28837,1,2,0:3:0:0:
216,62,28944,1,0,0:0:0:0:
219,71,29051,1,2,0:2:0:0:
222,80,29158,1,2,0:2:0:0:
226,90,29265,1,2,0:2:0:0:
157,173,29480,1,2,0:2:0:0:
152,182,29587,1,2,0:3:0:0:
224,348,29908,1,0,3:0:0:0:
262,274,30122,5,2,3:2:0:0:
370,364,30337,1,2,0:3:0:0:
366,354,30444,1,2,0:3:0:0:
362,343,30551,1,2,0:3:0:0:
461,274,30765,1,2,0:2:0:0:
464,263,30872,1,2,0:2:0:0:
467,252,30980,1,2,0:2:0:0:
416,158,31194,1,2,0:2:0:0:
408,151,31301,2,0,L|377:44,1,105.000000429154,8|0,0:2|0:0,0:0:0:0:
389,28,31622,1,0,3:0:0:0:
501,123,31837,5,2,3:2:0:0:
354,239,32265,1,2,0:3:0:0:
268,138,32480,1,2,0:2:0:0:
258,141,32587,1,2,0:2:0:0:
248,144,32694,2,0,L|185:162,2,52.5000002145768,2|2|2,0:2|0:2|0:2,0:0:0:0:
289,61,33015,1,2,0:3:0:0:
159,3,33337,1,0,3:0:0:0:
156,13,33444,1,2,3:2:0:0:
123,32,33551,1,2,3:2:0:0:
128,41,33658,1,2,0:3:0:0:
132,50,33765,6,0,L|102:163,2,105.000000429154,2|2|2,0:3|0:3|0:2,0:0:0:0:
32,6,34408,1,2,0:2:0:0:
0,113,34622,1,2,0:2:0:0:
4,122,34730,1,2,0:3:0:0:
9,131,34837,1,2,0:3:0:0:
14,140,34944,1,2,0:3:0:0:
19,149,35051,1,0,3:0:0:0:
23,158,35158,1,0,3:0:0:0:
15,193,35265,5,2,3:2:0:0:
81,334,35694,2,0,L|138:320,1,52.5000002145768,2|0,0:3|0:0,0:0:0:0:
212,251,35908,1,2,0:2:0:0:
201,248,36015,1,2,0:2:0:0:
190,245,36122,1,2,0:2:0:0:
275,171,36337,1,2,0:2:0:0:
285,168,36444,1,2,0:3:0:0:
214,25,36765,1,0,3:0:0:0:
350,90,36980,5,2,3:2:0:0:
423,36,37194,1,2,0:2:0:0:
432,41,37301,1,2,0:2:0:0:
440,46,37408,1,2,0:3:0:0:
499,125,37622,1,2,0:2:0:0:
490,131,37730,1,2,0:2:0:0:
481,137,37837,1,2,0:2:0:0:
428,215,38051,2,0,L|443:269,2,52.5000002145768,2|2|8,0:2|0:3|0:2,0:0:0:0:
512,309,38480,1,0,3:0:0:0:
396,381,38694,5,2,3:2:0:0:
274,279,39122,1,2,0:3:0:0:
271,268,39230,1,0,0:0:0:0:
269,257,39337,1,2,0:2:0:0:
267,246,39444,1,2,0:2:0:0:
265,235,39551,1,2,0:2:0:0:
309,107,39765,1,2,0:2:0:0:
305,117,39872,1,2,0:3:0:0:
187,25,40194,1,0,3:0:0:0:
177,29,40301,1,0,0:0:0:0:
167,32,40408,6,0,L|106:56,1,52.5000002145768,0|2,3:0|0:3,0:0:0:0:
26,8,40622,1,2,0:3:0:0:
2,129,40837,1,2,0:3:0:0:
130,171,40944,1,2,0:3:0:0:
128,181,41051,1,2,0:3:0:0:
126,191,41158,1,2,0:3:0:0:
124,201,41265,1,2,0:3:0:0:
122,211,41372,1,0,0:0:0:0:
90,246,41480,1,2,0:3:0:0:
95,254,41587,1,2,0:3:0:0:
100,262,41694,2,0,L|138:315,1,52.5000002145768,2|0,0:3|0:0,0:0:0:0:
213,370,41908,1,2,0:3:0:0:
217,360,42015,1,0,3:0:0:0:
246,343,42122,5,2,3:2:0:0:
339,222,42551,6,0,L|265:204,1,52.5000002145768,10|0,0:2|0:0,0:0:0:0:
214,129,42765,1,2,0:2:0:0:
224,126,42872,1,2,0:2:0:0:
234,123,42980,1,2,0:2:0:0:
320,35,43194,1,2,0:2:0:0:
309,33,43301,2,0,P|254:11|222:52,1,105.000000429154,10|0,0:2|0:0,0:0:0:0:
206,37,43622,1,0,3:0:0:0:
326,131,43837,5,2,3:2:0:0:
398,8,44051,1,2,0:3:0:0:
406,14,44158,1,2,0:3:0:0:
450,7,44265,1,10,0:2:0:0:
505,127,44480,1,2,0:2:0:0:
449,216,44694,1,2,0:2:0:0:
496,280,44908,1,2,0:2:0:0:
500,289,45015,1,10,0:2:0:0:
486,335,45122,1,2,0:3:0:0:
432,210,45337,1,0,3:0:0:0:
348,365,45551,6,0,P|379:306|413:304,1,105.000000429154,2|0,3:2|0:0,0:0:0:0:
213,365,45980,2,0,P|270:326|260:276,1,105.000000429154,10|2,0:2|0:2,0:0:0:0:
214,225,46408,1,2,0:2:0:0:
331,109,46622,1,2,0:2:0:0:
342,138,46730,1,10,0:2:0:0:
199,234,47051,1,0,3:0:0:0:
188,231,47158,1,0,0:0:0:0:
147,255,47265,5,2,3:2:0:0:
137,260,47372,1,2,0:3:0:0:
127,263,47480,1,2,0:3:0:0:
43,192,47694,2,0,P|15:146|30:95,2,105.000000429154,10|2|2,0:2|0:2|0:2,0:0:0:0:
113,54,48337,1,2,0:2:0:0:
124,14,48444,1,10,0:2:0:0:
156,60,48551,1,10,0:2:0:0:
177,96,48658,1,2,0:3:0:0:
204,57,48765,1,2,0:3:0:0:
211,46,48872,1,0,3:0:0:0:
250,70,48980,5,2,3:2:0:0:
410,5,49408,1,10,0:2:0:0:
477,73,49622,1,2,0:2:0:0:
474,83,49730,1,2,0:2:0:0:
470,92,49837,1,2,0:2:0:0:
360,159,50051,1,2,0:2:0:0:
375,195,50158,1,10,0:2:0:0:
457,337,50480,6,0,L|498:349,2,26.2500001072884,0|0|0,3:0|0:0|0:0,0:0:0:0:
366,292,50694,1,2,3:2:0:0:
355,294,50801,1,0,0:0:0:0:
322,329,50908,1,2,0:2:0:0:
292,317,51015,1,2,0:2:0:0:
251,351,51122,1,10,0:2:0:0:
137,255,51337,1,2,0:2:0:0:
127,236,51444,1,2,0:2:0:0:
158,209,51551,1,2,0:2:0:0:
168,187,51658,1,2,0:2:0:0:
199,205,51765,1,2,0:2:0:0:
224,192,51872,1,10,0:2:0:0:
245,227,51980,2,0,L|309:244,2,52.5000002145768,2|0|0,0:3|0:0|3:0,0:0:0:0:
152,348,52408,5,2,3:2:0:0:
9,205,52837,1,2,0:3:0:0:
85,132,53051,1,2,0:2:0:0:
87,121,53158,1,2,0:2:0:0:
90,110,53265,1,2,0:2:0:0:
171,58,53480,1,2,0:2:0:0:
164,49,53587,2,0,L|142:-10,3,52.5000002145768,2|0|0|2,0:3|0:0|0:0|0:3,0:0:0:0:
252,104,54122,2,0,L|266:45,2,52.5000002145768,2|2|2,0:3|0:3|0:3,0:0:0:0:
366,179,54551,1,2,0:3:0:0:
345,100,54765,1,2,0:3:0:0:
474,199,54980,6,0,B|498:138|411:102|351:164|387:244|400:234|416:228|474:288|421:400|292:401|238:292|287:230,1,447.999984741211,2|0,0:3|0:0,0:0:0:0:
37,59,57980,6,0,L|106:45,1,52.5000002145768,2|0,0:3|0:0,0:0:0:0:
105,18,58194,6,0,P|154:36|163:90,1,105.000000429154,2|2,0:3|0:3,0:0:0:0:
254,92,58515,6,0,P|194:126|217:219,1,157.50000064373,2|2,0:3|0:3,0:0:0:0:
201,205,58944,6,0,P|261:228|311:197,1,105.000000429154,2|0,0:3|0:0,0:0:0:0:
296,213,59265,6,0,P|303:155|181:291,1,577.500002360344,2|2,0:3|0:3,0:0:0:0:
146,285,60551,6,0,P|201:302|208:355,1,105.000000429154,2|2,0:3|0:3,0:0:0:0:
211,343,60872,5,2,0:3:0:0:
211,343,60980,6,0,P|265:372|274:365,1,52.5000002145768,2|0,0:3|0:0,0:0:0:0:
245,376,61194,6,0,P|297:363|311:300,1,105.000000429154
396,293,61515,6,0,P|333:256|338:204,1,105.000000429154,2|0,0:3|0:0,0:0:0:0:
329,230,61837,6,0,P|362:173|447:212,1,157.50000064373,2|2,0:3|0:3,0:0:0:0:
439,194,62265,6,0,P|492:168|463:79,1,157.50000064373,2|0,0:3|0:0,0:0:0:0:
473,84,62694,6,0,L|453:80,28,13.1250000536442,0|0|0|0|0|0|0|0|0|0|0|0|0|0|0|0|0|0|0|0|0|0|0|0|0|0|0|0|0,3:0|0:0|0:0|0:0|0:0|0:0|0:0|0:0|0:0|0:0|0:0|0:0|0:0|0:0|0:0|0:0|0:0|0:0|0:0|0:0|0:0|0:0|0:0|0:0|0:0|0:0|0:0|0:0|0:0,0:0:0:0:
416,21,63551,6,0,P|387:33|379:100,1,105.000000429154,2|0,0:3|0:0,0:0:0:0:
378,99,63872,6,0,P|349:156|229:112,1,210.000000858307,2|0,0:3|0:0,0:0:0:0:
231,119,64408,6,0,L|241:94,6,26.2500001072884
240,94,64837,6,0,P|218:40|210:36,1,52.5000002145768
225,45,65051,6,0,P|169:18|132:53,1,105.000000429154,2|0,0:3|0:0,0:0:0:0:
139,40,65372,6,0,P|128:104|30:119,1,157.50000064373,2|2,0:3|0:3,0:0:0:0:
47,127,65801,6,0,P|14:80|43:18,1,105.000000429154,2|0,0:3|0:0,0:0:0:0:
23,36,66122,6,0,P|56:83|27:145,1,105.000000429154,2|0,0:3|0:0,0:0:0:0:
45,127,66444,6,0,P|13:180|67:266,3,157.50000064373,2|2|2|2,0:3|0:3|0:3|0:3,0:0:0:0:
52,259,67515,5,2,0:3:0:0:
52,259,67622,6,0,P|107:273|120:267,1,52.5000002145768,2|0,0:3|0:0,0:0:0:0:
100,274,67837,5,2,0:3:0:0:
159,228,68051,6,0,P|216:208|245:225,1,52.5000002145768
204,206,68265,6,0,P|256:226|253:319,1,157.50000064373
254,317,68694,6,0,P|281:365|379:346,1,157.50000064373,2|2,0:3|0:3,0:0:0:0:
372,355,69122,6,0,P|401:296|327:228,1,157.50000064373,2|0,0:3|0:0,0:0:0:0:
349,230,69551,5,0,3:0:0:0:
458,118,69765,1,2,0:0:0:0:
462,131,69872,1,2,0:0:0:0:
465,144,69980,2,0,L|480:217,1,52.5000002145768,10|0,0:0|0:0,0:0:0:0:
356,134,70194,1,2,0:0:0:0:
358,123,70301,2,0,L|372:53,1,52.5000002145768,10|0,0:0|0:0,0:0:0:0:
259,109,70515,1,0,0:0:0:0:
262,118,70622,2,0,L|279:190,1,52.5000002145768,2|0,0:0|0:0,0:0:0:0:
165,145,70837,1,10,0:0:0:0:
168,134,70944,1,0,0:0:0:0:
170,123,71051,2,0,L|184:65,1,52.5000002145768,2|2,0:0|0:0,0:0:0:0:
59,14,71265,5,0,0:0:0:0:
63,23,71372,1,0,0:0:0:0:
67,32,71480,1,2,0:0:0:0:
71,41,71587,1,2,0:0:0:0:
76,50,71694,1,10,0:0:0:0:
1,152,71908,1,2,0:0:0:0:
5,161,72015,2,0,L|36:226,2,52.5000002145768,10|0|0,0:0|0:0|0:0,0:0:0:0:
104,228,72337,1,2,0:0:0:0:
102,238,72444,1,0,0:0:0:0:
101,248,72551,2,0,L|91:310,1,52.5000002145768,10|0,0:0|0:0,0:0:0:0:
186,354,72765,2,0,L|168:296,1,52.5000002145768,2|2,0:0|0:0,0:0:0:0:
229,242,72980,5,0,0:0:0:0:
238,245,73087,1,0,0:0:0:0:
247,248,73194,1,2,0:0:0:0:
256,251,73301,1,2,0:0:0:0:
265,255,73408,2,0,L|330:284,1,52.5000002145768,10|0,0:0|0:0,0:0:0:0:
360,367,73622,1,2,0:0:0:0:
370,364,73730,2,0,L|432:349,1,52.5000002145768,10|0,0:0|0:0,0:0:0:0:
497,299,73944,1,0,0:0:0:0:
497,288,74051,2,0,L|511:217,1,52.5000002145768,2|0,0:0|0:0,0:0:0:0:
414,159,74265,2,0,L|432:231,1,52.5000002145768,10|0,0:0|0:0,0:0:0:0:
498,104,74480,2,0,L|508:46,1,52.5000002145768,2|2,0:0|0:0,0:0:0:0:
403,5,74694,5,4,0:3:0:0:
393,9,74801,1,0,0:0:0:0:
383,13,74908,1,2,0:0:0:0:
373,18,75015,1,2,0:0:0:0:
363,21,75122,2,0,L|301:43,1,52.5000002145768,10|0,0:0|0:0,0:0:0:0:
209,117,75337,1,2,0:0:0:0:
218,120,75444,2,0,L|274:135,1,52.5000002145768,10|0,0:0|0:0,0:0:0:0:
331,223,75658,1,0,0:0:0:0:
321,226,75765,2,0,L|251:250,1,52.5000002145768,2|0,0:0|0:0,0:0:0:0:
222,339,75980,1,10,0:0:0:0:
211,336,76087,1,0,0:0:0:0:
200,333,76194,1,2,0:0:0:0:
189,330,76301,1,2,0:0:0:0:
178,326,76408,6,0,B|168:320|168:320|137:216,1,105.000000429154,0|2,0:0|0:0,0:0:0:0:
34,187,76837,2,0,B|28:169|28:169|63:77,1,105.000000429154,10|2,0:0|0:0,0:0:0:0:
58,88,77158,2,0,B|73:75|73:75|160:58,1,105.000000429154,10|0,0:0|0:0,0:0:0:0:
203,2,77480,1,2,0:0:0:0:
212,5,77587,1,0,0:0:0:0:
221,9,77694,2,0,L|282:26,1,52.5000002145768,10|0,0:0|0:0,0:0:0:0:
325,104,77908,1,2,0:0:0:0:
321,113,78015,1,2,0:0:0:0:
318,123,78122,6,0,L|287:226,1,105.000000429154,0|2,0:0|0:0,0:0:0:0:
213,326,78551,2,0,B|237:374|237:374|295:365,1,105.000000429154,10|2,0:0|0:0,0:0:0:0:
287,366,78872,2,0,B|331:335|331:335|377:369,1,105.000000429154,10|0,0:0|0:0,0:0:0:0:
372,365,79194,1,2,0:0:0:0:
472,286,79408,1,10,0:0:0:0:
475,276,79515,1,0,0:0:0:0:
478,266,79622,1,2,0:0:0:0:
481,255,79730,1,2,0:0:0:0:
485,245,79837,6,0,L|470:130,1,105.000000429154,0|2,0:0|0:0,0:0:0:0:
414,30,80265,2,0,P|358:8|312:43,1,105.000000429154,10|2,0:0|0:0,0:0:0:0:
321,27,80587,2,0,L|297:141,1,105.000000429154,10|0,0:0|0:0,0:0:0:0:
299,130,80908,1,2,0:0:0:0:
381,232,81122,1,10,0:0:0:0:
270,357,81337,1,2,0:0:0:0:
265,362,81444,6,0,P|199:355|186:304,1,105.000000429154,2|0,0:0|0:0,0:0:0:0:
185,326,81765,1,0,3:0:0:0:
107,224,81980,1,8,0:0:0:0:
169,155,82194,1,2,0:0:0:0:
166,146,82301,2,0,L|130:40,1,105.000000429154,8|2,0:0|0:0,0:0:0:0:
132,46,82622,1,2,3:0:0:0:
45,275,82837,1,12,0:0:0:0:
45,275,83265,6,0,B|12:237|-67:304|14:410|134:392|164:273,1,315.000012016297,4|2,3:0|0:3,0:0:0:0:
203,256,83694,2,0,P|138:234|176:276,1,167.999994873047,10|2,0:3|0:3,0:0:0:0:
255,366,84015,2,0,P|297:287|376:301,1,167.999994873047,10|0,0:3|0:0,0:0:0:0:
404,360,84337,1,2,3:0:0:0:
66,185,84551,2,0,P|21:96|9:94,1,83.9999974365235,10|0,0:3|0:0,0:0:0:0:
47,109,84765,2,0,P|44:150|66:185,1,83.9999974365235,2|0,0:3|0:0,0:0:0:0:
289,198,84980,6,0,B|383:159|385:-2|202:57|285:138,1,251.999992309571,2|2,3:0|0:3,0:0:0:0:
397,210,85408,2,0,P|471:147|454:126,2,97.9999970092774,10|0|2,0:3|0:0|0:3,0:0:0:0:
204,171,85730,1,10,0:3:0:0:
490,34,86051,2,0,P|457:133|477:145,1,97.9999970092774,2|0,3:0|0:0,0:0:0:0:
324,0,86265,2,0,P|353:13|354:55,1,73.4999977569581,10|0,0:3|0:0,0:0:0:0:
397,210,86694,6,0,P|310:108|129:62,1,315.000012016297,4|2,3:0|0:3,0:0:0:0:
63,5,87122,2,0,P|11:81|-33:74,2,83.9999974365235,10|0|2,0:3|0:0|0:3,0:0:0:0:
157,245,87444,2,0,P|78:177|107:111,1,167.999994873047,10|0,0:3|0:0,0:0:0:0:
140,61,87765,2,0,P|165:75|165:91,3,27.9999981918336,2|2|2|2,3:0|0:3|0:3|0:3,0:0:0:0:
39,278,87980,2,0,P|17:364|32:380,1,83.9999974365235,10|0,0:3|0:0,0:0:0:0:
10,349,88194,2,0,P|37:318|38:277,1,83.9999974365235,2|0,0:3|0:0,0:0:0:0:
250,46,88408,6,0,P|156:122|175:273,1,251.999992309571,2|2,3:0|0:3,0:0:0:0:
172,384,88837,2,0,P|92:325|75:334,2,83.9999974365235,10|0|2,0:3|0:0|0:3,0:0:0:0:
238,294,89158,2,0,P|329:342|384:315,1,167.999994873047,10|0,0:3|0:0,0:0:0:0:
411,241,89480,1,2,3:0:0:0:
414,372,89694,2,0,P|388:358|381:315,1,73.4999977569581,10|0,0:3|0:0,0:0:0:0:
443,134,90122,6,0,B|504:96|384:0|307:105|308:224|454:255,1,315.000012016297,4|2,3:0|0:3,0:0:0:0:
491,205,90551,2,0,P|516:296|483:309,2,83.9999974365235,10|0|2,0:3|0:0|0:3,0:0:0:0:
511,20,90872,2,0,P|469:132|401:112,1,167.999994873047,10|0,0:3|0:0,0:0:0:0:
337,24,91194,1,2,3:0:0:0:
485,333,91408,2,0,P|510:367|506:374,6,41.9999987182618,10|0|0|0|2|0|0,0:3|0:0|0:0|0:0|0:3|0:0|0:0,0:0:0:0:
410,240,91837,6,0,P|374:226|330:249,1,73.4999977569581,2|2,3:0|0:3,0:0:0:0:
212,258,92265,2,0,P|302:337|269:403,1,167.999994873047,10|2,0:3|0:3,0:0:0:0:
184,349,92587,2,0,P|104:301|135:275,1,167.999994873047,10|0,0:3|0:0,0:0:0:0:
295,369,92908,1,2,3:0:0:0:
102,219,93122,2,0,P|128:242|125:278,1,73.4999977569581,10|2,0:3|0:3,0:0:0:0:
12,361,93551,6,0,P|113:263|148:84,1,315.000012016297,4|2,3:0|0:3,0:0:0:0:
82,15,93980,2,0,P|29:14|87:84,1,167.999994873047,10|2,0:3|0:3,0:0:0:0:
246,146,94301,2,0,P|177:72|143:116,1,167.999994873047,10|2,0:3|0:3,0:0:0:0:
22,176,94622,1,2,3:0:0:0:
295,19,94837,1,10,0:3:0:0:
299,29,94944,2,0,P|260:64|267:76,2,52.5000020027161,4|6|4,0:3|0:3|0:3,0:0:0:0:
213,220,95265,5,6,3:0:0:0:
219,238,95372,1,4,0:3:0:0:
281,298,95480,5,6,0:3:0:0:
288,281,95587,1,6,0:3:0:0:
360,237,95694,5,10,0:3:0:0:
402,252,95801,1,4,0:3:0:0:
447,242,95908,1,6,0:3:0:0:
471,201,96015,1,10,0:3:0:0:
470,153,96122,2,0,P|442:108|407:104,1,52.5000002145768,4|4,0:3|0:3,0:0:0:0:
227,33,96337,5,6,3:0:0:0:
233,80,96444,1,4,0:3:0:0:
270,110,96551,1,10,0:3:0:0:
318,111,96658,1,6,3:0:0:0:
355,82,96765,2,0,P|370:27|364:21,1,52.5000002145768,6|6,3:0|3:0,0:0:0:0:
467,13,96980,6,0,P|438:-4|427:0,6,26.2500001072884,4|0|0|0|2|0|2,3:0|0:0|0:0|0:0|0:3|0:0|0:3,0:0:0:0:
404,70,97408,2,0,P|326:106|251:-2,1,167.999989151001,10|2,0:3|0:3,0:0:0:0:
189,30,97730,2,0,P|208:-2|227:77,1,167.999989151001,10|0,0:3|0:0,0:0:0:0:
352,4,98051,1,2,3:0:0:0:
79,24,98265,2,0,P|108:54|114:95,1,83.9999945755007,10|0,0:3|0:0,0:0:0:0:
113,94,98480,2,0,P|84:64|79:23,1,83.9999945755007,2|0,0:3|0:0,0:0:0:0:
206,227,98694,6,0,B|213:249|194:314|116:330|29:241|120:140|188:123|253:165,1,315.000001287461,2|2,3:0|0:3,0:0:0:0:
356,230,99122,2,0,P|292:168|309:150,2,83.9999945755007,10|0|2,0:3|0:0|0:3,0:0:0:0:
221,384,99444,2,0,P|283:310|362:338,1,167.999989151001,10|0,0:3|0:0,0:0:0:0:
398,380,99765,1,2,3:0:0:0:
105,360,99980,2,0,P|139:350|144:305,1,73.4999952535631,10|2,0:3|0:3,0:0:0:0:
102,166,100408,6,0,P|189:288|368:316,1,315.000001287461,4|2,3:0|0:3,0:0:0:0:
405,378,100837,2,0,P|427:332|340:350,1,167.999989151001,10|2,0:3|0:3,0:0:0:0:
496,264,101158,2,0,P|460:179|523:153,1,167.999989151001,10|0,0:3|0:0,0:0:0:0:
369,215,101480,2,0,P|350:186|336:179,3,27.9999981918336,2|0|0|0,3:0|0:0|0:0|0:0,0:0:0:0:
442,54,101694,2,0,P|396:131|408:147,1,83.9999945755007,10|0,0:3|0:0,0:0:0:0:
390,109,101908,2,0,P|436:32|424:16,1,83.9999945755007,2|0,0:3|0:0,0:0:0:0:
216,0,102122,6,0,P|375:42|387:126,1,251.999983726502,2|2,3:0|0:3,0:0:0:0:
276,171,102551,2,0,P|200:124|207:111,2,83.9999945755007,10|0|2,0:3|0:0|0:3,0:0:0:0:
109,193,102872,2,0,P|120:92|193:85,1,167.999989151001,10|0,0:3|0:0,0:0:0:0:
19,119,103194,1,2,3:0:0:0:
3,14,103408,2,0,P|40:17|56:56,1,73.4999952535631,10|2,0:3|0:3,0:0:0:0:
49,279,103837,6,0,B|6:298|-21:233|1:179|73:185|124:248|114:275|102:303|156:371|245:316,1,315.000001287461,4|2,3:0|0:3,0:0:0:0:
305,354,104265,2,0,P|224:301|208:327,2,83.9999945755007,10|0|2,0:3|0:0|0:3,0:0:0:0:
82,384,104587,2,0,P|164:312|207:346,1,167.999989151001,10|0,0:3|0:0,0:0:0:0:
0,357,104908,1,2,3:0:0:0:
386,371,105122,6,0,P|399:316|390:308,6,41.9999972877504,10|0|0|0|2|0|0,0:3|0:0|0:0|0:0|0:3|0:0|0:0,0:0:0:0:
506,360,105551,6,0,P|379:227|450:169,1,315.000001287461,2|2,3:0|0:3,0:0:0:0:
393,108,105980,2,0,P|457:99|403:164,1,167.999989151001,10|2,0:3|0:3,0:0:0:0:
248,214,106301,2,0,P|310:149|289:110,2,83.9999945755007,10|0|0,0:3|0:0|0:0,0:0:0:0:
471,265,106622,1,2,3:0:0:0:
294,0,106837,2,0,P|323:10|342:55,1,73.4999952535631,10|2,0:3|0:3,0:0:0:0:
309,167,107265,6,0,P|241:56|48:70,1,315.000001287461,4|2,3:0|0:3,0:0:0:0:
30,115,107694,2,0,P|41:22|29:19,2,83.9999945755007,10|0|2,0:3|0:0|0:3,0:0:0:0:
222,299,108015,6,0,P|200:260|124:267,1,122.499992089272,10|0,0:3|0:0,0:0:0:0:
155,340,108658,2,0,P|156:369|181:381,1,48.9999968357087
222,299,108980,2,0,P|258:234|224:197,1,105.000000429154
41,308,109301,2,0,P|130:354|170:321,1,139.999995231629
247,213,109622,2,0,P|185:149|120:168,1,153.999999454498
282,350,109944,2,0,P|346:294|340:275,1,83.9999945755007
433,348,110158,2,0,P|385:224|327:220,1,181.999985469819
8,132,110480,2,0,P|88:63|65:12,1,105.000000429154
357,25,110694,2,0,P|286:41|362:28,1,315.000001287461,4|0,3:0|0:0,0:0:0:0:
465,36,111122,6,0,P|474:19|481:6,2,31.4999979658128,2|2|2,0:3|0:3|3:0,0:0:0:0:
477,176,111980,6,0,P|442:108|406:104,1,69.9999976158143,10|0,0:3|0:0,0:0:0:0:
452,114,112194,2,0,P|487:182|523:186,1,69.9999976158143,2|0,0:3|0:0,0:0:0:0:
375,384,112408,6,0,L|457:104,1,279.999990463257,2|2,3:0|0:3,0:0:0:0:
494,361,112837,2,0,B|474:258|474:258|331:336,1,210.000000858307,10|2,0:3|0:3,0:0:0:0:
279,362,113158,2,0,B|304:336|304:336|283:262,2,105.000000429154,10|0|0,0:3|0:0|0:0,0:0:0:0:
512,244,113480,1,2,3:0:0:0:
114,269,113694,2,0,L|239:317,1,105.000000429154,10|2,0:3|0:3,0:0:0:0:
1,384,113908,2,0,L|118:350,1,105.000000429154,2|2,0:3|0:3,0:0:0:0:
370,60,114122,6,0,L|274:376,1,315.000001287461,4|2,3:0|0:3,0:0:0:0:
309,140,114551,6,0,L|299:116,1,20.9999986438752,10|2,0:3|0:3,0:0:0:0:
380,195,114872,6,0,L|392:172,1,20.9999986438752,10|0,0:3|0:0,0:0:0:0:
229,168,115194,5,2,3:0:0:0:
497,32,115408,6,0,B|501:106|501:106|374:113,1,139.999995231629,10|0,0:3|0:0,0:0:0:0:
294,46,115622,2,0,B|261:-10|261:-10|175:15,1,139.999995231629,2|0,0:3|0:0,0:0:0:0:
96,5,115837,6,0,B|25:35|25:35|26:115|26:115|64:168|64:168|149:118|149:118|101:89|101:89|106:18,1,419.999985694885,2|2,3:0|0:3,0:0:0:0:
72,122,116265,2,0,B|82:152|82:152|27:200|27:200|30:259,2,139.999995231629,10|0|2,0:3|0:0|0:3,0:0:0:0:
153,370,116587,2,0,L|100:205,1,139.999995231629,10|0,0:3|0:0,0:0:0:0:
229,168,116801,1,0,0:0:0:0:
237,176,116908,2,0,B|282:235|282:235|208:332,1,139.999995231629,2|0,3:0|0:0,0:0:0:0:
40,324,117122,6,0,L|55:313,1,10.4999993219376,10|2,0:3|0:3,0:0:0:0:
153,370,117337,6,0,L|135:365,1,10.4999993219376,2|2,0:3|0:3,0:0:0:0:
28,235,117551,6,0,B|305:323|305:323|275:331|275:331|487:386,1,461.999998363495,4|2,3:0|0:3,0:0:0:0:
495,291,117980,6,0,L|475:298,1,20.9999986438752,10|2,0:3|0:3,0:0:0:0:
413,256,118301,6,0,L|399:278,1,20.9999986438752,10|0,0:3|0:0,0:0:0:0:
331,303,118622,5,2,3:0:0:0:
409,365,118837,6,0,B|483:356|483:356|508:224,1,139.999995231629,10|0,0:3|0:0,0:0:0:0:
369,176,119051,2,0,B|307:161|307:161|282:40,1,139.999995231629,2|0,0:3|0:0,0:0:0:0:
458,0,119265,2,0,B|485:46|485:46|478:102|478:102|504:151|504:151|447:152|447:152|430:119|400:104|400:104|394:56|394:56|455:-14,1,419.999985694885,2|2,3:0|0:3,0:0:0:0:
375,37,119694,2,0,B|286:2|286:2|216:34,2,139.999995231629,10|0|2,0:3|0:0|0:3,0:0:0:0:
208,94,120015,2,0,B|165:155|165:155|106:127|106:127|154:52|154:52|218:104,1,279.999990463257,10|0,0:3|0:0,0:0:0:0:
220,306,120337,2,0,B|200:290|200:290|253:220|253:220|207:188,1,139.999995231629,2|0,3:0|0:0,0:0:0:0:
72,23,120551,6,0,L|77:41,1,10.4999993219376,10|2,0:3|0:3,0:0:0:0:
30,90,120765,6,0,L|25:108,1,10.4999993219376,2|2,0:3|0:3,0:0:0:0:
8,215,120980,6,0,B|88:189|88:189|72:186|72:186|209:134|209:134|146:137|146:137|421:36,1,461.999998363495,4|2,3:0|0:3,0:0:0:0:
342,24,121408,6,0,L|320:13,1,20.9999986438752,10|2,0:3|0:3,0:0:0:0:
402,83,121730,6,0,L|383:92,1,20.9999986438752,10|0,0:3|0:0,0:0:0:0:
464,31,122051,5,2,3:0:0:0:
371,277,122265,6,0,B|343:265|343:265|286:63,1,139.999995231629,10|0,0:3|0:0,0:0:0:0:
468,135,122480,2,0,B|496:166|496:166|467:220|467:220|396:223,1,139.999995231629,2|0,0:3|0:0,0:0:0:0:
288,84,122694,6,0,L|263:77,1,20.9999986438752,2|2,3:0|0:3,0:0:0:0:
449,304,123122,6,0,L|470:296,1,20.9999986438752,10|0,0:3|0:0,0:0:0:0:
394,383,123444,6,0,L|388:360,1,20.9999986438752,10|0,0:3|0:0,0:0:0:0:
320,337,123765,6,0,L|315:352,1,10.4999993219376,2|0,3:0|0:0,0:0:0:0:
483,375,123980,6,0,L|503:383,1,20.9999986438752,10|2,0:3|0:3,0:0:0:0:
238,372,124301,5,0,0:0:0:0:
242,358,124408,2,0,B|149:24|149:24|218:171,1,419.999985694885,4|0,3:0|0:0,0:0:0:0:
160,167,124837,6,0,L|151:190,1,20.9999986438752,2|0,0:3|0:0,0:0:0:0:
223,215,125158,6,0,L|235:240,1,20.9999986438752,2|0,0:3|0:0,0:0:0:0:
293,181,125480,5,2,3:0:0:0:
111,384,125694,6,0,B|83:365|83:365|154:244,1,139.999995231629,10|0,0:3|0:0,0:0:0:0:
19,97,125908,2,0,L|78:235,1,139.999995231629,2|0,0:3|0:0,0:0:0:0:
2,384,126122,2,0,B|82:367|82:367|137:271|137:271|8:257|8:257|19:320|19:320|-2:411,1,419.999985694885,2|2,3:0|0:3,0:0:0:0:
136,271,126551,2,0,B|156:254|156:254|288:307,2,139.999995231629,10|0|2,0:3|0:0|0:3,0:0:0:0:
308,370,126872,2,0,B|377:361|377:361|369:258,2,139.999995231629,10|0|0,0:3|0:0|0:0,0:0:0:0:
512,198,127194,2,0,B|519:215|519:215|455:349,1,139.999995231629,2|0,3:0|0:0,0:0:0:0:
456,136,127408,6,0,L|451:123,1,10.4999993219376,10|2,0:3|0:3,0:0:0:0:
490,62,127622,6,0,L|495:49,1,10.4999993219376,2|2,0:3|0:3,0:0:0:0:
433,0,127837,6,0,B|406:-7|406:-7|79:207|79:207|-1:188,1,461.999998363495,4|2,3:0|0:3,0:0:0:0:
105,240,128265,6,0,L|82:258,1,20.9999986438752,10|2,0:3|0:3,0:0:0:0:
171,193,128587,6,0,L|179:219,1,20.9999986438752,10|0,0:3|0:0,0:0:0:0:
36,196,128908,5,2,3:0:0:0:
117,383,129122,6,0,B|181:365|181:365|155:235,1,139.999995231629,10|0,0:3|0:0,0:0:0:0:
216,123,129337,2,0,B|187:55|187:55|277:-12,1,139.999995231629,2|0,0:3|0:0,0:0:0:0:
423,3,129551,6,0,B|473:16|473:16|500:65|500:65|445:168|445:168|392:128|392:128|417:77|417:77|410:-21,1,419.999985694885,2|2,3:0|0:3,0:0:0:0:
318,93,129980,2,0,B|308:120|308:120|361:261,2,139.999995231629,10|0|2,0:3|0:0|0:3,0:0:0:0:
320,383,130301,2,0,B|412:178|412:178|385:109,1,279.999990463257,10|0,0:3|0:0,0:0:0:0:
472,242,130622,1,2,3:0:0:0:
480,252,130730,1,0,0:0:0:0:
487,259,130837,2,0,B|495:332|495:332|354:361,1,139.999995231629,10|2,0:3|0:3,0:0:0:0:
276,273,131051,2,0,B|232:223|232:223|149:269,1,139.999995231629,2|2,0:3|0:3,0:0:0:0:
0,384,131265,6,0,B|100:176|100:176|96:203|96:203|204:-8,1,419.999985694885,4|2,3:0|0:3,0:0:0:0:
95,66,131694,6,0,L|101:86,1,20.9999986438752,10|2,0:3|0:3,0:0:0:0:
179,40,132015,6,0,L|166:65,1,20.9999986438752,10|0,0:3|0:0,0:0:0:0:
28,109,132337,5,2,3:0:0:0:
253,9,132551,6,0,B|295:70|295:70|403:53,1,139.999995231629,10|0,0:3|0:0,0:0:0:0:
480,45,132765,2,0,B|468:54|468:54|403:198,1,139.999995231629,2|0,0:3|0:0,0:0:0:0:
431,326,132980,2,0,B|438:301|438:301|355:44,1,279.999990463257,2|2,3:0|0:3,0:0:0:0:
320,364,133408,2,0,B|317:341|317:341|390:215,2,139.999995231629,10|0|2,0:3|0:0|0:3,0:0:0:0:
254,86,133730,2,0,L|308:246,2,139.999995231629,10|0|0,0:3|0:0|0:0,0:0:0:0:
512,273,134051,2,0,B|500:340|500:340|413:322,1,139.999995231629,2|0,3:0|0:0,0:0:0:0:
298,218,134265,2,0,B|231:208|231:208|185:329,1,139.999995231629,10|2,0:3|0:3,0:0:0:0:
36,369,134480,6,0,L|52:374,1,10.4999993219376,2|2,0:3|0:3,0:0:0:0:
143,375,134694,6,0,B|107:279|107:279|126:273|126:273|63:109|63:109|46:116|46:116|2:-22,1,419.999985694885,4|2,3:0|0:3,0:0:0:0:
102,73,135122,6,0,L|93:93,1,20.9999986438752,10|2,0:3|0:3,0:0:0:0:
17,110,135444,6,0,L|28:131,1,20.9999986438752,10|0,0:3|0:0,0:0:0:0:
166,123,135765,5,2,3:0:0:0:
10,201,135980,6,0,L|52:215,1,41.9999972877504,10|0,0:3|0:0,0:0:0:0:
504,82,136837,6,0,L|207:167,1,279.999990463257,2|2,3:0|0:3,0:0:0:0:
304,224,137158,6,0,L|513:300,1,210.000000858307,2|0,3:0|0:0,0:0:0:0:
422,310,137480,6,0,L|273:351,1,139.999995231629,2|0,3:0|0:0,0:0:0:0:
363,361,137801,5,2,3:0:0:0:
36,4,138122,6,0,B|92:288|92:288|162:272|162:272|109:-6|109:-6|213:46|213:46|234:158,1,874.999970197678,4|0,3:0|0:0,0:0:0:0:
304,58,138765,5,0,3:0:0:0:
309,44,138872,1,0,3:0:0:0:
367,117,138980,6,0,B|353:140|353:140|429:329,1,210.000000858307,8|0,0:3|0:0,0:0:0:0:
418,202,139301,2,0,B|440:188|440:188|490:-7,1,210.000000858307,0|0,3:0|0:0,0:0:0:0:
491,120,139622,2,0,B|503:130|503:130|533:260,1,105.000000429154,8|0,0:3|0:0,0:0:0:0:
511,374,139837,6,0,B|521:349|521:349|484:331,1,52.4999982118607,2|0,0:3|0:0,0:0:0:0:
352,374,140265,6,0,P|453:320|466:331,1,105.000000429154,4|0,3:0|0:0,0:0:0:0:
261,380,140480,2,0,P|220:350|217:300,1,105.000000429154,2|0,0:3|0:0,0:0:0:0:
159,179,140694,2,0,P|297:226|284:324,1,210.000000858307,8|0,0:3|0:0,0:0:0:0:
155,373,141015,2,0,P|176:270|222:318,1,210.000000858307,2|0,0:3|0:0,0:0:0:0:
80,342,141337,2,0,P|-20:380|-35:369,1,105.000000429154,2|0,0:3|0:0,0:0:0:0:
18,99,141551,6,0,B|260:207|260:207|291:144|291:144|90:51|90:51|123:-16|123:-16|404:111,1,874.999970197678,4|0,3:0|0:0,0:0:0:0:
423,50,142194,1,0,3:0:0:0:
419,37,142301,1,0,3:0:0:0:
506,5,142408,2,0,B|491:14|491:14|424:221,1,210.000000858307,8|0,0:3|0:0,0:0:0:0:
436,346,142730,2,0,B|445:317|445:317|366:139,1,210.000000858307,0|0,3:0|0:0,0:0:0:0:
460,265,143051,2,0,B|510:288|510:288|458:248,1,105.000000429154,8|0,0:3|0:0,0:0:0:0:
373,153,143265,6,0,B|320:168|320:168|282:259|282:259|146:311,1,210.000000858307
321,365,143587,1,0,0:0:0:0:
312,356,143694,2,0,B|53:261|53:261|11:338,1,315.000001287461,4|0,3:0|0:0,0:0:0:0:
134,372,144122,2,0,L|111:222,1,105.000000429154,8|0,0:3|0:0,0:0:0:0:
51,83,144337,1,0,0:0:0:0:
47,91,144444,2,0,B|18:190|18:190|190:74,1,210.000000858307,0|0,3:0|0:0,0:0:0:0:
131,52,144765,2,0,B|130:5|130:5|45:-20,1,105.000000429154,8|0,0:3|0:0,0:0:0:0:
187,209,144980,6,0,B|246:228|246:228|332:181|332:181|299:125|299:125|285:44|285:44|186:111|186:111|199:168|199:168|177:228,1,524.999982118607,4|0,3:0|0:0,0:0:0:0:
282,163,145408,2,0,B|318:163|318:163|297:138|297:138|291:113|291:113|250:127|250:127|286:189,1,174.999994039536,2|0,0:3|0:0,0:0:0:0:
314,318,145622,1,0,3:0:0:0:
310,306,145730,1,0,3:0:0:0:
385,350,145837,6,0,B|401:343|401:343|429:383|429:383|478:386,5,87.4999970197678,10|2|2|2|2|0,0:3|0:3|0:3|0:3|0:3|0:0,0:0:0:0:
382,268,146158,6,0,L|399:226,4,26.2500001072884,0|0|0|0|0,3:0|0:0|0:0|0:0|3:0,0:0:0:0:
461,291,146480,6,0,L|481:282,4,17.5000000715256,8|0|0|0|0,0:3|0:0|0:0|0:0|0:0,0:0:0:0:
312,318,146694,6,0,L|309:304,12,13.1250000536442,2|0|0|0|0|0|0|0|0|0|0|0|0,0:0|0:0|0:0|0:0|0:0|0:0|0:0|0:0|0:0|0:0|0:0|0:0|0:0,0:0:0:0:
408,163,147122,6,0,B|470:173|470:173|201:318,1,349.999988079071,4|0,3:0|0:0,0:0:0:0:
175,374,147444,1,2,0:3:0:0:
164,366,147551,2,0,B|147:353|147:353|23:293,1,105.000000429154,8|0,0:3|0:0,0:0:0:0:
0,383,147765,6,0,L|22:372,1,20.9999986438752,2|0,0:3|0:0,0:0:0:0:
71,316,148087,6,0,L|93:252,4,52.5000002145768,2|0|0|0|0,0:3|0:0|0:0|0:0|0:0,0:0:0:0:
14,231,148408,6,0,B|-24:114|-24:114|165:209,1,279.999990463257,4|2,3:0|0:3,0:0:0:0:
190,216,148730,2,0,B|229:197|229:197|266:82,2,139.999995231629,0|2|0,0:0|0:3|0:0,0:0:0:0:
218,40,149051,1,0,3:0:0:0:
210,23,149158,1,0,3:0:0:0:
141,65,149265,6,0,L|132:87,1,20.9999986438752,8|0,0:3|0:0,0:0:0:0:
258,105,149587,6,0,L|270:126,1,20.9999986438752,0|0,3:0|0:0,0:0:0:0:
343,36,149908,5,8,0:3:0:0:
343,36,150122,6,0,L|335:59,1,20.9999986438752,4|2,3:0|0:3,0:0:0:0:
417,84,150444,5,0,3:0:0:0:
418,93,150551,2,0,L|438:208,1,105.000000429154,2|0,0:3|0:0,0:0:0:0:
351,246,150765,5,0,3:0:0:0:
357,233,150872,1,2,0:3:0:0:
431,269,150980,5,2,0:3:0:0:
387,284,151087,1,0,3:0:0:0:
344,296,151194,1,2,0:3:0:0:
302,310,151301,1,2,0:3:0:0:
254,374,151408,5,8,0:3:0:0:
183,349,151515,1,8,0:3:0:0:
113,321,151622,1,2,0:3:0:0:
42,291,151730,1,2,0:3:0:0:
37,280,151837,6,0,B|-12:259|-12:259|25:145|25:145|72:221|72:221|51:287,1,315.000001287461,2|0,0:3|0:0,0:0:0:0:
95,180,152265,1,2,0:3:0:0:
90,166,152372,1,2,0:3:0:0:
140,106,152480,1,0,3:0:0:0:
147,88,152587,1,0,3:0:0:0:
113,16,152694,6,0,B|99:4|99:4|32:18|32:18|-6:-5,2,105.000000429154,8|0|0,0:3|0:0|0:0,0:0:0:0:
227,127,153015,2,0,B|247:124|247:124|285:166|285:166|333:166,2,105.000000429154,8|2|2,0:3|0:3|0:3,0:0:0:0:
224,25,153337,5,0,3:0:0:0:
229,14,153444,1,2,0:3:0:0:
302,48,153551,5,2,0:3:0:0:
309,59,153658,1,2,0:3:0:0:
382,30,153765,6,0,B|425:14|425:14|437:18|437:18|489:0,1,105.000000429154,0|2,3:0|0:3,0:0:0:0:
372,110,153980,1,2,0:3:0:0:
378,124,154087,1,2,0:3:0:0:
441,172,154194,2,0,B|460:163|460:163|483:70,1,105.000000429154,0|2,3:0|0:3,0:0:0:0:
391,291,154408,6,0,B|367:252|367:252|367:240|367:240|329:179,2,105.000000429154,8|0|2,0:3|0:0|0:3,0:0:0:0:
227,127,154730,2,0,B|201:167|201:167|202:178|202:178|178:217,2,105.000000429154,8|0|2,0:3|0:0|0:3,0:0:0:0:
272,276,155051,1,0,3:0:0:0:
272,276,155265,6,0,B|204:287|204:287|139:329|139:329|185:359|185:359|224:305|224:305|271:277,1,315.000001287461,4|0,3:0|0:0,0:0:0:0:
294,352,155694,1,2,0:3:0:0:
298,363,155801,1,2,0:3:0:0:
377,384,155908,5,0,3:0:0:0:
382,370,156015,1,0,3:0:0:0:
451,327,156122,6,0,B|471:329|471:329|498:263|498:263|474:218,2,105.000000429154,8|0|0,0:3|0:0|0:0,0:0:0:0:
342,207,156444,2,0,B|335:219|335:219|363:284|363:284|383:282,2,105.000000429154,8|2|2,0:3|0:3|0:3,0:0:0:0:
451,141,156765,5,0,3:0:0:0:
445,154,156872,1,2,0:3:0:0:
370,130,156980,5,2,0:3:0:0:
365,112,157087,1,2,0:3:0:0:
305,64,157194,5,0,3:0:0:0:
296,79,157301,1,2,0:3:0:0:
236,133,157408,5,2,0:3:0:0:
217,86,157515,1,2,0:3:0:0:
149,12,157622,6,0,B|138:22|138:22|123:141,1,105.000000429154,0|2,3:0|0:3,0:0:0:0:
73,226,157837,2,0,B|79:177|79:177|7:107,2,105.000000429154,8|0|0,0:3|0:0|0:0,0:0:0:0:
174,297,158158,2,0,B|168:248|168:248|240:178,2,105.000000429154,8|0|0,0:3|0:0|0:0,0:0:0:0:
78,371,158480,1,0,3:0:0:0:
78,371,158694,6,0,B|105:352|105:352|398:260,1,315.000001287461,4|0,3:0|0:0,0:0:0:0:
296,255,159122,1,2,0:3:0:0:
288,238,159230,1,2,0:3:0:0:
352,194,159337,5,0,3:0:0:0:
359,176,159444,1,0,3:0:0:0:
431,212,159551,6,0,B|456:212|456:212|484:253|484:253|536:256,2,105.000000429154,8|0|0,0:3|0:0|0:0,0:0:0:0:
330,98,159872,2,0,B|305:98|305:98|277:139|277:139|225:142,2,105.000000429154,8|2|2,0:3|0:3|0:3,0:0:0:0:
432,12,160194,1,0,3:0:0:0:
428,23,160301,1,2,0:3:0:0:
483,79,160408,5,2,0:3:0:0:
490,90,160515,1,2,0:3:0:0:
423,131,160622,5,0,3:0:0:0:
417,144,160730,1,2,0:3:0:0:
468,221,160837,5,2,0:3:0:0:
475,233,160944,1,2,0:3:0:0:
409,280,161051,5,0,3:0:0:0:
406,290,161158,1,2,0:3:0:0:
427,366,161265,6,0,B|452:342|452:342|482:356|482:356|528:325,2,105.000000429154,8|0|2,0:3|0:0|0:3,0:0:0:0:
342,352,161587,2,0,B|339:318|339:318|312:301|312:301|301:238,2,105.000000429154,8|0|2,0:3|0:0|0:3,0:0:0:0:
409,280,161908,1,0,3:0:0:0:
232,371,162122,6,0,B|302:114|302:114|232:82,1,315.000001287461,4|2,3:0|0:3,0:0:0:0:
197,139,162551,5,2,0:3:0:0:
186,142,162658,1,2,0:3:0:0:
176,146,162765,1,0,3:0:0:0:
166,150,162872,1,0,3:0:0:0:
92,121,162980,6,0,B|75:111|75:111|94:65|94:65|57:14,2,105.000000429154,8|0|2,0:3|0:0|0:3,0:0:0:0:
39,210,163301,2,0,B|14:203|14:203|9:152|9:152|-26:119,2,105.000000429154,8|2|2,0:3|0:3|0:3,0:0:0:0:
110,269,163622,5,0,3:0:0:0:
113,278,163730,1,2,0:3:0:0:
164,341,163837,5,2,0:3:0:0:
174,338,163944,1,2,0:3:0:0:
184,335,164051,1,0,3:0:0:0:
194,332,164158,1,2,0:3:0:0:
254,284,164265,5,2,0:3:0:0:
264,286,164372,1,2,0:3:0:0:
274,289,164480,1,0,3:0:0:0:
284,291,164587,1,2,0:3:0:0:
340,350,164694,6,0,B|364:355|364:355|460:306,2,105.000000429154,8|0|2,0:3|0:0|0:3,0:0:0:0:
500,369,165015,2,0,B|519:349|519:349|530:253,2,105.000000429154,8|0|0,0:3|0:0|0:0,0:0:0:0:
456,239,165337,1,0,3:0:0:0:
263,373,165551,5,0,3:0:0:0:
256,192,165658,12,0,168980,0:0:0:0:
39,0,172408,6,0,B|7:-17|-44:-5|-54:43|-47:104|-12:124|46:132|79:88|74:75|68:57|89:17|171:7|202:46|232:86|230:163|182:193|138:208|103:186,1,524.999982118607,2|0,0:0|0:0,0:0:0:0:
266,349,175837,6,0,B|247:382|217:404|140:409|111:355|91:297|118:215|210:164|244:270|249:259|256:248|265:282|293:328|366:287|416:281|428:192|368:136|317:143,1,587.999987150574,2|0,0:0|0:0,0:0:0:0:
250,20,179265,6,0,B|193:-24|145:5|97:62|124:109|144:177|217:164|273:131|259:116|244:101|261:64|332:50|422:109|420:205|402:275|297:326|252:267|254:254|253:245|149:224|107:314|163:408|255:394|269:339,1,772.799992545777,2|0,0:0|0:0,0:0:0:0:
341,321,184408,6,0,B|380:328|414:305|426:240|394:211|336:197|328:216|324:237|274:255|237:205,1,274.399994003601,2|0,0:0|0:0,0:0:0:0:
77,221,186122,6,0,B|35:252|-42:214|-54:125|7:39|116:71|123:135|115:146|106:160|127:194|171:201|205:188|215:134|207:124|197:112|195:72|219:32|266:21|425:-4|415:180|369:236|274:246|227:203,1,734.999952535631,2|0,0:0|0:0,0:0:0:0:
256,192,189551,12,0,192872,0:0:0:0:
21,28,192980,5,4,3:0:0:0:
108,86,193194,1,2,0:3:0:0:
111,92,193301,1,0,0:0:0:0:
114,98,193408,1,0,0:0:0:0:
117,104,193515,1,0,0:0:0:0:
120,110,193622,1,8,0:0:0:0:
219,15,194051,1,0,0:0:0:0:
270,74,194265,2,0,L|327:55,1,48.9999968357087,8|2,0:0|0:3,0:0:0:0:
429,17,194694,6,0,L|392:98,2,73.4999952535631,0|0|8,3:0|3:0|0:0,0:0:0:0:
500,197,195765,1,0,3:0:0:0:
441,254,195980,2,0,L|459:314,1,48.9999968357087,8|2,0:0|0:3,0:0:0:0:
346,375,196408,5,0,3:0:0:0:
339,207,196622,1,2,0:3:0:0:
343,216,196730,1,0,0:0:0:0:
347,225,196837,1,0,0:0:0:0:
351,234,196944,1,0,0:0:0:0:
355,243,197051,2,0,L|287:263,1,48.9999968357087,8|0,0:0|0:0,0:0:0:0:
203,357,197480,1,0,0:0:0:0:
129,321,197694,2,0,L|117:273,1,48.9999968357087,8|2,0:0|0:3,0:0:0:0:
212,281,198122,6,0,L|242:206,2,73.4999952535631,0|0|8,3:0|3:0|0:0,0:0:0:0:
159,167,198980,1,0,0:0:0:0:
158,162,199087,1,2,0:3:0:0:
157,157,199194,1,0,3:0:0:0:
190,82,199408,2,0,L|244:67,1,48.9999968357087,8|2,0:0|0:3,0:0:0:0:
116,8,199837,5,4,3:0:0:0:
48,46,200051,1,2,0:3:0:0:
50,50,200158,1,0,0:0:0:0:
52,54,200265,1,0,0:0:0:0:
54,58,200372,1,0,0:0:0:0:
56,62,200480,1,8,0:0:0:0:
5,184,200908,1,0,0:0:0:0:
51,250,201122,2,0,L|100:258,1,48.9999968357087,8|2,0:0|0:3,0:0:0:0:
160,318,201551,6,0,L|89:351,2,73.4999952535631,0|0|8,3:0|3:0|0:0,0:0:0:0:
232,354,202408,1,0,0:0:0:0:
236,354,202515,1,2,0:3:0:0:
240,354,202622,1,0,3:0:0:0:
314,312,202837,2,0,L|332:257,1,48.9999968357087,8|2,0:0|0:3,0:0:0:0:
276,173,203265,5,4,3:0:0:0:
338,118,203480,1,2,0:3:0:0:
342,120,203587,1,0,0:0:0:0:
346,122,203694,1,0,0:0:0:0:
350,124,203801,1,0,0:0:0:0:
354,126,203908,1,8,0:0:0:0:
474,195,204337,1,0,0:0:0:0:
507,120,204551,2,0,L|496:58,1,48.9999968357087,8|2,0:0|0:3,0:0:0:0:
440,4,204980,6,0,L|418:81,2,73.4999952535631,0|0|8,3:0|3:0|0:0,0:0:0:0:
349,15,205837,1,0,0:0:0:0:
344,16,205944,1,2,0:3:0:0:
339,17,206051,1,0,3:0:0:0:
275,72,206265,2,0,L|208:51,1,48.9999968357087,8|2,0:0|0:3,0:0:0:0:
118,4,206694,5,4,3:0:0:0:
63,65,206908,1,2,0:3:0:0:
65,69,207015,1,2,0:3:0:0:
67,73,207122,1,0,0:0:0:0:
69,77,207230,1,0,0:0:0:0:
71,81,207337,1,8,0:0:0:0:
173,146,207765,1,2,0:3:0:0:
229,200,207980,2,0,L|217:250,1,48.9999968357087,8|2,0:0|0:3,0:0:0:0:
155,337,208408,6,0,L|133:263,2,73.4999952535631,0|0|8,3:0|3:0|0:0,0:0:0:0:
278,369,209480,1,0,3:0:0:0:
324,303,209694,2,0,L|312:253,1,48.9999968357087,8|2,0:0|0:3,0:0:0:0:
229,165,210122,5,0,3:0:0:0:
271,92,210337,1,2,0:3:0:0:
275,90,210444,1,0,0:0:0:0:
279,89,210551,1,0,0:0:0:0:
283,88,210658,1,0,0:0:0:0:
287,87,210765,1,8,0:0:0:0:
386,1,211194,1,0,0:0:0:0:
450,47,211408,2,0,L|464:101,1,48.9999968357087,8|2,0:0|0:3,0:0:0:0:
369,183,211837,6,0,L|378:110,2,73.4999952535631,0|0|8,3:0|3:0|0:0,0:0:0:0:
415,251,212694,1,0,0:0:0:0:
483,208,212908,1,0,3:0:0:0:
406,259,213122,2,0,L|417:308,1,48.9999968357087,8|2,0:0|0:3,0:0:0:0:
314,376,213551,5,4,3:0:0:0:
252,312,213765,1,2,0:3:0:0:
250,307,213872,1,2,0:3:0:0:
248,302,213980,1,0,0:0:0:0:
246,297,214087,1,0,0:0:0:0:
244,292,214194,1,8,0:0:0:0:
299,178,214622,1,0,3:0:0:0:
325,101,214837,2,0,L|305:47,1,48.9999968357087,8|2,0:0|0:3,0:0:0:0:
240,5,215265,6,0,L|216:82,2,73.4999952535631,0|0|8,3:0|3:0|0:0,0:0:0:0:
148,22,216122,1,0,0:0:0:0:
143,24,216230,1,2,0:3:0:0:
138,26,216337,1,0,3:0:0:0:
56,5,216551,2,0,L|39:57,1,48.9999968357087,8|2,0:0|0:3,0:0:0:0:
93,137,216980,6,0,P|67:149|52:168,1,48.9999968357087,4|2,3:0|0:3,0:0:0:0:
26,189,217301,2,0,P|12:216|15:255,1,48.9999968357087
18,274,217622,1,8,0:0:0:0:
74,330,217837,1,0,0:0:0:0:
78,328,217944,1,2,0:3:0:0:
82,327,218051,1,0,0:0:0:0:
145,276,218265,2,0,L|204:294,1,48.9999968357087,8|2,0:0|0:3,0:0:0:0:
271,375,218694,5,0,3:0:0:0:
344,329,218908,1,8,0:0:0:0:
345,324,219015,1,8,0:0:0:0:
346,319,219122,1,0,3:0:0:0:
288,258,219337,2,0,L|262:153,1,97.9999936714175,8|0,0:0|3:0,0:0:0:0:
351,95,219980,2,0,L|332:143,1,48.9999968357087,8|2,0:0|0:3,0:0:0:0:
330,9,220408,5,4,3:0:0:0:
415,28,220622,1,2,0:3:0:0:
422,31,220730,1,2,0:3:0:0:
429,34,220837,1,0,0:0:0:0:
436,37,220944,1,0,0:0:0:0:
443,40,221051,1,8,0:0:0:0:
504,151,221480,1,2,0:3:0:0:
437,206,221694,2,0,L|452:283,1,76.9999997272492,8|2,0:0|0:3,0:0:0:0:
345,374,222122,6,0,L|362:289,1,76.9999997272492,0|2,3:0|0:3,0:0:0:0:
325,291,222444,2,0,L|309:207,1,76.9999997272492,0|0,3:0|0:0,0:0:0:0:
337,190,222765,1,8,0:0:0:0:
249,133,222980,1,2,0:3:0:0:
247,125,223087,1,2,0:3:0:0:
245,117,223194,1,0,3:0:0:0:
293,47,223408,2,0,L|199:20,1,76.9999997272492,8|2,0:0|0:3,0:0:0:0:
81,47,223837,6,0,P|126:55|149:126,1,115.499999590874,0|2,3:0|0:3,0:0:0:0:
120,140,224265,1,2,0:3:0:0:
114,145,224372,1,0,0:0:0:0:
108,150,224480,1,8,0:0:0:0:
12,229,224694,2,0,P|56:245|68:278,1,76.9999997272492,2|0,0:3|3:0,0:0:0:0:
124,362,225122,2,0,P|150:300|200:286,1,115.499999590874,8|0,0:0|0:0,0:0:0:0:
210,262,225551,5,0,3:0:0:0:
278,353,225765,1,2,0:3:0:0:
290,365,225872,2,0,P|331:352|342:316,1,76.9999997272492,0|0,3:0|0:0,0:0:0:0:
359,317,226194,1,8,0:0:0:0:
314,213,226408,1,0,0:0:0:0:
311,205,226515,1,2,0:3:0:0:
308,197,226622,1,0,3:0:0:0:
375,45,226837,2,0,L|352:119,1,76.9999997272492,8|2,0:0|0:3,0:0:0:0:
469,9,227265,5,4,3:0:0:0:
501,81,227480,1,2,0:3:0:0:
498,88,227587,1,2,0:3:0:0:
495,95,227694,1,2,0:3:0:0:
492,102,227801,1,0,0:0:0:0:
489,109,227908,1,8,0:0:0:0:
426,176,228122,1,2,0:3:0:0:
429,182,228230,1,2,0:3:0:0:
432,188,228337,1,0,3:0:0:0:
490,249,228551,2,0,L|474:344,1,76.9999997272492,8|2,0:0|0:3,0:0:0:0:
390,370,228980,6,0,L|355:276,1,76.9999997272492,0|2,3:0|0:3,0:0:0:0:
341,292,229301,2,0,L|343:209,1,76.9999997272492,0|0,3:0|0:0,0:0:0:0:
329,203,229622,1,8,0:0:0:0:
259,129,229837,1,2,0:3:0:0:
261,121,229944,1,2,0:3:0:0:
263,113,230051,1,0,3:0:0:0:
226,36,230265,2,0,L|145:18,1,76.9999997272492,8|2,0:0|0:3,0:0:0:0:
43,39,230694,5,4,3:0:0:0:
95,104,230908,1,2,0:3:0:0:
94,111,231015,1,2,0:3:0:0:
93,118,231122,1,2,0:3:0:0:
92,125,231230,1,0,0:0:0:0:
91,132,231337,1,8,0:0:0:0:
146,196,231551,1,0,0:0:0:0:
153,194,231658,1,2,0:3:0:0:
160,192,231765,1,2,0:3:0:0:
231,235,231980,2,0,L|314:256,1,76.9999997272492,8|2,0:0|0:3,0:0:0:0:
370,181,232408,6,0,P|416:206|422:264,1,115.499999590874,0|8,3:0|0:0,0:0:0:0:
438,279,232837,1,0,3:0:0:0:
441,285,232944,1,2,0:3:0:0:
444,291,233051,1,8,0:0:0:0:
406,384,233265,2,0,P|369:334|335:327,1,76.9999997272492,2|0,0:3|3:0,0:0:0:0:
305,253,233694,2,0,P|257:298|204:297,1,115.499999590874,8|0,0:0|0:0,0:0:0:0:
182,298,234122,5,4,3:0:0:0:
86,220,234337,1,2,0:3:0:0:
88,212,234444,1,2,0:3:0:0:
90,204,234551,1,0,0:0:0:0:
92,196,234658,1,0,0:0:0:0:
94,188,234765,1,8,0:0:0:0:
45,118,234980,1,2,0:3:0:0:
104,58,235194,1,2,0:3:0:0:
200,96,235408,2,0,B|230:95|250:111|247:123|244:136|256:163|306:161,1,115.499999590874,8|0,0:0|0:0,0:0:0:0:
318,152,235837,6,0,L|351:34,2,115.499999590874,0|0|8,3:0|3:0|0:0,0:0:0:0:
391,220,236694,1,2,0:3:0:0:
330,277,236908,1,0,3:0:0:0:
407,360,237122,2,0,L|482:341,1,76.9999997272492,8|2,0:0|0:3,0:0:0:0:
323,295,237551,6,0,P|276:317|267:385,1,115.499999590874,0|2,3:0|0:3,0:0:0:0:
236,377,237980,2,0,P|192:361|185:307,1,76.9999997272492,2|8,0:3|0:0,0:0:0:0:
108,296,238408,1,2,0:3:0:0:
111,289,238515,1,0,0:0:0:0:
114,282,238622,1,0,3:0:0:0:
41,232,238837,2,0,L|16:151,1,76.9999997272492,8|2,0:0|0:3,0:0:0:0:
77,58,239265,6,0,P|115:72|133:139,1,115.499999590874,0|0,3:0|3:0,0:0:0:0:
149,162,239694,2,0,P|170:194|220:198,1,76.9999997272492,0|8,0:0|0:0,0:0:0:0:
277,132,240122,1,0,0:0:0:0:
274,124,240230,1,2,0:3:0:0:
271,116,240337,1,0,3:0:0:0:
318,27,240551,2,0,L|400:6,1,76.9999997272492,8|2,0:0|0:3,0:0:0:0:
494,81,240980,5,4,3:0:0:0:
433,137,241194,1,2,0:3:0:0:
435,144,241301,1,2,0:3:0:0:
437,151,241408,1,2,0:3:0:0:
439,158,241515,1,0,0:0:0:0:
440,165,241622,2,0,L|461:248,1,76.9999997272492,8|2,0:0|0:3,0:0:0:0:
422,324,242051,1,0,3:0:0:0:
337,295,242265,2,0,P|289:306|257:366,1,115.499999590874,8|0,0:0|0:0,0:0:0:0:
235,364,242694,6,0,L|208:276,1,76.9999997272492,0|2,3:0|0:3,0:0:0:0:
231,259,243015,2,0,L|243:172,1,76.9999997272492,0|0,3:0|0:0,0:0:0:0:
275,170,243337,1,8,0:0:0:0:
330,65,243551,1,2,0:3:0:0:
325,58,243658,1,2,0:3:0:0:
320,51,243765,1,0,3:0:0:0:
242,11,243980,2,0,L|152:34,1,76.9999997272492,8|2,0:0|0:3,0:0:0:0:
64,7,244408,5,4,3:0:0:0:
6,69,244622,1,2,0:3:0:0:
8,76,244730,1,2,0:3:0:0:
10,83,244837,1,2,0:3:0:0:
12,90,244944,1,0,0:0:0:0:
15,97,245051,1,8,0:0:0:0:
85,145,245265,1,0,0:0:0:0:
61,222,245480,1,2,0:3:0:0:
122,268,245694,2,0,L|197:239,1,76.9999997272492,8|2,0:0|0:3,0:0:0:0:
256,192,246122,12,0,247730,0:0:0:0:
468,19,247837,6,0,P|405:56|438:142,1,139.999995231629,4|2,3:0|0:3,0:0:0:0:
443,188,248158,2,0,P|512:137|497:92,1,139.999995231629,2|0,3:0|0:0,0:0:0:0:
361,181,248480,1,8,0:3:0:0:
460,355,248694,2,0,L|491:369,4,34.9999988079071,2|0|2|0|2,0:3|0:0|0:3|0:0|3:0,0:0:0:0:
312,321,249122,2,0,B|320:310|320:310|525:258,1,209.999992847443,8|0,0:3|0:0,0:0:0:0:
510,261,249551,5,2,3:0:0:0:
226,375,249765,1,2,0:3:0:0:
240,384,249872,2,0,L|193:240,1,139.999995231629,2|2,3:0|0:3,0:0:0:0:
242,176,250194,2,0,B|334:211|334:211|309:331,1,209.999992847443,8|2,0:3|0:3,0:0:0:0:
196,250,250622,2,0,L|115:233,1,69.9999976158143,2|2,3:0|0:3,0:0:0:0:
0,241,250837,2,0,B|43:247|43:247|184:134,1,209.999992847443,8|0,0:3|0:0,0:0:0:0:
270,76,251265,6,0,B|211:111|211:111|248:190,1,139.999995231629,2|2,3:0|0:3,0:0:0:0:
324,160,251587,1,2,3:0:0:0:
334,157,251694,1,2,0:3:0:0:
344,155,251801,1,0,0:0:0:0:
354,153,251908,2,0,L|427:135,1,69.9999976158143,8|0,0:3|0:0,0:0:0:0:
498,44,252122,2,0,B|491:8|491:8|457:-11,1,69.9999976158143,2|2,0:3|0:3,0:0:0:0:
503,125,252337,1,2,3:0:0:0:
420,59,252551,2,0,B|325:15|325:15|260:110,1,209.999992847443,8|0,0:3|0:0,0:0:0:0:
241,175,252980,6,0,B|170:154|170:154|152:73,1,139.999995231629,2|2,3:0|0:3,0:0:0:0:
84,68,253301,2,0,L|103:-5,2,69.9999976158143,2|2|2,3:0|0:3|0:3,0:0:0:0:
40,234,253622,2,0,B|12:117|12:117|16:107|16:107|-3:20,1,209.999992847443,8|2,0:3|0:3,0:0:0:0:
58,148,254051,1,2,3:0:0:0:
197,237,254265,2,0,B|104:276|104:276|93:389,1,209.999992847443,8|0,0:3|0:0,0:0:0:0:
176,361,254694,6,0,B|186:369|186:369|319:325,1,139.999995231629,4|2,3:0|0:3,0:0:0:0:
417,287,255015,2,0,B|407:276|407:276|283:233,1,139.999995231629,2|0,3:0|0:0,0:0:0:0:
317,338,255337,1,8,0:3:0:0:
488,337,255551,2,0,L|509:294,3,34.9999988079071,2|0|2|0,0:3|0:0|0:3|0:0,0:0:0:0:
481,352,255765,1,2,3:0:0:0:
512,97,255980,2,0,B|441:179|441:179|324:157,1,209.999992847443,8|0,0:3|0:0,0:0:0:0:
297,92,256408,6,0,B|307:22|307:22|399:12,1,139.999995231629,2|2,3:0|0:3,0:0:0:0:
447,48,256730,2,0,B|456:12|456:12|496:-2,2,69.9999976158143,2|2|2,3:0|0:3|0:3,0:0:0:0:
341,160,257051,2,0,B|244:200|244:200|243:315,1,209.999992847443,8|2,0:3|0:3,0:0:0:0:
252,174,257480,1,2,3:0:0:0:
302,369,257694,2,0,B|281:378|281:378|163:276|163:276|114:301,1,209.999992847443,8|0,0:3|0:0,0:0:0:0:
25,233,258122,6,0,B|11:303|11:303|64:352,1,139.999995231629,2|2,3:0|0:3,0:0:0:0:
135,290,258444,2,0,B|153:269|153:269|122:147,1,139.999995231629,2|0,3:0|0:0,0:0:0:0:
43,125,258765,1,8,0:3:0:0:
114,0,258980,1,2,0:3:0:0:
119,8,259087,1,2,0:3:0:0:
124,17,259194,2,0,L|152:91,1,69.9999976158143,2|0,3:0|0:0,0:0:0:0:
43,125,259408,2,0,B|112:141|112:141|175:40,1,139.999995231629,8|2,0:3|0:3,0:0:0:0:
272,6,259837,6,0,B|298:28|298:28|290:71,1,69.9999976158143,2|2,3:0|0:3,0:0:0:0:
350,109,260051,1,2,0:3:0:0:
350,119,260158,2,0,B|353:155|353:155|321:179,1,69.9999976158143,2|2,3:0|0:3,0:0:0:0:
247,207,260372,1,2,0:3:0:0:
242,216,260480,2,0,B|238:257|238:257|268:282,1,69.9999976158143,2|2,3:0|0:3,0:0:0:0:
269,355,260694,1,2,0:3:0:0:
279,353,260801,2,0,L|422:318,1,139.999995231629,2|2,3:0|0:3,0:0:0:0:
474,374,261122,1,8,0:3:0:0:
491,319,261230,1,8,0:3:0:0:
449,255,261337,1,2,0:3:0:0:
433,243,261444,1,2,0:3:0:0:
471,169,261551,6,0,B|487:137|487:137|559:136,1,69.9999976158143,4|0,3:0|0:0,0:0:0:0:
405,108,261765,1,2,0:3:0:0:
396,120,261872,2,0,L|258:82,1,139.999995231629,2|0,3:0|0:0,0:0:0:0:
342,57,262194,1,8,0:3:0:0:
208,144,262408,2,0,L|218:177,4,34.9999988079071,2|0|2|0|2,0:3|0:0|0:3|0:0|3:0,0:0:0:0:
209,0,262837,2,0,B|112:29|112:29|130:150,1,209.999992847443,8|0,0:3|0:0,0:0:0:0:
52,158,263265,5,2,3:0:0:0:
47,148,263372,1,2,0:3:0:0:
42,138,263480,1,2,0:3:0:0:
36,129,263587,2,0,B|20:98|20:98|38:57,1,69.9999976158143,2|2,3:0|0:3,0:0:0:0:
194,180,263801,1,2,0:3:0:0:
184,187,263908,2,0,B|148:228|148:228|225:371,1,209.999992847443,8|2,0:3|0:3,0:0:0:0:
121,344,264337,2,0,B|96:376|96:376|46:381,1,69.9999976158143,2|2,3:0|0:3,0:0:0:0:
257,267,264551,2,0,B|370:267|370:267|426:371,1,209.999992847443,8|0,0:3|0:0,0:0:0:0:
487,373,264980,6,0,B|532:315|532:315|512:234,1,139.999995231629,2|2,3:0|0:3,0:0:0:0:
446,216,265301,2,0,B|418:209|418:209|446:135|446:135|505:118,1,139.999995231629,2|0,3:0|0:0,0:0:0:0:
492,26,265622,2,0,B|476:48|476:48|339:86,1,139.999995231629,8|2,0:3|0:3,0:0:0:0:
177,33,266051,1,2,3:0:0:0:
264,226,266265,2,0,L|224:83,1,139.999995231629,8|2,0:3|0:3,0:0:0:0:
337,168,266587,1,0,0:0:0:0:
348,176,266694,6,0,B|368:217|368:217|306:338,1,139.999995231629,2|2,3:0|0:3,0:0:0:0:
276,357,267015,2,0,B|270:370|270:370|201:381,1,69.9999976158143,2|2,3:0|0:3,0:0:0:0:
94,346,267230,1,2,0:3:0:0:
110,338,267337,2,0,B|153:284|153:284|236:294,1,139.999995231629,8|2,0:3|0:3,0:0:0:0:
67,257,267658,1,2,0:3:0:0:
53,245,267765,2,0,L|34:170,1,69.9999976158143,2|2,3:0|0:3,0:0:0:0:
169,18,267980,2,0,B|108:52|108:52|116:122,1,139.999995231629,8|0,0:3|0:0,0:0:0:0:
217,196,268408,6,0,L|352:156,1,139.999995231629,4|2,3:0|0:3,0:0:0:0:
393,91,268730,2,0,B|416:62|416:62|402:8,1,69.9999976158143,2|2,3:0|0:3,0:0:0:0:
483,122,268944,1,0,0:0:0:0:
468,134,269051,2,0,L|505:243,1,69.9999976158143,8|0,0:3|0:0,0:0:0:0:
401,240,269265,2,0,L|416:191,4,34.9999988079071,2|0|2|0|2,0:3|0:0|0:3|0:0|3:0,0:0:0:0:
511,318,269694,2,0,B|416:315|416:315|323:393,1,209.999992847443,8|0,0:3|0:0,0:0:0:0:
250,380,270122,6,0,B|226:355|226:355|229:307,1,69.9999976158143,2|2,3:0|0:3,0:0:0:0:
200,240,270337,1,2,0:3:0:0:
188,227,270444,2,0,L|205:148,1,69.9999976158143,2|2,3:0|0:3,0:0:0:0:
274,96,270658,1,2,0:3:0:0:
282,108,270765,2,0,B|346:82|346:82|348:4,1,139.999995231629,8|2,0:3|0:3,0:0:0:0:
184,8,271194,2,0,L|107:28,1,69.9999976158143,2|2,3:0|0:3,0:0:0:0:
4,6,271408,2,0,B|39:45|39:45|9:141,1,139.999995231629,8|0,0:3|0:0,0:0:0:0:
66,268,271837,6,0,L|-10:245,1,69.9999976158143,2|0,3:0|0:0,0:0:0:0:
96,342,272051,1,8,0:3:0:0:
106,340,272158,1,8,0:3:0:0:
116,337,272265,1,2,0:3:0:0:
224,219,272480,6,0,L|199:148,1,69.9999976158143,2|0,3:0|0:0,0:0:0:0:
193,372,272694,1,8,0:3:0:0:
203,372,272801,1,8,0:3:0:0:
213,373,272908,1,2,3:0:0:0:
334,149,273122,6,0,L|384:99,1,69.9999976158143,2|0,3:0|0:0,0:0:0:0:
292,343,273337,1,8,0:3:0:0:
302,340,273444,1,8,0:3:0:0:
312,337,273551,1,2,3:0:0:0:
464,175,273765,5,2,0:3:0:0:
472,181,273872,2,0,L|442:321,1,139.999995231629,2|2,3:0|0:3,0:0:0:0:
378,231,274194,2,0,B|369:223|369:223|322:94,1,139.999995231629,8|2,0:3|0:3,0:0:0:0:
398,73,274515,1,2,3:0:0:0:
405,62,274622,1,0,0:0:0:0:
235,4,274837,1,8,0:3:0:0:
162,24,274944,1,8,0:3:0:0:
118,89,275051,1,2,0:3:0:0:
93,80,275158,1,2,0:3:0:0:
17,114,275265,6,0,B|12:137|12:137|80:237,1,139.999995231629,4|2,3:0|0:3,0:0:0:0:
16,282,275587,2,0,B|23:308|23:308|153:361,1,139.999995231629,2|0,3:0|0:0,0:0:0:0:
200,382,275908,1,8,0:3:0:0:
247,276,276122,2,0,L|240:237,4,34.9999988079071,2|0|2|0|2,0:3|0:0|0:3|0:0|3:0,0:0:0:0:
323,380,276551,2,0,B|333:274|333:274|436:214,1,209.999992847443,8|0,0:3|0:0,0:0:0:0:
425,327,276980,6,0,L|504:354,1,69.9999976158143,2|2,3:0|0:3,0:0:0:0:
368,165,277194,1,2,0:3:0:0:
352,173,277301,2,0,L|262:136,1,69.9999976158143,2|2,3:0|0:3,0:0:0:0:
448,93,277515,1,2,0:3:0:0:
467,87,277622,2,0,B|487:20|487:20|408:-16,1,139.999995231629,8|2,0:3|0:3,0:0:0:0:
343,57,277944,1,2,0:3:0:0:
330,64,278051,2,0,L|255:33,1,69.9999976158143,2|2,3:0|0:3,0:0:0:0:
144,9,278265,2,0,B|181:62|181:62|135:215,1,209.999992847443,8|0,0:3|0:0,0:0:0:0:
79,100,278694,6,0,B|52:79|52:79|54:37,1,69.9999976158143,2|0,3:0|0:0,0:0:0:0:
246,171,278908,1,2,0:3:0:0:
237,182,279015,2,0,L|193:326,1,139.999995231629,2|0,3:0|0:0,0:0:0:0:
134,363,279337,1,8,0:3:0:0:
295,301,279551,1,2,0:3:0:0:
305,299,279658,1,2,0:3:0:0:
315,297,279765,1,2,3:0:0:0:
300,53,279980,2,0,L|331:190,1,139.999995231629,8|2,0:3|0:3,0:0:0:0:
424,11,280408,6,0,B|395:32|395:32|399:93,1,69.9999976158143,2|2,3:0|0:3,0:0:0:0:
474,125,280622,1,2,0:3:0:0:
481,131,280730,2,0,B|507:155|507:155|501:209,1,69.9999976158143,2|2,3:0|0:3,0:0:0:0:
439,264,280944,1,2,0:3:0:0:
429,277,281051,2,0,B|414:296|414:296|295:319,1,139.999995231629,8|2,0:3|0:3,0:0:0:0:
192,384,281480,2,0,L|220:313,1,69.9999976158143,2|2,3:0|0:3,0:0:0:0:
104,159,281694,2,0,B|99:182|99:182|145:296,1,139.999995231629,8|0,0:3|0:0,0:0:0:0:
243,161,282122,6,0,B|297:110|297:110|236:66,1,139.999995231629,4|2,3:0|0:3,0:0:0:0:
192,8,282444,2,0,B|144:30|144:30|178:124,1,139.999995231629,2|0,3:0|0:0,0:0:0:0:
247,64,282765,1,8,0:3:0:0:
63,46,282980,2,0,L|16:18,4,34.9999988079071,2|0|2|0|2,0:3|0:0|0:3|0:0|3:0,0:0:0:0:
18,126,283408,6,0,B|-1:157|-1:157|66:326,1,209.999992847443,8|0,0:3|0:0,0:0:0:0:
149,303,283837,2,0,L|123:402,1,69.9999976158143,2|2,3:0|0:3,0:0:0:0:
220,225,284051,1,2,0:3:0:0:
214,238,284158,2,0,L|267:383,1,139.999995231629,2|2,3:0|0:3,0:0:0:0:
306,259,284480,1,8,0:3:0:0:
428,368,284694,1,2,0:3:0:0:
434,352,284801,1,2,0:3:0:0:
441,335,284908,2,0,L|470:259,1,69.9999976158143,2|2,3:0|0:3,0:0:0:0:
465,97,285122,2,0,B|370:141|370:141|391:244,1,209.999992847443,8|0,0:3|0:0,0:0:0:0:
512,188,285551,6,0,B|490:195|490:195|376:149,1,139.999995231629,2|2,3:0|0:3,0:0:0:0:
323,82,285872,2,0,B|312:40|312:40|351:6,2,69.9999976158143,2|2|0,3:0|0:3|0:0,0:0:0:0:
251,227,286194,2,0,B|288:160|288:160|204:82,1,139.999995231629,8|2,0:3|0:3,0:0:0:0:
171,73,286515,1,2,3:0:0:0:
153,68,286622,2,0,L|174:1,1,69.9999976158143,2|2,3:0|0:3,0:0:0:0:
11,14,286837,2,0,B|53:43|53:43|99:208,1,209.999992847443,8|0,0:3|0:0,0:0:0:0:
39,283,287265,6,0,B|3:274|3:274|-13:234,2,69.9999976158143,2|2|2,3:0|0:3|0:3,0:0:0:0:
113,335,287587,2,0,B|93:369|93:369|51:377,2,69.9999976158143,2|2|2,3:0|0:3|0:3,0:0:0:0:
196,303,287908,1,8,3:3:0:0:
216,310,288015,1,2,0:3:0:0:
238,317,288122,1,2,0:3:0:0:
291,376,288230,5,2,3:0:0:0:
316,366,288337,1,2,0:3:0:0:
334,357,288444,1,2,0:3:0:0:
424,367,288551,5,8,0:3:0:0:
457,302,288658,1,8,0:3:0:0:
426,250,288765,1,2,0:3:0:0:
433,227,288872,1,2,3:0:0:0:
504,180,288980,6,0,B|485:112|485:112|364:101,1,139.999995231629,4|2,3:0|0:3,0:0:0:0:
348,146,289301,2,0,B|311:209|311:209|232:210,1,139.999995231629,2|0,3:0|0:0,0:0:0:0:
259,116,289622,1,8,0:3:0:0:
184,267,289837,2,0,L|163:216,3,34.9999988079071,2|0|2|0,0:3|0:0|0:3|0:0,0:0:0:0:
162,211,290051,1,2,3:0:0:0:
266,373,290265,2,0,B|248:364|248:364|51:330,1,209.999992847443,8|0,0:3|0:0,0:0:0:0:
6,274,290694,6,0,B|-20:246|-20:246|-17:204,1,69.9999976158143,2|2,3:0|0:3,0:0:0:0:
115,124,290908,1,2,0:3:0:0:
126,136,291015,2,0,B|128:176|128:176|95:204,1,69.9999976158143,2|2,3:0|0:3,0:0:0:0:
0,59,291230,1,2,0:3:0:0:
6,72,291337,2,0,B|29:55|29:55|171:26,1,139.999995231629,8|2,0:3|0:3,0:0:0:0:
265,2,291658,1,2,0:3:0:0:
261,18,291765,2,0,B|237:47|237:47|239:92,1,69.9999976158143,2|2,3:0|0:3,0:0:0:0:
375,223,291980,2,0,L|333:88,1,139.999995231629,8|0,0:3|0:0,0:0:0:0:
229,230,292408,6,0,B|173:277|173:277|231:326,1,139.999995231629,2|2,3:0|0:3,0:0:0:0:
289,380,292730,2,0,B|341:334|341:334|300:277,1,139.999995231629,2|0,3:0|0:0,0:0:0:0:
237,317,293051,1,8,0:3:0:0:
442,375,293265,1,2,0:3:0:0:
449,363,293372,1,2,0:3:0:0:
458,347,293480,2,0,B|434:319|434:319|433:269,1,69.9999976158143,2|0,3:0|0:0,0:0:0:0:
499,134,293694,2,0,B|472:169|472:169|361:137,1,139.999995231629,8|2,0:3|0:3,0:0:0:0:
250,45,294122,6,0,B|272:18|272:18|325:15,1,69.9999976158143,2|2,3:0|0:3,0:0:0:0:
204,157,294337,1,2,0:3:0:0:
214,168,294444,2,0,B|250:177|250:177|287:154,1,69.9999976158143,2|2,3:0|0:3,0:0:0:0:
118,67,294658,1,2,0:3:0:0:
109,77,294765,2,0,B|95:89|95:89|78:219,1,139.999995231629,8|2,0:3|0:3,0:0:0:0:
14,263,295087,1,2,0:3:0:0:
10,278,295194,2,0,B|26:313|26:313|80:320,1,69.9999976158143,2|2,3:0|0:3,0:0:0:0:
262,332,295408,2,0,B|197:321|197:321|145:373,1,139.999995231629,8|0,0:3|0:0,0:0:0:0:
340,378,295837,6,0,B|374:308|374:308|321:256,1,139.999995231629,4|2,3:0|0:3,0:0:0:0:
281,207,296158,2,0,B|227:256|227:256|251:318,1,139.999995231629,2|0,3:0|0:0,0:0:0:0:
343,266,296480,1,8,0:3:0:0:
196,172,296694,2,0,L|160:159,3,34.9999988079071,2|0|2|0,0:3|0:0|0:3|0:0,0:0:0:0:
142,153,296908,1,2,3:0:0:0:
402,16,297122,6,0,B|343:57|343:57|285:45|285:45|221:91,1,209.999992847443,8|0,0:3|0:0,0:0:0:0:
340,138,297551,2,0,B|364:162|364:162|416:157,1,69.9999976158143,2|2,3:0|0:3,0:0:0:0:
512,108,297765,1,2,0:3:0:0:
499,115,297872,2,0,L|456:269,1,139.999995231629,2|2,3:0|0:3,0:0:0:0:
500,374,298194,1,8,0:3:0:0:
352,265,298408,1,2,0:3:0:0:
358,278,298515,1,2,0:3:0:0:
365,293,298622,2,0,L|344:363,1,69.9999976158143,2|2,3:0|0:3,0:0:0:0:
230,273,298837,2,0,B|181:222|181:222|204:152,1,139.999995231629,8|0,0:3|0:0,0:0:0:0:
436,105,299265,6,0,L|512:128,1,69.9999976158143,2|0,3:0|0:0,0:0:0:0:
406,31,299479,1,8,0:3:0:0:
396,33,299586,1,8,0:3:0:0:
386,36,299693,1,2,3:0:0:0:
278,136,299908,6,0,L|303:207,1,69.9999976158143,2|0,3:0|0:0,0:0:0:0:
309,1,300122,1,8,0:3:0:0:
299,1,300229,1,8,0:3:0:0:
289,0,300336,1,2,3:0:0:0:
168,223,300550,6,0,L|118:273,1,69.9999976158143,2|0,3:0|0:0,0:0:0:0:
210,30,300765,1,8,0:3:0:0:
200,33,300872,1,8,0:3:0:0:
190,36,300979,1,2,3:0:0:0:
82,19,301194,5,2,0:3:0:0:
70,31,301301,2,0,L|97:101,1,69.9999976158143,2|2,3:0|0:3,0:0:0:0:
256,112,301515,5,2,0:3:0:0:
268,121,301622,2,0,L|244:191,1,69.9999976158143,2|2,3:0|0:3,0:0:0:0:
420,20,301837,5,2,0:3:0:0:
410,29,301944,2,0,L|432:110,2,69.9999976158143,2|2|2,0:3|3:0|0:3,0:0:0:0:
493,176,302265,1,8,0:3:0:0:
430,225,302372,1,8,0:3:0:0:
441,288,302480,1,2,0:3:0:0:
424,307,302587,1,2,3:0:0:0:
322,307,302694,6,0,B|342:353|414:389|515:362|566:245|510:114|427:79|309:90|242:210|250:256|263:256|275:257|205:325|63:299|22:131|123:45|244:45|274:117,1,893.19999683609,4|0,3:0|0:0,0:0:0:0:
356,89,309551,6,0,B|356:-14|508:-57|635:84|483:250|411:182|416:167|422:149|355:138|304:165|293:296|400:322|445:267,1,587.999962028505,2|0,0:0|0:0,0:0:0:0:
187,255,312980,6,0,B|245:282|246:324|229:368|229:368|272:315|332:230|198:148|117:116|41:173|12:306|130:333,1,629.999959316255
390,239,316408,6,0,B|314:295|363:394|468:410|524:429|577:275|557:195|490:202|478:208|464:220|395:174|336:139|249:-33|411:-43|512:-67|622:-22|628:167|541:230|528:106|354:246|247:186|178:68|167:11|167:11|194:77|266:79,1,1259.99991863251
83,200,323265,6,0,B|90:167|77:122|45:110|45:110|121:113|141:182|141:257|124:251|105:247|117:297|103:376|229:427|295:359|307:247|205:207,1,629.999959316255
286,131,326694,6,0,B|286:75|338:35|410:48|450:103|450:103|387:91|318:190|333:271|367:306|367:306|361:208|439:176,1,629.999959316255
256,192,330122,12,0,335265,0:0:0:0:
